  0
SECTION
  2
HEADER
  9
$ACADVER
  1
AC1021
  9
$ACADMAINTVER
 70
    53
  9
$DWGCODEPAGE
  3
ANSI_1250
  9
$LASTSAVEDBY
  1
Darek
  9
$INSBASE
 10
0.0
 20
0.0
 30
0.0
  9
$EXTMIN
 10
-1581.865535597922
 20
-99.46025893487922
 30
0.0
  9
$EXTMAX
 10
3425.699124655955
 20
2786.061825830901
 30
5.0
  9
$LIMMIN
 10
0.0
 20
0.0
  9
$LIMMAX
 10
420.0
 20
297.0
  9
$ORTHOMODE
 70
     0
  9
$REGENMODE
 70
     1
  9
$FILLMODE
 70
     1
  9
$QTEXTMODE
 70
     0
  9
$MIRRTEXT
 70
     0
  9
$LTSCALE
 40
1.0
  9
$ATTMODE
 70
     1
  9
$TEXTSIZE
 40
2.5
  9
$TRACEWID
 40
1.0
  9
$TEXTSTYLE
  7
Standard
  9
$CLAYER
  8
wymiary
  9
$CELTYPE
  6
ByLayer
  9
$CECOLOR
 62
   256
  9
$CELTSCALE
 40
1.0
  9
$DISPSILH
 70
     0
  9
$DIMSCALE
 40
1.0
  9
$DIMASZ
 40
35.0
  9
$DIMEXO
 40
8.0
  9
$DIMDLI
 40
3.75
  9
$DIMRND
 40
0.0
  9
$DIMDLE
 40
0.0
  9
$DIMEXE
 40
8.0
  9
$DIMTP
 40
0.0
  9
$DIMTM
 40
0.0
  9
$DIMTXT
 40
35.0
  9
$DIMCEN
 40
2.5
  9
$DIMTSZ
 40
0.0
  9
$DIMTOL
 70
     0
  9
$DIMLIM
 70
     0
  9
$DIMTIH
 70
     0
  9
$DIMTOH
 70
     0
  9
$DIMSE1
 70
     0
  9
$DIMSE2
 70
     0
  9
$DIMTAD
 70
     1
  9
$DIMZIN
 70
     8
  9
$DIMBLK
  1

  9
$DIMASO
 70
     1
  9
$DIMSHO
 70
     1
  9
$DIMPOST
  1

  9
$DIMAPOST
  1

  9
$DIMALT
 70
     0
  9
$DIMALTD
 70
     3
  9
$DIMALTF
 40
0.03937007874016
  9
$DIMLFAC
 40
1.0
  9
$DIMTOFL
 70
     1
  9
$DIMTVP
 40
0.0
  9
$DIMTIX
 70
     0
  9
$DIMSOXD
 70
     0
  9
$DIMSAH
 70
     0
  9
$DIMBLK1
  1

  9
$DIMBLK2
  1

  9
$DIMSTYLE
  2
Kopia ISO-25
  9
$DIMCLRD
 70
     0
  9
$DIMCLRE
 70
     0
  9
$DIMCLRT
 70
     0
  9
$DIMTFAC
 40
1.0
  9
$DIMGAP
 40
10.0
  9
$DIMJUST
 70
     0
  9
$DIMSD1
 70
     0
  9
$DIMSD2
 70
     0
  9
$DIMTOLJ
 70
     0
  9
$DIMTZIN
 70
     8
  9
$DIMALTZ
 70
     0
  9
$DIMALTTZ
 70
     0
  9
$DIMUPT
 70
     0
  9
$DIMDEC
 70
     0
  9
$DIMTDEC
 70
     0
  9
$DIMALTU
 70
     2
  9
$DIMALTTD
 70
     3
  9
$DIMTXSTY
  7
Standard
  9
$DIMAUNIT
 70
     0
  9
$DIMADEC
 70
     0
  9
$DIMALTRND
 40
0.0
  9
$DIMAZIN
 70
     0
  9
$DIMDSEP
 70
    44
  9
$DIMATFIT
 70
     3
  9
$DIMFRAC
 70
     0
  9
$DIMLDRBLK
  1

  9
$DIMLUNIT
 70
     2
  9
$DIMLWD
 70
    -2
  9
$DIMLWE
 70
    -1
  9
$DIMTMOVE
 70
     0
  9
$DIMFXL
 40
1.0
  9
$DIMFXLON
 70
     0
  9
$DIMJOGANG
 40
0.7853981633974483
  9
$DIMTFILL
 70
     0
  9
$DIMTFILLCLR
 70
     0
  9
$DIMARCSYM
 70
     0
  9
$DIMLTYPE
  6

  9
$DIMLTEX1
  6

  9
$DIMLTEX2
  6

  9
$LUNITS
 70
     2
  9
$LUPREC
 70
     4
  9
$SKETCHINC
 40
1.0
  9
$FILLETRAD
 40
0.0
  9
$AUNITS
 70
     0
  9
$AUPREC
 70
     0
  9
$MENU
  1
.
  9
$ELEVATION
 40
0.0
  9
$PELEVATION
 40
0.0
  9
$THICKNESS
 40
0.0
  9
$LIMCHECK
 70
     0
  9
$CHAMFERA
 40
0.0
  9
$CHAMFERB
 40
0.0
  9
$CHAMFERC
 40
0.0
  9
$CHAMFERD
 40
0.0
  9
$SKPOLY
 70
     0
  9
$TDCREATE
 40
2453959.416956308
  9
$TDUCREATE
 40
2453959.375289641
  9
$TDUPDATE
 40
2458897.579958495
  9
$TDUUPDATE
 40
2458897.538291829
  9
$TDINDWG
 40
0.2210904282
  9
$TDUSRTIMER
 40
0.2210889699
  9
$USRTIMER
 70
     1
  9
$ANGBASE
 50
0.0
  9
$ANGDIR
 70
     0
  9
$PDMODE
 70
     0
  9
$PDSIZE
 40
0.0
  9
$PLINEWID
 40
0.0
  9
$SPLFRAME
 70
     0
  9
$SPLINETYPE
 70
     6
  9
$SPLINESEGS
 70
     8
  9
$HANDSEED
  5
11AA
  9
$SURFTAB1
 70
     6
  9
$SURFTAB2
 70
     6
  9
$SURFTYPE
 70
     6
  9
$SURFU
 70
     6
  9
$SURFV
 70
     6
  9
$UCSBASE
  2

  9
$UCSNAME
  2

  9
$UCSORG
 10
0.0
 20
0.0
 30
0.0
  9
$UCSXDIR
 10
1.0
 20
0.0
 30
0.0
  9
$UCSYDIR
 10
0.0
 20
1.0
 30
0.0
  9
$UCSORTHOREF
  2

  9
$UCSORTHOVIEW
 70
     0
  9
$UCSORGTOP
 10
0.0
 20
0.0
 30
0.0
  9
$UCSORGBOTTOM
 10
0.0
 20
0.0
 30
0.0
  9
$UCSORGLEFT
 10
0.0
 20
0.0
 30
0.0
  9
$UCSORGRIGHT
 10
0.0
 20
0.0
 30
0.0
  9
$UCSORGFRONT
 10
0.0
 20
0.0
 30
0.0
  9
$UCSORGBACK
 10
0.0
 20
0.0
 30
0.0
  9
$PUCSBASE
  2

  9
$PUCSNAME
  2

  9
$PUCSORG
 10
0.0
 20
0.0
 30
0.0
  9
$PUCSXDIR
 10
1.0
 20
0.0
 30
0.0
  9
$PUCSYDIR
 10
0.0
 20
1.0
 30
0.0
  9
$PUCSORTHOREF
  2

  9
$PUCSORTHOVIEW
 70
     0
  9
$PUCSORGTOP
 10
0.0
 20
0.0
 30
0.0
  9
$PUCSORGBOTTOM
 10
0.0
 20
0.0
 30
0.0
  9
$PUCSORGLEFT
 10
0.0
 20
0.0
 30
0.0
  9
$PUCSORGRIGHT
 10
0.0
 20
0.0
 30
0.0
  9
$PUCSORGFRONT
 10
0.0
 20
0.0
 30
0.0
  9
$PUCSORGBACK
 10
0.0
 20
0.0
 30
0.0
  9
$USERI1
 70
     0
  9
$USERI2
 70
     0
  9
$USERI3
 70
     0
  9
$USERI4
 70
     0
  9
$USERI5
 70
     0
  9
$USERR1
 40
0.0
  9
$USERR2
 40
0.0
  9
$USERR3
 40
0.0
  9
$USERR4
 40
0.0
  9
$USERR5
 40
0.0
  9
$WORLDVIEW
 70
     1
  9
$SHADEDGE
 70
     3
  9
$SHADEDIF
 70
    70
  9
$TILEMODE
 70
     1
  9
$MAXACTVP
 70
    64
  9
$PINSBASE
 10
0.0
 20
0.0
 30
0.0
  9
$PLIMCHECK
 70
     0
  9
$PEXTMIN
 10
0.0
 20
0.0
 30
0.0
  9
$PEXTMAX
 10
0.0
 20
0.0
 30
0.0
  9
$PLIMMIN
 10
0.0
 20
0.0
  9
$PLIMMAX
 10
12.0
 20
9.0
  9
$UNITMODE
 70
     0
  9
$VISRETAIN
 70
     1
  9
$PLINEGEN
 70
     0
  9
$PSLTSCALE
 70
     1
  9
$TREEDEPTH
 70
  3020
  9
$CMLSTYLE
  2
Standard
  9
$CMLJUST
 70
     0
  9
$CMLSCALE
 40
20.0
  9
$PROXYGRAPHICS
 70
     1
  9
$MEASUREMENT
 70
     1
  9
$CELWEIGHT
370
    -1
  9
$ENDCAPS
280
     0
  9
$JOINSTYLE
280
     0
  9
$LWDISPLAY
290
     0
  9
$INSUNITS
 70
     4
  9
$HYPERLINKBASE
  1

  9
$STYLESHEET
  1

  9
$XEDIT
290
     1
  9
$CEPSNTYPE
380
     0
  9
$PSTYLEMODE
290
     1
  9
$FINGERPRINTGUID
  2
{FDEAD578-A652-11D2-9A35-0060089B3A3F}
  9
$VERSIONGUID
  2
{74B694A9-7538-499B-A403-3EA13D5F2FF5}
  9
$EXTNAMES
290
     1
  9
$PSVPSCALE
 40
0.0
  9
$OLESTARTUP
290
     0
  9
$SORTENTS
280
   127
  9
$INDEXCTL
280
     0
  9
$HIDETEXT
280
     1
  9
$XCLIPFRAME
290
     0
  9
$HALOGAP
280
     0
  9
$OBSCOLOR
 70
   257
  9
$OBSLTYPE
280
     0
  9
$INTERSECTIONDISPLAY
280
     0
  9
$INTERSECTIONCOLOR
 70
   257
  9
$DIMASSOC
280
     2
  9
$PROJECTNAME
  1

  9
$CAMERADISPLAY
290
     0
  9
$LENSLENGTH
 40
50.0
  9
$CAMERAHEIGHT
 40
0.0
  9
$STEPSPERSEC
 40
2.0
  9
$STEPSIZE
 40
6.0
  9
$3DDWFPREC
 40
2.0
  9
$PSOLWIDTH
 40
0.25
  9
$PSOLHEIGHT
 40
4.0
  9
$LOFTANG1
 40
1.570796326794896
  9
$LOFTANG2
 40
1.570796326794896
  9
$LOFTMAG1
 40
0.0
  9
$LOFTMAG2
 40
0.0
  9
$LOFTPARAM
 70
     7
  9
$LOFTNORMALS
280
     1
  9
$LATITUDE
 40
37.795
  9
$LONGITUDE
 40
-122.394
  9
$NORTHDIRECTION
 40
0.0
  9
$TIMEZONE
 70
 -8000
  9
$LIGHTGLYPHDISPLAY
280
     1
  9
$TILEMODELIGHTSYNCH
280
     1
  9
$CMATERIAL
347
9B0
  9
$SOLIDHIST
280
     1
  9
$SHOWHIST
280
     1
  9
$DWFFRAME
280
     2
  9
$DGNFRAME
280
     0
  9
$REALWORLDSCALE
290
     1
  9
$INTERFERECOLOR
 62
     1
  9
$INTERFEREOBJVS
345
9D2
  9
$INTERFEREVPVS
346
9CF
  9
$CSHADOW
280
     0
  9
$SHADOWPLANELOCATION
 40
0.0
  0
ENDSEC
  0
SECTION
  2
CLASSES
  0
CLASS
  1
ACDBDICTIONARYWDFLT
  2
AcDbDictionaryWithDefault
  3
ObjectDBX Classes
 90
        0
 91
        1
280
     0
281
     0
  0
CLASS
  1
DICTIONARYVAR
  2
AcDbDictionaryVar
  3
ObjectDBX Classes
 90
        0
 91
       10
280
     0
281
     0
  0
CLASS
  1
DIMASSOC
  2
AcDbDimAssoc
  3
"AcDbDimAssoc|Product Desc:     AcDim ARX App For Dimension|Company:          Autodesk, Inc.|WEB Address:      www.autodesk.com"
 90
        0
 91
       12
280
     0
281
     0
  0
CLASS
  1
MATERIAL
  2
AcDbMaterial
  3
ObjectDBX Classes
 90
     1153
 91
        3
280
     0
281
     0
  0
CLASS
  1
VISUALSTYLE
  2
AcDbVisualStyle
  3
ObjectDBX Classes
 90
     4095
 91
       16
280
     0
281
     0
  0
CLASS
  1
TABLESTYLE
  2
AcDbTableStyle
  3
ObjectDBX Classes
 90
     4095
 91
        1
280
     0
281
     0
  0
CLASS
  1
SCALE
  2
AcDbScale
  3
ObjectDBX Classes
 90
     1153
 91
       17
280
     0
281
     0
  0
CLASS
  1
MLEADERSTYLE
  2
AcDbMLeaderStyle
  3
ACDB_MLEADERSTYLE_CLASS
 90
     4095
 91
        1
280
     0
281
     0
  0
CLASS
  1
AEC_REFEDIT_STATUS_TRACKER
  2
AecDbRefEditStatusTracker
  3
AecArchBase50|Product Desc: Autodesk Architectural Desktop 2007 |Company: Autodesk,Inc. |WEB Address: www.autodesk.com
 90
      129
 91
        1
280
     0
281
     0
  0
CLASS
  1
NPOCOLLECTION
  2
AcDbImpNonPersistentObjectsCollection
  3
ObjectDBX Classes
 90
     1153
 91
        1
280
     0
281
     0
  0
CLASS
  1
ACAD_EVALUATION_GRAPH
  2
AcDbEvalGraph
  3
ObjectDBX Classes
 90
     1153
 91
       14
280
     0
281
     0
  0
CLASS
  1
ACAECUSTOBJ
  2
AcAeEditorObj
  3
AcAeEditorObj
 90
     1024
 91
       12
280
     0
281
     0
  0
CLASS
  1
ACDB_DYNAMICBLOCKPURGEPREVENTER_VERSION
  2
AcDbDynamicBlockPurgePreventer
  3
ObjectDBX Classes
 90
     1153
 91
       12
280
     0
281
     0
  0
CLASS
  1
CELLSTYLEMAP
  2
AcDbCellStyleMap
  3
ObjectDBX Classes
 90
     1152
 91
        3
280
     0
281
     0
  0
CLASS
  1
ACDB_BLOCKREPRESENTATION_DATA
  2
AcDbBlockRepresentationData
  3
ObjectDBX Classes
 90
     1153
 91
        3
280
     0
281
     0
  0
ENDSEC
  0
SECTION
  2
TABLES
  0
TABLE
  2
VPORT
  5
8
330
0
100
AcDbSymbolTable
 70
     1
  0
VPORT
  5
9A1
330
8
100
AcDbSymbolTableRecord
100
AcDbViewportTableRecord
  2
*Active
 70
     0
 10
0.0
 20
0.0
 11
1.0
 21
1.0
 12
1517.355688028139
 22
101.899662936883
 13
0.0
 23
0.0
 14
10.0
 24
10.0
 15
10.0
 25
10.0
 16
0.0
 26
0.0
 36
1.0
 17
1247.39999965195
 27
1309.420198538208
 37
127.4800310079377
 40
4375.815904124307
 41
2.005082592121982
 42
50.0
 43
0.0
 44
0.0
 50
0.0
 51
0.0
 71
     0
 72
  1000
 73
     1
 74
     3
 75
     0
 76
     0
 77
     0
 78
     0
281
     0
 65
     1
110
0.0
120
0.0
130
0.0
111
1.0
121
0.0
131
0.0
112
0.0
122
1.0
132
0.0
 79
     0
146
0.0
348
9CE
 60
     3
 61
     5
292
     1
282
     1
141
0.0
142
0.0
 63
   250
421
  3355443
  0
ENDTAB
  0
TABLE
  2
LTYPE
  5
5
330
0
100
AcDbSymbolTable
 70
     2
  0
LTYPE
  5
14
330
5
100
AcDbSymbolTableRecord
100
AcDbLinetypeTableRecord
  2
ByBlock
 70
     0
  3

 72
    65
 73
     0
 40
0.0
  0
LTYPE
  5
15
330
5
100
AcDbSymbolTableRecord
100
AcDbLinetypeTableRecord
  2
ByLayer
 70
     0
  3

 72
    65
 73
     0
 40
0.0
  0
LTYPE
  5
16
330
5
100
AcDbSymbolTableRecord
100
AcDbLinetypeTableRecord
  2
Continuous
 70
     0
  3
Solid line
 72
    65
 73
     0
 40
0.0
  0
ENDTAB
  0
TABLE
  2
LAYER
  5
2
330
0
100
AcDbSymbolTable
 70
     7
  0
LAYER
  5
10
102
{ACAD_XDICTIONARY
360
EFE
102
}
330
2
100
AcDbSymbolTableRecord
100
AcDbLayerTableRecord
  2
0
 70
     0
 62
     7
  6
Continuous
370
    -3
390
F
347
9C0
  0
LAYER
  5
503
102
{ACAD_XDICTIONARY
360
F00
102
}
330
2
100
AcDbSymbolTableRecord
100
AcDbLayerTableRecord
  2
wymiary
 70
     0
 62
     1
  6
Continuous
370
    -3
390
F
347
9C0
  0
LAYER
  5
504
102
{ACAD_XDICTIONARY
360
F02
102
}
330
2
100
AcDbSymbolTableRecord
100
AcDbLayerTableRecord
  2
Cenrala
 70
     0
 62
     7
  6
Continuous
370
    -3
390
F
347
9C0
  0
LAYER
  5
630
330
2
100
AcDbSymbolTableRecord
100
AcDbLayerTableRecord
  2
Defpoints
 70
     0
 62
     7
  6
Continuous
290
     0
370
    -3
390
F
347
9C0
  0
LAYER
  5
CF8
102
{ACAD_XDICTIONARY
360
F04
102
}
330
2
100
AcDbSymbolTableRecord
100
AcDbLayerTableRecord
  2
KONTURY
 70
     0
 62
     1
  6
Continuous
370
    -3
390
F
347
9C0
  0
LAYER
  5
CF9
102
{ACAD_XDICTIONARY
360
F06
102
}
330
2
100
AcDbSymbolTableRecord
100
AcDbLayerTableRecord
  2
CENTRALA
 70
     0
 62
     7
  6
Continuous
370
    -3
390
F
347
9C0
  0
LAYER
  5
CFA
102
{ACAD_XDICTIONARY
360
F08
102
}
330
2
100
AcDbSymbolTableRecord
100
AcDbLayerTableRecord
  2
PRZOD
 70
     0
 62
     7
  6
Continuous
370
    -3
390
F
347
9C0
  0
ENDTAB
  0
TABLE
  2
STYLE
  5
3
330
0
100
AcDbSymbolTable
 70
     1
  0
STYLE
  5
11
330
3
100
AcDbSymbolTableRecord
100
AcDbTextStyleTableRecord
  2
Standard
 70
     0
 40
0.0
 41
1.0
 50
0.0
 71
     0
 42
2.5
  3
txt
  4

  0
ENDTAB
  0
TABLE
  2
VIEW
  5
6
330
0
100
AcDbSymbolTable
 70
     0
  0
ENDTAB
  0
TABLE
  2
UCS
  5
7
330
0
100
AcDbSymbolTable
 70
     0
  0
ENDTAB
  0
TABLE
  2
APPID
  5
9
330
0
100
AcDbSymbolTable
 70
    10
  0
APPID
  5
12
330
9
100
AcDbSymbolTableRecord
100
AcDbRegAppTableRecord
  2
ACAD
 70
     0
  0
APPID
  5
9EF
330
9
100
AcDbSymbolTableRecord
100
AcDbRegAppTableRecord
  2
ACAD_MLEADERVER
 70
     0
  0
APPID
  5
CFB
330
9
100
AcDbSymbolTableRecord
100
AcDbRegAppTableRecord
  2
ACDBBLOCKREPETAG
 70
     0
  0
APPID
  5
D5A
330
9
100
AcDbSymbolTableRecord
100
AcDbRegAppTableRecord
  2
ACAUTHENVIRON
 70
     0
  0
APPID
  5
DA5
330
9
100
AcDbSymbolTableRecord
100
AcDbRegAppTableRecord
  2
AcDbDynamicBlockTrueName
 70
     0
  0
APPID
  5
DA6
330
9
100
AcDbSymbolTableRecord
100
AcDbRegAppTableRecord
  2
AcDbDynamicBlockGUID
 70
     0
  0
APPID
  5
DF0
330
9
100
AcDbSymbolTableRecord
100
AcDbRegAppTableRecord
  2
ACAD_EXEMPT_FROM_CAD_STANDARDS
 70
     0
  0
APPID
  5
F5C
330
9
100
AcDbSymbolTableRecord
100
AcDbRegAppTableRecord
  2
AcDbBlockRepBTag
 70
     0
  0
APPID
  5
F98
330
9
100
AcDbSymbolTableRecord
100
AcDbRegAppTableRecord
  2
ACAD_DSTYLE_DIMJAG
 70
     0
  0
APPID
  5
F99
330
9
100
AcDbSymbolTableRecord
100
AcDbRegAppTableRecord
  2
ACAD_DSTYLE_DIMTALN
 70
     0
  0
ENDTAB
  0
TABLE
  2
DIMSTYLE
  5
A
330
0
100
AcDbSymbolTable
 70
     3
100
AcDbDimStyleTable
 71
     1
340
505
  0
DIMSTYLE
105
27
330
A
100
AcDbSymbolTableRecord
100
AcDbDimStyleTableRecord
  2
ISO-25
 70
     0
 41
2.5
 42
0.625
 43
3.75
 44
1.25
 73
     0
 74
     0
 77
     1
 78
     8
140
2.5
141
2.5
143
0.03937007874016
147
0.625
171
     3
172
     1
271
     2
272
     2
274
     3
278
    44
283
     0
284
     8
340
11
  0
DIMSTYLE
105
505
102
{ACAD_REACTORS
330
F9A
330
FB2
330
FCA
330
FE2
330
FFA
330
1012
330
1045
330
10C9
330
10E1
330
10F9
330
1111
330
1129
102
}
330
A
100
AcDbSymbolTableRecord
100
AcDbDimStyleTableRecord
  2
Kopia ISO-25
 70
     0
 41
35.0
 42
8.0
 43
3.75
 44
8.0
 73
     0
 74
     0
 77
     1
 78
     8
140
35.0
141
2.5
143
0.03937007874016
147
10.0
171
     3
172
     1
271
     0
272
     0
274
     3
278
    44
283
     0
284
     8
340
11
372
    -1
1001
ACAD_DSTYLE_DIMJAG
1070
   388
1040
1.5
1001
ACAD_DSTYLE_DIMTALN
1070
   392
1070
     0
  0
ENDTAB
  0
TABLE
  2
BLOCK_RECORD
  5
1
330
0
100
AcDbSymbolTable
 70
    76
  0
BLOCK_RECORD
  5
1F
330
1
100
AcDbSymbolTableRecord
100
AcDbBlockTableRecord
  2
*Model_Space
340
22
 70
     0
280
     1
281
     0
  0
BLOCK_RECORD
  5
50
330
1
100
AcDbSymbolTableRecord
100
AcDbBlockTableRecord
  2
*Paper_Space
340
51
 70
     0
280
     1
281
     0
  0
BLOCK_RECORD
  5
55
330
1
100
AcDbSymbolTableRecord
100
AcDbBlockTableRecord
  2
*Paper_Space0
340
56
 70
     0
280
     1
281
     0
  0
BLOCK_RECORD
  5
E2
330
1
100
AcDbSymbolTableRecord
100
AcDbBlockTableRecord
  2
A$C012D247B
340
0
 70
     0
280
     1
281
     0
  0
BLOCK_RECORD
  5
214
330
1
100
AcDbSymbolTableRecord
100
AcDbBlockTableRecord
  2
A$C7187238A
340
0
 70
     0
280
     1
281
     0
  0
BLOCK_RECORD
  5
34A
330
1
100
AcDbSymbolTableRecord
100
AcDbBlockTableRecord
  2
A$C0F214DF5
340
0
 70
     0
280
     1
281
     0
  0
BLOCK_RECORD
  5
4C5
330
1
100
AcDbSymbolTableRecord
100
AcDbBlockTableRecord
  2
A$C2D9F2C49
340
0
 70
     0
280
     1
281
     0
  0
BLOCK_RECORD
  5
532
102
{ACAD_XDICTIONARY
360
EB0
102
}
330
1
100
AcDbSymbolTableRecord
100
AcDbBlockTableRecord
  2
4000_f
340
0
310
2800000020000000200000000100080000000000000400000000000000000000000000000000000000000000000080000080000000808000800000008000800080800000C0C0C000C0DCC000F0CAA6000020400000206000002080000020A0000020C0000020E00000400000004020000040400000406000004080000040A0
310
000040C0000040E00000600000006020000060400000606000006080000060A0000060C0000060E00000800000008020000080400000806000008080000080A0000080C0000080E00000A0000000A0200000A0400000A0600000A0800000A0A00000A0C00000A0E00000C0000000C0200000C0400000C0600000C0800000C0
310
A00000C0C00000C0E00000E0000000E0200000E0400000E0600000E0800000E0A00000E0C00000E0E00040000000400020004000400040006000400080004000A0004000C0004000E00040200000402020004020400040206000402080004020A0004020C0004020E000404000004040200040404000404060004040800040
310
40A0004040C0004040E00040600000406020004060400040606000406080004060A0004060C0004060E00040800000408020004080400040806000408080004080A0004080C0004080E00040A0000040A0200040A0400040A0600040A0800040A0A00040A0C00040A0E00040C0000040C0200040C0400040C0600040C08000
310
40C0A00040C0C00040C0E00040E0000040E0200040E0400040E0600040E0800040E0A00040E0C00040E0E00080000000800020008000400080006000800080008000A0008000C0008000E00080200000802020008020400080206000802080008020A0008020C0008020E00080400000804020008040400080406000804080
310
008040A0008040C0008040E00080600000806020008060400080606000806080008060A0008060C0008060E00080800000808020008080400080806000808080008080A0008080C0008080E00080A0000080A0200080A0400080A0600080A0800080A0A00080A0C00080A0E00080C0000080C0200080C0400080C0600080C0
310
800080C0A00080C0C00080C0E00080E0000080E0200080E0400080E0600080E0800080E0A00080E0C00080E0E000C0000000C0002000C0004000C0006000C0008000C000A000C000C000C000E000C0200000C0202000C0204000C0206000C0208000C020A000C020C000C020E000C0400000C0402000C0404000C0406000C0
310
408000C040A000C040C000C040E000C0600000C0602000C0604000C0606000C0608000C060A000C060C000C060E000C0800000C0802000C0804000C0806000C0808000C080A000C080C000C080E000C0A00000C0A02000C0A04000C0A06000C0A08000C0A0A000C0A0C000C0A0E000C0C00000C0C02000C0C04000C0C06000
310
C0C08000C0C0A000F0FBFF00A4A0A000808080000000FF0000FF000000FFFF00FF000000FF00FF00FFFF0000FFFFFF0000000000000000000000000000000000000000000000000000000000000000000000000000000000000000000000000000000000000000000000000000000000000000000000000000000000000000
310
000000000000000000000000000000000000000000000000000000000000000000000000000000000000000000000000000000000000000000000000000000000000000000000000000000000000000000000000FFFFFFFFFFFFFFFFFFFFFFFFFFFFFFFFFFFFFFFFFFFFFFFFFFFF00000000FFFFFF00000000000000000000
310
0000000000000000000000000000FFFFFF0000FFFFFF00000000000000000000000000000000000000FFFFFFFFFFFFFFFF0000FFFFFF00000000FFFFFFFFFFFFFFFFFFFFFFFFFFFFFFFF00000000FFFFFF0000FFFFFF00000000FF00FF00000000000000000000FF00FF00000000FFFFFF0000FFFFFF00000000FF00000000
310
00000000000000000000FF00000000FFFFFF0000FFFFFF00000000FF0000000000000000000000000000FF00000000FFFFFF0000FFFFFF00000000FF0000000000000000000000000000FF00000000FFFFFF0000FFFFFF00000000FF0000000000000000000000000000FF00000000FFFFFF0000FFFFFF00000000FF000000
310
0000000000000000000000FF00000000FFFFFF0000FFFFFF00000000FF0000000000000000000000000000FF00000000FFFFFF0000FFFFFF00000000FF0000000000FFFFFFFFFF00000000FF00000000FFFFFF0000FFFFFF00FFFFFFFF0000000000FFFFFFFFFF00000000FFFFFFFF00FFFFFF0000FFFFFF00FFFFFFFF0000
310
000000000000000000000000FFFFFFFF00FFFFFF0000FFFFFF00FF00FFFF0000000000000000000000000000FFFF00FF00FFFFFF0000FFFFFF00FF00FFFF0000000000000000000000000000FFFF00FF00FFFFFF0000FFFFFF00FF00FFFF0000000000000000000000000000FFFF00FF00FFFFFF0000FFFFFF00FF00FFFF00
310
00000000000000000000000000FFFF00FF00FFFFFF0000FFFFFF00FF00FFFF00FF00000000000000000000FF00FFFF00FF00FFFFFF0000FFFFFF00FFFFFFFF00FF00000000000000000000FF00FFFFFFFF00FFFFFF0000FFFFFF00FFFFFFFFFFFFFFFFFFFFFFFFFFFFFFFFFFFFFFFFFFFF00FFFFFF00000000FFFFFFFFFFFF
310
FFFFFFFFFFFFFFFFFFFFFFFFFFFFFFFFFFFFFFFF0000000000000000000000000000000000000000000000000000000000000000000000000000000000000000000000000000000000000000000000000000000000000000000000000000000000000000000000000000000000000000000000000000000000000000000000
310
0000000000000000000000000000000000000000000000000000000000000000000000000000000000000000000000000000000000000000
102
{BLKREFS
331
96A
102
}
 70
     4
280
     1
281
     0
1001
AcDbDynamicBlockGUID
1000
{6277F0F2-FC8F-44CF-A7AC-1CDF734BCD8C}
1001
ACDBBLOCKREPETAG
1070
     1
1071
       45
  0
BLOCK_RECORD
  5
555
102
{ACAD_XDICTIONARY
360
EDF
102
}
330
1
100
AcDbSymbolTableRecord
100
AcDbBlockTableRecord
  2
4000_g
340
0
310
2800000020000000200000000100080000000000000400000000000000000000000000000000000000000000000080000080000000808000800000008000800080800000C0C0C000C0DCC000F0CAA6000020400000206000002080000020A0000020C0000020E00000400000004020000040400000406000004080000040A0
310
000040C0000040E00000600000006020000060400000606000006080000060A0000060C0000060E00000800000008020000080400000806000008080000080A0000080C0000080E00000A0000000A0200000A0400000A0600000A0800000A0A00000A0C00000A0E00000C0000000C0200000C0400000C0600000C0800000C0
310
A00000C0C00000C0E00000E0000000E0200000E0400000E0600000E0800000E0A00000E0C00000E0E00040000000400020004000400040006000400080004000A0004000C0004000E00040200000402020004020400040206000402080004020A0004020C0004020E000404000004040200040404000404060004040800040
310
40A0004040C0004040E00040600000406020004060400040606000406080004060A0004060C0004060E00040800000408020004080400040806000408080004080A0004080C0004080E00040A0000040A0200040A0400040A0600040A0800040A0A00040A0C00040A0E00040C0000040C0200040C0400040C0600040C08000
310
40C0A00040C0C00040C0E00040E0000040E0200040E0400040E0600040E0800040E0A00040E0C00040E0E00080000000800020008000400080006000800080008000A0008000C0008000E00080200000802020008020400080206000802080008020A0008020C0008020E00080400000804020008040400080406000804080
310
008040A0008040C0008040E00080600000806020008060400080606000806080008060A0008060C0008060E00080800000808020008080400080806000808080008080A0008080C0008080E00080A0000080A0200080A0400080A0600080A0800080A0A00080A0C00080A0E00080C0000080C0200080C0400080C0600080C0
310
800080C0A00080C0C00080C0E00080E0000080E0200080E0400080E0600080E0800080E0A00080E0C00080E0E000C0000000C0002000C0004000C0006000C0008000C000A000C000C000C000E000C0200000C0202000C0204000C0206000C0208000C020A000C020C000C020E000C0400000C0402000C0404000C0406000C0
310
408000C040A000C040C000C040E000C0600000C0602000C0604000C0606000C0608000C060A000C060C000C060E000C0800000C0802000C0804000C0806000C0808000C080A000C080C000C080E000C0A00000C0A02000C0A04000C0A06000C0A08000C0A0A000C0A0C000C0A0E000C0C00000C0C02000C0C04000C0C06000
310
C0C08000C0C0A000F0FBFF00A4A0A000808080000000FF0000FF000000FFFF00FF000000FF00FF00FFFF0000FFFFFF0000000000000000000000000000000000000000000000000000000000000000000000000000000000000000000000000000000000000000000000000000000000000000000000000000000000000000
310
0000000000000000000000000000000000000000FFFFFFFFFFFFFFFFFFFFFFFFFFFFFFFFFFFFFFFFFFFFFFFFFFFF000000000000FF000000000000000000000000000000000000000000000000FF000000000000FF000000000000000000000000000000000000000000000000FF000000000000FF00000000000000000000
310
0000000000000000000000000000FF00000000FFFFFF000000000000000000000000000000000000000000000000FFFFFF0000FFFFFF000000000000000000000000000000000000000000000000FFFFFF0000FFFFFF000000000000000000000000000000000000000000000000FFFFFF0000FFFFFF000000000000000000
310
000000000000000000000000000000FFFFFF0000FFFFFF000000000000000000000000000000000000000000000000FFFFFF0000FFFFFF000000000000000000000000000000000000000000000000FFFFFF0000FFFFFF000000000000000000000000000000000000000000000000FFFFFF0000FFFFFF0000000000000000
310
00000000000000000000000000000000FFFFFF0000FFFFFF000000000000000000000000000000000000000000000000FFFFFF0000FFFFFF000000000000000000000000000000000000000000000000FFFFFF0000FFFFFF000000000000000000000000000000000000000000000000FFFFFF0000FFFFFF00000000000000
310
0000000000000000000000000000000000FFFFFF0000FFFFFF000000000000000000000000000000000000000000000000FFFFFF0000FFFFFF000000000000000000000000000000000000000000000000FFFFFF0000FFFFFF000000000000000000000000000000000000000000000000FFFFFF0000FFFFFF000000000000
310
000000000000000000000000000000000000FFFFFF0000FFFFFF000000000000000000000000000000000000000000000000FFFFFF0000FFFFFF000000000000000000000000000000000000000000000000FFFFFF00000000FF000000000000000000000000000000000000000000000000FF000000000000FF0000000000
310
00000000000000000000000000000000000000FF000000000000FF000000000000000000000000000000000000000000000000FF000000000000FFFFFFFFFFFFFFFFFFFFFFFFFFFFFFFFFFFFFFFFFFFFFFFFFFFFFF000000000000000000000000000000000000000000000000000000000000000000000000000000000000
310
0000000000000000000000000000000000000000000000000000000000000000000000000000000000000000000000000000000000000000
102
{BLKREFS
331
569
102
}
 70
     4
280
     1
281
     0
1001
AcDbDynamicBlockGUID
1000
{D3AFDD62-0E3A-4618-84F9-FEED95A4BD3E}
1001
ACDBBLOCKREPETAG
1070
     1
1071
       16
  0
BLOCK_RECORD
  5
56A
102
{ACAD_XDICTIONARY
360
F93
102
}
330
1
100
AcDbSymbolTableRecord
100
AcDbBlockTableRecord
  2
4000_l
340
0
310
2800000020000000200000000100080000000000000400000000000000000000000000000000000000000000000080000080000000808000800000008000800080800000C0C0C000C0DCC000F0CAA6000020400000206000002080000020A0000020C0000020E00000400000004020000040400000406000004080000040A0
310
000040C0000040E00000600000006020000060400000606000006080000060A0000060C0000060E00000800000008020000080400000806000008080000080A0000080C0000080E00000A0000000A0200000A0400000A0600000A0800000A0A00000A0C00000A0E00000C0000000C0200000C0400000C0600000C0800000C0
310
A00000C0C00000C0E00000E0000000E0200000E0400000E0600000E0800000E0A00000E0C00000E0E00040000000400020004000400040006000400080004000A0004000C0004000E00040200000402020004020400040206000402080004020A0004020C0004020E000404000004040200040404000404060004040800040
310
40A0004040C0004040E00040600000406020004060400040606000406080004060A0004060C0004060E00040800000408020004080400040806000408080004080A0004080C0004080E00040A0000040A0200040A0400040A0600040A0800040A0A00040A0C00040A0E00040C0000040C0200040C0400040C0600040C08000
310
40C0A00040C0C00040C0E00040E0000040E0200040E0400040E0600040E0800040E0A00040E0C00040E0E00080000000800020008000400080006000800080008000A0008000C0008000E00080200000802020008020400080206000802080008020A0008020C0008020E00080400000804020008040400080406000804080
310
008040A0008040C0008040E00080600000806020008060400080606000806080008060A0008060C0008060E00080800000808020008080400080806000808080008080A0008080C0008080E00080A0000080A0200080A0400080A0600080A0800080A0A00080A0C00080A0E00080C0000080C0200080C0400080C0600080C0
310
800080C0A00080C0C00080C0E00080E0000080E0200080E0400080E0600080E0800080E0A00080E0C00080E0E000C0000000C0002000C0004000C0006000C0008000C000A000C000C000C000E000C0200000C0202000C0204000C0206000C0208000C020A000C020C000C020E000C0400000C0402000C0404000C0406000C0
310
408000C040A000C040C000C040E000C0600000C0602000C0604000C0606000C0608000C060A000C060C000C060E000C0800000C0802000C0804000C0806000C0808000C080A000C080C000C080E000C0A00000C0A02000C0A04000C0A06000C0A08000C0A0A000C0A0C000C0A0E000C0C00000C0C02000C0C04000C0C06000
310
C0C08000C0C0A000F0FBFF00A4A0A000808080000000FF0000FF000000FFFF00FF000000FF00FF00FFFF0000FFFFFF0000000000000000000000000000000000000000000000000000000000000000000000000000000000000000000000000000000000000000000000000000000000000000000000000000000000000000
310
0000000000000000000000000000000000000000000000000000000000000000000000000000000000000000000000000000FFFFFFFFFFFFFFFFFFFFFFFFFFFFFFFFFFFFFFFFFFFFFFFFFFFFFFFFFF000000FF00000000FFFFFFFFFFFFFFFFFFFFFFFFFFFFFFFFFFFFFFFF000000FF000000FF00000000FFFFFFFFFFFFFFFF
310
FFFFFFFFFFFFFFFFFFFFFFFF000000FF000000FF00000000FF000000000000000000000000000000000000FF000000FF000000FF00000000FF000000000000000000000000000000000000FF000000FFFF0000FF00000000FF000000000000000000000000000000000000FF000000FF000000FF00000000FFFFFFFFFFFFFF
310
FFFF00FFFFFFFFFFFFFFFF00FF000000FF000000FF00000000FFFF000000000000FF00FF000000000000FF00FF000000FF000000FF00000000FFFF000000000000FF00FF000000000000FF00FF000000FF000000FF00000000FFFF000000000000FF00FF000000000000FF00FF000000FF000000FF00000000FFFFFFFFFFFF
310
FFFFFF00FFFFFFFFFFFFFFFF00FF000000FF000000FF00000000FFFFFFFFFFFFFFFFFFFFFFFFFFFFFFFFFFFFFFFF000000FFFF0000FF00000000FFFFFFFFFFFFFFFFFFFFFFFFFFFFFFFFFFFFFFFF000000FF000000FF00000000FF0000000000000000FF000000000000000000FF000000FF000000FF00000000FF00000000
310
00000000FF000000000000000000FF000000FFFF0000FF00000000FF0000000000000000FF000000000000000000FF000000FF000000FF00000000FF0000000000000000FF000000000000000000FF000000FF000000FF00000000FF0000000000000000FF000000000000000000FF000000FF000000FF00000000FF000000
310
0000000000FF000000000000000000FF000000FF000000FF00000000FF0000000000000000FF000000000000000000FF000000FF000000FF00000000FF0000000000000000FF000000000000000000FF000000FFFF0000FF00000000FFFFFFFFFFFFFFFFFFFFFFFFFFFFFFFFFFFFFFFF000000FFFF0000FF00000000FFFFFF
310
FFFFFFFFFFFFFFFFFFFFFFFFFFFFFFFFFF000000FF000000FFFFFFFFFFFFFFFFFFFFFFFFFFFFFFFFFFFFFFFFFFFFFFFFFFFFFFFFFF0000000000000000000000000000000000000000000000000000000000000000000000000000000000000000000000000000000000000000000000000000000000000000000000000000
310
0000000000000000000000000000000000000000000000000000000000000000000000000000000000000000000000000000000000000000
102
{BLKREFS
331
984
102
}
 70
     4
280
     1
281
     0
1001
AcDbDynamicBlockGUID
1000
{8D66108B-9710-45EF-AF6B-3AD6F369651F}
1001
ACDBBLOCKREPETAG
1070
     1
1071
       12
  0
BLOCK_RECORD
  5
580
102
{ACAD_XDICTIONARY
360
F22
102
}
330
1
100
AcDbSymbolTableRecord
100
AcDbBlockTableRecord
  2
4000_p
340
0
310
2800000020000000200000000100080000000000000400000000000000000000000000000000000000000000000080000080000000808000800000008000800080800000C0C0C000C0DCC000F0CAA6000020400000206000002080000020A0000020C0000020E00000400000004020000040400000406000004080000040A0
310
000040C0000040E00000600000006020000060400000606000006080000060A0000060C0000060E00000800000008020000080400000806000008080000080A0000080C0000080E00000A0000000A0200000A0400000A0600000A0800000A0A00000A0C00000A0E00000C0000000C0200000C0400000C0600000C0800000C0
310
A00000C0C00000C0E00000E0000000E0200000E0400000E0600000E0800000E0A00000E0C00000E0E00040000000400020004000400040006000400080004000A0004000C0004000E00040200000402020004020400040206000402080004020A0004020C0004020E000404000004040200040404000404060004040800040
310
40A0004040C0004040E00040600000406020004060400040606000406080004060A0004060C0004060E00040800000408020004080400040806000408080004080A0004080C0004080E00040A0000040A0200040A0400040A0600040A0800040A0A00040A0C00040A0E00040C0000040C0200040C0400040C0600040C08000
310
40C0A00040C0C00040C0E00040E0000040E0200040E0400040E0600040E0800040E0A00040E0C00040E0E00080000000800020008000400080006000800080008000A0008000C0008000E00080200000802020008020400080206000802080008020A0008020C0008020E00080400000804020008040400080406000804080
310
008040A0008040C0008040E00080600000806020008060400080606000806080008060A0008060C0008060E00080800000808020008080400080806000808080008080A0008080C0008080E00080A0000080A0200080A0400080A0600080A0800080A0A00080A0C00080A0E00080C0000080C0200080C0400080C0600080C0
310
800080C0A00080C0C00080C0E00080E0000080E0200080E0400080E0600080E0800080E0A00080E0C00080E0E000C0000000C0002000C0004000C0006000C0008000C000A000C000C000C000E000C0200000C0202000C0204000C0206000C0208000C020A000C020C000C020E000C0400000C0402000C0404000C0406000C0
310
408000C040A000C040C000C040E000C0600000C0602000C0604000C0606000C0608000C060A000C060C000C060E000C0800000C0802000C0804000C0806000C0808000C080A000C080C000C080E000C0A00000C0A02000C0A04000C0A06000C0A08000C0A0A000C0A0C000C0A0E000C0C00000C0C02000C0C04000C0C06000
310
C0C08000C0C0A000F0FBFF00A4A0A000808080000000FF0000FF000000FFFF00FF000000FF00FF00FFFF0000FFFFFF0000000000000000000000000000000000000000000000000000000000000000000000000000000000000000000000000000000000000000000000000000000000000000000000000000000000000000
310
000000000000000000000000000000000000000000000000000000000000000000000000000000000000000000000000000000FFFFFFFFFFFFFFFFFFFFFFFFFFFFFFFFFFFFFFFFFFFFFFFFFFFFFFFFFF000000FF000000FFFFFFFFFFFFFFFFFFFFFFFFFFFFFFFFFFFFFFFF000000FFFF000000FF000000FFFFFFFFFFFFFFFF
310
FFFFFFFFFFFFFFFFFFFFFFFF000000FFFF000000FF000000FF000000000000000000000000000000000000FF00000000FF0000FFFF000000FF000000000000000000000000000000000000FF00000000FF000000FF000000FF000000000000000000000000000000000000FF00000000FF000000FF000000FF00FFFFFFFFFF
310
FFFFFF00FFFFFFFFFFFFFFFFFF00000000FF000000FF000000FF00FF000000000000FF00FF000000000000FFFF00000000FF000000FF000000FF00FF000000000000FF00FF000000000000FFFF00000000FF000000FF000000FF00FF000000000000FF00FF000000000000FFFF00000000FF000000FF000000FF00FFFFFFFF
310
FFFFFFFF00FFFFFFFFFFFFFFFFFF00000000FF0000FFFF000000FFFFFFFFFFFFFFFFFFFFFFFFFFFFFFFFFFFFFFFF00000000FF000000FF000000FFFFFFFFFFFFFFFFFFFFFFFFFFFFFFFFFFFFFFFF00000000FF000000FF000000FF000000000000000000FF0000000000000000FF00000000FF0000FFFF000000FF00000000
310
0000000000FF0000000000000000FF00000000FF000000FF000000FF000000000000000000FF0000000000000000FF00000000FF000000FF000000FF000000000000000000FF0000000000000000FF00000000FF000000FF000000FF000000000000000000FF0000000000000000FF00000000FF000000FF000000FF000000
310
000000000000FF0000000000000000FF00000000FF000000FF000000FF000000000000000000FF0000000000000000FF00000000FF0000FFFF000000FF000000000000000000FF0000000000000000FF00000000FF0000FFFF000000FFFFFFFFFFFFFFFFFFFFFFFFFFFFFFFFFFFFFFFF00000000FF000000FF000000FFFFFF
310
FFFFFFFFFFFFFFFFFFFFFFFFFFFFFFFFFF00000000FF000000FFFFFFFFFFFFFFFFFFFFFFFFFFFFFFFFFFFFFFFFFFFFFFFFFFFFFFFFFF00000000000000000000000000000000000000000000000000000000000000000000000000000000000000000000000000000000000000000000000000000000000000000000000000
310
0000000000000000000000000000000000000000000000000000000000000000000000000000000000000000000000000000000000000000
102
{BLKREFS
331
E36
331
E32
331
9A0
102
}
 70
     4
280
     1
281
     0
1001
AcDbDynamicBlockGUID
1000
{CD652E52-AD3C-48A6-B092-DA02521B6AE6}
1001
ACDBBLOCKREPETAG
1070
     1
1071
       20
  0
BLOCK_RECORD
  5
598
330
1
100
AcDbSymbolTableRecord
100
AcDbBlockTableRecord
  2
*D9
340
0
 70
     0
280
     1
281
     0
  0
BLOCK_RECORD
  5
5A2
330
1
100
AcDbSymbolTableRecord
100
AcDbBlockTableRecord
  2
*D10
340
0
 70
     0
280
     1
281
     0
  0
BLOCK_RECORD
  5
5AC
330
1
100
AcDbSymbolTableRecord
100
AcDbBlockTableRecord
  2
*D11
340
0
 70
     0
280
     1
281
     0
  0
BLOCK_RECORD
  5
5B6
330
1
100
AcDbSymbolTableRecord
100
AcDbBlockTableRecord
  2
*D12
340
0
 70
     0
280
     1
281
     0
  0
BLOCK_RECORD
  5
5C0
330
1
100
AcDbSymbolTableRecord
100
AcDbBlockTableRecord
  2
*D13
340
0
 70
     0
280
     1
281
     0
  0
BLOCK_RECORD
  5
5CA
330
1
100
AcDbSymbolTableRecord
100
AcDbBlockTableRecord
  2
*D14
340
0
 70
     0
280
     1
281
     0
  0
BLOCK_RECORD
  5
5D4
330
1
100
AcDbSymbolTableRecord
100
AcDbBlockTableRecord
  2
*D15
340
0
 70
     0
280
     1
281
     0
  0
BLOCK_RECORD
  5
5DE
330
1
100
AcDbSymbolTableRecord
100
AcDbBlockTableRecord
  2
*D16
340
0
 70
     0
280
     1
281
     0
  0
BLOCK_RECORD
  5
5E8
330
1
100
AcDbSymbolTableRecord
100
AcDbBlockTableRecord
  2
*D17
340
0
 70
     0
280
     1
281
     0
  0
BLOCK_RECORD
  5
5F1
330
1
100
AcDbSymbolTableRecord
100
AcDbBlockTableRecord
  2
*D18
340
0
 70
     0
280
     1
281
     0
  0
BLOCK_RECORD
  5
5FA
330
1
100
AcDbSymbolTableRecord
100
AcDbBlockTableRecord
  2
*D19
340
0
 70
     0
280
     1
281
     0
  0
BLOCK_RECORD
  5
603
330
1
100
AcDbSymbolTableRecord
100
AcDbBlockTableRecord
  2
*D20
340
0
 70
     0
280
     1
281
     0
  0
BLOCK_RECORD
  5
60C
330
1
100
AcDbSymbolTableRecord
100
AcDbBlockTableRecord
  2
*D21
340
0
 70
     0
280
     1
281
     0
  0
BLOCK_RECORD
  5
618
330
1
100
AcDbSymbolTableRecord
100
AcDbBlockTableRecord
  2
*D22
340
0
 70
     0
280
     1
281
     0
  0
BLOCK_RECORD
  5
624
330
1
100
AcDbSymbolTableRecord
100
AcDbBlockTableRecord
  2
*D23
340
0
 70
     0
280
     1
281
     0
  0
BLOCK_RECORD
  5
66D
330
1
100
AcDbSymbolTableRecord
100
AcDbBlockTableRecord
  2
*D24
340
0
 70
     0
280
     1
281
     0
  0
BLOCK_RECORD
  5
677
330
1
100
AcDbSymbolTableRecord
100
AcDbBlockTableRecord
  2
*D25
340
0
 70
     0
280
     1
281
     0
  0
BLOCK_RECORD
  5
683
330
1
100
AcDbSymbolTableRecord
100
AcDbBlockTableRecord
  2
*D26
340
0
 70
     0
280
     1
281
     0
  0
BLOCK_RECORD
  5
68F
330
1
100
AcDbSymbolTableRecord
100
AcDbBlockTableRecord
  2
*D27
340
0
 70
     0
280
     1
281
     0
  0
BLOCK_RECORD
  5
69B
330
1
100
AcDbSymbolTableRecord
100
AcDbBlockTableRecord
  2
*D28
340
0
 70
     0
280
     1
281
     0
  0
BLOCK_RECORD
  5
6A4
330
1
100
AcDbSymbolTableRecord
100
AcDbBlockTableRecord
  2
*D29
340
0
 70
     0
280
     1
281
     0
  0
BLOCK_RECORD
  5
6AD
330
1
100
AcDbSymbolTableRecord
100
AcDbBlockTableRecord
  2
*D30
340
0
 70
     0
280
     1
281
     0
  0
BLOCK_RECORD
  5
6B7
330
1
100
AcDbSymbolTableRecord
100
AcDbBlockTableRecord
  2
*D31
340
0
 70
     0
280
     1
281
     0
  0
BLOCK_RECORD
  5
6C1
330
1
100
AcDbSymbolTableRecord
100
AcDbBlockTableRecord
  2
*D32
340
0
 70
     0
280
     1
281
     0
  0
BLOCK_RECORD
  5
6CB
330
1
100
AcDbSymbolTableRecord
100
AcDbBlockTableRecord
  2
*D33
340
0
 70
     0
280
     1
281
     0
  0
BLOCK_RECORD
  5
6D5
330
1
100
AcDbSymbolTableRecord
100
AcDbBlockTableRecord
  2
*D34
340
0
 70
     0
280
     1
281
     0
  0
BLOCK_RECORD
  5
6DE
330
1
100
AcDbSymbolTableRecord
100
AcDbBlockTableRecord
  2
*D35
340
0
 70
     0
280
     1
281
     0
  0
BLOCK_RECORD
  5
6E7
330
1
100
AcDbSymbolTableRecord
100
AcDbBlockTableRecord
  2
*D36
340
0
 70
     0
280
     1
281
     0
  0
BLOCK_RECORD
  5
6F1
330
1
100
AcDbSymbolTableRecord
100
AcDbBlockTableRecord
  2
*D37
340
0
 70
     0
280
     1
281
     0
  0
BLOCK_RECORD
  5
6FB
330
1
100
AcDbSymbolTableRecord
100
AcDbBlockTableRecord
  2
*D38
340
0
 70
     0
280
     1
281
     0
  0
BLOCK_RECORD
  5
78E
330
1
100
AcDbSymbolTableRecord
100
AcDbBlockTableRecord
  2
*D39
340
0
 70
     0
280
     1
281
     0
  0
BLOCK_RECORD
  5
7A6
330
1
100
AcDbSymbolTableRecord
100
AcDbBlockTableRecord
  2
*D40
340
0
 70
     0
280
     1
281
     0
  0
BLOCK_RECORD
  5
7BE
330
1
100
AcDbSymbolTableRecord
100
AcDbBlockTableRecord
  2
*D41
340
0
 70
     0
280
     1
281
     0
  0
BLOCK_RECORD
  5
7D6
330
1
100
AcDbSymbolTableRecord
100
AcDbBlockTableRecord
  2
*D42
340
0
 70
     0
280
     1
281
     0
  0
BLOCK_RECORD
  5
7EE
330
1
100
AcDbSymbolTableRecord
100
AcDbBlockTableRecord
  2
*D43
340
0
 70
     0
280
     1
281
     0
  0
BLOCK_RECORD
  5
806
330
1
100
AcDbSymbolTableRecord
100
AcDbBlockTableRecord
  2
*D44
340
0
 70
     0
280
     1
281
     0
  0
BLOCK_RECORD
  5
9F2
330
1
100
AcDbSymbolTableRecord
100
AcDbBlockTableRecord
  2
GALKA
340
0
102
{BLKREFS
331
D0C
331
D0D
331
D0E
331
D0F
331
D10
331
D11
331
D6E
331
D6F
331
D70
331
D71
331
D72
331
D73
331
D9E
331
D9F
331
DA0
331
DA1
331
DA2
331
DA3
331
EA9
331
EAA
331
EAB
331
EAC
331
EAD
331
EAE
102
}
 70
     0
280
     1
281
     0
  0
BLOCK_RECORD
  5
F5B
102
{ACAD_XDICTIONARY
360
F73
102
}
330
1
100
AcDbSymbolTableRecord
100
AcDbBlockTableRecord
  2
*U62
340
0
 70
     0
280
     1
281
     0
1001
AcDbBlockRepBTag
1070
     1
1005
580
  0
BLOCK_RECORD
  5
F9B
330
1
100
AcDbSymbolTableRecord
100
AcDbBlockTableRecord
  2
*D64
340
0
 70
     0
280
     1
281
     0
  0
BLOCK_RECORD
  5
FB3
330
1
100
AcDbSymbolTableRecord
100
AcDbBlockTableRecord
  2
*D65
340
0
 70
     0
280
     1
281
     0
  0
BLOCK_RECORD
  5
FCB
330
1
100
AcDbSymbolTableRecord
100
AcDbBlockTableRecord
  2
*D66
340
0
 70
     0
280
     1
281
     0
  0
BLOCK_RECORD
  5
FE3
330
1
100
AcDbSymbolTableRecord
100
AcDbBlockTableRecord
  2
*D67
340
0
 70
     0
280
     1
281
     0
  0
BLOCK_RECORD
  5
FFB
330
1
100
AcDbSymbolTableRecord
100
AcDbBlockTableRecord
  2
*D68
340
0
 70
     0
280
     1
281
     0
  0
BLOCK_RECORD
  5
1013
330
1
100
AcDbSymbolTableRecord
100
AcDbBlockTableRecord
  2
*D69
340
0
 70
     0
280
     1
281
     0
  0
BLOCK_RECORD
  5
1046
330
1
100
AcDbSymbolTableRecord
100
AcDbBlockTableRecord
  2
*D70
340
0
 70
     0
280
     1
281
     0
  0
BLOCK_RECORD
  5
10CA
330
1
100
AcDbSymbolTableRecord
100
AcDbBlockTableRecord
  2
*D71
340
0
 70
     0
280
     1
281
     0
  0
BLOCK_RECORD
  5
10E2
330
1
100
AcDbSymbolTableRecord
100
AcDbBlockTableRecord
  2
*D72
340
0
 70
     0
280
     1
281
     0
  0
BLOCK_RECORD
  5
10FA
330
1
100
AcDbSymbolTableRecord
100
AcDbBlockTableRecord
  2
*D73
340
0
 70
     0
280
     1
281
     0
  0
BLOCK_RECORD
  5
1112
330
1
100
AcDbSymbolTableRecord
100
AcDbBlockTableRecord
  2
*D74
340
0
 70
     0
280
     1
281
     0
  0
BLOCK_RECORD
  5
112A
330
1
100
AcDbSymbolTableRecord
100
AcDbBlockTableRecord
  2
*D75
340
0
 70
     0
280
     1
281
     0
  0
ENDTAB
  0
ENDSEC
  0
SECTION
  2
BLOCKS
  0
BLOCK
  5
20
330
1F
100
AcDbEntity
  8
0
100
AcDbBlockBegin
  2
*Model_Space
 70
     0
 10
0.0
 20
0.0
 30
0.0
  3
*Model_Space
  1

  0
ENDBLK
  5
21
330
1F
100
AcDbEntity
  8
0
100
AcDbBlockEnd
  0
BLOCK
  5
52
330
50
100
AcDbEntity
 67
     1
  8
0
100
AcDbBlockBegin
  2
*Paper_Space
 70
     0
 10
0.0
 20
0.0
 30
0.0
  3
*Paper_Space
  1

  0
ENDBLK
  5
53
330
50
100
AcDbEntity
 67
     1
  8
0
100
AcDbBlockEnd
  0
BLOCK
  5
57
330
55
100
AcDbEntity
 67
     1
  8
0
100
AcDbBlockBegin
  2
*Paper_Space0
 70
     0
 10
0.0
 20
0.0
 30
0.0
  3
*Paper_Space0
  1

  0
ENDBLK
  5
58
330
55
100
AcDbEntity
 67
     1
  8
0
100
AcDbBlockEnd
  0
BLOCK
  5
E4
330
E2
100
AcDbEntity
  8
0
100
AcDbBlockBegin
  2
A$C012D247B
 70
     0
 10
0.0
 20
0.0
 30
0.0
  3
A$C012D247B
  1

  0
LWPOLYLINE
  5
E3
330
E2
100
AcDbEntity
  8
0
100
AcDbPolyline
 90
        4
 70
     1
 43
0.0
 10
-0.0000015100049495
 20
166.0000007704744
 10
29.99999848999505
 20
166.0000007704744
 10
29.99999848999505
 20
0.0000007704744576
 10
-0.0000015100049495
 20
0.0000007704744576
  0
ENDBLK
  5
E5
330
E2
100
AcDbEntity
  8
0
100
AcDbBlockEnd
  0
BLOCK
  5
216
330
214
100
AcDbEntity
  8
0
100
AcDbBlockBegin
  2
A$C7187238A
 70
     0
 10
0.0
 20
0.0
 30
0.0
  3
A$C7187238A
  1

  0
LWPOLYLINE
  5
215
330
214
100
AcDbEntity
  8
0
100
AcDbPolyline
 90
        4
 70
     1
 43
0.0
 10
0.0
 20
0.0
 10
256.0
 20
0.0
 10
256.0
 20
30.0
 10
0.0
 20
30.0
  0
ENDBLK
  5
217
330
214
100
AcDbEntity
  8
0
100
AcDbBlockEnd
  0
BLOCK
  5
34C
330
34A
100
AcDbEntity
  8
0
100
AcDbBlockBegin
  2
A$C0F214DF5
 70
     0
 10
0.0
 20
0.0
 30
0.0
  3
A$C0F214DF5
  1

  0
LWPOLYLINE
  5
34B
330
34A
100
AcDbEntity
  8
0
100
AcDbPolyline
 90
        4
 70
     1
 43
0.0
 10
0.0000018057962734
 20
-0.000001983456059
 10
45.00000180579627
 20
-0.000001983456059
 10
45.00000180579627
 20
14.99999801654394
 10
0.0000018057962734
 20
14.99999801654394
  0
ENDBLK
  5
34D
330
34A
100
AcDbEntity
  8
0
100
AcDbBlockEnd
  0
BLOCK
  5
4C7
330
4C5
100
AcDbEntity
  8
0
100
AcDbBlockBegin
  2
A$C2D9F2C49
 70
     0
 10
0.0
 20
0.0
 30
0.0
  3
A$C2D9F2C49
  1

  0
LWPOLYLINE
  5
4C6
330
4C5
100
AcDbEntity
  8
0
100
AcDbPolyline
 90
        4
 70
     1
 43
0.0
 10
197.4363136866886
 20
149.4671636108287
 10
192.4363136866887
 20
149.4671636108287
 10
192.4363136866887
 20
-290.5328363891713
 10
197.4363136866886
 20
-290.5328363891713
  0
ENDBLK
  5
4C8
330
4C5
100
AcDbEntity
  8
0
100
AcDbBlockEnd
  0
BLOCK
  5
533
330
532
100
AcDbEntity
  8
0
100
AcDbBlockBegin
  2
4000_f
 70
     0
 10
0.0
 20
0.0
 30
0.0
  3
4000_f
  1

  4
4000_front
  0
LINE
  5
E83
330
532
100
AcDbEntity
  8
Cenrala
100
AcDbLine
 10
323.7994656434604
 20
2243.978107650602
 30
0.0
 11
323.7994656434604
 21
2213.978107650602
 31
0.0
1001
ACDBBLOCKREPETAG
1070
     1
1071
        0
1005
E83
  0
LINE
  5
E84
330
532
100
AcDbEntity
  8
Cenrala
100
AcDbLine
 10
1543.79946564346
 20
2503.978107650602
 30
0.0
 11
323.7994656434604
 21
2503.978107650602
 31
0.0
1001
ACDBBLOCKREPETAG
1070
     1
1071
        1
1005
E84
  0
LINE
  5
E85
330
532
100
AcDbEntity
  8
Cenrala
100
AcDbLine
 10
1543.79946564346
 20
2213.978107650602
 30
0.0
 11
1543.79946564346
 21
2243.978107650602
 31
0.0
1001
ACDBBLOCKREPETAG
1070
     1
1071
        2
1005
E85
  0
LINE
  5
E86
330
532
100
AcDbEntity
  8
Cenrala
100
AcDbLine
 10
323.7994656434604
 20
2503.978107650602
 30
0.0
 11
323.7994656434604
 21
1533.978107650602
 31
0.0
1001
ACDBBLOCKREPETAG
1070
     1
1071
        3
1005
E86
  0
LINE
  5
E87
330
532
100
AcDbEntity
  8
Cenrala
100
AcDbLine
 10
1543.79946564346
 20
1533.978107650602
 30
0.0
 11
1543.79946564346
 21
2503.978107650602
 31
0.0
1001
ACDBBLOCKREPETAG
1070
     1
1071
        4
1005
E87
  0
LINE
  5
E88
330
532
100
AcDbEntity
  8
Cenrala
100
AcDbLine
 10
323.7994656434604
 20
1533.978107650601
 30
0.0
 11
323.7994656434604
 21
1503.978107650601
 31
0.0
1001
ACDBBLOCKREPETAG
1070
     1
1071
        5
1005
E88
  0
LINE
  5
E89
330
532
100
AcDbEntity
  8
Cenrala
100
AcDbLine
 10
1543.79946564346
 20
1503.978107650601
 30
0.0
 11
1543.79946564346
 21
1533.978107650601
 31
0.0
1001
ACDBBLOCKREPETAG
1070
     1
1071
        6
1005
E89
  0
LINE
  5
E8A
330
532
100
AcDbEntity
  8
Cenrala
100
AcDbLine
 10
323.7994656434604
 20
1503.978107650601
 30
0.0
 11
1543.79946564346
 21
1503.978107650601
 31
0.0
1001
ACDBBLOCKREPETAG
1070
     1
1071
        7
1005
E8A
  0
LWPOLYLINE
  5
E8B
330
532
100
AcDbEntity
  8
Cenrala
100
AcDbPolyline
 90
        4
 70
     1
 43
0.0
 10
348.7994656434604
 20
1503.978107650602
 10
368.7994656434603
 20
1503.978107650602
 10
368.7994656434603
 20
1488.9781076506
 10
348.7994656434604
 20
1488.9781076506
1001
ACDBBLOCKREPETAG
1070
     1
1071
        8
1005
E8B
  0
LWPOLYLINE
  5
E8C
330
532
100
AcDbEntity
  8
Cenrala
100
AcDbPolyline
 90
        4
 70
     1
 43
0.0
 10
1518.79946564346
 20
1503.978107650602
 10
1498.79946564346
 20
1503.978107650602
 10
1498.79946564346
 20
1488.9781076506
 10
1518.79946564346
 20
1488.9781076506
1001
ACDBBLOCKREPETAG
1070
     1
1071
        9
1005
E8C
  0
LWPOLYLINE
  5
E8D
330
532
100
AcDbEntity
  8
Cenrala
100
AcDbPolyline
 90
        4
 70
     1
 43
0.0
 10
323.7994656434605
 20
2463.978107650602
 10
318.7994656434605
 20
2463.978107650602
 10
318.7994656434605
 20
2023.978107650602
 10
323.7994656434605
 20
2023.978107650602
1001
ACDBBLOCKREPETAG
1070
     1
1071
       10
1005
E8D
  0
LWPOLYLINE
  5
E8E
330
532
100
AcDbEntity
  8
Cenrala
100
AcDbPolyline
 90
        4
 70
     1
 43
0.0
 10
318.7994656434605
 20
2448.978107650603
 10
258.7994656434605
 20
2448.978107650603
 10
258.7994656434605
 20
2038.978107650603
 10
318.7994656434605
 20
2038.978107650603
1001
ACDBBLOCKREPETAG
1070
     1
1071
       11
1005
E8E
  0
LWPOLYLINE
  5
E8F
330
532
100
AcDbEntity
  8
Cenrala
100
AcDbPolyline
 90
        4
 70
     1
 43
0.0
 10
253.7994656434604
 20
2463.978107650602
 10
258.7994656434605
 20
2463.978107650602
 10
258.7994656434605
 20
2023.978107650602
 10
253.7994656434604
 20
2023.978107650602
1001
ACDBBLOCKREPETAG
1070
     1
1071
       12
1005
E8F
  0
LWPOLYLINE
  5
E90
330
532
100
AcDbEntity
  8
Cenrala
100
AcDbPolyline
 90
        4
 70
     1
 43
0.0
 10
253.7994656434603
 20
1535.978107650602
 10
258.7994656434603
 20
1535.978107650602
 10
258.7994656434603
 20
1975.978107650602
 10
253.7994656434603
 20
1975.978107650602
1001
ACDBBLOCKREPETAG
1070
     1
1071
       13
1005
E90
  0
LWPOLYLINE
  5
E91
330
532
100
AcDbEntity
  8
Cenrala
100
AcDbPolyline
 90
        4
 70
     1
 43
0.0
 10
318.7994656434603
 20
1550.978107650602
 10
258.7994656434603
 20
1550.978107650602
 10
258.7994656434603
 20
1960.978107650602
 10
318.7994656434603
 20
1960.978107650602
1001
ACDBBLOCKREPETAG
1070
     1
1071
       14
1005
E91
  0
LWPOLYLINE
  5
E92
330
532
100
AcDbEntity
  8
Cenrala
100
AcDbPolyline
 90
        4
 70
     1
 43
0.0
 10
323.7994656434604
 20
1535.978107650602
 10
318.7994656434603
 20
1535.978107650602
 10
318.7994656434603
 20
1975.978107650602
 10
323.7994656434604
 20
1975.978107650602
1001
ACDBBLOCKREPETAG
1070
     1
1071
       15
1005
E92
  0
LWPOLYLINE
  5
E93
330
532
100
AcDbEntity
  8
Cenrala
100
AcDbPolyline
 90
        4
 70
     1
 43
0.0
 10
1548.799465643461
 20
1550.978107650602
 10
1608.79946564346
 20
1550.978107650602
 10
1608.79946564346
 20
1960.978107650602
 10
1548.799465643461
 20
1960.978107650602
1001
ACDBBLOCKREPETAG
1070
     1
1071
       16
1005
E93
  0
LWPOLYLINE
  5
E94
330
532
100
AcDbEntity
  8
Cenrala
100
AcDbPolyline
 90
        4
 70
     1
 43
0.0
 10
1613.799465643461
 20
1535.978107650602
 10
1608.79946564346
 20
1535.978107650602
 10
1608.79946564346
 20
1975.978107650602
 10
1613.799465643461
 20
1975.978107650602
1001
ACDBBLOCKREPETAG
1070
     1
1071
       17
1005
E94
  0
LWPOLYLINE
  5
E95
330
532
100
AcDbEntity
  8
Cenrala
100
AcDbPolyline
 90
        4
 70
     1
 43
0.0
 10
1613.799465643461
 20
2463.978107650602
 10
1608.79946564346
 20
2463.978107650602
 10
1608.79946564346
 20
2023.978107650602
 10
1613.799465643461
 20
2023.978107650602
1001
ACDBBLOCKREPETAG
1070
     1
1071
       18
1005
E95
  0
LWPOLYLINE
  5
E96
330
532
100
AcDbEntity
  8
Cenrala
100
AcDbPolyline
 90
        4
 70
     1
 43
0.0
 10
1548.799465643461
 20
2448.978107650603
 10
1608.79946564346
 20
2448.978107650603
 10
1608.79946564346
 20
2038.978107650603
 10
1548.799465643461
 20
2038.978107650603
1001
ACDBBLOCKREPETAG
1070
     1
1071
       19
1005
E96
  0
LWPOLYLINE
  5
E97
330
532
100
AcDbEntity
  8
Cenrala
100
AcDbPolyline
 90
        4
 70
     1
 43
0.0
 10
1543.79946564346
 20
1535.978107650602
 10
1548.799465643461
 20
1535.978107650602
 10
1548.799465643461
 20
1975.978107650602
 10
1543.79946564346
 20
1975.978107650602
1001
ACDBBLOCKREPETAG
1070
     1
1071
       20
1005
E97
  0
LWPOLYLINE
  5
E98
330
532
100
AcDbEntity
  8
Cenrala
100
AcDbPolyline
 90
        4
 70
     1
 43
0.0
 10
1543.79946564346
 20
2463.978107650602
 10
1548.799465643461
 20
2463.978107650602
 10
1548.799465643461
 20
2023.978107650602
 10
1543.79946564346
 20
2023.978107650602
1001
ACDBBLOCKREPETAG
1070
     1
1071
       21
1005
E98
  0
MTEXT
  5
E99
330
532
100
AcDbEntity
  8
Cenrala
100
AcDbMText
 10
1285.015920998165
 20
1593.793239651005
 30
0.0
 40
18.0
 41
273.857804750156
 46
0.0
 71
     1
 72
     5
  1
{\Ftxt.shx|c238;MISTRAL 4000}
 73
     1
 44
1.0
1001
ACDBBLOCKREPETAG
1070
     1
1071
       22
1005
E99
1001
ACAD
1000
MTEXTBEGIN
1070
    73
1070
     1
1070
    44
1040
1.0
1070
    74
1070
     0
1000
MTEXTEND
  0
MTEXT
  5
E9A
330
532
100
AcDbEntity
  8
Cenrala
100
AcDbMText
 10
842.7905427933437
 20
2059.424082399222
 30
0.0
 40
25.0
 41
260.8191601825456
 46
0.0
 71
     1
 72
     5
  1
{\Ftxt.shx|c238;\H1.2x;P\H0.8333x;RO-\H1.2x;V\H0.8333x;ENT}
 73
     1
 44
1.0
1001
ACDBBLOCKREPETAG
1070
     1
1071
       23
1005
E9A
1001
ACAD
1000
MTEXTBEGIN
1070
    73
1070
     1
1070
    44
1040
1.0
1070
    74
1070
     0
1000
MTEXTEND
  0
CIRCLE
  5
E9B
330
532
100
AcDbEntity
  8
PRZOD
  6
Continuous
 62
     0
100
AcDbCircle
 10
637.1278944234075
 20
1738.558506831637
 30
0.0
 40
2.5
1001
ACDBBLOCKREPETAG
1070
     1
1071
       24
1005
E9B
  0
LWPOLYLINE
  5
E9C
330
532
100
AcDbEntity
  8
PRZOD
 62
     0
100
AcDbPolyline
 90
        4
 70
     1
 43
0.0
 39
5.0
 10
1344.79946564346
 20
2503.004107650604
 10
1453.79946564346
 20
2503.004107650604
 10
1453.79946564346
 20
1938.004107650603
 10
1344.79946564346
 20
1938.004107650603
1001
ACDBBLOCKREPETAG
1070
     1
1071
       25
1005
E9C
  0
LWPOLYLINE
  5
E9D
330
532
100
AcDbEntity
  8
PRZOD
 62
     0
100
AcDbPolyline
 90
        4
 70
     1
 43
0.0
 39
5.0
 10
413.7994656434605
 20
2503.004107650604
 10
522.7994656434605
 20
2503.004107650604
 10
522.7994656434605
 20
1938.004107650603
 10
413.7994656434605
 20
1938.004107650603
1001
ACDBBLOCKREPETAG
1070
     1
1071
       26
1005
E9D
  0
LWPOLYLINE
  5
E9E
330
532
100
AcDbEntity
  8
0
  6
Continuous
 62
     0
100
AcDbPolyline
 90
        2
 70
   128
 43
0.0
 10
1173.661054596697
 20
1574.978107650603
 10
1339.29946564346
 20
1903.109409039543
1001
ACDBBLOCKREPETAG
1070
     1
1071
       27
1005
E9E
  0
LWPOLYLINE
  5
E9F
330
532
100
AcDbEntity
  8
0
  6
Continuous
 62
     0
100
AcDbPolyline
 90
        2
 70
   128
 43
0.0
 10
693.9378766902239
 20
1574.978107650603
 10
528.2994656434604
 20
1903.109409039543
1001
ACDBBLOCKREPETAG
1070
     1
1071
       28
1005
E9F
  0
LWPOLYLINE
  5
EA0
330
532
100
AcDbEntity
  8
0
  6
Continuous
 62
     0
100
AcDbPolyline
 90
       16
 70
   129
 43
0.0
 10
1167.659003475374
 20
1567.964381276486
 10
699.9399278115472
 20
1567.964381276486
 42
-0.2830453342587638
 10
696.3690913737075
 20
1570.161847744427
 10
528.7286292056207
 20
1902.259231853766
 42
-0.1174036781050194
 10
528.2994656434604
 20
1904.061765385824
 10
528.2994656434604
 20
1981.108526489977
 42
-0.1989123673796572
 10
529.4710385187142
 20
1983.936953614723
 10
900.3406196793395
 20
2354.806534775349
 42
-0.1989123673796588
 10
903.1690468040844
 20
2355.978107650604
 10
964.4548942069262
 20
2355.978107650604
 42
-0.1989123673796582
 10
967.2833213316728
 20
2354.806534775349
 10
1338.127892768207
 20
1983.961963338815
 42
-0.1989123673796576
 10
1339.29946564346
 20
1981.133536214069
 10
1339.29946564346
 20
1904.061765385824
 42
-0.1174036781050191
 10
1338.8703020813
 20
1902.259231853766
 10
1171.229839913213
 20
1570.161847744427
 42
-0.283045334258764
1001
ACDBBLOCKREPETAG
1070
     1
1071
       29
1005
EA0
  0
CIRCLE
  5
EA1
330
532
100
AcDbEntity
  8
0
 62
     0
100
AcDbCircle
 10
874.1387087923078
 20
2296.077711953737
 30
0.0
 40
2.5
1001
ACDBBLOCKREPETAG
1070
     1
1071
       30
1005
EA1
  0
CIRCLE
  5
EA2
330
532
100
AcDbEntity
  8
0
 62
     0
100
AcDbCircle
 10
783.7995408203935
 20
1605.964364975489
 30
0.0
 40
2.5
1001
ACDBBLOCKREPETAG
1070
     1
1071
       31
1005
EA2
  0
CIRCLE
  5
EA3
330
532
100
AcDbEntity
  8
0
 62
     0
100
AcDbCircle
 10
1083.79966470786
 20
1605.964405728019
 30
0.0
 40
2.5
1001
ACDBBLOCKREPETAG
1070
     1
1071
       32
1005
EA3
  0
CIRCLE
  5
EA4
330
532
100
AcDbEntity
  8
0
  6
Continuous
 62
     0
100
AcDbCircle
 10
703.9529553379472
 20
2125.891958499373
 30
0.0
 40
2.5
1001
ACDBBLOCKREPETAG
1070
     1
1071
       33
1005
EA4
  0
CIRCLE
  5
EA5
330
532
100
AcDbEntity
  8
PRZOD
  6
Continuous
 62
     0
100
AcDbCircle
 10
1230.475467865271
 20
1738.558506831637
 30
0.0
 40
2.5
1001
ACDBBLOCKREPETAG
1070
     1
1071
       34
1005
EA5
  0
CIRCLE
  5
EA6
330
532
100
AcDbEntity
  8
0
 62
     0
100
AcDbCircle
 10
993.4646534963688
 20
2296.077711953737
 30
0.0
 40
2.5
1001
ACDBBLOCKREPETAG
1070
     1
1071
       35
1005
EA6
  0
CIRCLE
  5
EA7
330
532
100
AcDbEntity
  8
0
  6
Continuous
 62
     0
100
AcDbCircle
 10
1163.650406950731
 20
2125.891958499373
 30
0.0
 40
2.5
1001
ACDBBLOCKREPETAG
1070
     1
1071
       36
1005
EA7
  0
LWPOLYLINE
  5
EA8
330
532
100
AcDbEntity
  8
0
 62
     0
100
AcDbPolyline
 90
        8
 70
     1
 43
0.0
 10
352.1125522429572
 20
1935.163012188816
 10
509.1125522429572
 20
1935.163012188816
 42
-0.4142135623730951
 10
512.1125522429572
 20
1932.163012188815
 10
512.1125522429572
 20
1518.163012188816
 42
-0.4142135623730951
 10
509.1125522429572
 20
1515.163012188816
 10
352.1125522429572
 20
1515.163012188816
 42
-0.4142135623730951
 10
349.1125522429572
 20
1518.163012188816
 10
349.1125522429572
 20
1932.163012188815
 42
-0.4142135623730951
1001
ACDBBLOCKREPETAG
1070
     1
1071
       37
1005
EA8
  0
INSERT
  5
EA9
330
532
100
AcDbEntity
  8
CENTRALA
 62
     5
100
AcDbBlockReference
  2
GALKA
 10
468.2994656434605
 20
2482.004107650604
 30
0.0
 41
-1.0
 50
180.0
1001
ACDBBLOCKREPETAG
1070
     1
1071
       38
1005
EA9
  0
INSERT
  5
EAA
330
532
100
AcDbEntity
  8
CENTRALA
 62
     5
100
AcDbBlockReference
  2
GALKA
 10
468.2994656434605
 20
1959.004107650603
 30
0.0
 41
-1.0
 50
180.0
1001
ACDBBLOCKREPETAG
1070
     1
1071
       39
1005
EAA
  0
INSERT
  5
EAB
330
532
100
AcDbEntity
  8
CENTRALA
 62
     5
100
AcDbBlockReference
  2
GALKA
 10
565.4595900390092
 20
1924.013816889587
 30
0.0
 41
-1.0
 50
180.0
1001
ACDBBLOCKREPETAG
1070
     1
1071
       40
1005
EAB
  0
INSERT
  5
EAC
330
532
100
AcDbEntity
  8
CENTRALA
 62
     5
100
AcDbBlockReference
  2
GALKA
 10
1302.139341247911
 20
1924.013816889588
 30
0.0
 41
-1.0
 50
180.0
1001
ACDBBLOCKREPETAG
1070
     1
1071
       41
1005
EAC
  0
INSERT
  5
EAD
330
532
100
AcDbEntity
  8
CENTRALA
 62
     5
100
AcDbBlockReference
  2
GALKA
 10
1399.29946564346
 20
1959.004107650603
 30
0.0
 41
-1.0
 50
180.0
1001
ACDBBLOCKREPETAG
1070
     1
1071
       42
1005
EAD
  0
INSERT
  5
EAE
330
532
100
AcDbEntity
  8
CENTRALA
 62
     5
100
AcDbBlockReference
  2
GALKA
 10
1399.29946564346
 20
2482.004107650604
 30
0.0
 41
-1.0
 50
180.0
1001
ACDBBLOCKREPETAG
1070
     1
1071
       43
1005
EAE
  0
LWPOLYLINE
  5
EAF
330
532
100
AcDbEntity
  8
0
100
AcDbPolyline
 90
        5
 70
     0
 43
0.0
 10
1548.799465643461
 20
1537.978107650601
 10
1568.79946564346
 20
1537.978107650601
 10
1568.79946564346
 20
1515.978107650601
 10
1543.79946564346
 20
1515.978107650601
 10
1543.79946564346
 20
1537.978107650601
1001
ACDBBLOCKREPETAG
1070
     1
1071
       44
1005
EAF
  0
ENDBLK
  5
534
330
532
100
AcDbEntity
  8
0
100
AcDbBlockEnd
  0
BLOCK
  5
556
330
555
100
AcDbEntity
  8
0
100
AcDbBlockBegin
  2
4000_g
 70
     0
 10
0.0
 20
0.0
 30
0.0
  3
4000_g
  1

  4
4000_gora
  0
LWPOLYLINE
  5
ED0
330
555
100
AcDbEntity
  8
Cenrala
100
AcDbPolyline
 90
        4
 70
     1
 43
0.0
 10
258.7994656434605
 20
1141.366696953501
 10
253.7994656434605
 20
1141.366696953501
 10
253.7994656434605
 20
301.3666969535016
 10
258.7994656434605
 20
301.3666969535016
1001
ACDBBLOCKREPETAG
1070
     1
1071
        0
1005
ED0
  0
LWPOLYLINE
  5
ED1
330
555
100
AcDbEntity
  8
Cenrala
100
AcDbPolyline
 90
        4
 70
     1
 43
0.0
 10
318.7994656434605
 20
1126.366696953502
 10
258.7994656434605
 20
1126.366696953502
 10
258.7994656434605
 20
316.3666969535015
 10
318.7994656434605
 20
316.3666969535015
1001
ACDBBLOCKREPETAG
1070
     1
1071
        1
1005
ED1
  0
LWPOLYLINE
  5
ED2
330
555
100
AcDbEntity
  8
Cenrala
100
AcDbPolyline
 90
        4
 70
     1
 43
0.0
 10
318.7994656434605
 20
1141.366696953501
 10
323.7994656434605
 20
1141.366696953501
 10
323.7994656434605
 20
301.3666969535016
 10
318.7994656434605
 20
301.3666969535016
1001
ACDBBLOCKREPETAG
1070
     1
1071
        2
1005
ED2
  0
LWPOLYLINE
  5
ED3
330
555
100
AcDbEntity
  8
Cenrala
100
AcDbPolyline
 90
        4
 70
     1
 43
0.0
 10
1548.79946564346
 20
1141.366696953501
 10
1543.79946564346
 20
1141.366696953501
 10
1543.79946564346
 20
301.3666969535016
 10
1548.79946564346
 20
301.3666969535016
1001
ACDBBLOCKREPETAG
1070
     1
1071
        3
1005
ED3
  0
LWPOLYLINE
  5
ED4
330
555
100
AcDbEntity
  8
Cenrala
100
AcDbPolyline
 90
        4
 70
     1
 43
0.0
 10
1548.79946564346
 20
1126.366696953502
 10
1608.79946564346
 20
1126.366696953502
 10
1608.79946564346
 20
316.3666969535015
 10
1548.79946564346
 20
316.3666969535015
1001
ACDBBLOCKREPETAG
1070
     1
1071
        4
1005
ED4
  0
LWPOLYLINE
  5
ED5
330
555
100
AcDbEntity
  8
Cenrala
100
AcDbPolyline
 90
        4
 70
     1
 43
0.0
 10
1608.79946564346
 20
1141.366696953501
 10
1613.79946564346
 20
1141.366696953501
 10
1613.79946564346
 20
301.3666969535016
 10
1608.79946564346
 20
301.3666969535016
1001
ACDBBLOCKREPETAG
1070
     1
1071
        5
1005
ED5
  0
LWPOLYLINE
  5
ED6
330
555
100
AcDbEntity
  8
Cenrala
100
AcDbPolyline
 90
        4
 70
     1
 43
0.0
 10
1296.79946564346
 20
109.3666969535015
 10
1280.79946564346
 20
109.3666969535015
 10
1280.79946564346
 20
99.36669695350149
 10
1296.79946564346
 20
99.36669695350149
1001
ACDBBLOCKREPETAG
1070
     1
1071
        6
1005
ED6
  0
LWPOLYLINE
  5
ED7
330
555
100
AcDbEntity
  8
Cenrala
100
AcDbPolyline
 90
        4
 70
     1
 43
0.0
 10
570.7994656434602
 20
109.3666969535015
 10
586.7994656434603
 20
109.3666969535015
 10
586.7994656434603
 20
99.36669695350149
 10
570.7994656434602
 20
99.36669695350149
1001
ACDBBLOCKREPETAG
1070
     1
1071
        7
1005
ED7
  0
LWPOLYLINE
  5
ED8
330
555
100
AcDbEntity
  8
Cenrala
100
AcDbPolyline
 90
        4
 70
     1
 43
0.0
 10
1407.29946564346
 20
109.3666969535015
 10
1391.29946564346
 20
109.3666969535015
 10
1391.29946564346
 20
99.36669695350149
 10
1407.29946564346
 20
99.36669695350149
1001
ACDBBLOCKREPETAG
1070
     1
1071
        8
1005
ED8
  0
LWPOLYLINE
  5
ED9
330
555
100
AcDbEntity
  8
Cenrala
100
AcDbPolyline
 90
        4
 70
     1
 43
0.0
 10
1451.79946564346
 20
119.3666969535015
 10
1346.79946564346
 20
119.3666969535015
 10
1346.79946564346
 20
109.3666969535015
 10
1451.79946564346
 20
109.3666969535015
1001
ACDBBLOCKREPETAG
1070
     1
1071
        9
1005
ED9
  0
LWPOLYLINE
  5
EDB
330
555
100
AcDbEntity
  8
Cenrala
100
AcDbPolyline
 90
        4
 70
     1
 43
0.0
 10
415.7994656434603
 20
119.3666969535015
 10
520.7994656434605
 20
119.3666969535015
 10
520.7994656434605
 20
109.3666969535015
 10
415.7994656434603
 20
109.3666969535015
1001
ACDBBLOCKREPETAG
1070
     1
1071
       11
1005
EDB
  0
LWPOLYLINE
  5
EDC
330
555
100
AcDbEntity
  8
Cenrala
100
AcDbPolyline
 90
        4
 70
     1
 43
0.0
 10
323.7994656434604
 20
1321.366696953501
 10
1543.79946564346
 20
1321.366696953501
 10
1543.79946564346
 20
121.3666969535015
 10
323.7994656434604
 20
121.3666969535015
1001
ACDBBLOCKREPETAG
1070
     1
1071
       12
1005
EDC
  0
LWPOLYLINE
  5
EDD
330
555
100
AcDbEntity
  8
Cenrala
100
AcDbPolyline
 90
        4
 70
     1
 43
0.0
 10
1543.79946564346
 20
1311.366696953501
 10
1563.79946564346
 20
1311.366696953501
 10
1563.79946564346
 20
1291.366696953501
 10
1543.79946564346
 20
1291.366696953501
1001
ACDBBLOCKREPETAG
1070
     1
1071
       13
1005
EDD
  0
LWPOLYLINE
  5
EDE
330
555
100
AcDbEntity
  8
Cenrala
100
AcDbPolyline
 90
        4
 70
     1
 43
0.0
 10
460.2994656434604
 20
109.3666969535015
 10
476.2994656434604
 20
109.3666969535015
 10
476.2994656434604
 20
99.36669695350149
 10
460.2994656434604
 20
99.36669695350149
1001
ACDBBLOCKREPETAG
1070
     1
1071
       14
1005
EDE
  0
LWPOLYLINE
  5
EE2
330
555
100
AcDbEntity
  8
0
100
AcDbPolyline
 90
        4
 70
     1
 43
0.0
 10
528.2994656434603
 20
121.3666969535015
 10
1339.29946564346
 20
121.3666969535015
 10
1339.29946564346
 20
109.3666969535015
 10
528.2994656434603
 20
109.3666969535015
1001
ACDBBLOCKREPETAG
1070
     1
1071
       15
1005
EE2
  0
ENDBLK
  5
557
330
555
100
AcDbEntity
  8
0
100
AcDbBlockEnd
  0
BLOCK
  5
56B
330
56A
100
AcDbEntity
  8
0
100
AcDbBlockBegin
  2
4000_l
 70
     0
 10
0.0
 20
0.0
 30
0.0
  3
4000_l
  1

  4
4000_lewa
  0
LINE
  5
F81
330
56A
100
AcDbEntity
  8
Cenrala
100
AcDbLine
 10
1996.972159301953
 20
2473.978107650602
 30
0.0
 11
1996.972159301953
 21
1533.978107650602
 31
0.0
1001
ACDBBLOCKREPETAG
1070
     1
1071
        0
1005
F81
  0
LINE
  5
F82
330
56A
100
AcDbEntity
  8
Cenrala
100
AcDbLine
 10
3196.972159301953
 20
1533.978107650602
 30
0.0
 11
3196.972159301953
 21
2503.978106674997
 31
0.0
1001
ACDBBLOCKREPETAG
1070
     1
1071
        1
1005
F82
  0
LINE
  5
F83
330
56A
100
AcDbEntity
  8
Cenrala
100
AcDbLine
 10
1996.972145779851
 20
1503.978107650602
 30
0.0
 11
1996.972145779851
 21
1533.978107650602
 31
0.0
1001
ACDBBLOCKREPETAG
1070
     1
1071
        2
1005
F83
  0
LINE
  5
F84
330
56A
100
AcDbEntity
  8
Cenrala
100
AcDbLine
 10
3196.972145779851
 20
1503.978107650602
 30
0.0
 11
1996.972145779851
 21
1503.978107650602
 31
0.0
1001
ACDBBLOCKREPETAG
1070
     1
1071
        3
1005
F84
  0
LINE
  5
F85
330
56A
100
AcDbEntity
  8
Cenrala
100
AcDbLine
 10
3196.972145779851
 20
1533.978107650602
 30
0.0
 11
3196.972145779851
 21
1503.978107650602
 31
0.0
1001
ACDBBLOCKREPETAG
1070
     1
1071
        4
1005
F85
  0
LINE
  5
F86
330
56A
100
AcDbEntity
  8
Cenrala
100
AcDbLine
 10
1996.972152540902
 20
2473.978106674997
 30
0.0
 11
1996.972152540902
 21
2503.978106674997
 31
0.0
1001
ACDBBLOCKREPETAG
1070
     1
1071
        5
1005
F86
  0
LINE
  5
F87
330
56A
100
AcDbEntity
  8
Cenrala
100
AcDbLine
 10
1996.972152540902
 20
2503.978106674997
 30
0.0
 11
3196.972152540903
 21
2503.978106674997
 31
0.0
1001
ACDBBLOCKREPETAG
1070
     1
1071
        6
1005
F87
  0
LWPOLYLINE
  5
F88
330
56A
100
AcDbEntity
  8
Cenrala
100
AcDbPolyline
 90
        4
 70
     1
 43
0.0
 10
3198.972159301953
 20
2433.978107650601
 10
3208.972159301954
 20
2433.978107650601
 10
3208.972159301954
 20
1633.978107650602
 10
3198.972159301953
 20
1633.978107650602
1001
ACDBBLOCKREPETAG
1070
     1
1071
        9
1005
F88
  0
LWPOLYLINE
  5
F89
330
56A
100
AcDbEntity
  8
Cenrala
100
AcDbPolyline
 90
        2
 70
     0
 43
0.0
 10
2590.972145779851
 20
2043.978106674996
 10
2590.972145779851
 20
2443.978106674996
1001
ACDBBLOCKREPETAG
1070
     1
1071
       10
1005
F89
  0
LWPOLYLINE
  5
F8A
330
56A
100
AcDbEntity
  8
Cenrala
100
AcDbPolyline
 90
        2
 70
     0
 43
0.0
 10
2602.972145779851
 20
2043.978106674996
 10
2602.972145779851
 20
2443.978106674996
1001
ACDBBLOCKREPETAG
1070
     1
1071
       11
1005
F8A
  0
LWPOLYLINE
  5
F8B
330
56A
100
AcDbEntity
  8
Cenrala
100
AcDbPolyline
 90
        4
 70
     1
 43
0.0
 10
2996.972145779851
 20
1955.978107650602
 10
2196.972145779851
 20
1955.978107650602
 10
2196.972145779851
 20
1555.978107650603
 10
2996.972145779851
 20
1555.978107650603
1001
ACDBBLOCKREPETAG
1070
     1
1071
       12
1005
F8B
  0
LWPOLYLINE
  5
F8C
330
56A
100
AcDbEntity
  8
Cenrala
100
AcDbPolyline
 90
        4
 70
     1
 43
0.0
 10
3016.972145779851
 20
1975.978107650601
 10
2176.972145779851
 20
1975.978107650601
 10
2176.972145779851
 20
1535.978107650603
 10
3016.972145779851
 20
1535.978107650603
1001
ACDBBLOCKREPETAG
1070
     1
1071
       13
1005
F8C
  0
LWPOLYLINE
  5
F8D
330
56A
100
AcDbEntity
  8
Cenrala
100
AcDbPolyline
 90
        4
 70
     1
 43
0.0
 10
3016.972145779851
 20
2463.978106674996
 10
2176.972145779851
 20
2463.978106674996
 10
2176.972145779851
 20
2023.978106674996
 10
3016.972145779851
 20
2023.978106674996
1001
ACDBBLOCKREPETAG
1070
     1
1071
       14
1005
F8D
  0
LWPOLYLINE
  5
F8E
330
56A
100
AcDbEntity
  8
Cenrala
100
AcDbPolyline
 90
        4
 70
     1
 43
0.0
 10
2996.972145779851
 20
2443.978106674996
 10
2196.972145779851
 20
2443.978106674996
 10
2196.972145779851
 20
2043.978106674996
 10
2996.972145779851
 20
2043.978106674996
1001
ACDBBLOCKREPETAG
1070
     1
1071
       15
1005
F8E
  0
LWPOLYLINE
  5
F8F
330
56A
100
AcDbEntity
  8
Cenrala
100
AcDbPolyline
 90
        2
 70
     0
 43
0.0
 10
2590.972145779851
 20
1555.978107650602
 10
2590.972145779851
 20
1955.978107650602
1001
ACDBBLOCKREPETAG
1070
     1
1071
       16
1005
F8F
  0
LWPOLYLINE
  5
F90
330
56A
100
AcDbEntity
  8
Cenrala
100
AcDbPolyline
 90
        2
 70
     0
 43
0.0
 10
2602.972145779851
 20
1555.978107650602
 10
2602.972145779851
 20
1955.978107650602
1001
ACDBBLOCKREPETAG
1070
     1
1071
       17
1005
F90
  0
LWPOLYLINE
  5
F91
330
56A
100
AcDbEntity
  8
0
100
AcDbPolyline
 90
        4
 70
     1
 43
0.0
 10
2001.972145779851
 20
1503.978107650602
 10
2091.972145779851
 20
1503.978107650602
 10
2091.972145779851
 20
1483.978107650602
 10
2001.972145779851
 20
1483.978107650602
1001
ACDBBLOCKREPETAG
1070
     1
1071
       18
1005
F91
  0
LWPOLYLINE
  5
F92
330
56A
100
AcDbEntity
  8
0
100
AcDbPolyline
 90
        4
 70
     1
 43
0.0
 10
3101.972145779851
 20
1503.978107650602
 10
3191.972145779851
 20
1503.978107650602
 10
3191.972145779851
 20
1483.978107650602
 10
3101.972145779851
 20
1483.978107650602
1001
ACDBBLOCKREPETAG
1070
     1
1071
       19
1005
F92
  0
CIRCLE
  5
F96
330
56A
100
AcDbEntity
  8
0
100
AcDbCircle
 10
3140.972145779851
 20
1617.978107650602
 30
0.0
 40
10.0
1001
ACDBBLOCKREPETAG
1070
     1
1071
       11
1005
F96
  0
ENDBLK
  5
56C
330
56A
100
AcDbEntity
  8
0
100
AcDbBlockEnd
  0
BLOCK
  5
581
330
580
100
AcDbEntity
  8
0
100
AcDbBlockBegin
  2
4000_p
 70
     0
 10
0.0
 20
0.0
 30
0.0
  3
4000_p
  1

  4
4000_prawa
  0
LINE
  5
F0E
330
580
100
AcDbEntity
  8
Cenrala
100
AcDbLine
 10
-129.3732280150329
 20
2473.978107650602
 30
0.0
 11
-129.3732280150329
 21
1533.978107650602
 31
0.0
1001
ACDBBLOCKREPETAG
1070
     1
1071
        0
1005
F0E
  0
LINE
  5
F0F
330
580
100
AcDbEntity
  8
Cenrala
100
AcDbLine
 10
-1329.373228015033
 20
1533.978107650602
 30
0.0
 11
-1329.373228015033
 21
2503.978106674996
 31
0.0
1001
ACDBBLOCKREPETAG
1070
     1
1071
        1
1005
F0F
  0
LINE
  5
F10
330
580
100
AcDbEntity
  8
Cenrala
100
AcDbLine
 10
-1329.373228015033
 20
1503.978107650602
 30
0.0
 11
-1329.373228015033
 21
1533.978107650602
 31
0.0
1001
ACDBBLOCKREPETAG
1070
     1
1071
        2
1005
F10
  0
LINE
  5
F11
330
580
100
AcDbEntity
  8
Cenrala
100
AcDbLine
 10
-129.3732280150329
 20
1503.978107650602
 30
0.0
 11
-1329.373228015033
 21
1503.978107650602
 31
0.0
1001
ACDBBLOCKREPETAG
1070
     1
1071
        3
1005
F11
  0
LINE
  5
F12
330
580
100
AcDbEntity
  8
Cenrala
100
AcDbLine
 10
-129.3732280150329
 20
1533.978107650602
 30
0.0
 11
-129.3732280150329
 21
1503.978107650602
 31
0.0
1001
ACDBBLOCKREPETAG
1070
     1
1071
        4
1005
F12
  0
LINE
  5
F13
330
580
100
AcDbEntity
  8
Cenrala
100
AcDbLine
 10
-129.3732347760838
 20
2503.978106674996
 30
0.0
 11
-129.3732347760838
 21
2473.978106674997
 31
0.0
1001
ACDBBLOCKREPETAG
1070
     1
1071
        5
1005
F13
  0
LINE
  5
F14
330
580
100
AcDbEntity
  8
Cenrala
100
AcDbLine
 10
-1329.373234776084
 20
2503.978106674996
 30
0.0
 11
-129.3732347760838
 21
2503.978106674996
 31
0.0
1001
ACDBBLOCKREPETAG
1070
     1
1071
        6
1005
F14
  0
CIRCLE
  5
F15
330
580
100
AcDbEntity
  8
Cenrala
100
AcDbCircle
 10
-149.3732280150329
 20
1526.978107650602
 30
0.0
 40
8.0
1001
ACDBBLOCKREPETAG
1070
     1
1071
        7
1005
F15
  0
CIRCLE
  5
F16
330
580
100
AcDbEntity
  8
Cenrala
100
AcDbCircle
 10
-149.3732280150329
 20
1526.978107650602
 30
0.0
 40
10.0
1001
ACDBBLOCKREPETAG
1070
     1
1071
        8
1005
F16
  0
LWPOLYLINE
  5
F17
330
580
100
AcDbEntity
  8
Cenrala
100
AcDbPolyline
 90
        4
 70
     1
 43
0.0
 10
-1331.373228015033
 20
2433.978107650601
 10
-1341.373228015033
 20
2433.978107650601
 10
-1341.373228015033
 20
1633.978107650602
 10
-1331.373228015033
 20
1633.978107650602
1001
ACDBBLOCKREPETAG
1070
     1
1071
        9
1005
F17
  0
LWPOLYLINE
  5
F18
330
580
100
AcDbEntity
  8
Cenrala
100
AcDbPolyline
 90
        2
 70
     0
 43
0.0
 10
-735.3732280150328
 20
2043.978106674996
 10
-735.3732280150328
 20
2443.978106674996
1001
ACDBBLOCKREPETAG
1070
     1
1071
       10
1005
F18
  0
LWPOLYLINE
  5
F19
330
580
100
AcDbEntity
  8
Cenrala
100
AcDbPolyline
 90
        2
 70
     0
 43
0.0
 10
-723.3732280150331
 20
2043.978106674996
 10
-723.3732280150331
 20
2443.978106674996
1001
ACDBBLOCKREPETAG
1070
     1
1071
       11
1005
F19
  0
LWPOLYLINE
  5
F1A
330
580
100
AcDbEntity
  8
Cenrala
100
AcDbPolyline
 90
        4
 70
     1
 43
0.0
 10
-329.3732280150329
 20
1955.978107650602
 10
-1129.373228015033
 20
1955.978107650602
 10
-1129.373228015033
 20
1555.978107650603
 10
-329.3732280150329
 20
1555.978107650603
1001
ACDBBLOCKREPETAG
1070
     1
1071
       12
1005
F1A
  0
LWPOLYLINE
  5
F1B
330
580
100
AcDbEntity
  8
Cenrala
100
AcDbPolyline
 90
        4
 70
     1
 43
0.0
 10
-309.3732280150329
 20
1975.978107650601
 10
-1149.373228015033
 20
1975.978107650601
 10
-1149.373228015033
 20
1535.978107650603
 10
-309.3732280150329
 20
1535.978107650603
1001
ACDBBLOCKREPETAG
1070
     1
1071
       13
1005
F1B
  0
LWPOLYLINE
  5
F1C
330
580
100
AcDbEntity
  8
Cenrala
100
AcDbPolyline
 90
        4
 70
     1
 43
0.0
 10
-309.3732280150329
 20
2463.978106674996
 10
-1149.373228015033
 20
2463.978106674996
 10
-1149.373228015033
 20
2023.978106674996
 10
-309.3732280150329
 20
2023.978106674996
1001
ACDBBLOCKREPETAG
1070
     1
1071
       14
1005
F1C
  0
LWPOLYLINE
  5
F1D
330
580
100
AcDbEntity
  8
Cenrala
100
AcDbPolyline
 90
        4
 70
     1
 43
0.0
 10
-329.3732280150329
 20
2443.978106674996
 10
-1129.373228015033
 20
2443.978106674996
 10
-1129.373228015033
 20
2043.978106674996
 10
-329.3732280150329
 20
2043.978106674996
1001
ACDBBLOCKREPETAG
1070
     1
1071
       15
1005
F1D
  0
LWPOLYLINE
  5
F1E
330
580
100
AcDbEntity
  8
Cenrala
100
AcDbPolyline
 90
        2
 70
     0
 43
0.0
 10
-735.3732280150328
 20
1555.978107650602
 10
-735.3732280150328
 20
1955.978107650602
1001
ACDBBLOCKREPETAG
1070
     1
1071
       16
1005
F1E
  0
LWPOLYLINE
  5
F1F
330
580
100
AcDbEntity
  8
Cenrala
100
AcDbPolyline
 90
        2
 70
     0
 43
0.0
 10
-723.3732280150331
 20
1555.978107650602
 10
-723.3732280150331
 20
1955.978107650602
1001
ACDBBLOCKREPETAG
1070
     1
1071
       17
1005
F1F
  0
LWPOLYLINE
  5
F20
330
580
100
AcDbEntity
  8
0
100
AcDbPolyline
 90
        4
 70
     1
 43
0.0
 10
-1324.373228015033
 20
1503.978107650602
 10
-1234.373228015033
 20
1503.978107650602
 10
-1234.373228015033
 20
1483.978107650602
 10
-1324.373228015033
 20
1483.978107650602
1001
ACDBBLOCKREPETAG
1070
     1
1071
       18
1005
F20
  0
LWPOLYLINE
  5
F21
330
580
100
AcDbEntity
  8
0
100
AcDbPolyline
 90
        4
 70
     1
 43
0.0
 10
-224.373228015033
 20
1503.978107650602
 10
-134.3732280150329
 20
1503.978107650602
 10
-134.3732280150329
 20
1483.978107650602
 10
-224.373228015033
 20
1483.978107650602
1001
ACDBBLOCKREPETAG
1070
     1
1071
       19
1005
F21
  0
ENDBLK
  5
582
330
580
100
AcDbEntity
  8
0
100
AcDbBlockEnd
  0
BLOCK
  5
599
330
598
100
AcDbEntity
  8
0
100
AcDbBlockBegin
  2
*D9
 70
     1
 10
0.0
 20
0.0
 30
0.0
  3
*D9
  1

  0
LINE
  5
59A
330
598
100
AcDbEntity
  8
wymiary
 62
     0
370
    -2
100
AcDbLine
 10
2798.43417494707
 20
5545.314220891857
 30
0.0
 11
2373.43417494707
 21
5545.314220891857
 31
0.0
  0
MTEXT
  5
59B
330
598
100
AcDbEntity
  8
wymiary
 62
     0
100
AcDbMText
 10
2656.424906510399
 20
5566.009344408136
 30
0.0
 40
15.0
 41
0.0
 46
0.0
 71
     5
 72
     1
  1
465
 73
     1
 44
1.0
1001
ACAD
1000
MTEXTBEGIN
1070
    73
1070
     1
1070
    44
1040
1.0
1070
    74
1070
     0
1000
MTEXTEND
  0
SOLID
  5
59C
330
598
100
AcDbEntity
  8
wymiary
 62
     0
100
AcDbTrace
 10
2798.43417494707
 20
5548.64755422519
 30
0.0
 11
2798.43417494707
 21
5541.980887558525
 31
0.0
 12
2818.43417494707
 22
5545.314220891857
 32
0.0
 13
2818.43417494707
 23
5545.314220891857
 33
0.0
  0
SOLID
  5
59D
330
598
100
AcDbEntity
  8
wymiary
 62
     0
100
AcDbTrace
 10
2373.43417494707
 20
5548.64755422519
 30
0.0
 11
2373.43417494707
 21
5541.980887558525
 31
0.0
 12
2353.43417494707
 22
5545.314220891857
 32
0.0
 13
2353.43417494707
 23
5545.314220891857
 33
0.0
  0
POINT
  5
59E
330
598
100
AcDbEntity
  8
Defpoints
 62
     0
100
AcDbPoint
 10
2818.43417494707
 20
5545.314220891857
 30
0.0
  0
POINT
  5
59F
330
598
100
AcDbEntity
  8
Defpoints
 62
     0
100
AcDbPoint
 10
2353.43417494707
 20
5545.314220891857
 30
0.0
  0
POINT
  5
5A0
330
598
100
AcDbEntity
  8
Defpoints
 62
     0
100
AcDbPoint
 10
2353.43417494707
 20
5545.314220891857
 30
0.0
  0
ENDBLK
  5
5A1
330
598
100
AcDbEntity
  8
0
100
AcDbBlockEnd
  0
BLOCK
  5
5A3
330
5A2
100
AcDbEntity
  8
0
100
AcDbBlockBegin
  2
*D10
 70
     1
 10
0.0
 20
0.0
 30
0.0
  3
*D10
  1

  0
LINE
  5
5A4
330
5A2
100
AcDbEntity
  8
wymiary
 62
     0
370
    -2
100
AcDbLine
 10
2818.43417494707
 20
5565.314220891858
 30
0.0
 11
2818.43417494707
 21
5790.314220891858
 31
0.0
  0
SOLID
  5
5A5
330
5A2
100
AcDbEntity
  8
wymiary
 62
     0
100
AcDbTrace
 10
2815.100841613736
 20
5565.314220891858
 30
0.0
 11
2821.767508280403
 21
5565.314220891858
 31
0.0
 12
2818.43417494707
 22
5545.314220891857
 32
0.0
 13
2818.43417494707
 23
5545.314220891857
 33
0.0
  0
SOLID
  5
5A6
330
5A2
100
AcDbEntity
  8
wymiary
 62
     0
100
AcDbTrace
 10
2815.100841613736
 20
5790.314220891858
 30
0.0
 11
2821.767508280403
 21
5790.314220891858
 31
0.0
 12
2818.43417494707
 22
5810.314220891857
 32
0.0
 13
2818.43417494707
 23
5810.314220891857
 33
0.0
  0
MTEXT
  5
5A7
330
5A2
100
AcDbEntity
  8
wymiary
 62
     0
100
AcDbMText
 10
2804.934174947069
 20
5677.814220891858
 30
0.0
 40
15.0
 41
0.0
 46
0.0
 71
     5
 72
     1
  1
265
 11
0.0000000000000001
 21
1.0
 31
0.0
 73
     1
 44
1.0
1001
ACAD
1000
MTEXTBEGIN
1070
    73
1070
     1
1070
    44
1040
1.0
1070
    74
1070
     0
1000
MTEXTEND
  0
POINT
  5
5A8
330
5A2
100
AcDbEntity
  8
Defpoints
 62
     0
100
AcDbPoint
 10
2818.43417494707
 20
5545.314220891857
 30
0.0
  0
POINT
  5
5A9
330
5A2
100
AcDbEntity
  8
Defpoints
 62
     0
100
AcDbPoint
 10
2818.434174947069
 20
5810.314220891857
 30
0.0
  0
POINT
  5
5AA
330
5A2
100
AcDbEntity
  8
Defpoints
 62
     0
100
AcDbPoint
 10
2818.43417494707
 20
5810.314220891857
 30
0.0
  0
ENDBLK
  5
5AB
330
5A2
100
AcDbEntity
  8
0
100
AcDbBlockEnd
  0
BLOCK
  5
5AD
330
5AC
100
AcDbEntity
  8
0
100
AcDbBlockBegin
  2
*D11
 70
     1
 10
0.0
 20
0.0
 30
0.0
  3
*D11
  1

  0
LINE
  5
5AE
330
5AC
100
AcDbEntity
  8
wymiary
 62
     0
370
    -2
100
AcDbLine
 10
2653.43417494707
 20
5000.314220891858
 30
0.0
 11
2373.43417494707
 21
5000.314220891858
 31
0.0
  0
SOLID
  5
5AF
330
5AC
100
AcDbEntity
  8
wymiary
 62
     0
100
AcDbTrace
 10
2653.43417494707
 20
5003.647554225191
 30
0.0
 11
2653.43417494707
 21
4996.980887558525
 31
0.0
 12
2673.43417494707
 22
5000.314220891858
 32
0.0
 13
2673.43417494707
 23
5000.314220891858
 33
0.0
  0
SOLID
  5
5B0
330
5AC
100
AcDbEntity
  8
wymiary
 62
     0
100
AcDbTrace
 10
2373.43417494707
 20
5003.647554225191
 30
0.0
 11
2373.43417494707
 21
4996.980887558525
 31
0.0
 12
2353.43417494707
 22
5000.314220891858
 32
0.0
 13
2353.43417494707
 23
5000.314220891858
 33
0.0
  0
MTEXT
  5
5B1
330
5AC
100
AcDbEntity
  8
wymiary
 62
     0
100
AcDbMText
 10
2513.43417494707
 20
5013.814220891858
 30
0.0
 40
15.0
 41
0.0
 46
0.0
 71
     5
 72
     1
  1
320
 73
     1
 44
1.0
1001
ACAD
1000
MTEXTBEGIN
1070
    73
1070
     1
1070
    44
1040
1.0
1070
    74
1070
     0
1000
MTEXTEND
  0
POINT
  5
5B2
330
5AC
100
AcDbEntity
  8
Defpoints
 62
     0
100
AcDbPoint
 10
2673.43417494707
 20
5000.314220891858
 30
0.0
  0
POINT
  5
5B3
330
5AC
100
AcDbEntity
  8
Defpoints
 62
     0
100
AcDbPoint
 10
2353.43417494707
 20
5000.314220891862
 30
0.0
  0
POINT
  5
5B4
330
5AC
100
AcDbEntity
  8
Defpoints
 62
     0
100
AcDbPoint
 10
2353.43417494707
 20
5000.314220891858
 30
0.0
  0
ENDBLK
  5
5B5
330
5AC
100
AcDbEntity
  8
0
100
AcDbBlockEnd
  0
BLOCK
  5
5B7
330
5B6
100
AcDbEntity
  8
0
100
AcDbBlockBegin
  2
*D12
 70
     1
 10
0.0
 20
0.0
 30
0.0
  3
*D12
  1

  0
LINE
  5
5B8
330
5B6
100
AcDbEntity
  8
wymiary
 62
     0
370
    -2
100
AcDbLine
 10
2673.43417494707
 20
4980.314220891858
 30
0.0
 11
2673.43417494707
 21
4740.314220891857
 31
0.0
  0
SOLID
  5
5B9
330
5B6
100
AcDbEntity
  8
wymiary
 62
     0
100
AcDbTrace
 10
2670.100841613737
 20
4980.314220891858
 30
0.0
 11
2676.767508280404
 21
4980.314220891858
 31
0.0
 12
2673.43417494707
 22
5000.314220891858
 32
0.0
 13
2673.43417494707
 23
5000.314220891858
 33
0.0
  0
SOLID
  5
5BA
330
5B6
100
AcDbEntity
  8
wymiary
 62
     0
100
AcDbTrace
 10
2670.100841613737
 20
4740.314220891857
 30
0.0
 11
2676.767508280404
 21
4740.314220891857
 31
0.0
 12
2673.43417494707
 22
4720.314220891856
 32
0.0
 13
2673.43417494707
 23
4720.314220891856
 33
0.0
  0
MTEXT
  5
5BB
330
5B6
100
AcDbEntity
  8
wymiary
 62
     0
100
AcDbMText
 10
2659.93417494707
 20
4860.314220891858
 30
0.0
 40
15.0
 41
0.0
 46
0.0
 71
     5
 72
     1
  1
280
 11
0.0000000000000001
 21
1.0
 31
0.0
 73
     1
 44
1.0
1001
ACAD
1000
MTEXTBEGIN
1070
    73
1070
     1
1070
    44
1040
1.0
1070
    74
1070
     0
1000
MTEXTEND
  0
POINT
  5
5BC
330
5B6
100
AcDbEntity
  8
Defpoints
 62
     0
100
AcDbPoint
 10
2673.43417494707
 20
5000.314220891858
 30
0.0
  0
POINT
  5
5BD
330
5B6
100
AcDbEntity
  8
Defpoints
 62
     0
100
AcDbPoint
 10
2673.43417494707
 20
4720.314220891856
 30
0.0
  0
POINT
  5
5BE
330
5B6
100
AcDbEntity
  8
Defpoints
 62
     0
100
AcDbPoint
 10
2673.43417494707
 20
4720.314220891856
 30
0.0
  0
ENDBLK
  5
5BF
330
5B6
100
AcDbEntity
  8
0
100
AcDbBlockEnd
  0
BLOCK
  5
5C1
330
5C0
100
AcDbEntity
  8
0
100
AcDbBlockBegin
  2
*D13
 70
     1
 10
0.0
 20
0.0
 30
0.0
  3
*D13
  1

  0
LINE
  5
5C2
330
5C0
100
AcDbEntity
  8
wymiary
 62
     0
370
    -2
100
AcDbLine
 10
-871.0266306643386
 20
5545.314220891857
 30
0.0
 11
-446.0266306643386
 21
5545.314220891857
 31
0.0
  0
MTEXT
  5
5C3
330
5C0
100
AcDbEntity
  8
wymiary
 62
     0
100
AcDbMText
 10
-718.5535081252237
 20
5565.088078529005
 30
0.0
 40
15.0
 41
0.0
 46
0.0
 71
     5
 72
     1
  1
465
 73
     1
 44
1.0
1001
ACAD
1000
MTEXTBEGIN
1070
    73
1070
     1
1070
    44
1040
1.0
1070
    74
1070
     0
1000
MTEXTEND
  0
SOLID
  5
5C4
330
5C0
100
AcDbEntity
  8
wymiary
 62
     0
100
AcDbTrace
 10
-871.0266306643386
 20
5548.64755422519
 30
0.0
 11
-871.0266306643386
 21
5541.980887558525
 31
0.0
 12
-891.0266306643386
 22
5545.314220891857
 32
0.0
 13
-891.0266306643386
 23
5545.314220891857
 33
0.0
  0
SOLID
  5
5C5
330
5C0
100
AcDbEntity
  8
wymiary
 62
     0
100
AcDbTrace
 10
-446.0266306643386
 20
5548.64755422519
 30
0.0
 11
-446.0266306643386
 21
5541.980887558525
 31
0.0
 12
-426.0266306643385
 22
5545.314220891857
 32
0.0
 13
-426.0266306643385
 23
5545.314220891857
 33
0.0
  0
POINT
  5
5C6
330
5C0
100
AcDbEntity
  8
Defpoints
 62
     0
100
AcDbPoint
 10
-891.0266306643386
 20
5545.314220891857
 30
0.0
  0
POINT
  5
5C7
330
5C0
100
AcDbEntity
  8
Defpoints
 62
     0
100
AcDbPoint
 10
-426.0266306643385
 20
5545.314220891857
 30
0.0
  0
POINT
  5
5C8
330
5C0
100
AcDbEntity
  8
Defpoints
 62
     0
100
AcDbPoint
 10
-426.0266306643385
 20
5545.314220891857
 30
0.0
  0
ENDBLK
  5
5C9
330
5C0
100
AcDbEntity
  8
0
100
AcDbBlockEnd
  0
BLOCK
  5
5CB
330
5CA
100
AcDbEntity
  8
0
100
AcDbBlockBegin
  2
*D14
 70
     1
 10
0.0
 20
0.0
 30
0.0
  3
*D14
  1

  0
LINE
  5
5CC
330
5CA
100
AcDbEntity
  8
wymiary
 62
     0
370
    -2
100
AcDbLine
 10
-891.0266306643386
 20
5565.314220891858
 30
0.0
 11
-891.0266306643386
 21
5790.314220891858
 31
0.0
  0
SOLID
  5
5CD
330
5CA
100
AcDbEntity
  8
wymiary
 62
     0
100
AcDbTrace
 10
-894.3599639976721
 20
5565.314220891858
 30
0.0
 11
-887.6932973310053
 21
5565.314220891858
 31
0.0
 12
-891.0266306643386
 22
5545.314220891857
 32
0.0
 13
-891.0266306643386
 23
5545.314220891857
 33
0.0
  0
SOLID
  5
5CE
330
5CA
100
AcDbEntity
  8
wymiary
 62
     0
100
AcDbTrace
 10
-894.3599639976721
 20
5790.314220891858
 30
0.0
 11
-887.6932973310053
 21
5790.314220891858
 31
0.0
 12
-891.0266306643386
 22
5810.314220891857
 32
0.0
 13
-891.0266306643386
 23
5810.314220891857
 33
0.0
  0
MTEXT
  5
5CF
330
5CA
100
AcDbEntity
  8
wymiary
 62
     0
100
AcDbMText
 10
-904.5266306643396
 20
5677.814220891858
 30
0.0
 40
15.0
 41
0.0
 46
0.0
 71
     5
 72
     1
  1
265
 11
0.0000000000000001
 21
1.0
 31
0.0
 73
     1
 44
1.0
1001
ACAD
1000
MTEXTBEGIN
1070
    73
1070
     1
1070
    44
1040
1.0
1070
    74
1070
     0
1000
MTEXTEND
  0
POINT
  5
5D0
330
5CA
100
AcDbEntity
  8
Defpoints
 62
     0
100
AcDbPoint
 10
-891.0266306643386
 20
5545.314220891857
 30
0.0
  0
POINT
  5
5D1
330
5CA
100
AcDbEntity
  8
Defpoints
 62
     0
100
AcDbPoint
 10
-891.0266306643386
 20
5810.314220891857
 30
0.0
  0
POINT
  5
5D2
330
5CA
100
AcDbEntity
  8
Defpoints
 62
     0
100
AcDbPoint
 10
-891.0266306643386
 20
5810.314220891857
 30
0.0
  0
ENDBLK
  5
5D3
330
5CA
100
AcDbEntity
  8
0
100
AcDbBlockEnd
  0
BLOCK
  5
5D5
330
5D4
100
AcDbEntity
  8
0
100
AcDbBlockBegin
  2
*D15
 70
     1
 10
0.0
 20
0.0
 30
0.0
  3
*D15
  1

  0
LINE
  5
5D6
330
5D4
100
AcDbEntity
  8
wymiary
 62
     0
370
    -2
100
AcDbLine
 10
-726.0266306643391
 20
5000.314220891858
 30
0.0
 11
-446.0266306643389
 21
5000.314220891858
 31
0.0
  0
SOLID
  5
5D7
330
5D4
100
AcDbEntity
  8
wymiary
 62
     0
100
AcDbTrace
 10
-726.0266306643391
 20
5003.647554225191
 30
0.0
 11
-726.0266306643391
 21
4996.980887558525
 31
0.0
 12
-746.0266306643391
 22
5000.314220891858
 32
0.0
 13
-746.0266306643391
 23
5000.314220891858
 33
0.0
  0
SOLID
  5
5D8
330
5D4
100
AcDbEntity
  8
wymiary
 62
     0
100
AcDbTrace
 10
-446.0266306643389
 20
5003.647554225191
 30
0.0
 11
-446.0266306643389
 21
4996.980887558525
 31
0.0
 12
-426.026630664339
 22
5000.314220891858
 32
0.0
 13
-426.026630664339
 23
5000.314220891858
 33
0.0
  0
MTEXT
  5
5D9
330
5D4
100
AcDbEntity
  8
wymiary
 62
     0
100
AcDbMText
 10
-586.0266306643389
 20
5013.814220891858
 30
0.0
 40
15.0
 41
0.0
 46
0.0
 71
     5
 72
     1
  1
320
 73
     1
 44
1.0
1001
ACAD
1000
MTEXTBEGIN
1070
    73
1070
     1
1070
    44
1040
1.0
1070
    74
1070
     0
1000
MTEXTEND
  0
POINT
  5
5DA
330
5D4
100
AcDbEntity
  8
Defpoints
 62
     0
100
AcDbPoint
 10
-746.0266306643391
 20
5000.314220891858
 30
0.0
  0
POINT
  5
5DB
330
5D4
100
AcDbEntity
  8
Defpoints
 62
     0
100
AcDbPoint
 10
-426.026630664339
 20
5000.314220891862
 30
0.0
  0
POINT
  5
5DC
330
5D4
100
AcDbEntity
  8
Defpoints
 62
     0
100
AcDbPoint
 10
-426.026630664339
 20
5000.314220891858
 30
0.0
  0
ENDBLK
  5
5DD
330
5D4
100
AcDbEntity
  8
0
100
AcDbBlockEnd
  0
BLOCK
  5
5DF
330
5DE
100
AcDbEntity
  8
0
100
AcDbBlockBegin
  2
*D16
 70
     1
 10
0.0
 20
0.0
 30
0.0
  3
*D16
  1

  0
LINE
  5
5E0
330
5DE
100
AcDbEntity
  8
wymiary
 62
     0
370
    -2
100
AcDbLine
 10
-746.0266306643391
 20
4980.314220891858
 30
0.0
 11
-746.0266306643393
 21
4740.314220891857
 31
0.0
  0
SOLID
  5
5E1
330
5DE
100
AcDbEntity
  8
wymiary
 62
     0
100
AcDbTrace
 10
-749.3599639976724
 20
4980.314220891858
 30
0.0
 11
-742.6932973310057
 21
4980.314220891858
 31
0.0
 12
-746.0266306643391
 22
5000.314220891858
 32
0.0
 13
-746.0266306643391
 23
5000.314220891858
 33
0.0
  0
SOLID
  5
5E2
330
5DE
100
AcDbEntity
  8
wymiary
 62
     0
100
AcDbTrace
 10
-749.3599639976726
 20
4740.314220891857
 30
0.0
 11
-742.6932973310059
 21
4740.314220891857
 31
0.0
 12
-746.0266306643393
 22
4720.314220891856
 32
0.0
 13
-746.0266306643393
 23
4720.314220891856
 33
0.0
  0
MTEXT
  5
5E3
330
5DE
100
AcDbEntity
  8
wymiary
 62
     0
100
AcDbMText
 10
-759.5266306643399
 20
4860.314220891858
 30
0.0
 40
15.0
 41
0.0
 46
0.0
 71
     5
 72
     1
  1
280
 11
0.0000000000000001
 21
1.0
 31
0.0
 73
     1
 44
1.0
1001
ACAD
1000
MTEXTBEGIN
1070
    73
1070
     1
1070
    44
1040
1.0
1070
    74
1070
     0
1000
MTEXTEND
  0
POINT
  5
5E4
330
5DE
100
AcDbEntity
  8
Defpoints
 62
     0
100
AcDbPoint
 10
-746.0266306643391
 20
5000.314220891858
 30
0.0
  0
POINT
  5
5E5
330
5DE
100
AcDbEntity
  8
Defpoints
 62
     0
100
AcDbPoint
 10
-746.0266306643394
 20
4720.314220891856
 30
0.0
  0
POINT
  5
5E6
330
5DE
100
AcDbEntity
  8
Defpoints
 62
     0
100
AcDbPoint
 10
-746.0266306643393
 20
4720.314220891856
 30
0.0
  0
ENDBLK
  5
5E7
330
5DE
100
AcDbEntity
  8
0
100
AcDbBlockEnd
  0
BLOCK
  5
5E9
330
5E8
100
AcDbEntity
  8
0
100
AcDbBlockBegin
  2
*D17
 70
     1
 10
0.0
 20
0.0
 30
0.0
  3
*D17
  1

  0
LINE
  5
5EA
330
5E8
100
AcDbEntity
  8
wymiary
 62
     0
370
    -2
100
AcDbLine
 10
-689.8079378181141
 20
5433.909384151001
 30
0.0
 11
-1092.245323510563
 21
5656.719057632712
 31
0.0
  0
MTEXT
  5
5EB
330
5E8
100
AcDbEntity
  8
wymiary
 62
     0
100
AcDbMText
 10
-988.6166540539012
 20
5621.785977864789
 30
0.0
 40
15.0
 41
0.0
 46
0.0
 71
     5
 72
     1
  1
∅500
 11
0.8748638819401076
 21
-0.4843688553950238
 31
0.0
 73
     1
 44
1.0
1001
ACAD
1000
MTEXTBEGIN
1070
    73
1070
     1
1070
    44
1040
1.0
1070
    74
1070
     0
1000
MTEXTEND
  0
SOLID
  5
5EC
330
5E8
100
AcDbEntity
  8
wymiary
 62
     0
100
AcDbTrace
 10
-688.1933749667978
 20
5436.825597090802
 30
0.0
 11
-691.422500669431
 21
5430.993171211201
 31
0.0
 12
-672.3106601793118
 22
5424.222007043102
 32
0.0
 13
-672.3106601793118
 23
5424.222007043102
 33
0.0
  0
SOLID
  5
5ED
330
5E8
100
AcDbEntity
  8
wymiary
 62
     0
100
AcDbTrace
 10
-1090.630760659247
 20
5659.635270572512
 30
0.0
 11
-1093.85988636188
 21
5653.802844692911
 31
0.0
 12
-1109.742601149365
 22
5666.406434740613
 32
0.0
 13
-1109.742601149365
 23
5666.406434740613
 33
0.0
  0
POINT
  5
5EE
330
5E8
100
AcDbEntity
  8
Defpoints
 62
     0
100
AcDbPoint
 10
-1109.742601149365
 20
5666.406434740613
 30
0.0
  0
POINT
  5
5EF
330
5E8
100
AcDbEntity
  8
Defpoints
 62
     0
100
AcDbPoint
 10
-672.3106601793118
 20
5424.222007043102
 30
0.0
  0
ENDBLK
  5
5F0
330
5E8
100
AcDbEntity
  8
0
100
AcDbBlockEnd
  0
BLOCK
  5
5F2
330
5F1
100
AcDbEntity
  8
0
100
AcDbBlockBegin
  2
*D18
 70
     1
 10
0.0
 20
0.0
 30
0.0
  3
*D18
  1

  0
LINE
  5
5F3
330
5F1
100
AcDbEntity
  8
wymiary
 62
     0
370
    -2
100
AcDbLine
 10
-538.5066016558385
 20
4901.140446332695
 30
0.0
 11
-953.546659672838
 21
5099.487995451021
 31
0.0
  0
MTEXT
  5
5F4
330
5F1
100
AcDbEntity
  8
wymiary
 62
     0
100
AcDbMText
 10
-833.8088688802706
 20
5071.671528054531
 30
0.0
 40
15.0
 41
0.0
 46
0.0
 71
     5
 72
     1
  1
∅500
 11
0.9022609956891272
 21
-0.4311903241702728
 31
0.0
 73
     1
 44
1.0
1001
ACAD
1000
MTEXTBEGIN
1070
    73
1070
     1
1070
    44
1040
1.0
1070
    74
1070
     0
1000
MTEXTEND
  0
SOLID
  5
5F5
330
5F1
100
AcDbEntity
  8
wymiary
 62
     0
100
AcDbTrace
 10
-537.0693005752708
 20
4904.147982984992
 30
0.0
 11
-539.943902736406
 21
4898.132909680398
 31
0.0
 12
-520.4613817420558
 22
4892.516639849289
 32
0.0
 13
-520.4613817420558
 23
4892.516639849289
 33
0.0
  0
SOLID
  5
5F6
330
5F1
100
AcDbEntity
  8
wymiary
 62
     0
100
AcDbTrace
 10
-952.1093585922704
 20
5102.495532103318
 30
0.0
 11
-954.9839607534053
 21
5096.480458798724
 31
0.0
 12
-971.5918795866203
 22
5108.111801934427
 32
0.0
 13
-971.5918795866203
 23
5108.111801934427
 33
0.0
  0
POINT
  5
5F7
330
5F1
100
AcDbEntity
  8
Defpoints
 62
     0
100
AcDbPoint
 10
-971.5918795866203
 20
5108.111801934427
 30
0.0
  0
POINT
  5
5F8
330
5F1
100
AcDbEntity
  8
Defpoints
 62
     0
100
AcDbPoint
 10
-520.4613817420558
 20
4892.516639849289
 30
0.0
  0
ENDBLK
  5
5F9
330
5F1
100
AcDbEntity
  8
0
100
AcDbBlockEnd
  0
BLOCK
  5
5FB
330
5FA
100
AcDbEntity
  8
0
100
AcDbBlockBegin
  2
*D19
 70
     1
 10
0.0
 20
0.0
 30
0.0
  3
*D19
  1

  0
LINE
  5
5FC
330
5FA
100
AcDbEntity
  8
wymiary
 62
     0
370
    -2
100
AcDbLine
 10
3016.488349554825
 20
5428.376015328231
 30
0.0
 11
2620.380000339315
 21
5662.252426455483
 31
0.0
  0
MTEXT
  5
5FD
330
5FA
100
AcDbEntity
  8
wymiary
 62
     0
100
AcDbMText
 10
2719.128291520787
 20
5627.236062202623
 30
0.0
 40
15.0
 41
0.0
 46
0.0
 71
     5
 72
     1
  1
∅500
 11
0.8611051069902394
 21
-0.5084269807114179
 31
0.0
 73
     1
 44
1.0
1001
ACAD
1000
MTEXTBEGIN
1070
    73
1070
     1
1070
    44
1040
1.0
1070
    74
1070
     0
1000
MTEXTEND
  0
SOLID
  5
5FE
330
5FA
100
AcDbEntity
  8
wymiary
 62
     0
100
AcDbTrace
 10
3018.183106157195
 20
5431.246365684865
 30
0.0
 11
3014.793592952453
 21
5425.505664971598
 31
0.0
 12
3033.71045169463
 22
5418.207475714003
 32
0.0
 13
3033.71045169463
 23
5418.207475714003
 33
0.0
  0
SOLID
  5
5FF
330
5FA
100
AcDbEntity
  8
wymiary
 62
     0
100
AcDbTrace
 10
2622.074756941686
 20
5665.122776812117
 30
0.0
 11
2618.685243736944
 21
5659.382076098849
 31
0.0
 12
2603.157898199512
 22
5672.420966069712
 32
0.0
 13
2603.157898199512
 23
5672.420966069712
 33
0.0
  0
POINT
  5
600
330
5FA
100
AcDbEntity
  8
Defpoints
 62
     0
100
AcDbPoint
 10
2603.157898199512
 20
5672.420966069712
 30
0.0
  0
POINT
  5
601
330
5FA
100
AcDbEntity
  8
Defpoints
 62
     0
100
AcDbPoint
 10
3033.71045169463
 20
5418.207475714003
 30
0.0
  0
ENDBLK
  5
602
330
5FA
100
AcDbEntity
  8
0
100
AcDbBlockEnd
  0
BLOCK
  5
604
330
603
100
AcDbEntity
  8
0
100
AcDbBlockBegin
  2
*D20
 70
     1
 10
0.0
 20
0.0
 30
0.0
  3
*D20
  1

  0
LINE
  5
605
330
603
100
AcDbEntity
  8
wymiary
 62
     0
370
    -2
100
AcDbLine
 10
2879.370549863228
 20
4897.892497188379
 30
0.0
 11
2467.497800030911
 21
5102.735944595334
 31
0.0
  0
MTEXT
  5
606
330
603
100
AcDbEntity
  8
wymiary
 62
     0
100
AcDbMText
 10
2606.241805867482
 20
5058.750354553825
 30
0.0
 40
15.0
 41
0.0
 46
0.0
 71
     5
 72
     1
  1
∅500
 11
0.8953755431137338
 21
-0.4453118421890287
 31
0.0
 73
     1
 44
1.0
1001
ACAD
1000
MTEXTBEGIN
1070
    73
1070
     1
1070
    44
1040
1.0
1070
    74
1070
     0
1000
MTEXTEND
  0
SOLID
  5
607
330
603
100
AcDbEntity
  8
wymiary
 62
     0
100
AcDbTrace
 10
2880.854922670525
 20
4900.877082332093
 30
0.0
 11
2877.886177055932
 21
4894.907912044669
 31
0.0
 12
2897.278060725503
 22
4888.9862603446
 32
0.0
 13
2897.278060725503
 23
4888.9862603446
 33
0.0
  0
SOLID
  5
608
330
603
100
AcDbEntity
  8
wymiary
 62
     0
100
AcDbTrace
 10
2468.982172838208
 20
5105.720529739047
 30
0.0
 11
2466.013427223615
 21
5099.751359451621
 31
0.0
 12
2449.590289168637
 22
5111.642181439115
 32
0.0
 13
2449.590289168637
 23
5111.642181439115
 33
0.0
  0
POINT
  5
609
330
603
100
AcDbEntity
  8
Defpoints
 62
     0
100
AcDbPoint
 10
2449.590289168637
 20
5111.642181439115
 30
0.0
  0
POINT
  5
60A
330
603
100
AcDbEntity
  8
Defpoints
 62
     0
100
AcDbPoint
 10
2897.278060725503
 20
4888.9862603446
 30
0.0
  0
ENDBLK
  5
60B
330
603
100
AcDbEntity
  8
0
100
AcDbBlockEnd
  0
BLOCK
  5
60D
330
60C
100
AcDbEntity
  8
0
100
AcDbBlockBegin
  2
*D21
 70
     1
 10
0.0
 20
0.0
 30
0.0
  3
*D21
  1

  0
LINE
  5
60E
330
60C
100
AcDbEntity
  8
wymiary
 62
     0
100
AcDbLine
 10
213.7037721413654
 20
5810.314220891857
 30
0.0
 11
213.7037721413654
 21
5857.414816097548
 31
0.0
  0
LINE
  5
60F
330
60C
100
AcDbEntity
  8
wymiary
 62
     0
100
AcDbLine
 10
1713.703772141365
 20
5810.314220891857
 30
0.0
 11
1713.703772141365
 21
5857.414816097548
 31
0.0
  0
LINE
  5
610
330
60C
100
AcDbEntity
  8
wymiary
 62
     0
370
    -2
100
AcDbLine
 10
233.7037721413653
 20
5857.414816097548
 30
0.0
 11
1693.703772141365
 21
5857.414816097548
 31
0.0
  0
SOLID
  5
611
330
60C
100
AcDbEntity
  8
wymiary
 62
     0
100
AcDbTrace
 10
233.7037721413653
 20
5860.748149430879
 30
0.0
 11
233.7037721413653
 21
5854.081482764214
 31
0.0
 12
213.7037721413654
 22
5857.414816097548
 32
0.0
 13
213.7037721413654
 23
5857.414816097548
 33
0.0
  0
SOLID
  5
612
330
60C
100
AcDbEntity
  8
wymiary
 62
     0
100
AcDbTrace
 10
1693.703772141365
 20
5860.748149430879
 30
0.0
 11
1693.703772141365
 21
5854.081482764214
 31
0.0
 12
1713.703772141365
 22
5857.414816097548
 32
0.0
 13
1713.703772141365
 23
5857.414816097548
 33
0.0
  0
MTEXT
  5
613
330
60C
100
AcDbEntity
  8
wymiary
 62
     0
100
AcDbMText
 10
963.7037721413651
 20
5870.914816097546
 30
0.0
 40
15.0
 41
0.0
 46
0.0
 71
     5
 72
     1
  1
1500
 73
     1
 44
1.0
1001
ACAD
1000
MTEXTBEGIN
1070
    73
1070
     1
1070
    44
1040
1.0
1070
    74
1070
     0
1000
MTEXTEND
  0
POINT
  5
614
330
60C
100
AcDbEntity
  8
Defpoints
 62
     0
100
AcDbPoint
 10
213.7037721413654
 20
5810.314220891857
 30
0.0
  0
POINT
  5
615
330
60C
100
AcDbEntity
  8
Defpoints
 62
     0
100
AcDbPoint
 10
1713.703772141365
 20
5810.314220891857
 30
0.0
  0
POINT
  5
616
330
60C
100
AcDbEntity
  8
Defpoints
 62
     0
100
AcDbPoint
 10
1713.703772141365
 20
5857.414816097548
 30
0.0
  0
ENDBLK
  5
617
330
60C
100
AcDbEntity
  8
0
100
AcDbBlockEnd
  0
BLOCK
  5
619
330
618
100
AcDbEntity
  8
0
100
AcDbBlockBegin
  2
*D22
 70
     1
 10
0.0
 20
0.0
 30
0.0
  3
*D22
  1

  0
LINE
  5
61A
330
618
100
AcDbEntity
  8
wymiary
 62
     0
100
AcDbLine
 10
2353.43417494707
 20
5810.314220891857
 30
0.0
 11
2353.43417494707
 21
5857.414816097548
 31
0.0
  0
LINE
  5
61B
330
618
100
AcDbEntity
  8
wymiary
 62
     0
100
AcDbLine
 10
3228.43417494707
 20
5810.314220891857
 30
0.0
 11
3228.43417494707
 21
5857.414816097548
 31
0.0
  0
LINE
  5
61C
330
618
100
AcDbEntity
  8
wymiary
 62
     0
370
    -2
100
AcDbLine
 10
2373.43417494707
 20
5857.414816097548
 30
0.0
 11
3208.43417494707
 21
5857.414816097548
 31
0.0
  0
SOLID
  5
61D
330
618
100
AcDbEntity
  8
wymiary
 62
     0
100
AcDbTrace
 10
2373.43417494707
 20
5860.748149430879
 30
0.0
 11
2373.43417494707
 21
5854.081482764214
 31
0.0
 12
2353.43417494707
 22
5857.414816097548
 32
0.0
 13
2353.43417494707
 23
5857.414816097548
 33
0.0
  0
SOLID
  5
61E
330
618
100
AcDbEntity
  8
wymiary
 62
     0
100
AcDbTrace
 10
3208.43417494707
 20
5860.748149430879
 30
0.0
 11
3208.43417494707
 21
5854.081482764214
 31
0.0
 12
3228.43417494707
 22
5857.414816097548
 32
0.0
 13
3228.43417494707
 23
5857.414816097548
 33
0.0
  0
MTEXT
  5
61F
330
618
100
AcDbEntity
  8
wymiary
 62
     0
100
AcDbMText
 10
2790.93417494707
 20
5870.914816097546
 30
0.0
 40
15.0
 41
0.0
 46
0.0
 71
     5
 72
     1
  1
875
 73
     1
 44
1.0
1001
ACAD
1000
MTEXTBEGIN
1070
    73
1070
     1
1070
    44
1040
1.0
1070
    74
1070
     0
1000
MTEXTEND
  0
POINT
  5
620
330
618
100
AcDbEntity
  8
Defpoints
 62
     0
100
AcDbPoint
 10
2353.43417494707
 20
5810.314220891857
 30
0.0
  0
POINT
  5
621
330
618
100
AcDbEntity
  8
Defpoints
 62
     0
100
AcDbPoint
 10
3228.43417494707
 20
5810.314220891857
 30
0.0
  0
POINT
  5
622
330
618
100
AcDbEntity
  8
Defpoints
 62
     0
100
AcDbPoint
 10
3228.43417494707
 20
5857.414816097548
 30
0.0
  0
ENDBLK
  5
623
330
618
100
AcDbEntity
  8
0
100
AcDbBlockEnd
  0
BLOCK
  5
625
330
624
100
AcDbEntity
  8
0
100
AcDbBlockBegin
  2
*D23
 70
     1
 10
0.0
 20
0.0
 30
0.0
  3
*D23
  1

  0
LINE
  5
626
330
624
100
AcDbEntity
  8
wymiary
 62
     0
100
AcDbLine
 10
213.7037721413654
 20
5810.314220891857
 30
0.0
 11
104.1339602368246
 21
5810.314220891857
 31
0.0
  0
LINE
  5
627
330
624
100
AcDbEntity
  8
wymiary
 62
     0
100
AcDbLine
 10
213.7037721413654
 20
4720.314220891856
 30
0.0
 11
104.1339602368243
 21
4720.314220891856
 31
0.0
  0
LINE
  5
628
330
624
100
AcDbEntity
  8
wymiary
 62
     0
370
    -2
100
AcDbLine
 10
104.1339602368245
 20
5790.314220891858
 30
0.0
 11
104.1339602368243
 21
4740.314220891857
 31
0.0
  0
SOLID
  5
629
330
624
100
AcDbEntity
  8
wymiary
 62
     0
100
AcDbTrace
 10
100.8006269034912
 20
5790.314220891858
 30
0.0
 11
107.4672935701579
 21
5790.314220891858
 31
0.0
 12
104.1339602368246
 22
5810.314220891857
 32
0.0
 13
104.1339602368246
 23
5810.314220891857
 33
0.0
  0
SOLID
  5
62A
330
624
100
AcDbEntity
  8
wymiary
 62
     0
100
AcDbTrace
 10
100.800626903491
 20
4740.314220891857
 30
0.0
 11
107.4672935701576
 21
4740.314220891857
 31
0.0
 12
104.1339602368243
 22
4720.314220891856
 32
0.0
 13
104.1339602368243
 23
4720.314220891856
 33
0.0
  0
MTEXT
  5
62B
330
624
100
AcDbEntity
  8
wymiary
 62
     0
100
AcDbMText
 10
90.63396023682363
 20
5265.314220891857
 30
0.0
 40
15.0
 41
0.0
 46
0.0
 71
     5
 72
     1
  1
1090
 11
0.0000000000000001
 21
1.0
 31
0.0
 73
     1
 44
1.0
1001
ACAD
1000
MTEXTBEGIN
1070
    73
1070
     1
1070
    44
1040
1.0
1070
    74
1070
     0
1000
MTEXTEND
  0
POINT
  5
62C
330
624
100
AcDbEntity
  8
Defpoints
 62
     0
100
AcDbPoint
 10
213.7037721413654
 20
5810.314220891857
 30
0.0
  0
POINT
  5
62D
330
624
100
AcDbEntity
  8
Defpoints
 62
     0
100
AcDbPoint
 10
213.7037721413654
 20
4720.314220891856
 30
0.0
  0
POINT
  5
62E
330
624
100
AcDbEntity
  8
Defpoints
 62
     0
100
AcDbPoint
 10
104.1339602368243
 20
4720.314220891856
 30
0.0
  0
ENDBLK
  5
62F
330
624
100
AcDbEntity
  8
0
100
AcDbBlockEnd
  0
BLOCK
  5
675
330
66D
100
AcDbEntity
  8
0
100
AcDbBlockBegin
  2
*D24
 70
     1
 10
0.0
 20
0.0
 30
0.0
  3
*D24
  1

  0
LINE
  5
705
330
66D
100
AcDbEntity
  8
wymiary
 62
     0
370
    -2
100
AcDbLine
 10
4095.595365642568
 20
2244.745821002881
 30
0.0
 11
4520.595365642569
 21
2244.745821002881
 31
0.0
  0
MTEXT
  5
706
330
66D
100
AcDbEntity
  8
wymiary
 62
     0
100
AcDbMText
 10
4248.068488181685
 20
2264.519678640029
 30
0.0
 40
15.0
 41
0.0
 46
0.0
 71
     5
 72
     1
  1
465
 73
     1
 44
1.0
1001
ACAD
1000
MTEXTBEGIN
1070
    73
1070
     1
1070
    44
1040
1.0
1070
    74
1070
     0
1000
MTEXTEND
  0
SOLID
  5
707
330
66D
100
AcDbEntity
  8
wymiary
 62
     0
100
AcDbTrace
 10
4095.595365642568
 20
2248.079154336215
 30
0.0
 11
4095.595365642568
 21
2241.412487669547
 31
0.0
 12
4075.59536564257
 22
2244.745821002881
 32
0.0
 13
4075.59536564257
 23
2244.745821002881
 33
0.0
  0
SOLID
  5
708
330
66D
100
AcDbEntity
  8
wymiary
 62
     0
100
AcDbTrace
 10
4520.595365642569
 20
2248.079154336215
 30
0.0
 11
4520.595365642569
 21
2241.412487669547
 31
0.0
 12
4540.59536564257
 22
2244.745821002881
 32
0.0
 13
4540.59536564257
 23
2244.745821002881
 33
0.0
  0
POINT
  5
709
330
66D
100
AcDbEntity
  8
Defpoints
 62
     0
100
AcDbPoint
 10
4075.59536564257
 20
2244.745821002881
 30
0.0
  0
POINT
  5
70A
330
66D
100
AcDbEntity
  8
Defpoints
 62
     0
100
AcDbPoint
 10
4540.59536564257
 20
2244.74582100288
 30
0.0
  0
POINT
  5
70B
330
66D
100
AcDbEntity
  8
Defpoints
 62
     0
100
AcDbPoint
 10
4540.59536564257
 20
2244.745821002881
 30
0.0
  0
ENDBLK
  5
676
330
66D
100
AcDbEntity
  8
0
100
AcDbBlockEnd
  0
BLOCK
  5
681
330
677
100
AcDbEntity
  8
0
100
AcDbBlockBegin
  2
*D25
 70
     1
 10
0.0
 20
0.0
 30
0.0
  3
*D25
  1

  0
LINE
  5
782
330
677
100
AcDbEntity
  8
wymiary
 62
     0
100
AcDbLine
 10
323.7994656434604
 20
2569.786569886729
 30
0.0
 11
214.2296537389195
 21
2569.786569886729
 31
0.0
  0
LINE
  5
783
330
677
100
AcDbEntity
  8
wymiary
 62
     0
100
AcDbLine
 10
323.7994656434604
 20
1479.786569886729
 30
0.0
 11
214.2296537389193
 21
1479.786569886729
 31
0.0
  0
LINE
  5
784
330
677
100
AcDbEntity
  8
wymiary
 62
     0
370
    -2
100
AcDbLine
 10
214.2296537389195
 20
2549.786569886729
 30
0.0
 11
214.2296537389193
 21
1499.786569886729
 31
0.0
  0
SOLID
  5
785
330
677
100
AcDbEntity
  8
wymiary
 62
     0
100
AcDbTrace
 10
210.8963204055862
 20
2549.786569886729
 30
0.0
 11
217.5629870722529
 21
2549.786569886729
 31
0.0
 12
214.2296537389195
 22
2569.786569886729
 32
0.0
 13
214.2296537389195
 23
2569.786569886729
 33
0.0
  0
SOLID
  5
786
330
677
100
AcDbEntity
  8
wymiary
 62
     0
100
AcDbTrace
 10
210.8963204055859
 20
1499.786569886729
 30
0.0
 11
217.5629870722526
 21
1499.786569886729
 31
0.0
 12
214.2296537389193
 22
1479.786569886729
 32
0.0
 13
214.2296537389193
 23
1479.786569886729
 33
0.0
  0
MTEXT
  5
787
330
677
100
AcDbEntity
  8
wymiary
 62
     0
100
AcDbMText
 10
200.7296537389191
 20
2024.78656988673
 30
0.0
 40
15.0
 41
0.0
 46
0.0
 71
     5
 72
     1
  1
1090
 11
0.0000000000000001
 21
1.0
 31
0.0
 73
     1
 44
1.0
1001
ACAD
1000
MTEXTBEGIN
1070
    73
1070
     1
1070
    44
1040
1.0
1070
    74
1070
     0
1000
MTEXTEND
  0
POINT
  5
788
330
677
100
AcDbEntity
  8
Defpoints
 62
     0
100
AcDbPoint
 10
323.7994656434604
 20
2569.786569886729
 30
0.0
  0
POINT
  5
789
330
677
100
AcDbEntity
  8
Defpoints
 62
     0
100
AcDbPoint
 10
323.7994656434604
 20
1479.786569886729
 30
0.0
  0
POINT
  5
78A
330
677
100
AcDbEntity
  8
Defpoints
 62
     0
100
AcDbPoint
 10
214.2296537389193
 20
1479.786569886729
 30
0.0
  0
ENDBLK
  5
682
330
677
100
AcDbEntity
  8
0
100
AcDbBlockEnd
  0
BLOCK
  5
68D
330
683
100
AcDbEntity
  8
0
100
AcDbBlockBegin
  2
*D26
 70
     1
 10
0.0
 20
0.0
 30
0.0
  3
*D26
  1

  0
LINE
  5
779
330
683
100
AcDbEntity
  8
wymiary
 62
     0
100
AcDbLine
 10
2463.529868449164
 20
2569.786569886729
 30
0.0
 11
2463.529868449164
 21
2616.887165092419
 31
0.0
  0
LINE
  5
77A
330
683
100
AcDbEntity
  8
wymiary
 62
     0
100
AcDbLine
 10
3338.529868449164
 20
2569.786569886729
 30
0.0
 11
3338.529868449164
 21
2616.887165092419
 31
0.0
  0
LINE
  5
77B
330
683
100
AcDbEntity
  8
wymiary
 62
     0
370
    -2
100
AcDbLine
 10
2483.529868449165
 20
2616.887165092419
 30
0.0
 11
3318.529868449165
 21
2616.887165092419
 31
0.0
  0
SOLID
  5
77C
330
683
100
AcDbEntity
  8
wymiary
 62
     0
100
AcDbTrace
 10
2483.529868449165
 20
2620.220498425752
 30
0.0
 11
2483.529868449165
 21
2613.553831759085
 31
0.0
 12
2463.529868449164
 22
2616.887165092419
 32
0.0
 13
2463.529868449164
 23
2616.887165092419
 33
0.0
  0
SOLID
  5
77D
330
683
100
AcDbEntity
  8
wymiary
 62
     0
100
AcDbTrace
 10
3318.529868449165
 20
2620.220498425752
 30
0.0
 11
3318.529868449165
 21
2613.553831759085
 31
0.0
 12
3338.529868449164
 22
2616.887165092419
 32
0.0
 13
3338.529868449164
 23
2616.887165092419
 33
0.0
  0
MTEXT
  5
77E
330
683
100
AcDbEntity
  8
wymiary
 62
     0
100
AcDbMText
 10
2901.029868449164
 20
2630.387165092419
 30
0.0
 40
15.0
 41
0.0
 46
0.0
 71
     5
 72
     1
  1
875
 73
     1
 44
1.0
1001
ACAD
1000
MTEXTBEGIN
1070
    73
1070
     1
1070
    44
1040
1.0
1070
    74
1070
     0
1000
MTEXTEND
  0
POINT
  5
77F
330
683
100
AcDbEntity
  8
Defpoints
 62
     0
100
AcDbPoint
 10
2463.529868449164
 20
2569.786569886729
 30
0.0
  0
POINT
  5
780
330
683
100
AcDbEntity
  8
Defpoints
 62
     0
100
AcDbPoint
 10
3338.529868449164
 20
2569.786569886729
 30
0.0
  0
POINT
  5
781
330
683
100
AcDbEntity
  8
Defpoints
 62
     0
100
AcDbPoint
 10
3338.529868449164
 20
2616.887165092419
 30
0.0
  0
ENDBLK
  5
68E
330
683
100
AcDbEntity
  8
0
100
AcDbBlockEnd
  0
BLOCK
  5
699
330
68F
100
AcDbEntity
  8
0
100
AcDbBlockBegin
  2
*D27
 70
     1
 10
0.0
 20
0.0
 30
0.0
  3
*D27
  1

  0
LINE
  5
770
330
68F
100
AcDbEntity
  8
wymiary
 62
     0
100
AcDbLine
 10
323.7994656434604
 20
2569.786569886729
 30
0.0
 11
323.7994656434604
 21
2616.887165092419
 31
0.0
  0
LINE
  5
771
330
68F
100
AcDbEntity
  8
wymiary
 62
     0
100
AcDbLine
 10
1823.79946564346
 20
2569.786569886729
 30
0.0
 11
1823.79946564346
 21
2616.887165092419
 31
0.0
  0
LINE
  5
772
330
68F
100
AcDbEntity
  8
wymiary
 62
     0
370
    -2
100
AcDbLine
 10
343.7994656434603
 20
2616.887165092419
 30
0.0
 11
1803.79946564346
 21
2616.887165092419
 31
0.0
  0
SOLID
  5
773
330
68F
100
AcDbEntity
  8
wymiary
 62
     0
100
AcDbTrace
 10
343.7994656434603
 20
2620.220498425752
 30
0.0
 11
343.7994656434603
 21
2613.553831759085
 31
0.0
 12
323.7994656434604
 22
2616.887165092419
 32
0.0
 13
323.7994656434604
 23
2616.887165092419
 33
0.0
  0
SOLID
  5
774
330
68F
100
AcDbEntity
  8
wymiary
 62
     0
100
AcDbTrace
 10
1803.79946564346
 20
2620.220498425752
 30
0.0
 11
1803.79946564346
 21
2613.553831759085
 31
0.0
 12
1823.79946564346
 22
2616.887165092419
 32
0.0
 13
1823.79946564346
 23
2616.887165092419
 33
0.0
  0
MTEXT
  5
775
330
68F
100
AcDbEntity
  8
wymiary
 62
     0
100
AcDbMText
 10
1073.799465643459
 20
2630.387165092419
 30
0.0
 40
15.0
 41
0.0
 46
0.0
 71
     5
 72
     1
  1
1500
 73
     1
 44
1.0
1001
ACAD
1000
MTEXTBEGIN
1070
    73
1070
     1
1070
    44
1040
1.0
1070
    74
1070
     0
1000
MTEXTEND
  0
POINT
  5
776
330
68F
100
AcDbEntity
  8
Defpoints
 62
     0
100
AcDbPoint
 10
323.7994656434604
 20
2569.786569886729
 30
0.0
  0
POINT
  5
777
330
68F
100
AcDbEntity
  8
Defpoints
 62
     0
100
AcDbPoint
 10
1823.79946564346
 20
2569.786569886729
 30
0.0
  0
POINT
  5
778
330
68F
100
AcDbEntity
  8
Defpoints
 62
     0
100
AcDbPoint
 10
1823.79946564346
 20
2616.887165092419
 30
0.0
  0
ENDBLK
  5
69A
330
68F
100
AcDbEntity
  8
0
100
AcDbBlockEnd
  0
BLOCK
  5
6A2
330
69B
100
AcDbEntity
  8
0
100
AcDbBlockBegin
  2
*D28
 70
     1
 10
0.0
 20
0.0
 30
0.0
  3
*D28
  1

  0
LINE
  5
727
330
69B
100
AcDbEntity
  8
wymiary
 62
     0
370
    -2
100
AcDbLine
 10
7845.992546170136
 20
1597.324097299403
 30
0.0
 11
7434.119796337821
 21
1802.167544706357
 31
0.0
  0
MTEXT
  5
728
330
69B
100
AcDbEntity
  8
wymiary
 62
     0
100
AcDbMText
 10
7572.863802174392
 20
1758.181954664847
 30
0.0
 40
15.0
 41
0.0
 46
0.0
 71
     5
 72
     1
  1
∅500
 11
0.8953755431137333
 21
-0.4453118421890295
 31
0.0
 73
     1
 44
1.0
1001
ACAD
1000
MTEXTBEGIN
1070
    73
1070
     1
1070
    44
1040
1.0
1070
    74
1070
     0
1000
MTEXTEND
  0
SOLID
  5
729
330
69B
100
AcDbEntity
  8
wymiary
 62
     0
100
AcDbTrace
 10
7847.476918977432
 20
1600.308682443116
 30
0.0
 11
7844.508173362839
 21
1594.339512155691
 31
0.0
 12
7863.900057032411
 22
1588.417860455623
 32
0.0
 13
7863.900057032411
 23
1588.417860455623
 33
0.0
  0
SOLID
  5
72A
330
69B
100
AcDbEntity
  8
wymiary
 62
     0
100
AcDbTrace
 10
7435.604169145118
 20
1805.152129850068
 30
0.0
 11
7432.635423530523
 21
1799.182959562644
 31
0.0
 12
7416.212285475545
 22
1811.073781550136
 32
0.0
 13
7416.212285475545
 23
1811.073781550136
 33
0.0
  0
POINT
  5
72B
330
69B
100
AcDbEntity
  8
Defpoints
 62
     0
100
AcDbPoint
 10
7416.212285475545
 20
1811.073781550136
 30
0.0
  0
POINT
  5
72C
330
69B
100
AcDbEntity
  8
Defpoints
 62
     0
100
AcDbPoint
 10
7863.900057032411
 20
1588.417860455623
 30
0.0
  0
ENDBLK
  5
6A3
330
69B
100
AcDbEntity
  8
0
100
AcDbBlockEnd
  0
BLOCK
  5
6AB
330
6A4
100
AcDbEntity
  8
0
100
AcDbBlockBegin
  2
*D29
 70
     1
 10
0.0
 20
0.0
 30
0.0
  3
*D29
  1

  0
LINE
  5
72D
330
6A4
100
AcDbEntity
  8
wymiary
 62
     0
370
    -2
100
AcDbLine
 10
7983.110345861733
 20
2127.807615439255
 30
0.0
 11
7587.001996646224
 21
2361.684026566506
 31
0.0
  0
MTEXT
  5
72E
330
6A4
100
AcDbEntity
  8
wymiary
 62
     0
100
AcDbMText
 10
7685.750287827696
 20
2326.667662313646
 30
0.0
 40
15.0
 41
0.0
 46
0.0
 71
     5
 72
     1
  1
∅500
 11
0.8611051069902398
 21
-0.5084269807114172
 31
0.0
 73
     1
 44
1.0
1001
ACAD
1000
MTEXTBEGIN
1070
    73
1070
     1
1070
    44
1040
1.0
1070
    74
1070
     0
1000
MTEXTEND
  0
SOLID
  5
72F
330
6A4
100
AcDbEntity
  8
wymiary
 62
     0
100
AcDbTrace
 10
7984.805102464105
 20
2130.677965795889
 30
0.0
 11
7981.415589259362
 21
2124.937265082621
 31
0.0
 12
8000.332448001538
 22
2117.639075825026
 32
0.0
 13
8000.332448001538
 23
2117.639075825026
 33
0.0
  0
SOLID
  5
730
330
6A4
100
AcDbEntity
  8
wymiary
 62
     0
100
AcDbTrace
 10
7588.696753248594
 20
2364.55437692314
 30
0.0
 11
7585.307240043852
 21
2358.813676209872
 31
0.0
 12
7569.779894506416
 22
2371.852566180734
 32
0.0
 13
7569.779894506416
 23
2371.852566180734
 33
0.0
  0
POINT
  5
731
330
6A4
100
AcDbEntity
  8
Defpoints
 62
     0
100
AcDbPoint
 10
7569.779894506416
 20
2371.852566180734
 30
0.0
  0
POINT
  5
732
330
6A4
100
AcDbEntity
  8
Defpoints
 62
     0
100
AcDbPoint
 10
8000.332448001538
 20
2117.639075825026
 30
0.0
  0
ENDBLK
  5
6AC
330
6A4
100
AcDbEntity
  8
0
100
AcDbBlockEnd
  0
BLOCK
  5
6B5
330
6AD
100
AcDbEntity
  8
0
100
AcDbBlockBegin
  2
*D30
 70
     1
 10
0.0
 20
0.0
 30
0.0
  3
*D30
  1

  0
LINE
  5
733
330
6AD
100
AcDbEntity
  8
wymiary
 62
     0
370
    -2
100
AcDbLine
 10
7785.056171253978
 20
2264.745821002881
 30
0.0
 11
7785.056171253978
 21
2489.74582100288
 31
0.0
  0
SOLID
  5
734
330
6AD
100
AcDbEntity
  8
wymiary
 62
     0
100
AcDbTrace
 10
7781.722837920646
 20
2264.745821002881
 30
0.0
 11
7788.389504587311
 21
2264.745821002881
 31
0.0
 12
7785.056171253978
 22
2244.745821002881
 32
0.0
 13
7785.056171253978
 23
2244.745821002881
 33
0.0
  0
SOLID
  5
735
330
6AD
100
AcDbEntity
  8
wymiary
 62
     0
100
AcDbTrace
 10
7781.722837920646
 20
2489.74582100288
 30
0.0
 11
7788.389504587311
 21
2489.74582100288
 31
0.0
 12
7785.056171253978
 22
2509.74582100288
 32
0.0
 13
7785.056171253978
 23
2509.74582100288
 33
0.0
  0
MTEXT
  5
736
330
6AD
100
AcDbEntity
  8
wymiary
 62
     0
100
AcDbMText
 10
7771.556171253978
 20
2377.245821002881
 30
0.0
 40
15.0
 41
0.0
 46
0.0
 71
     5
 72
     1
  1
265
 11
0.0000000000000001
 21
1.0
 31
0.0
 73
     1
 44
1.0
1001
ACAD
1000
MTEXTBEGIN
1070
    73
1070
     1
1070
    44
1040
1.0
1070
    74
1070
     0
1000
MTEXTEND
  0
POINT
  5
737
330
6AD
100
AcDbEntity
  8
Defpoints
 62
     0
100
AcDbPoint
 10
7785.056171253978
 20
2244.745821002881
 30
0.0
  0
POINT
  5
738
330
6AD
100
AcDbEntity
  8
Defpoints
 62
     0
100
AcDbPoint
 10
7785.056171253978
 20
2509.74582100288
 30
0.0
  0
POINT
  5
739
330
6AD
100
AcDbEntity
  8
Defpoints
 62
     0
100
AcDbPoint
 10
7785.056171253978
 20
2509.74582100288
 30
0.0
  0
ENDBLK
  5
6B6
330
6AD
100
AcDbEntity
  8
0
100
AcDbBlockEnd
  0
BLOCK
  5
6BF
330
6B7
100
AcDbEntity
  8
0
100
AcDbBlockBegin
  2
*D31
 70
     1
 10
0.0
 20
0.0
 30
0.0
  3
*D31
  1

  0
LINE
  5
73A
330
6B7
100
AcDbEntity
  8
wymiary
 62
     0
370
    -2
100
AcDbLine
 10
7765.056171253978
 20
2244.745821002881
 30
0.0
 11
7340.056171253978
 21
2244.745821002881
 31
0.0
  0
MTEXT
  5
73B
330
6B7
100
AcDbEntity
  8
wymiary
 62
     0
100
AcDbMText
 10
7623.046902817306
 20
2265.44094451916
 30
0.0
 40
15.0
 41
0.0
 46
0.0
 71
     5
 72
     1
  1
465
 73
     1
 44
1.0
1001
ACAD
1000
MTEXTBEGIN
1070
    73
1070
     1
1070
    44
1040
1.0
1070
    74
1070
     0
1000
MTEXTEND
  0
SOLID
  5
73C
330
6B7
100
AcDbEntity
  8
wymiary
 62
     0
100
AcDbTrace
 10
7765.056171253978
 20
2248.079154336215
 30
0.0
 11
7765.056171253978
 21
2241.412487669547
 31
0.0
 12
7785.056171253978
 22
2244.745821002881
 32
0.0
 13
7785.056171253978
 23
2244.745821002881
 33
0.0
  0
SOLID
  5
73D
330
6B7
100
AcDbEntity
  8
wymiary
 62
     0
100
AcDbTrace
 10
7340.056171253978
 20
2248.079154336215
 30
0.0
 11
7340.056171253978
 21
2241.412487669547
 31
0.0
 12
7320.056171253978
 22
2244.745821002881
 32
0.0
 13
7320.056171253978
 23
2244.745821002881
 33
0.0
  0
POINT
  5
73E
330
6B7
100
AcDbEntity
  8
Defpoints
 62
     0
100
AcDbPoint
 10
7785.056171253978
 20
2244.745821002881
 30
0.0
  0
POINT
  5
73F
330
6B7
100
AcDbEntity
  8
Defpoints
 62
     0
100
AcDbPoint
 10
7320.056171253978
 20
2244.74582100288
 30
0.0
  0
POINT
  5
740
330
6B7
100
AcDbEntity
  8
Defpoints
 62
     0
100
AcDbPoint
 10
7320.056171253978
 20
2244.745821002881
 30
0.0
  0
ENDBLK
  5
6C0
330
6B7
100
AcDbEntity
  8
0
100
AcDbBlockEnd
  0
BLOCK
  5
6C9
330
6C1
100
AcDbEntity
  8
0
100
AcDbBlockBegin
  2
*D32
 70
     1
 10
0.0
 20
0.0
 30
0.0
  3
*D32
  1

  0
LINE
  5
741
330
6C1
100
AcDbEntity
  8
wymiary
 62
     0
370
    -2
100
AcDbLine
 10
7620.056171253978
 20
1699.745821002881
 30
0.0
 11
7340.056171253978
 21
1699.745821002881
 31
0.0
  0
SOLID
  5
742
330
6C1
100
AcDbEntity
  8
wymiary
 62
     0
100
AcDbTrace
 10
7620.056171253978
 20
1703.079154336214
 30
0.0
 11
7620.056171253978
 21
1696.412487669547
 31
0.0
 12
7640.056171253978
 22
1699.745821002881
 32
0.0
 13
7640.056171253978
 23
1699.745821002881
 33
0.0
  0
SOLID
  5
743
330
6C1
100
AcDbEntity
  8
wymiary
 62
     0
100
AcDbTrace
 10
7340.056171253978
 20
1703.079154336214
 30
0.0
 11
7340.056171253978
 21
1696.412487669547
 31
0.0
 12
7320.056171253978
 22
1699.745821002881
 32
0.0
 13
7320.056171253978
 23
1699.745821002881
 33
0.0
  0
MTEXT
  5
744
330
6C1
100
AcDbEntity
  8
wymiary
 62
     0
100
AcDbMText
 10
7480.056171253979
 20
1713.245821002881
 30
0.0
 40
15.0
 41
0.0
 46
0.0
 71
     5
 72
     1
  1
320
 73
     1
 44
1.0
1001
ACAD
1000
MTEXTBEGIN
1070
    73
1070
     1
1070
    44
1040
1.0
1070
    74
1070
     0
1000
MTEXTEND
  0
POINT
  5
745
330
6C1
100
AcDbEntity
  8
Defpoints
 62
     0
100
AcDbPoint
 10
7640.056171253978
 20
1699.745821002881
 30
0.0
  0
POINT
  5
746
330
6C1
100
AcDbEntity
  8
Defpoints
 62
     0
100
AcDbPoint
 10
7320.056171253978
 20
1699.745821002885
 30
0.0
  0
POINT
  5
747
330
6C1
100
AcDbEntity
  8
Defpoints
 62
     0
100
AcDbPoint
 10
7320.056171253978
 20
1699.745821002881
 30
0.0
  0
ENDBLK
  5
6CA
330
6C1
100
AcDbEntity
  8
0
100
AcDbBlockEnd
  0
BLOCK
  5
6D3
330
6CB
100
AcDbEntity
  8
0
100
AcDbBlockBegin
  2
*D33
 70
     1
 10
0.0
 20
0.0
 30
0.0
  3
*D33
  1

  0
LINE
  5
748
330
6CB
100
AcDbEntity
  8
wymiary
 62
     0
370
    -2
100
AcDbLine
 10
7640.056171253978
 20
1679.745821002881
 30
0.0
 11
7640.056171253978
 21
1439.74582100288
 31
0.0
  0
SOLID
  5
749
330
6CB
100
AcDbEntity
  8
wymiary
 62
     0
100
AcDbTrace
 10
7636.722837920645
 20
1679.745821002881
 30
0.0
 11
7643.38950458731
 21
1679.745821002881
 31
0.0
 12
7640.056171253978
 22
1699.745821002881
 32
0.0
 13
7640.056171253978
 23
1699.745821002881
 33
0.0
  0
SOLID
  5
74A
330
6CB
100
AcDbEntity
  8
wymiary
 62
     0
100
AcDbTrace
 10
7636.722837920645
 20
1439.74582100288
 30
0.0
 11
7643.38950458731
 21
1439.74582100288
 31
0.0
 12
7640.056171253978
 22
1419.74582100288
 32
0.0
 13
7640.056171253978
 23
1419.74582100288
 33
0.0
  0
MTEXT
  5
74B
330
6CB
100
AcDbEntity
  8
wymiary
 62
     0
100
AcDbMText
 10
7626.556171253979
 20
1559.745821002881
 30
0.0
 40
15.0
 41
0.0
 46
0.0
 71
     5
 72
     1
  1
280
 11
0.0000000000000001
 21
1.0
 31
0.0
 73
     1
 44
1.0
1001
ACAD
1000
MTEXTBEGIN
1070
    73
1070
     1
1070
    44
1040
1.0
1070
    74
1070
     0
1000
MTEXTEND
  0
POINT
  5
74C
330
6CB
100
AcDbEntity
  8
Defpoints
 62
     0
100
AcDbPoint
 10
7640.056171253978
 20
1699.745821002881
 30
0.0
  0
POINT
  5
74D
330
6CB
100
AcDbEntity
  8
Defpoints
 62
     0
100
AcDbPoint
 10
7640.05617125398
 20
1419.74582100288
 30
0.0
  0
POINT
  5
74E
330
6CB
100
AcDbEntity
  8
Defpoints
 62
     0
100
AcDbPoint
 10
7640.056171253978
 20
1419.74582100288
 30
0.0
  0
ENDBLK
  5
6D4
330
6CB
100
AcDbEntity
  8
0
100
AcDbBlockEnd
  0
BLOCK
  5
6DC
330
6D5
100
AcDbEntity
  8
0
100
AcDbBlockBegin
  2
*D34
 70
     1
 10
0.0
 20
0.0
 30
0.0
  3
*D34
  1

  0
LINE
  5
74F
330
6D5
100
AcDbEntity
  8
wymiary
 62
     0
370
    -2
100
AcDbLine
 10
4428.11539465107
 20
1600.572046443718
 30
0.0
 11
4013.07533663407
 21
1798.919595562044
 31
0.0
  0
MTEXT
  5
750
330
6D5
100
AcDbEntity
  8
wymiary
 62
     0
100
AcDbMText
 10
4132.813127426638
 20
1771.103128165553
 30
0.0
 40
15.0
 41
0.0
 46
0.0
 71
     5
 72
     1
  1
∅500
 11
0.9022609956891272
 21
-0.4311903241702728
 31
0.0
 73
     1
 44
1.0
1001
ACAD
1000
MTEXTBEGIN
1070
    73
1070
     1
1070
    44
1040
1.0
1070
    74
1070
     0
1000
MTEXTEND
  0
SOLID
  5
751
330
6D5
100
AcDbEntity
  8
wymiary
 62
     0
100
AcDbTrace
 10
4429.552695731636
 20
1603.579583096015
 30
0.0
 11
4426.678093570503
 21
1597.564509791421
 31
0.0
 12
4446.160614564853
 22
1591.948239960312
 32
0.0
 13
4446.160614564853
 23
1591.948239960312
 33
0.0
  0
SOLID
  5
752
330
6D5
100
AcDbEntity
  8
wymiary
 62
     0
100
AcDbTrace
 10
4014.512637714638
 20
1801.927132214341
 30
0.0
 11
4011.638035553501
 21
1795.912058909746
 31
0.0
 12
3995.030116720288
 22
1807.543402045449
 32
0.0
 13
3995.030116720288
 23
1807.543402045449
 33
0.0
  0
POINT
  5
753
330
6D5
100
AcDbEntity
  8
Defpoints
 62
     0
100
AcDbPoint
 10
3995.030116720288
 20
1807.543402045449
 30
0.0
  0
POINT
  5
754
330
6D5
100
AcDbEntity
  8
Defpoints
 62
     0
100
AcDbPoint
 10
4446.160614564853
 20
1591.948239960312
 30
0.0
  0
ENDBLK
  5
6DD
330
6D5
100
AcDbEntity
  8
0
100
AcDbBlockEnd
  0
BLOCK
  5
6E5
330
6DE
100
AcDbEntity
  8
0
100
AcDbBlockBegin
  2
*D35
 70
     1
 10
0.0
 20
0.0
 30
0.0
  3
*D35
  1

  0
LINE
  5
755
330
6DE
100
AcDbEntity
  8
wymiary
 62
     0
370
    -2
100
AcDbLine
 10
4276.814058488795
 20
2133.340984262024
 30
0.0
 11
3874.376672796346
 21
2356.150657743735
 31
0.0
  0
MTEXT
  5
756
330
6DE
100
AcDbEntity
  8
wymiary
 62
     0
100
AcDbMText
 10
3978.005342253008
 20
2321.217577975812
 30
0.0
 40
15.0
 41
0.0
 46
0.0
 71
     5
 72
     1
  1
∅500
 11
0.8748638819401076
 21
-0.4843688553950238
 31
0.0
 73
     1
 44
1.0
1001
ACAD
1000
MTEXTBEGIN
1070
    73
1070
     1
1070
    44
1040
1.0
1070
    74
1070
     0
1000
MTEXTEND
  0
SOLID
  5
757
330
6DE
100
AcDbEntity
  8
wymiary
 62
     0
100
AcDbTrace
 10
4278.42862134011
 20
2136.257197201825
 30
0.0
 11
4275.199495637479
 21
2130.424771322223
 31
0.0
 12
4294.311336127598
 22
2123.653607154124
 32
0.0
 13
4294.311336127598
 23
2123.653607154124
 33
0.0
  0
SOLID
  5
758
330
6DE
100
AcDbEntity
  8
wymiary
 62
     0
100
AcDbTrace
 10
3875.991235647662
 20
2359.066870683536
 30
0.0
 11
3872.762109945028
 21
2353.234444803935
 31
0.0
 12
3856.879395157545
 22
2365.838034851636
 32
0.0
 13
3856.879395157545
 23
2365.838034851636
 33
0.0
  0
POINT
  5
759
330
6DE
100
AcDbEntity
  8
Defpoints
 62
     0
100
AcDbPoint
 10
3856.879395157545
 20
2365.838034851636
 30
0.0
  0
POINT
  5
75A
330
6DE
100
AcDbEntity
  8
Defpoints
 62
     0
100
AcDbPoint
 10
4294.311336127598
 20
2123.653607154124
 30
0.0
  0
ENDBLK
  5
6E6
330
6DE
100
AcDbEntity
  8
0
100
AcDbBlockEnd
  0
BLOCK
  5
6EF
330
6E7
100
AcDbEntity
  8
0
100
AcDbBlockBegin
  2
*D36
 70
     1
 10
0.0
 20
0.0
 30
0.0
  3
*D36
  1

  0
LINE
  5
75B
330
6E7
100
AcDbEntity
  8
wymiary
 62
     0
370
    -2
100
AcDbLine
 10
4220.595365642568
 20
1679.745821002881
 30
0.0
 11
4220.595365642568
 21
1439.74582100288
 31
0.0
  0
SOLID
  5
75C
330
6E7
100
AcDbEntity
  8
wymiary
 62
     0
100
AcDbTrace
 10
4217.262032309236
 20
1679.745821002881
 30
0.0
 11
4223.928698975902
 21
1679.745821002881
 31
0.0
 12
4220.595365642568
 22
1699.745821002881
 32
0.0
 13
4220.595365642568
 23
1699.745821002881
 33
0.0
  0
SOLID
  5
75D
330
6E7
100
AcDbEntity
  8
wymiary
 62
     0
100
AcDbTrace
 10
4217.262032309236
 20
1439.74582100288
 30
0.0
 11
4223.928698975902
 21
1439.74582100288
 31
0.0
 12
4220.595365642568
 22
1419.74582100288
 32
0.0
 13
4220.595365642568
 23
1419.74582100288
 33
0.0
  0
MTEXT
  5
75E
330
6E7
100
AcDbEntity
  8
wymiary
 62
     0
100
AcDbMText
 10
4207.09536564257
 20
1559.745821002881
 30
0.0
 40
15.0
 41
0.0
 46
0.0
 71
     5
 72
     1
  1
280
 11
0.0000000000000001
 21
1.0
 31
0.0
 73
     1
 44
1.0
1001
ACAD
1000
MTEXTBEGIN
1070
    73
1070
     1
1070
    44
1040
1.0
1070
    74
1070
     0
1000
MTEXTEND
  0
POINT
  5
75F
330
6E7
100
AcDbEntity
  8
Defpoints
 62
     0
100
AcDbPoint
 10
4220.595365642568
 20
1699.745821002881
 30
0.0
  0
POINT
  5
760
330
6E7
100
AcDbEntity
  8
Defpoints
 62
     0
100
AcDbPoint
 10
4220.595365642568
 20
1419.74582100288
 30
0.0
  0
POINT
  5
761
330
6E7
100
AcDbEntity
  8
Defpoints
 62
     0
100
AcDbPoint
 10
4220.595365642568
 20
1419.74582100288
 30
0.0
  0
ENDBLK
  5
6F0
330
6E7
100
AcDbEntity
  8
0
100
AcDbBlockEnd
  0
BLOCK
  5
6F9
330
6F1
100
AcDbEntity
  8
0
100
AcDbBlockBegin
  2
*D37
 70
     1
 10
0.0
 20
0.0
 30
0.0
  3
*D37
  1

  0
LINE
  5
762
330
6F1
100
AcDbEntity
  8
wymiary
 62
     0
370
    -2
100
AcDbLine
 10
4240.59536564257
 20
1699.745821002881
 30
0.0
 11
4520.595365642569
 21
1699.745821002881
 31
0.0
  0
SOLID
  5
763
330
6F1
100
AcDbEntity
  8
wymiary
 62
     0
100
AcDbTrace
 10
4240.59536564257
 20
1703.079154336214
 30
0.0
 11
4240.59536564257
 21
1696.412487669547
 31
0.0
 12
4220.595365642568
 22
1699.745821002881
 32
0.0
 13
4220.595365642568
 23
1699.745821002881
 33
0.0
  0
SOLID
  5
764
330
6F1
100
AcDbEntity
  8
wymiary
 62
     0
100
AcDbTrace
 10
4520.595365642569
 20
1703.079154336214
 30
0.0
 11
4520.595365642569
 21
1696.412487669547
 31
0.0
 12
4540.59536564257
 22
1699.745821002881
 32
0.0
 13
4540.59536564257
 23
1699.745821002881
 33
0.0
  0
MTEXT
  5
765
330
6F1
100
AcDbEntity
  8
wymiary
 62
     0
100
AcDbMText
 10
4380.59536564257
 20
1713.245821002881
 30
0.0
 40
15.0
 41
0.0
 46
0.0
 71
     5
 72
     1
  1
320
 73
     1
 44
1.0
1001
ACAD
1000
MTEXTBEGIN
1070
    73
1070
     1
1070
    44
1040
1.0
1070
    74
1070
     0
1000
MTEXTEND
  0
POINT
  5
766
330
6F1
100
AcDbEntity
  8
Defpoints
 62
     0
100
AcDbPoint
 10
4220.595365642568
 20
1699.745821002881
 30
0.0
  0
POINT
  5
767
330
6F1
100
AcDbEntity
  8
Defpoints
 62
     0
100
AcDbPoint
 10
4540.59536564257
 20
1699.745821002885
 30
0.0
  0
POINT
  5
768
330
6F1
100
AcDbEntity
  8
Defpoints
 62
     0
100
AcDbPoint
 10
4540.59536564257
 20
1699.745821002881
 30
0.0
  0
ENDBLK
  5
6FA
330
6F1
100
AcDbEntity
  8
0
100
AcDbBlockEnd
  0
BLOCK
  5
703
330
6FB
100
AcDbEntity
  8
0
100
AcDbBlockBegin
  2
*D38
 70
     1
 10
0.0
 20
0.0
 30
0.0
  3
*D38
  1

  0
LINE
  5
769
330
6FB
100
AcDbEntity
  8
wymiary
 62
     0
370
    -2
100
AcDbLine
 10
4075.59536564257
 20
2264.745821002881
 30
0.0
 11
4075.59536564257
 21
2489.74582100288
 31
0.0
  0
SOLID
  5
76A
330
6FB
100
AcDbEntity
  8
wymiary
 62
     0
100
AcDbTrace
 10
4072.262032309236
 20
2264.745821002881
 30
0.0
 11
4078.928698975903
 21
2264.745821002881
 31
0.0
 12
4075.59536564257
 22
2244.745821002881
 32
0.0
 13
4075.59536564257
 23
2244.745821002881
 33
0.0
  0
SOLID
  5
76B
330
6FB
100
AcDbEntity
  8
wymiary
 62
     0
100
AcDbTrace
 10
4072.262032309236
 20
2489.74582100288
 30
0.0
 11
4078.928698975903
 21
2489.74582100288
 31
0.0
 12
4075.59536564257
 22
2509.74582100288
 32
0.0
 13
4075.59536564257
 23
2509.74582100288
 33
0.0
  0
MTEXT
  5
76C
330
6FB
100
AcDbEntity
  8
wymiary
 62
     0
100
AcDbMText
 10
4062.095365642568
 20
2377.245821002881
 30
0.0
 40
15.0
 41
0.0
 46
0.0
 71
     5
 72
     1
  1
265
 11
0.0000000000000001
 21
1.0
 31
0.0
 73
     1
 44
1.0
1001
ACAD
1000
MTEXTBEGIN
1070
    73
1070
     1
1070
    44
1040
1.0
1070
    74
1070
     0
1000
MTEXTEND
  0
POINT
  5
76D
330
6FB
100
AcDbEntity
  8
Defpoints
 62
     0
100
AcDbPoint
 10
4075.59536564257
 20
2244.745821002881
 30
0.0
  0
POINT
  5
76E
330
6FB
100
AcDbEntity
  8
Defpoints
 62
     0
100
AcDbPoint
 10
4075.59536564257
 20
2509.74582100288
 30
0.0
  0
POINT
  5
76F
330
6FB
100
AcDbEntity
  8
Defpoints
 62
     0
100
AcDbPoint
 10
4075.59536564257
 20
2509.74582100288
 30
0.0
  0
ENDBLK
  5
704
330
6FB
100
AcDbEntity
  8
0
100
AcDbBlockEnd
  0
BLOCK
  5
798
330
78E
100
AcDbEntity
  8
0
100
AcDbBlockBegin
  2
*D39
 70
     1
 10
0.0
 20
0.0
 30
0.0
  3
*D39
  1

  0
LINE
  5
F24
330
78E
100
AcDbEntity
  8
wymiary
 62
     0
100
AcDbLine
 10
323.7994656434604
 20
2473.978107650602
 30
0.0
 11
323.7994656434604
 21
2537.524999180956
 31
0.0
  0
LINE
  5
F25
330
78E
100
AcDbEntity
  8
wymiary
 62
     0
100
AcDbLine
 10
1543.79946564346
 20
2473.978107650602
 30
0.0
 11
1543.79946564346
 21
2537.524999180956
 31
0.0
  0
LINE
  5
F26
330
78E
100
AcDbEntity
  8
wymiary
 62
     0
370
    -2
100
AcDbLine
 10
343.7994656434604
 20
2537.524999180956
 30
0.0
 11
1523.79946564346
 21
2537.524999180956
 31
0.0
  0
SOLID
  5
F27
330
78E
100
AcDbEntity
  8
wymiary
 62
     0
100
AcDbTrace
 10
343.7994656434604
 20
2540.85833251429
 30
0.0
 11
343.7994656434604
 21
2534.191665847623
 31
0.0
 12
323.7994656434604
 22
2537.524999180956
 32
0.0
 13
323.7994656434604
 23
2537.524999180956
 33
0.0
  0
SOLID
  5
F28
330
78E
100
AcDbEntity
  8
wymiary
 62
     0
100
AcDbTrace
 10
1523.79946564346
 20
2540.85833251429
 30
0.0
 11
1523.79946564346
 21
2534.191665847623
 31
0.0
 12
1543.79946564346
 22
2537.524999180956
 32
0.0
 13
1543.79946564346
 23
2537.524999180956
 33
0.0
  0
MTEXT
  5
F29
330
78E
100
AcDbEntity
  8
wymiary
 62
     0
100
AcDbMText
 10
933.7994656434602
 20
2551.024999180956
 30
0.0
 40
15.0
 41
0.0
 46
0.0
 71
     5
 72
     1
  1
1220
 73
     1
 44
1.0
  0
POINT
  5
F2A
330
78E
100
AcDbEntity
  8
Defpoints
 62
     0
100
AcDbPoint
 10
323.7994656434604
 20
2473.978107650602
 30
0.0
  0
POINT
  5
F2B
330
78E
100
AcDbEntity
  8
Defpoints
 62
     0
100
AcDbPoint
 10
1543.79946564346
 20
2473.978107650602
 30
0.0
  0
POINT
  5
F2C
330
78E
100
AcDbEntity
  8
Defpoints
 62
     0
100
AcDbPoint
 10
1543.79946564346
 20
2537.524999180956
 30
0.0
  0
ENDBLK
  5
799
330
78E
100
AcDbEntity
  8
0
100
AcDbBlockEnd
  0
BLOCK
  5
7B0
330
7A6
100
AcDbEntity
  8
0
100
AcDbBlockBegin
  2
*D40
 70
     1
 10
0.0
 20
0.0
 30
0.0
  3
*D40
  1

  0
LINE
  5
F2D
330
7A6
100
AcDbEntity
  8
wymiary
 62
     0
100
AcDbLine
 10
323.7994656434604
 20
2503.978107650602
 30
0.0
 11
189.7743806341024
 21
2503.978107650602
 31
0.0
  0
LINE
  5
F2E
330
7A6
100
AcDbEntity
  8
wymiary
 62
     0
100
AcDbLine
 10
323.7994656434604
 20
1503.978107650601
 30
0.0
 11
189.7743806341022
 21
1503.978107650601
 31
0.0
  0
LINE
  5
F2F
330
7A6
100
AcDbEntity
  8
wymiary
 62
     0
370
    -2
100
AcDbLine
 10
189.7743806341024
 20
2483.978107650602
 30
0.0
 11
189.7743806341022
 21
1523.978107650601
 31
0.0
  0
SOLID
  5
F30
330
7A6
100
AcDbEntity
  8
wymiary
 62
     0
100
AcDbTrace
 10
186.441047300769
 20
2483.978107650602
 30
0.0
 11
193.1077139674357
 21
2483.978107650602
 31
0.0
 12
189.7743806341024
 22
2503.978107650602
 32
0.0
 13
189.7743806341024
 23
2503.978107650602
 33
0.0
  0
SOLID
  5
F31
330
7A6
100
AcDbEntity
  8
wymiary
 62
     0
100
AcDbTrace
 10
186.4410473007688
 20
1523.978107650601
 30
0.0
 11
193.1077139674355
 21
1523.978107650601
 31
0.0
 12
189.7743806341022
 22
1503.978107650601
 32
0.0
 13
189.7743806341022
 23
1503.978107650601
 33
0.0
  0
MTEXT
  5
F32
330
7A6
100
AcDbEntity
  8
wymiary
 62
     0
100
AcDbMText
 10
176.2743806341019
 20
2003.978107650601
 30
0.0
 40
15.0
 41
0.0
 46
0.0
 71
     5
 72
     1
  1
1000
 11
0.0000000000000001
 21
1.0
 31
0.0
 73
     1
 44
1.0
  0
POINT
  5
F33
330
7A6
100
AcDbEntity
  8
Defpoints
 62
     0
100
AcDbPoint
 10
323.7994656434604
 20
2503.978107650602
 30
0.0
  0
POINT
  5
F34
330
7A6
100
AcDbEntity
  8
Defpoints
 62
     0
100
AcDbPoint
 10
323.7994656434604
 20
1503.978107650601
 30
0.0
  0
POINT
  5
F35
330
7A6
100
AcDbEntity
  8
Defpoints
 62
     0
100
AcDbPoint
 10
189.7743806341022
 20
1503.978107650601
 30
0.0
  0
ENDBLK
  5
7B1
330
7A6
100
AcDbEntity
  8
0
100
AcDbBlockEnd
  0
BLOCK
  5
7C8
330
7BE
100
AcDbEntity
  8
0
100
AcDbBlockBegin
  2
*D41
 70
     1
 10
0.0
 20
0.0
 30
0.0
  3
*D41
  1

  0
LINE
  5
F36
330
7BE
100
AcDbEntity
  8
wymiary
 62
     0
100
AcDbLine
 10
1996.972159301953
 20
2473.978107650602
 30
0.0
 11
1996.972159301953
 21
2537.524999180956
 31
0.0
  0
LINE
  5
F37
330
7BE
100
AcDbEntity
  8
wymiary
 62
     0
100
AcDbLine
 10
3196.972159301953
 20
2473.978107650602
 30
0.0
 11
3196.972159301953
 21
2537.524999180956
 31
0.0
  0
LINE
  5
F38
330
7BE
100
AcDbEntity
  8
wymiary
 62
     0
370
    -2
100
AcDbLine
 10
2016.972159301953
 20
2537.524999180956
 30
0.0
 11
3176.972159301953
 21
2537.524999180956
 31
0.0
  0
SOLID
  5
F39
330
7BE
100
AcDbEntity
  8
wymiary
 62
     0
100
AcDbTrace
 10
2016.972159301953
 20
2540.85833251429
 30
0.0
 11
2016.972159301953
 21
2534.191665847623
 31
0.0
 12
1996.972159301953
 22
2537.524999180956
 32
0.0
 13
1996.972159301953
 23
2537.524999180956
 33
0.0
  0
SOLID
  5
F3A
330
7BE
100
AcDbEntity
  8
wymiary
 62
     0
100
AcDbTrace
 10
3176.972159301953
 20
2540.85833251429
 30
0.0
 11
3176.972159301953
 21
2534.191665847623
 31
0.0
 12
3196.972159301953
 22
2537.524999180956
 32
0.0
 13
3196.972159301953
 23
2537.524999180956
 33
0.0
  0
MTEXT
  5
F3B
330
7BE
100
AcDbEntity
  8
wymiary
 62
     0
100
AcDbMText
 10
2596.972159301953
 20
2551.024999180956
 30
0.0
 40
15.0
 41
0.0
 46
0.0
 71
     5
 72
     1
  1
1200
 73
     1
 44
1.0
  0
POINT
  5
F3C
330
7BE
100
AcDbEntity
  8
Defpoints
 62
     0
100
AcDbPoint
 10
1996.972159301953
 20
2473.978107650602
 30
0.0
  0
POINT
  5
F3D
330
7BE
100
AcDbEntity
  8
Defpoints
 62
     0
100
AcDbPoint
 10
3196.972159301953
 20
2473.978107650602
 30
0.0
  0
POINT
  5
F3E
330
7BE
100
AcDbEntity
  8
Defpoints
 62
     0
100
AcDbPoint
 10
3196.972159301953
 20
2537.524999180956
 30
0.0
  0
ENDBLK
  5
7C9
330
7BE
100
AcDbEntity
  8
0
100
AcDbBlockEnd
  0
BLOCK
  5
7E0
330
7D6
100
AcDbEntity
  8
0
100
AcDbBlockBegin
  2
*D42
 70
     1
 10
0.0
 20
0.0
 30
0.0
  3
*D42
  1

  0
LINE
  5
F3F
330
7D6
100
AcDbEntity
  8
wymiary
 62
     0
100
AcDbLine
 10
-1129.373228015033
 20
2413.978107650601
 30
0.0
 11
-1129.373228015033
 21
2550.86514486882
 31
0.0
  0
LINE
  5
F40
330
7D6
100
AcDbEntity
  8
wymiary
 62
     0
100
AcDbLine
 10
-329.373228015033
 20
2413.978107650601
 30
0.0
 11
-329.373228015033
 21
2550.86514486882
 31
0.0
  0
LINE
  5
F41
330
7D6
100
AcDbEntity
  8
wymiary
 62
     0
370
    -2
100
AcDbLine
 10
-1109.373228015033
 20
2550.86514486882
 30
0.0
 11
-349.373228015033
 21
2550.86514486882
 31
0.0
  0
SOLID
  5
F42
330
7D6
100
AcDbEntity
  8
wymiary
 62
     0
100
AcDbTrace
 10
-1109.373228015033
 20
2554.198478202153
 30
0.0
 11
-1109.373228015033
 21
2547.531811535487
 31
0.0
 12
-1129.373228015033
 22
2550.86514486882
 32
0.0
 13
-1129.373228015033
 23
2550.86514486882
 33
0.0
  0
SOLID
  5
F43
330
7D6
100
AcDbEntity
  8
wymiary
 62
     0
100
AcDbTrace
 10
-349.373228015033
 20
2554.198478202153
 30
0.0
 11
-349.373228015033
 21
2547.531811535487
 31
0.0
 12
-329.373228015033
 22
2550.86514486882
 32
0.0
 13
-329.373228015033
 23
2550.86514486882
 33
0.0
  0
MTEXT
  5
F44
330
7D6
100
AcDbEntity
  8
wymiary
 62
     0
100
AcDbMText
 10
-729.3732280150329
 20
2564.36514486882
 30
0.0
 40
15.0
 41
0.0
 46
0.0
 71
     5
 72
     1
  1
800
 73
     1
 44
1.0
  0
POINT
  5
F45
330
7D6
100
AcDbEntity
  8
Defpoints
 62
     0
100
AcDbPoint
 10
-1129.373228015033
 20
2413.978107650601
 30
0.0
  0
POINT
  5
F46
330
7D6
100
AcDbEntity
  8
Defpoints
 62
     0
100
AcDbPoint
 10
-329.373228015033
 20
2413.978107650601
 30
0.0
  0
POINT
  5
F47
330
7D6
100
AcDbEntity
  8
Defpoints
 62
     0
100
AcDbPoint
 10
-329.373228015033
 20
2550.86514486882
 30
0.0
  0
ENDBLK
  5
7E1
330
7D6
100
AcDbEntity
  8
0
100
AcDbBlockEnd
  0
BLOCK
  5
7F8
330
7EE
100
AcDbEntity
  8
0
100
AcDbBlockBegin
  2
*D43
 70
     1
 10
0.0
 20
0.0
 30
0.0
  3
*D43
  1

  0
LINE
  5
7FB
330
7EE
100
AcDbEntity
  8
wymiary
 62
     0
100
AcDbLine
 10
-329.373228015033
 20
2413.978107650601
 30
0.0
 11
-216.730794397561
 21
2413.978107650601
 31
0.0
  0
LINE
  5
7FC
330
7EE
100
AcDbEntity
  8
wymiary
 62
     0
100
AcDbLine
 10
-329.373228015033
 20
2013.978107650602
 30
0.0
 11
-216.7307943975611
 21
2013.978107650602
 31
0.0
  0
LINE
  5
7FD
330
7EE
100
AcDbEntity
  8
wymiary
 62
     0
370
    -2
100
AcDbLine
 10
-216.730794397561
 20
2393.978107650601
 30
0.0
 11
-216.7307943975611
 21
2033.978107650602
 31
0.0
  0
SOLID
  5
7FE
330
7EE
100
AcDbEntity
  8
wymiary
 62
     0
100
AcDbTrace
 10
-220.0641277308944
 20
2393.978107650601
 30
0.0
 11
-213.3974610642277
 21
2393.978107650601
 31
0.0
 12
-216.730794397561
 22
2413.978107650601
 32
0.0
 13
-216.730794397561
 23
2413.978107650601
 33
0.0
  0
SOLID
  5
7FF
330
7EE
100
AcDbEntity
  8
wymiary
 62
     0
100
AcDbTrace
 10
-220.0641277308945
 20
2033.978107650602
 30
0.0
 11
-213.3974610642278
 21
2033.978107650602
 31
0.0
 12
-216.7307943975611
 22
2013.978107650602
 32
0.0
 13
-216.7307943975611
 23
2013.978107650602
 33
0.0
  0
MTEXT
  5
800
330
7EE
100
AcDbEntity
  8
wymiary
 62
     0
100
AcDbMText
 10
-230.2307943975614
 20
2213.978107650602
 30
0.0
 40
15.0
 41
0.0
 46
0.0
 71
     5
 72
     1
  1
400
 11
0.0000000000000001
 21
1.0
 31
0.0
 73
     1
 44
1.0
1001
ACAD
1000
MTEXTBEGIN
1070
    73
1070
     1
1070
    44
1040
1.0
1070
    74
1070
     0
1000
MTEXTEND
  0
POINT
  5
801
330
7EE
100
AcDbEntity
  8
Defpoints
 62
     0
100
AcDbPoint
 10
-329.373228015033
 20
2413.978107650601
 30
0.0
  0
POINT
  5
802
330
7EE
100
AcDbEntity
  8
Defpoints
 62
     0
100
AcDbPoint
 10
-329.373228015033
 20
2013.978107650602
 30
0.0
  0
POINT
  5
803
330
7EE
100
AcDbEntity
  8
Defpoints
 62
     0
100
AcDbPoint
 10
-216.7307943975611
 20
2013.978107650602
 30
0.0
  0
ENDBLK
  5
7F9
330
7EE
100
AcDbEntity
  8
0
100
AcDbBlockEnd
  0
BLOCK
  5
810
330
806
100
AcDbEntity
  8
0
100
AcDbBlockBegin
  2
*D44
 70
     1
 10
0.0
 20
0.0
 30
0.0
  3
*D44
  1

  0
LINE
  5
F48
330
806
100
AcDbEntity
  8
wymiary
 62
     0
100
AcDbLine
 10
-329.373228015033
 20
2413.978107650601
 30
0.0
 11
-87.61217867508813
 21
2413.978107650601
 31
0.0
  0
LINE
  5
F49
330
806
100
AcDbEntity
  8
wymiary
 62
     0
100
AcDbLine
 10
-329.373228015033
 20
2013.978107650602
 30
0.0
 11
-87.61217867508824
 21
2013.978107650602
 31
0.0
  0
LINE
  5
F4A
330
806
100
AcDbEntity
  8
wymiary
 62
     0
370
    -2
100
AcDbLine
 10
-87.61217867508815
 20
2393.978107650601
 30
0.0
 11
-87.61217867508822
 21
2033.978107650602
 31
0.0
  0
SOLID
  5
F4B
330
806
100
AcDbEntity
  8
wymiary
 62
     0
100
AcDbTrace
 10
-90.94551200842147
 20
2393.978107650601
 30
0.0
 11
-84.27884534175481
 21
2393.978107650601
 31
0.0
 12
-87.61217867508813
 22
2413.978107650601
 32
0.0
 13
-87.61217867508813
 23
2413.978107650601
 33
0.0
  0
SOLID
  5
F4C
330
806
100
AcDbEntity
  8
wymiary
 62
     0
100
AcDbTrace
 10
-90.94551200842154
 20
2033.978107650602
 30
0.0
 11
-84.27884534175488
 21
2033.978107650602
 31
0.0
 12
-87.61217867508824
 22
2013.978107650602
 32
0.0
 13
-87.61217867508824
 23
2013.978107650602
 33
0.0
  0
MTEXT
  5
F4D
330
806
100
AcDbEntity
  8
wymiary
 62
     0
100
AcDbMText
 10
-101.1121786750885
 20
2213.978107650602
 30
0.0
 40
15.0
 41
0.0
 46
0.0
 71
     5
 72
     1
  1
400
 11
0.0000000000000001
 21
1.0
 31
0.0
 73
     1
 44
1.0
  0
POINT
  5
F4E
330
806
100
AcDbEntity
  8
Defpoints
 62
     0
100
AcDbPoint
 10
-329.373228015033
 20
2413.978107650601
 30
0.0
  0
POINT
  5
F4F
330
806
100
AcDbEntity
  8
Defpoints
 62
     0
100
AcDbPoint
 10
-329.373228015033
 20
2013.978107650602
 30
0.0
  0
POINT
  5
F50
330
806
100
AcDbEntity
  8
Defpoints
 62
     0
100
AcDbPoint
 10
-87.61217867508824
 20
2013.978107650602
 30
0.0
  0
ENDBLK
  5
811
330
806
100
AcDbEntity
  8
0
100
AcDbBlockEnd
  0
BLOCK
  5
9F3
330
9F2
100
AcDbEntity
  8
0
100
AcDbBlockBegin
  2
GALKA
 70
     0
 10
0.0
 20
0.0
 30
0.0
  3
GALKA
  1

  0
POLYLINE
  5
9F4
330
9F2
100
AcDbEntity
  8
CENTRALA
100
AcDb3dPolyline
 66
     1
 10
0.0
 20
0.0
 30
0.0
 70
     8
1001
ACDBBLOCKREPETAG
1070
     1
1071
        0
1005
9F4
  0
VERTEX
  5
9F5
330
9F4
100
AcDbEntity
  8
CENTRALA
100
AcDbVertex
100
AcDb3dPolylineVertex
 10
-17.0
 20
15.2745
 30
0.0
 70
    32
  0
VERTEX
  5
9F6
330
9F4
100
AcDbEntity
  8
CENTRALA
100
AcDbVertex
100
AcDb3dPolylineVertex
 10
-16.8282
 20
15.3273
 30
0.0
 70
    32
  0
VERTEX
  5
9F7
330
9F4
100
AcDbEntity
  8
CENTRALA
100
AcDbVertex
100
AcDb3dPolylineVertex
 10
-16.6563
 20
15.3801
 30
0.0
 70
    32
  0
VERTEX
  5
9F8
330
9F4
100
AcDbEntity
  8
CENTRALA
100
AcDbVertex
100
AcDb3dPolylineVertex
 10
-16.4845
 20
15.4327
 30
0.0
 70
    32
  0
VERTEX
  5
9F9
330
9F4
100
AcDbEntity
  8
CENTRALA
100
AcDbVertex
100
AcDb3dPolylineVertex
 10
-16.3126
 20
15.4852
 30
0.0
 70
    32
  0
VERTEX
  5
9FA
330
9F4
100
AcDbEntity
  8
CENTRALA
100
AcDbVertex
100
AcDb3dPolylineVertex
 10
-16.1407
 20
15.5375
 30
0.0
 70
    32
  0
VERTEX
  5
9FB
330
9F4
100
AcDbEntity
  8
CENTRALA
100
AcDbVertex
100
AcDb3dPolylineVertex
 10
-15.9688
 20
15.5895
 30
0.0
 70
    32
  0
VERTEX
  5
9FC
330
9F4
100
AcDbEntity
  8
CENTRALA
100
AcDbVertex
100
AcDb3dPolylineVertex
 10
-15.7969
 20
15.6412
 30
0.0
 70
    32
  0
VERTEX
  5
9FD
330
9F4
100
AcDbEntity
  8
CENTRALA
100
AcDbVertex
100
AcDb3dPolylineVertex
 10
-15.625
 20
15.6925
 30
0.0
 70
    32
  0
VERTEX
  5
9FE
330
9F4
100
AcDbEntity
  8
CENTRALA
100
AcDbVertex
100
AcDb3dPolylineVertex
 10
-15.453
 20
15.7434
 30
0.0
 70
    32
  0
VERTEX
  5
9FF
330
9F4
100
AcDbEntity
  8
CENTRALA
100
AcDbVertex
100
AcDb3dPolylineVertex
 10
-15.281
 20
15.7937
 30
0.0
 70
    32
  0
VERTEX
  5
A00
330
9F4
100
AcDbEntity
  8
CENTRALA
100
AcDbVertex
100
AcDb3dPolylineVertex
 10
-15.109
 20
15.8436
 30
0.0
 70
    32
  0
VERTEX
  5
A01
330
9F4
100
AcDbEntity
  8
CENTRALA
100
AcDbVertex
100
AcDb3dPolylineVertex
 10
-14.9369
 20
15.8929
 30
0.0
 70
    32
  0
VERTEX
  5
A02
330
9F4
100
AcDbEntity
  8
CENTRALA
100
AcDbVertex
100
AcDb3dPolylineVertex
 10
-14.7648
 20
15.9415
 30
0.0
 70
    32
  0
VERTEX
  5
A03
330
9F4
100
AcDbEntity
  8
CENTRALA
100
AcDbVertex
100
AcDb3dPolylineVertex
 10
-14.5926
 20
15.9894
 30
0.0
 70
    32
  0
VERTEX
  5
A04
330
9F4
100
AcDbEntity
  8
CENTRALA
100
AcDbVertex
100
AcDb3dPolylineVertex
 10
-14.4204
 20
16.0366
 30
0.0
 70
    32
  0
VERTEX
  5
A05
330
9F4
100
AcDbEntity
  8
CENTRALA
100
AcDbVertex
100
AcDb3dPolylineVertex
 10
-14.2481
 20
16.083
 30
0.0
 70
    32
  0
VERTEX
  5
A06
330
9F4
100
AcDbEntity
  8
CENTRALA
100
AcDbVertex
100
AcDb3dPolylineVertex
 10
-14.0758
 20
16.1285
 30
0.0
 70
    32
  0
VERTEX
  5
A07
330
9F4
100
AcDbEntity
  8
CENTRALA
100
AcDbVertex
100
AcDb3dPolylineVertex
 10
-13.9034
 20
16.1731
 30
0.0
 70
    32
  0
VERTEX
  5
A08
330
9F4
100
AcDbEntity
  8
CENTRALA
100
AcDbVertex
100
AcDb3dPolylineVertex
 10
-13.7309
 20
16.2167
 30
0.0
 70
    32
  0
VERTEX
  5
A09
330
9F4
100
AcDbEntity
  8
CENTRALA
100
AcDbVertex
100
AcDb3dPolylineVertex
 10
-13.5584
 20
16.2593
 30
0.0
 70
    32
  0
VERTEX
  5
A0A
330
9F4
100
AcDbEntity
  8
CENTRALA
100
AcDbVertex
100
AcDb3dPolylineVertex
 10
-13.3858
 20
16.3009
 30
0.0
 70
    32
  0
VERTEX
  5
A0B
330
9F4
100
AcDbEntity
  8
CENTRALA
100
AcDbVertex
100
AcDb3dPolylineVertex
 10
-13.2131
 20
16.3413
 30
0.0
 70
    32
  0
VERTEX
  5
A0C
330
9F4
100
AcDbEntity
  8
CENTRALA
100
AcDbVertex
100
AcDb3dPolylineVertex
 10
-13.0403
 20
16.3805
 30
0.0
 70
    32
  0
VERTEX
  5
A0D
330
9F4
100
AcDbEntity
  8
CENTRALA
100
AcDbVertex
100
AcDb3dPolylineVertex
 10
-12.8675
 20
16.4185
 30
0.0
 70
    32
  0
VERTEX
  5
A0E
330
9F4
100
AcDbEntity
  8
CENTRALA
100
AcDbVertex
100
AcDb3dPolylineVertex
 10
-12.6946
 20
16.4552
 30
0.0
 70
    32
  0
VERTEX
  5
A0F
330
9F4
100
AcDbEntity
  8
CENTRALA
100
AcDbVertex
100
AcDb3dPolylineVertex
 10
-12.5215
 20
16.4906
 30
0.0
 70
    32
  0
VERTEX
  5
A10
330
9F4
100
AcDbEntity
  8
CENTRALA
100
AcDbVertex
100
AcDb3dPolylineVertex
 10
-12.3484
 20
16.5246
 30
0.0
 70
    32
  0
VERTEX
  5
A11
330
9F4
100
AcDbEntity
  8
CENTRALA
100
AcDbVertex
100
AcDb3dPolylineVertex
 10
-12.1752
 20
16.5571
 30
0.0
 70
    32
  0
VERTEX
  5
A12
330
9F4
100
AcDbEntity
  8
CENTRALA
100
AcDbVertex
100
AcDb3dPolylineVertex
 10
-12.0019
 20
16.5881
 30
0.0
 70
    32
  0
VERTEX
  5
A13
330
9F4
100
AcDbEntity
  8
CENTRALA
100
AcDbVertex
100
AcDb3dPolylineVertex
 10
-11.8285
 20
16.6176
 30
0.0
 70
    32
  0
VERTEX
  5
A14
330
9F4
100
AcDbEntity
  8
CENTRALA
100
AcDbVertex
100
AcDb3dPolylineVertex
 10
-11.655
 20
16.6454
 30
0.0
 70
    32
  0
VERTEX
  5
A15
330
9F4
100
AcDbEntity
  8
CENTRALA
100
AcDbVertex
100
AcDb3dPolylineVertex
 10
-11.4813
 20
16.6716
 30
0.0
 70
    32
  0
VERTEX
  5
A16
330
9F4
100
AcDbEntity
  8
CENTRALA
100
AcDbVertex
100
AcDb3dPolylineVertex
 10
-11.3076
 20
16.6961
 30
0.0
 70
    32
  0
VERTEX
  5
A17
330
9F4
100
AcDbEntity
  8
CENTRALA
100
AcDbVertex
100
AcDb3dPolylineVertex
 10
-11.1337
 20
16.7188
 30
0.0
 70
    32
  0
VERTEX
  5
A18
330
9F4
100
AcDbEntity
  8
CENTRALA
100
AcDbVertex
100
AcDb3dPolylineVertex
 10
-10.9597
 20
16.7397
 30
0.0
 70
    32
  0
VERTEX
  5
A19
330
9F4
100
AcDbEntity
  8
CENTRALA
100
AcDbVertex
100
AcDb3dPolylineVertex
 10
-10.7856
 20
16.7587
 30
0.0
 70
    32
  0
VERTEX
  5
A1A
330
9F4
100
AcDbEntity
  8
CENTRALA
100
AcDbVertex
100
AcDb3dPolylineVertex
 10
-10.6113
 20
16.7757
 30
0.0
 70
    32
  0
VERTEX
  5
A1B
330
9F4
100
AcDbEntity
  8
CENTRALA
100
AcDbVertex
100
AcDb3dPolylineVertex
 10
-10.4369
 20
16.7908
 30
0.0
 70
    32
  0
VERTEX
  5
A1C
330
9F4
100
AcDbEntity
  8
CENTRALA
100
AcDbVertex
100
AcDb3dPolylineVertex
 10
-10.2624
 20
16.8039
 30
0.0
 70
    32
  0
VERTEX
  5
A1D
330
9F4
100
AcDbEntity
  8
CENTRALA
100
AcDbVertex
100
AcDb3dPolylineVertex
 10
-10.0877
 20
16.8148
 30
0.0
 70
    32
  0
VERTEX
  5
A1E
330
9F4
100
AcDbEntity
  8
CENTRALA
100
AcDbVertex
100
AcDb3dPolylineVertex
 10
-9.9129
 20
16.8236
 30
0.0
 70
    32
  0
VERTEX
  5
A1F
330
9F4
100
AcDbEntity
  8
CENTRALA
100
AcDbVertex
100
AcDb3dPolylineVertex
 10
-9.73794
 20
16.8302
 30
0.0
 70
    32
  0
VERTEX
  5
A20
330
9F4
100
AcDbEntity
  8
CENTRALA
100
AcDbVertex
100
AcDb3dPolylineVertex
 10
-9.56282
 20
16.8346
 30
0.0
 70
    32
  0
VERTEX
  5
A21
330
9F4
100
AcDbEntity
  8
CENTRALA
100
AcDbVertex
100
AcDb3dPolylineVertex
 10
-9.387549999999999
 20
16.8366
 30
0.0
 70
    32
  0
VERTEX
  5
A22
330
9F4
100
AcDbEntity
  8
CENTRALA
100
AcDbVertex
100
AcDb3dPolylineVertex
 10
-9.21212
 20
16.8363
 30
0.0
 70
    32
  0
VERTEX
  5
A23
330
9F4
100
AcDbEntity
  8
CENTRALA
100
AcDbVertex
100
AcDb3dPolylineVertex
 10
-9.036519999999999
 20
16.8336
 30
0.0
 70
    32
  0
VERTEX
  5
A24
330
9F4
100
AcDbEntity
  8
CENTRALA
100
AcDbVertex
100
AcDb3dPolylineVertex
 10
-8.86076
 20
16.8284
 30
0.0
 70
    32
  0
VERTEX
  5
A25
330
9F4
100
AcDbEntity
  8
CENTRALA
100
AcDbVertex
100
AcDb3dPolylineVertex
 10
-8.684829999999999
 20
16.8207
 30
0.0
 70
    32
  0
VERTEX
  5
A26
330
9F4
100
AcDbEntity
  8
CENTRALA
100
AcDbVertex
100
AcDb3dPolylineVertex
 10
-8.50872
 20
16.8104
 30
0.0
 70
    32
  0
VERTEX
  5
A27
330
9F4
100
AcDbEntity
  8
CENTRALA
100
AcDbVertex
100
AcDb3dPolylineVertex
 10
-8.33243
 20
16.7974
 30
0.0
 70
    32
  0
VERTEX
  5
A28
330
9F4
100
AcDbEntity
  8
CENTRALA
100
AcDbVertex
100
AcDb3dPolylineVertex
 10
-8.155969999999998
 20
16.7818
 30
0.0
 70
    32
  0
VERTEX
  5
A29
330
9F4
100
AcDbEntity
  8
CENTRALA
100
AcDbVertex
100
AcDb3dPolylineVertex
 10
-7.979319999999996
 20
16.7635
 30
0.0
 70
    32
  0
VERTEX
  5
A2A
330
9F4
100
AcDbEntity
  8
CENTRALA
100
AcDbVertex
100
AcDb3dPolylineVertex
 10
-7.80248
 20
16.7423
 30
0.0
 70
    32
  0
VERTEX
  5
A2B
330
9F4
100
AcDbEntity
  8
CENTRALA
100
AcDbVertex
100
AcDb3dPolylineVertex
 10
-7.625439999999998
 20
16.7183
 30
0.0
 70
    32
  0
VERTEX
  5
A2C
330
9F4
100
AcDbEntity
  8
CENTRALA
100
AcDbVertex
100
AcDb3dPolylineVertex
 10
-7.44822
 20
16.6915
 30
0.0
 70
    32
  0
VERTEX
  5
A2D
330
9F4
100
AcDbEntity
  8
CENTRALA
100
AcDbVertex
100
AcDb3dPolylineVertex
 10
-7.270789999999998
 20
16.6616
 30
0.0
 70
    32
  0
VERTEX
  5
A2E
330
9F4
100
AcDbEntity
  8
CENTRALA
100
AcDbVertex
100
AcDb3dPolylineVertex
 10
-7.093160000000001
 20
16.6288
 30
0.0
 70
    32
  0
VERTEX
  5
A2F
330
9F4
100
AcDbEntity
  8
CENTRALA
100
AcDbVertex
100
AcDb3dPolylineVertex
 10
-6.915319999999999
 20
16.5929
 30
0.0
 70
    32
  0
VERTEX
  5
A30
330
9F4
100
AcDbEntity
  8
CENTRALA
100
AcDbVertex
100
AcDb3dPolylineVertex
 10
-6.737269999999997
 20
16.5539
 30
0.0
 70
    32
  0
VERTEX
  5
A31
330
9F4
100
AcDbEntity
  8
CENTRALA
100
AcDbVertex
100
AcDb3dPolylineVertex
 10
-6.559009999999998
 20
16.5117
 30
0.0
 70
    32
  0
VERTEX
  5
A32
330
9F4
100
AcDbEntity
  8
CENTRALA
100
AcDbVertex
100
AcDb3dPolylineVertex
 10
-6.38053
 20
16.4663
 30
0.0
 70
    32
  0
VERTEX
  5
A33
330
9F4
100
AcDbEntity
  8
CENTRALA
100
AcDbVertex
100
AcDb3dPolylineVertex
 10
-6.20183
 20
16.4177
 30
0.0
 70
    32
  0
VERTEX
  5
A34
330
9F4
100
AcDbEntity
  8
CENTRALA
100
AcDbVertex
100
AcDb3dPolylineVertex
 10
-6.022909999999999
 20
16.3657
 30
0.0
 70
    32
  0
VERTEX
  5
A35
330
9F4
100
AcDbEntity
  8
CENTRALA
100
AcDbVertex
100
AcDb3dPolylineVertex
 10
-5.84377
 20
16.3106
 30
0.0
 70
    32
  0
VERTEX
  5
A36
330
9F4
100
AcDbEntity
  8
CENTRALA
100
AcDbVertex
100
AcDb3dPolylineVertex
 10
-5.664439999999999
 20
16.2524
 30
0.0
 70
    32
  0
VERTEX
  5
A37
330
9F4
100
AcDbEntity
  8
CENTRALA
100
AcDbVertex
100
AcDb3dPolylineVertex
 10
-5.48491
 20
16.1912
 30
0.0
 70
    32
  0
VERTEX
  5
A38
330
9F4
100
AcDbEntity
  8
CENTRALA
100
AcDbVertex
100
AcDb3dPolylineVertex
 10
-5.305209999999997
 20
16.1271
 30
0.0
 70
    32
  0
VERTEX
  5
A39
330
9F4
100
AcDbEntity
  8
CENTRALA
100
AcDbVertex
100
AcDb3dPolylineVertex
 10
-5.125339999999999
 20
16.0603
 30
0.0
 70
    32
  0
VERTEX
  5
A3A
330
9F4
100
AcDbEntity
  8
CENTRALA
100
AcDbVertex
100
AcDb3dPolylineVertex
 10
-4.945299999999999
 20
15.9908
 30
0.0
 70
    32
  0
VERTEX
  5
A3B
330
9F4
100
AcDbEntity
  8
CENTRALA
100
AcDbVertex
100
AcDb3dPolylineVertex
 10
-4.765119999999999
 20
15.9187
 30
0.0
 70
    32
  0
VERTEX
  5
A3C
330
9F4
100
AcDbEntity
  8
CENTRALA
100
AcDbVertex
100
AcDb3dPolylineVertex
 10
-4.5848
 20
15.8442
 30
0.0
 70
    32
  0
VERTEX
  5
A3D
330
9F4
100
AcDbEntity
  8
CENTRALA
100
AcDbVertex
100
AcDb3dPolylineVertex
 10
-4.404349999999999
 20
15.7673
 30
0.0
 70
    32
  0
VERTEX
  5
A3E
330
9F4
100
AcDbEntity
  8
CENTRALA
100
AcDbVertex
100
AcDb3dPolylineVertex
 10
-4.22379
 20
15.6882
 30
0.0
 70
    32
  0
VERTEX
  5
A3F
330
9F4
100
AcDbEntity
  8
CENTRALA
100
AcDbVertex
100
AcDb3dPolylineVertex
 10
-4.043109999999999
 20
15.6069
 30
0.0
 70
    32
  0
VERTEX
  5
A40
330
9F4
100
AcDbEntity
  8
CENTRALA
100
AcDbVertex
100
AcDb3dPolylineVertex
 10
-3.86234
 20
15.5235
 30
0.0
 70
    32
  0
VERTEX
  5
A41
330
9F4
100
AcDbEntity
  8
CENTRALA
100
AcDbVertex
100
AcDb3dPolylineVertex
 10
-3.68149
 20
15.4383
 30
0.0
 70
    32
  0
VERTEX
  5
A42
330
9F4
100
AcDbEntity
  8
CENTRALA
100
AcDbVertex
100
AcDb3dPolylineVertex
 10
-3.50055
 20
15.3511
 30
0.0
 70
    32
  0
VERTEX
  5
A43
330
9F4
100
AcDbEntity
  8
CENTRALA
100
AcDbVertex
100
AcDb3dPolylineVertex
 10
-3.31956
 20
15.2623
 30
0.0
 70
    32
  0
VERTEX
  5
A44
330
9F4
100
AcDbEntity
  8
CENTRALA
100
AcDbVertex
100
AcDb3dPolylineVertex
 10
-3.1385
 20
15.1718
 30
0.0
 70
    32
  0
VERTEX
  5
A45
330
9F4
100
AcDbEntity
  8
CENTRALA
100
AcDbVertex
100
AcDb3dPolylineVertex
 10
-2.957399999999998
 20
15.0797
 30
0.0
 70
    32
  0
VERTEX
  5
A46
330
9F4
100
AcDbEntity
  8
CENTRALA
100
AcDbVertex
100
AcDb3dPolylineVertex
 10
-2.776269999999998
 20
14.9863
 30
0.0
 70
    32
  0
VERTEX
  5
A47
330
9F4
100
AcDbEntity
  8
CENTRALA
100
AcDbVertex
100
AcDb3dPolylineVertex
 10
-2.59511
 20
14.8915
 30
0.0
 70
    32
  0
VERTEX
  5
A48
330
9F4
100
AcDbEntity
  8
CENTRALA
100
AcDbVertex
100
AcDb3dPolylineVertex
 10
-2.41394
 20
14.7955
 30
0.0
 70
    32
  0
VERTEX
  5
A49
330
9F4
100
AcDbEntity
  8
CENTRALA
100
AcDbVertex
100
AcDb3dPolylineVertex
 10
-2.232769999999999
 20
14.6984
 30
0.0
 70
    32
  0
VERTEX
  5
A4A
330
9F4
100
AcDbEntity
  8
CENTRALA
100
AcDbVertex
100
AcDb3dPolylineVertex
 10
-2.0516
 20
14.6002
 30
0.0
 70
    32
  0
VERTEX
  5
A4B
330
9F4
100
AcDbEntity
  8
CENTRALA
100
AcDbVertex
100
AcDb3dPolylineVertex
 10
-1.870449999999999
 20
14.5012
 30
0.0
 70
    32
  0
VERTEX
  5
A4C
330
9F4
100
AcDbEntity
  8
CENTRALA
100
AcDbVertex
100
AcDb3dPolylineVertex
 10
-1.689319999999999
 20
14.4013
 30
0.0
 70
    32
  0
VERTEX
  5
A4D
330
9F4
100
AcDbEntity
  8
CENTRALA
100
AcDbVertex
100
AcDb3dPolylineVertex
 10
-1.508239999999994
 20
14.3008
 30
0.0
 70
    32
  0
VERTEX
  5
A4E
330
9F4
100
AcDbEntity
  8
CENTRALA
100
AcDbVertex
100
AcDb3dPolylineVertex
 10
-1.327199999999999
 20
14.1996
 30
0.0
 70
    32
  0
VERTEX
  5
A4F
330
9F4
100
AcDbEntity
  8
CENTRALA
100
AcDbVertex
100
AcDb3dPolylineVertex
 10
-1.14622
 20
14.098
 30
0.0
 70
    32
  0
VERTEX
  5
A50
330
9F4
100
AcDbEntity
  8
CENTRALA
100
AcDbVertex
100
AcDb3dPolylineVertex
 10
-0.965315
 20
13.9959
 30
0.0
 70
    32
  0
VERTEX
  5
A51
330
9F4
100
AcDbEntity
  8
CENTRALA
100
AcDbVertex
100
AcDb3dPolylineVertex
 10
-0.7844860000000004
 20
13.8936
 30
0.0
 70
    32
  0
VERTEX
  5
A52
330
9F4
100
AcDbEntity
  8
CENTRALA
100
AcDbVertex
100
AcDb3dPolylineVertex
 10
-0.6037470000000002
 20
13.791
 30
0.0
 70
    32
  0
VERTEX
  5
A53
330
9F4
100
AcDbEntity
  8
CENTRALA
100
AcDbVertex
100
AcDb3dPolylineVertex
 10
-0.423108
 20
13.6884
 30
0.0
 70
    32
  0
VERTEX
  5
A54
330
9F4
100
AcDbEntity
  8
CENTRALA
100
AcDbVertex
100
AcDb3dPolylineVertex
 10
-0.24258
 20
13.5858
 30
0.0
 70
    32
  0
VERTEX
  5
A55
330
9F4
100
AcDbEntity
  8
CENTRALA
100
AcDbVertex
100
AcDb3dPolylineVertex
 10
-0.0621731
 20
13.4834
 30
0.0
 70
    32
  0
VERTEX
  5
A56
330
9F4
100
AcDbEntity
  8
CENTRALA
100
AcDbVertex
100
AcDb3dPolylineVertex
 10
0.118102
 20
13.3811
 30
0.0
 70
    32
  0
VERTEX
  5
A57
330
9F4
100
AcDbEntity
  8
CENTRALA
100
AcDbVertex
100
AcDb3dPolylineVertex
 10
0.298236
 20
13.2792
 30
0.0
 70
    32
  0
VERTEX
  5
A58
330
9F4
100
AcDbEntity
  8
CENTRALA
100
AcDbVertex
100
AcDb3dPolylineVertex
 10
0.478217
 20
13.1777
 30
0.0
 70
    32
  0
VERTEX
  5
A59
330
9F4
100
AcDbEntity
  8
CENTRALA
100
AcDbVertex
100
AcDb3dPolylineVertex
 10
0.6580350000000001
 20
13.0768
 30
0.0
 70
    32
  0
VERTEX
  5
A5A
330
9F4
100
AcDbEntity
  8
CENTRALA
100
AcDbVertex
100
AcDb3dPolylineVertex
 10
0.8376809999999997
 20
12.9765
 30
0.0
 70
    32
  0
VERTEX
  5
A5B
330
9F4
100
AcDbEntity
  8
CENTRALA
100
AcDbVertex
100
AcDb3dPolylineVertex
 10
1.017139999999999
 20
12.8769
 30
0.0
 70
    32
  0
VERTEX
  5
A5C
330
9F4
100
AcDbEntity
  8
CENTRALA
100
AcDbVertex
100
AcDb3dPolylineVertex
 10
1.196409999999999
 20
12.7782
 30
0.0
 70
    32
  0
VERTEX
  5
A5D
330
9F4
100
AcDbEntity
  8
CENTRALA
100
AcDbVertex
100
AcDb3dPolylineVertex
 10
1.37548
 20
12.6804
 30
0.0
 70
    32
  0
VERTEX
  5
A5E
330
9F4
100
AcDbEntity
  8
CENTRALA
100
AcDbVertex
100
AcDb3dPolylineVertex
 10
1.554319999999995
 20
12.5837
 30
0.0
 70
    32
  0
VERTEX
  5
A5F
330
9F4
100
AcDbEntity
  8
CENTRALA
100
AcDbVertex
100
AcDb3dPolylineVertex
 10
1.732949999999999
 20
12.4881
 30
0.0
 70
    32
  0
VERTEX
  5
A60
330
9F4
100
AcDbEntity
  8
CENTRALA
100
AcDbVertex
100
AcDb3dPolylineVertex
 10
1.91134
 20
12.3938
 30
0.0
 70
    32
  0
VERTEX
  5
A61
330
9F4
100
AcDbEntity
  8
CENTRALA
100
AcDbVertex
100
AcDb3dPolylineVertex
 10
2.08948
 20
12.3009
 30
0.0
 70
    32
  0
VERTEX
  5
A62
330
9F4
100
AcDbEntity
  8
CENTRALA
100
AcDbVertex
100
AcDb3dPolylineVertex
 10
2.26737
 20
12.2094
 30
0.0
 70
    32
  0
VERTEX
  5
A63
330
9F4
100
AcDbEntity
  8
CENTRALA
100
AcDbVertex
100
AcDb3dPolylineVertex
 10
2.44499
 20
12.1195
 30
0.0
 70
    32
  0
VERTEX
  5
A64
330
9F4
100
AcDbEntity
  8
CENTRALA
100
AcDbVertex
100
AcDb3dPolylineVertex
 10
2.622329999999998
 20
12.0313
 30
0.0
 70
    32
  0
VERTEX
  5
A65
330
9F4
100
AcDbEntity
  8
CENTRALA
100
AcDbVertex
100
AcDb3dPolylineVertex
 10
2.799389999999998
 20
11.9449
 30
0.0
 70
    32
  0
VERTEX
  5
A66
330
9F4
100
AcDbEntity
  8
CENTRALA
100
AcDbVertex
100
AcDb3dPolylineVertex
 10
2.97615
 20
11.8603
 30
0.0
 70
    32
  0
VERTEX
  5
A67
330
9F4
100
AcDbEntity
  8
CENTRALA
100
AcDbVertex
100
AcDb3dPolylineVertex
 10
3.1526
 20
11.7777
 30
0.0
 70
    32
  0
VERTEX
  5
A68
330
9F4
100
AcDbEntity
  8
CENTRALA
100
AcDbVertex
100
AcDb3dPolylineVertex
 10
3.32873
 20
11.6972
 30
0.0
 70
    32
  0
VERTEX
  5
A69
330
9F4
100
AcDbEntity
  8
CENTRALA
100
AcDbVertex
100
AcDb3dPolylineVertex
 10
3.504539999999999
 20
11.6189
 30
0.0
 70
    32
  0
VERTEX
  5
A6A
330
9F4
100
AcDbEntity
  8
CENTRALA
100
AcDbVertex
100
AcDb3dPolylineVertex
 10
3.68
 20
11.5429
 30
0.0
 70
    32
  0
VERTEX
  5
A6B
330
9F4
100
AcDbEntity
  8
CENTRALA
100
AcDbVertex
100
AcDb3dPolylineVertex
 10
3.855119999999999
 20
11.4692
 30
0.0
 70
    32
  0
VERTEX
  5
A6C
330
9F4
100
AcDbEntity
  8
CENTRALA
100
AcDbVertex
100
AcDb3dPolylineVertex
 10
4.029869999999998
 20
11.3981
 30
0.0
 70
    32
  0
VERTEX
  5
A6D
330
9F4
100
AcDbEntity
  8
CENTRALA
100
AcDbVertex
100
AcDb3dPolylineVertex
 10
4.204259999999996
 20
11.3296
 30
0.0
 70
    32
  0
VERTEX
  5
A6E
330
9F4
100
AcDbEntity
  8
CENTRALA
100
AcDbVertex
100
AcDb3dPolylineVertex
 10
4.37826
 20
11.2638
 30
0.0
 70
    32
  0
VERTEX
  5
A6F
330
9F4
100
AcDbEntity
  8
CENTRALA
100
AcDbVertex
100
AcDb3dPolylineVertex
 10
4.551879999999997
 20
11.2008
 30
0.0
 70
    32
  0
VERTEX
  5
A70
330
9F4
100
AcDbEntity
  8
CENTRALA
100
AcDbVertex
100
AcDb3dPolylineVertex
 10
4.725089999999998
 20
11.1407
 30
0.0
 70
    32
  0
VERTEX
  5
A71
330
9F4
100
AcDbEntity
  8
CENTRALA
100
AcDbVertex
100
AcDb3dPolylineVertex
 10
4.89789
 20
11.0836
 30
0.0
 70
    32
  0
VERTEX
  5
A72
330
9F4
100
AcDbEntity
  8
CENTRALA
100
AcDbVertex
100
AcDb3dPolylineVertex
 10
5.070269999999998
 20
11.0297
 30
0.0
 70
    32
  0
VERTEX
  5
A73
330
9F4
100
AcDbEntity
  8
CENTRALA
100
AcDbVertex
100
AcDb3dPolylineVertex
 10
5.24221
 20
10.9789
 30
0.0
 70
    32
  0
VERTEX
  5
A74
330
9F4
100
AcDbEntity
  8
CENTRALA
100
AcDbVertex
100
AcDb3dPolylineVertex
 10
5.41371
 20
10.9315
 30
0.0
 70
    32
  0
VERTEX
  5
A75
330
9F4
100
AcDbEntity
  8
CENTRALA
100
AcDbVertex
100
AcDb3dPolylineVertex
 10
5.58476
 20
10.8876
 30
0.0
 70
    32
  0
VERTEX
  5
A76
330
9F4
100
AcDbEntity
  8
CENTRALA
100
AcDbVertex
100
AcDb3dPolylineVertex
 10
5.755349999999999
 20
10.8471
 30
0.0
 70
    32
  0
VERTEX
  5
A77
330
9F4
100
AcDbEntity
  8
CENTRALA
100
AcDbVertex
100
AcDb3dPolylineVertex
 10
5.92546
 20
10.8103
 30
0.0
 70
    32
  0
VERTEX
  5
A78
330
9F4
100
AcDbEntity
  8
CENTRALA
100
AcDbVertex
100
AcDb3dPolylineVertex
 10
6.09508
 20
10.7773
 30
0.0
 70
    32
  0
VERTEX
  5
A79
330
9F4
100
AcDbEntity
  8
CENTRALA
100
AcDbVertex
100
AcDb3dPolylineVertex
 10
6.26421
 20
10.7481
 30
0.0
 70
    32
  0
VERTEX
  5
A7A
330
9F4
100
AcDbEntity
  8
CENTRALA
100
AcDbVertex
100
AcDb3dPolylineVertex
 10
6.432839999999997
 20
10.7228
 30
0.0
 70
    32
  0
VERTEX
  5
A7B
330
9F4
100
AcDbEntity
  8
CENTRALA
100
AcDbVertex
100
AcDb3dPolylineVertex
 10
6.60095
 20
10.7016
 30
0.0
 70
    32
  0
VERTEX
  5
A7C
330
9F4
100
AcDbEntity
  8
CENTRALA
100
AcDbVertex
100
AcDb3dPolylineVertex
 10
6.768539999999998
 20
10.6845
 30
0.0
 70
    32
  0
VERTEX
  5
A7D
330
9F4
100
AcDbEntity
  8
CENTRALA
100
AcDbVertex
100
AcDb3dPolylineVertex
 10
6.935579999999998
 20
10.6717
 30
0.0
 70
    32
  0
VERTEX
  5
A7E
330
9F4
100
AcDbEntity
  8
CENTRALA
100
AcDbVertex
100
AcDb3dPolylineVertex
 10
7.102089999999999
 20
10.6632
 30
0.0
 70
    32
  0
VERTEX
  5
A7F
330
9F4
100
AcDbEntity
  8
CENTRALA
100
AcDbVertex
100
AcDb3dPolylineVertex
 10
7.26803
 20
10.6593
 30
0.0
 70
    32
  0
VERTEX
  5
A80
330
9F4
100
AcDbEntity
  8
CENTRALA
100
AcDbVertex
100
AcDb3dPolylineVertex
 10
7.43341
 20
10.6598
 30
0.0
 70
    32
  0
VERTEX
  5
A81
330
9F4
100
AcDbEntity
  8
CENTRALA
100
AcDbVertex
100
AcDb3dPolylineVertex
 10
7.5982
 20
10.6651
 30
0.0
 70
    32
  0
VERTEX
  5
A82
330
9F4
100
AcDbEntity
  8
CENTRALA
100
AcDbVertex
100
AcDb3dPolylineVertex
 10
7.76241
 20
10.6751
 30
0.0
 70
    32
  0
VERTEX
  5
A83
330
9F4
100
AcDbEntity
  8
CENTRALA
100
AcDbVertex
100
AcDb3dPolylineVertex
 10
7.926029999999999
 20
10.69
 30
0.0
 70
    32
  0
VERTEX
  5
A84
330
9F4
100
AcDbEntity
  8
CENTRALA
100
AcDbVertex
100
AcDb3dPolylineVertex
 10
8.089030000000001
 20
10.7099
 30
0.0
 70
    32
  0
VERTEX
  5
A85
330
9F4
100
AcDbEntity
  8
CENTRALA
100
AcDbVertex
100
AcDb3dPolylineVertex
 10
8.251409999999998
 20
10.7349
 30
0.0
 70
    32
  0
VERTEX
  5
A86
330
9F4
100
AcDbEntity
  8
CENTRALA
100
AcDbVertex
100
AcDb3dPolylineVertex
 10
8.413160000000001
 20
10.765
 30
0.0
 70
    32
  0
VERTEX
  5
A87
330
9F4
100
AcDbEntity
  8
CENTRALA
100
AcDbVertex
100
AcDb3dPolylineVertex
 10
8.574279999999998
 20
10.8005
 30
0.0
 70
    32
  0
VERTEX
  5
A88
330
9F4
100
AcDbEntity
  8
CENTRALA
100
AcDbVertex
100
AcDb3dPolylineVertex
 10
8.734739999999998
 20
10.8413
 30
0.0
 70
    32
  0
VERTEX
  5
A89
330
9F4
100
AcDbEntity
  8
CENTRALA
100
AcDbVertex
100
AcDb3dPolylineVertex
 10
8.894539999999999
 20
10.8877
 30
0.0
 70
    32
  0
VERTEX
  5
A8A
330
9F4
100
AcDbEntity
  8
CENTRALA
100
AcDbVertex
100
AcDb3dPolylineVertex
 10
9.05367
 20
10.9396
 30
0.0
 70
    32
  0
VERTEX
  5
A8B
330
9F4
100
AcDbEntity
  8
CENTRALA
100
AcDbVertex
100
AcDb3dPolylineVertex
 10
9.21212
 20
10.9972
 30
0.0
 70
    32
  0
VERTEX
  5
A8C
330
9F4
100
AcDbEntity
  8
CENTRALA
100
AcDbVertex
100
AcDb3dPolylineVertex
 10
9.36987
 20
11.0607
 30
0.0
 70
    32
  0
VERTEX
  5
A8D
330
9F4
100
AcDbEntity
  8
CENTRALA
100
AcDbVertex
100
AcDb3dPolylineVertex
 10
9.52693
 20
11.13
 30
0.0
 70
    32
  0
VERTEX
  5
A8E
330
9F4
100
AcDbEntity
  8
CENTRALA
100
AcDbVertex
100
AcDb3dPolylineVertex
 10
9.68327
 20
11.2054
 30
0.0
 70
    32
  0
VERTEX
  5
A8F
330
9F4
100
AcDbEntity
  8
CENTRALA
100
AcDbVertex
100
AcDb3dPolylineVertex
 10
9.838879999999999
 20
11.2869
 30
0.0
 70
    32
  0
VERTEX
  5
A90
330
9F4
100
AcDbEntity
  8
CENTRALA
100
AcDbVertex
100
AcDb3dPolylineVertex
 10
9.993769999999999
 20
11.3746
 30
0.0
 70
    32
  0
VERTEX
  5
A91
330
9F4
100
AcDbEntity
  8
CENTRALA
100
AcDbVertex
100
AcDb3dPolylineVertex
 10
10.1479
 20
11.4687
 30
0.0
 70
    32
  0
VERTEX
  5
A92
330
9F4
100
AcDbEntity
  8
CENTRALA
100
AcDbVertex
100
AcDb3dPolylineVertex
 10
10.3013
 20
11.5691
 30
0.0
 70
    32
  0
VERTEX
  5
A93
330
9F4
100
AcDbEntity
  8
CENTRALA
100
AcDbVertex
100
AcDb3dPolylineVertex
 10
10.4539
 20
11.6761
 30
0.0
 70
    32
  0
VERTEX
  5
A94
330
9F4
100
AcDbEntity
  8
CENTRALA
100
AcDbVertex
100
AcDb3dPolylineVertex
 10
10.6058
 20
11.7898
 30
0.0
 70
    32
  0
VERTEX
  5
A95
330
9F4
100
AcDbEntity
  8
CENTRALA
100
AcDbVertex
100
AcDb3dPolylineVertex
 10
10.7568
 20
11.9101
 30
0.0
 70
    32
  0
VERTEX
  5
A96
330
9F4
100
AcDbEntity
  8
CENTRALA
100
AcDbVertex
100
AcDb3dPolylineVertex
 10
10.9071
 20
12.0372
 30
0.0
 70
    32
  0
VERTEX
  5
A97
330
9F4
100
AcDbEntity
  8
CENTRALA
100
AcDbVertex
100
AcDb3dPolylineVertex
 10
11.0566
 20
12.1706
 30
0.0
 70
    32
  0
VERTEX
  5
A98
330
9F4
100
AcDbEntity
  8
CENTRALA
100
AcDbVertex
100
AcDb3dPolylineVertex
 10
11.2054
 20
12.31
 30
0.0
 70
    32
  0
VERTEX
  5
A99
330
9F4
100
AcDbEntity
  8
CENTRALA
100
AcDbVertex
100
AcDb3dPolylineVertex
 10
11.3534
 20
12.4548
 30
0.0
 70
    32
  0
VERTEX
  5
A9A
330
9F4
100
AcDbEntity
  8
CENTRALA
100
AcDbVertex
100
AcDb3dPolylineVertex
 10
11.5008
 20
12.6048
 30
0.0
 70
    32
  0
VERTEX
  5
A9B
330
9F4
100
AcDbEntity
  8
CENTRALA
100
AcDbVertex
100
AcDb3dPolylineVertex
 10
11.6474
 20
12.7594
 30
0.0
 70
    32
  0
VERTEX
  5
A9C
330
9F4
100
AcDbEntity
  8
CENTRALA
100
AcDbVertex
100
AcDb3dPolylineVertex
 10
11.7935
 20
12.9182
 30
0.0
 70
    32
  0
VERTEX
  5
A9D
330
9F4
100
AcDbEntity
  8
CENTRALA
100
AcDbVertex
100
AcDb3dPolylineVertex
 10
11.9389
 20
13.0809
 30
0.0
 70
    32
  0
VERTEX
  5
A9E
330
9F4
100
AcDbEntity
  8
CENTRALA
100
AcDbVertex
100
AcDb3dPolylineVertex
 10
12.0838
 20
13.2469
 30
0.0
 70
    32
  0
VERTEX
  5
A9F
330
9F4
100
AcDbEntity
  8
CENTRALA
100
AcDbVertex
100
AcDb3dPolylineVertex
 10
12.228
 20
13.4159
 30
0.0
 70
    32
  0
VERTEX
  5
AA0
330
9F4
100
AcDbEntity
  8
CENTRALA
100
AcDbVertex
100
AcDb3dPolylineVertex
 10
12.3718
 20
13.5875
 30
0.0
 70
    32
  0
VERTEX
  5
AA1
330
9F4
100
AcDbEntity
  8
CENTRALA
100
AcDbVertex
100
AcDb3dPolylineVertex
 10
12.515
 20
13.7611
 30
0.0
 70
    32
  0
VERTEX
  5
AA2
330
9F4
100
AcDbEntity
  8
CENTRALA
100
AcDbVertex
100
AcDb3dPolylineVertex
 10
12.6577
 20
13.9365
 30
0.0
 70
    32
  0
VERTEX
  5
AA3
330
9F4
100
AcDbEntity
  8
CENTRALA
100
AcDbVertex
100
AcDb3dPolylineVertex
 10
12.8
 20
14.1132
 30
0.0
 70
    32
  0
VERTEX
  5
AA4
330
9F4
100
AcDbEntity
  8
CENTRALA
100
AcDbVertex
100
AcDb3dPolylineVertex
 10
12.9418
 20
14.2907
 30
0.0
 70
    32
  0
VERTEX
  5
AA5
330
9F4
100
AcDbEntity
  8
CENTRALA
100
AcDbVertex
100
AcDb3dPolylineVertex
 10
13.0832
 20
14.4687
 30
0.0
 70
    32
  0
VERTEX
  5
AA6
330
9F4
100
AcDbEntity
  8
CENTRALA
100
AcDbVertex
100
AcDb3dPolylineVertex
 10
13.2242
 20
14.6467
 30
0.0
 70
    32
  0
VERTEX
  5
AA7
330
9F4
100
AcDbEntity
  8
CENTRALA
100
AcDbVertex
100
AcDb3dPolylineVertex
 10
13.3648
 20
14.8242
 30
0.0
 70
    32
  0
VERTEX
  5
AA8
330
9F4
100
AcDbEntity
  8
CENTRALA
100
AcDbVertex
100
AcDb3dPolylineVertex
 10
13.5051
 20
15.001
 30
0.0
 70
    32
  0
VERTEX
  5
AA9
330
9F4
100
AcDbEntity
  8
CENTRALA
100
AcDbVertex
100
AcDb3dPolylineVertex
 10
13.6451
 20
15.1765
 30
0.0
 70
    32
  0
VERTEX
  5
AAA
330
9F4
100
AcDbEntity
  8
CENTRALA
100
AcDbVertex
100
AcDb3dPolylineVertex
 10
13.7847
 20
15.3503
 30
0.0
 70
    32
  0
VERTEX
  5
AAB
330
9F4
100
AcDbEntity
  8
CENTRALA
100
AcDbVertex
100
AcDb3dPolylineVertex
 10
13.9242
 20
15.522
 30
0.0
 70
    32
  0
VERTEX
  5
AAC
330
9F4
100
AcDbEntity
  8
CENTRALA
100
AcDbVertex
100
AcDb3dPolylineVertex
 10
14.0633
 20
15.6913
 30
0.0
 70
    32
  0
VERTEX
  5
AAD
330
9F4
100
AcDbEntity
  8
CENTRALA
100
AcDbVertex
100
AcDb3dPolylineVertex
 10
14.2023
 20
15.8575
 30
0.0
 70
    32
  0
VERTEX
  5
AAE
330
9F4
100
AcDbEntity
  8
CENTRALA
100
AcDbVertex
100
AcDb3dPolylineVertex
 10
14.341
 20
16.0204
 30
0.0
 70
    32
  0
VERTEX
  5
AAF
330
9F4
100
AcDbEntity
  8
CENTRALA
100
AcDbVertex
100
AcDb3dPolylineVertex
 10
14.4796
 20
16.1796
 30
0.0
 70
    32
  0
VERTEX
  5
AB0
330
9F4
100
AcDbEntity
  8
CENTRALA
100
AcDbVertex
100
AcDb3dPolylineVertex
 10
14.6181
 20
16.3345
 30
0.0
 70
    32
  0
VERTEX
  5
AB1
330
9F4
100
AcDbEntity
  8
CENTRALA
100
AcDbVertex
100
AcDb3dPolylineVertex
 10
14.7564
 20
16.4848
 30
0.0
 70
    32
  0
VERTEX
  5
AB2
330
9F4
100
AcDbEntity
  8
CENTRALA
100
AcDbVertex
100
AcDb3dPolylineVertex
 10
14.8946
 20
16.63
 30
0.0
 70
    32
  0
VERTEX
  5
AB3
330
9F4
100
AcDbEntity
  8
CENTRALA
100
AcDbVertex
100
AcDb3dPolylineVertex
 10
15.0328
 20
16.7698
 30
0.0
 70
    32
  0
VERTEX
  5
AB4
330
9F4
100
AcDbEntity
  8
CENTRALA
100
AcDbVertex
100
AcDb3dPolylineVertex
 10
15.1709
 20
16.9037
 30
0.0
 70
    32
  0
VERTEX
  5
AB5
330
9F4
100
AcDbEntity
  8
CENTRALA
100
AcDbVertex
100
AcDb3dPolylineVertex
 10
15.2877
 20
16.957
 30
0.0
 70
    32
  0
VERTEX
  5
AB6
330
9F4
100
AcDbEntity
  8
CENTRALA
100
AcDbVertex
100
AcDb3dPolylineVertex
 10
15.3405
 20
16.7852
 30
0.0
 70
    32
  0
VERTEX
  5
AB7
330
9F4
100
AcDbEntity
  8
CENTRALA
100
AcDbVertex
100
AcDb3dPolylineVertex
 10
15.3933
 20
16.6134
 30
0.0
 70
    32
  0
VERTEX
  5
AB8
330
9F4
100
AcDbEntity
  8
CENTRALA
100
AcDbVertex
100
AcDb3dPolylineVertex
 10
15.4459
 20
16.4415
 30
0.0
 70
    32
  0
VERTEX
  5
AB9
330
9F4
100
AcDbEntity
  8
CENTRALA
100
AcDbVertex
100
AcDb3dPolylineVertex
 10
15.4983
 20
16.2696
 30
0.0
 70
    32
  0
VERTEX
  5
ABA
330
9F4
100
AcDbEntity
  8
CENTRALA
100
AcDbVertex
100
AcDb3dPolylineVertex
 10
15.5505
 20
16.0978
 30
0.0
 70
    32
  0
VERTEX
  5
ABB
330
9F4
100
AcDbEntity
  8
CENTRALA
100
AcDbVertex
100
AcDb3dPolylineVertex
 10
15.6024
 20
15.9259
 30
0.0
 70
    32
  0
VERTEX
  5
ABC
330
9F4
100
AcDbEntity
  8
CENTRALA
100
AcDbVertex
100
AcDb3dPolylineVertex
 10
15.654
 20
15.7539
 30
0.0
 70
    32
  0
VERTEX
  5
ABD
330
9F4
100
AcDbEntity
  8
CENTRALA
100
AcDbVertex
100
AcDb3dPolylineVertex
 10
15.7052
 20
15.582
 30
0.0
 70
    32
  0
VERTEX
  5
ABE
330
9F4
100
AcDbEntity
  8
CENTRALA
100
AcDbVertex
100
AcDb3dPolylineVertex
 10
15.756
 20
15.41
 30
0.0
 70
    32
  0
VERTEX
  5
ABF
330
9F4
100
AcDbEntity
  8
CENTRALA
100
AcDbVertex
100
AcDb3dPolylineVertex
 10
15.8063
 20
15.238
 30
0.0
 70
    32
  0
VERTEX
  5
AC0
330
9F4
100
AcDbEntity
  8
CENTRALA
100
AcDbVertex
100
AcDb3dPolylineVertex
 10
15.856
 20
15.0659
 30
0.0
 70
    32
  0
VERTEX
  5
AC1
330
9F4
100
AcDbEntity
  8
CENTRALA
100
AcDbVertex
100
AcDb3dPolylineVertex
 10
15.9051
 20
14.8939
 30
0.0
 70
    32
  0
VERTEX
  5
AC2
330
9F4
100
AcDbEntity
  8
CENTRALA
100
AcDbVertex
100
AcDb3dPolylineVertex
 10
15.9535
 20
14.7217
 30
0.0
 70
    32
  0
VERTEX
  5
AC3
330
9F4
100
AcDbEntity
  8
CENTRALA
100
AcDbVertex
100
AcDb3dPolylineVertex
 10
16.0013
 20
14.5495
 30
0.0
 70
    32
  0
VERTEX
  5
AC4
330
9F4
100
AcDbEntity
  8
CENTRALA
100
AcDbVertex
100
AcDb3dPolylineVertex
 10
16.0483
 20
14.3773
 30
0.0
 70
    32
  0
VERTEX
  5
AC5
330
9F4
100
AcDbEntity
  8
CENTRALA
100
AcDbVertex
100
AcDb3dPolylineVertex
 10
16.0944
 20
14.205
 30
0.0
 70
    32
  0
VERTEX
  5
AC6
330
9F4
100
AcDbEntity
  8
CENTRALA
100
AcDbVertex
100
AcDb3dPolylineVertex
 10
16.1397
 20
14.0327
 30
0.0
 70
    32
  0
VERTEX
  5
AC7
330
9F4
100
AcDbEntity
  8
CENTRALA
100
AcDbVertex
100
AcDb3dPolylineVertex
 10
16.1841
 20
13.8603
 30
0.0
 70
    32
  0
VERTEX
  5
AC8
330
9F4
100
AcDbEntity
  8
CENTRALA
100
AcDbVertex
100
AcDb3dPolylineVertex
 10
16.2275
 20
13.6878
 30
0.0
 70
    32
  0
VERTEX
  5
AC9
330
9F4
100
AcDbEntity
  8
CENTRALA
100
AcDbVertex
100
AcDb3dPolylineVertex
 10
16.2698
 20
13.5152
 30
0.0
 70
    32
  0
VERTEX
  5
ACA
330
9F4
100
AcDbEntity
  8
CENTRALA
100
AcDbVertex
100
AcDb3dPolylineVertex
 10
16.3111
 20
13.3426
 30
0.0
 70
    32
  0
VERTEX
  5
ACB
330
9F4
100
AcDbEntity
  8
CENTRALA
100
AcDbVertex
100
AcDb3dPolylineVertex
 10
16.3512
 20
13.1699
 30
0.0
 70
    32
  0
VERTEX
  5
ACC
330
9F4
100
AcDbEntity
  8
CENTRALA
100
AcDbVertex
100
AcDb3dPolylineVertex
 10
16.3901
 20
12.9971
 30
0.0
 70
    32
  0
VERTEX
  5
ACD
330
9F4
100
AcDbEntity
  8
CENTRALA
100
AcDbVertex
100
AcDb3dPolylineVertex
 10
16.4278
 20
12.8243
 30
0.0
 70
    32
  0
VERTEX
  5
ACE
330
9F4
100
AcDbEntity
  8
CENTRALA
100
AcDbVertex
100
AcDb3dPolylineVertex
 10
16.4642
 20
12.6513
 30
0.0
 70
    32
  0
VERTEX
  5
ACF
330
9F4
100
AcDbEntity
  8
CENTRALA
100
AcDbVertex
100
AcDb3dPolylineVertex
 10
16.4992
 20
12.4783
 30
0.0
 70
    32
  0
VERTEX
  5
AD0
330
9F4
100
AcDbEntity
  8
CENTRALA
100
AcDbVertex
100
AcDb3dPolylineVertex
 10
16.5328
 20
12.3051
 30
0.0
 70
    32
  0
VERTEX
  5
AD1
330
9F4
100
AcDbEntity
  8
CENTRALA
100
AcDbVertex
100
AcDb3dPolylineVertex
 10
16.565
 20
12.1319
 30
0.0
 70
    32
  0
VERTEX
  5
AD2
330
9F4
100
AcDbEntity
  8
CENTRALA
100
AcDbVertex
100
AcDb3dPolylineVertex
 10
16.5956
 20
11.9586
 30
0.0
 70
    32
  0
VERTEX
  5
AD3
330
9F4
100
AcDbEntity
  8
CENTRALA
100
AcDbVertex
100
AcDb3dPolylineVertex
 10
16.6247
 20
11.7851
 30
0.0
 70
    32
  0
VERTEX
  5
AD4
330
9F4
100
AcDbEntity
  8
CENTRALA
100
AcDbVertex
100
AcDb3dPolylineVertex
 10
16.6521
 20
11.6116
 30
0.0
 70
    32
  0
VERTEX
  5
AD5
330
9F4
100
AcDbEntity
  8
CENTRALA
100
AcDbVertex
100
AcDb3dPolylineVertex
 10
16.6779
 20
11.4379
 30
0.0
 70
    32
  0
VERTEX
  5
AD6
330
9F4
100
AcDbEntity
  8
CENTRALA
100
AcDbVertex
100
AcDb3dPolylineVertex
 10
16.7019
 20
11.2641
 30
0.0
 70
    32
  0
VERTEX
  5
AD7
330
9F4
100
AcDbEntity
  8
CENTRALA
100
AcDbVertex
100
AcDb3dPolylineVertex
 10
16.7242
 20
11.0902
 30
0.0
 70
    32
  0
VERTEX
  5
AD8
330
9F4
100
AcDbEntity
  8
CENTRALA
100
AcDbVertex
100
AcDb3dPolylineVertex
 10
16.7446
 20
10.9162
 30
0.0
 70
    32
  0
VERTEX
  5
AD9
330
9F4
100
AcDbEntity
  8
CENTRALA
100
AcDbVertex
100
AcDb3dPolylineVertex
 10
16.7631
 20
10.742
 30
0.0
 70
    32
  0
VERTEX
  5
ADA
330
9F4
100
AcDbEntity
  8
CENTRALA
100
AcDbVertex
100
AcDb3dPolylineVertex
 10
16.7797
 20
10.5677
 30
0.0
 70
    32
  0
VERTEX
  5
ADB
330
9F4
100
AcDbEntity
  8
CENTRALA
100
AcDbVertex
100
AcDb3dPolylineVertex
 10
16.7943
 20
10.3933
 30
0.0
 70
    32
  0
VERTEX
  5
ADC
330
9F4
100
AcDbEntity
  8
CENTRALA
100
AcDbVertex
100
AcDb3dPolylineVertex
 10
16.8068
 20
10.2187
 30
0.0
 70
    32
  0
VERTEX
  5
ADD
330
9F4
100
AcDbEntity
  8
CENTRALA
100
AcDbVertex
100
AcDb3dPolylineVertex
 10
16.8172
 20
10.044
 30
0.0
 70
    32
  0
VERTEX
  5
ADE
330
9F4
100
AcDbEntity
  8
CENTRALA
100
AcDbVertex
100
AcDb3dPolylineVertex
 10
16.8255
 20
9.86918
 30
0.0
 70
    32
  0
VERTEX
  5
ADF
330
9F4
100
AcDbEntity
  8
CENTRALA
100
AcDbVertex
100
AcDb3dPolylineVertex
 10
16.8315
 20
9.694169999999999
 30
0.0
 70
    32
  0
VERTEX
  5
AE0
330
9F4
100
AcDbEntity
  8
CENTRALA
100
AcDbVertex
100
AcDb3dPolylineVertex
 10
16.8353
 20
9.519019999999999
 30
0.0
 70
    32
  0
VERTEX
  5
AE1
330
9F4
100
AcDbEntity
  8
CENTRALA
100
AcDbVertex
100
AcDb3dPolylineVertex
 10
16.8368
 20
9.343709999999999
 30
0.0
 70
    32
  0
VERTEX
  5
AE2
330
9F4
100
AcDbEntity
  8
CENTRALA
100
AcDbVertex
100
AcDb3dPolylineVertex
 10
16.8359
 20
9.168229999999999
 30
0.0
 70
    32
  0
VERTEX
  5
AE3
330
9F4
100
AcDbEntity
  8
CENTRALA
100
AcDbVertex
100
AcDb3dPolylineVertex
 10
16.8325
 20
8.992599999999994
 30
0.0
 70
    32
  0
VERTEX
  5
AE4
330
9F4
100
AcDbEntity
  8
CENTRALA
100
AcDbVertex
100
AcDb3dPolylineVertex
 10
16.8267
 20
8.816789999999999
 30
0.0
 70
    32
  0
VERTEX
  5
AE5
330
9F4
100
AcDbEntity
  8
CENTRALA
100
AcDbVertex
100
AcDb3dPolylineVertex
 10
16.8183
 20
8.640819999999996
 30
0.0
 70
    32
  0
VERTEX
  5
AE6
330
9F4
100
AcDbEntity
  8
CENTRALA
100
AcDbVertex
100
AcDb3dPolylineVertex
 10
16.8074
 20
8.464669999999998
 30
0.0
 70
    32
  0
VERTEX
  5
AE7
330
9F4
100
AcDbEntity
  8
CENTRALA
100
AcDbVertex
100
AcDb3dPolylineVertex
 10
16.7938
 20
8.288339999999999
 30
0.0
 70
    32
  0
VERTEX
  5
AE8
330
9F4
100
AcDbEntity
  8
CENTRALA
100
AcDbVertex
100
AcDb3dPolylineVertex
 10
16.7775
 20
8.111819999999999
 30
0.0
 70
    32
  0
VERTEX
  5
AE9
330
9F4
100
AcDbEntity
  8
CENTRALA
100
AcDbVertex
100
AcDb3dPolylineVertex
 10
16.7584
 20
7.93513
 30
0.0
 70
    32
  0
VERTEX
  5
AEA
330
9F4
100
AcDbEntity
  8
CENTRALA
100
AcDbVertex
100
AcDb3dPolylineVertex
 10
16.7366
 20
7.758239999999999
 30
0.0
 70
    32
  0
VERTEX
  5
AEB
330
9F4
100
AcDbEntity
  8
CENTRALA
100
AcDbVertex
100
AcDb3dPolylineVertex
 10
16.7119
 20
7.581159999999998
 30
0.0
 70
    32
  0
VERTEX
  5
AEC
330
9F4
100
AcDbEntity
  8
CENTRALA
100
AcDbVertex
100
AcDb3dPolylineVertex
 10
16.6843
 20
7.40388
 30
0.0
 70
    32
  0
VERTEX
  5
AED
330
9F4
100
AcDbEntity
  8
CENTRALA
100
AcDbVertex
100
AcDb3dPolylineVertex
 10
16.6537
 20
7.226399999999999
 30
0.0
 70
    32
  0
VERTEX
  5
AEE
330
9F4
100
AcDbEntity
  8
CENTRALA
100
AcDbVertex
100
AcDb3dPolylineVertex
 10
16.6201
 20
7.04872
 30
0.0
 70
    32
  0
VERTEX
  5
AEF
330
9F4
100
AcDbEntity
  8
CENTRALA
100
AcDbVertex
100
AcDb3dPolylineVertex
 10
16.5834
 20
6.870829999999997
 30
0.0
 70
    32
  0
VERTEX
  5
AF0
330
9F4
100
AcDbEntity
  8
CENTRALA
100
AcDbVertex
100
AcDb3dPolylineVertex
 10
16.5437
 20
6.69273
 30
0.0
 70
    32
  0
VERTEX
  5
AF1
330
9F4
100
AcDbEntity
  8
CENTRALA
100
AcDbVertex
100
AcDb3dPolylineVertex
 10
16.5007
 20
6.514409999999998
 30
0.0
 70
    32
  0
VERTEX
  5
AF2
330
9F4
100
AcDbEntity
  8
CENTRALA
100
AcDbVertex
100
AcDb3dPolylineVertex
 10
16.4545
 20
6.335869999999999
 30
0.0
 70
    32
  0
VERTEX
  5
AF3
330
9F4
100
AcDbEntity
  8
CENTRALA
100
AcDbVertex
100
AcDb3dPolylineVertex
 10
16.405
 20
6.157119999999999
 30
0.0
 70
    32
  0
VERTEX
  5
AF4
330
9F4
100
AcDbEntity
  8
CENTRALA
100
AcDbVertex
100
AcDb3dPolylineVertex
 10
16.3522
 20
5.978139999999998
 30
0.0
 70
    32
  0
VERTEX
  5
AF5
330
9F4
100
AcDbEntity
  8
CENTRALA
100
AcDbVertex
100
AcDb3dPolylineVertex
 10
16.2963
 20
5.79896
 30
0.0
 70
    32
  0
VERTEX
  5
AF6
330
9F4
100
AcDbEntity
  8
CENTRALA
100
AcDbVertex
100
AcDb3dPolylineVertex
 10
16.2374
 20
5.619569999999999
 30
0.0
 70
    32
  0
VERTEX
  5
AF7
330
9F4
100
AcDbEntity
  8
CENTRALA
100
AcDbVertex
100
AcDb3dPolylineVertex
 10
16.1754
 20
5.44
 30
0.0
 70
    32
  0
VERTEX
  5
AF8
330
9F4
100
AcDbEntity
  8
CENTRALA
100
AcDbVertex
100
AcDb3dPolylineVertex
 10
16.1107
 20
5.260259999999997
 30
0.0
 70
    32
  0
VERTEX
  5
AF9
330
9F4
100
AcDbEntity
  8
CENTRALA
100
AcDbVertex
100
AcDb3dPolylineVertex
 10
16.0432
 20
5.080339999999999
 30
0.0
 70
    32
  0
VERTEX
  5
AFA
330
9F4
100
AcDbEntity
  8
CENTRALA
100
AcDbVertex
100
AcDb3dPolylineVertex
 10
15.973
 20
4.900269999999999
 30
0.0
 70
    32
  0
VERTEX
  5
AFB
330
9F4
100
AcDbEntity
  8
CENTRALA
100
AcDbVertex
100
AcDb3dPolylineVertex
 10
15.9003
 20
4.720049999999999
 30
0.0
 70
    32
  0
VERTEX
  5
AFC
330
9F4
100
AcDbEntity
  8
CENTRALA
100
AcDbVertex
100
AcDb3dPolylineVertex
 10
15.8252
 20
4.539699999999998
 30
0.0
 70
    32
  0
VERTEX
  5
AFD
330
9F4
100
AcDbEntity
  8
CENTRALA
100
AcDbVertex
100
AcDb3dPolylineVertex
 10
15.7477
 20
4.359219999999996
 30
0.0
 70
    32
  0
VERTEX
  5
AFE
330
9F4
100
AcDbEntity
  8
CENTRALA
100
AcDbVertex
100
AcDb3dPolylineVertex
 10
15.668
 20
4.17863
 30
0.0
 70
    32
  0
VERTEX
  5
AFF
330
9F4
100
AcDbEntity
  8
CENTRALA
100
AcDbVertex
100
AcDb3dPolylineVertex
 10
15.5862
 20
3.99793
 30
0.0
 70
    32
  0
VERTEX
  5
B00
330
9F4
100
AcDbEntity
  8
CENTRALA
100
AcDbVertex
100
AcDb3dPolylineVertex
 10
15.5024
 20
3.81714
 30
0.0
 70
    32
  0
VERTEX
  5
B01
330
9F4
100
AcDbEntity
  8
CENTRALA
100
AcDbVertex
100
AcDb3dPolylineVertex
 10
15.4166
 20
3.63626
 30
0.0
 70
    32
  0
VERTEX
  5
B02
330
9F4
100
AcDbEntity
  8
CENTRALA
100
AcDbVertex
100
AcDb3dPolylineVertex
 10
15.3291
 20
3.455309999999998
 30
0.0
 70
    32
  0
VERTEX
  5
B03
330
9F4
100
AcDbEntity
  8
CENTRALA
100
AcDbVertex
100
AcDb3dPolylineVertex
 10
15.2398
 20
3.2743
 30
0.0
 70
    32
  0
VERTEX
  5
B04
330
9F4
100
AcDbEntity
  8
CENTRALA
100
AcDbVertex
100
AcDb3dPolylineVertex
 10
15.1489
 20
3.09323
 30
0.0
 70
    32
  0
VERTEX
  5
B05
330
9F4
100
AcDbEntity
  8
CENTRALA
100
AcDbVertex
100
AcDb3dPolylineVertex
 10
15.0565
 20
2.912119999999998
 30
0.0
 70
    32
  0
VERTEX
  5
B06
330
9F4
100
AcDbEntity
  8
CENTRALA
100
AcDbVertex
100
AcDb3dPolylineVertex
 10
14.9627
 20
2.730979999999998
 30
0.0
 70
    32
  0
VERTEX
  5
B07
330
9F4
100
AcDbEntity
  8
CENTRALA
100
AcDbVertex
100
AcDb3dPolylineVertex
 10
14.8676
 20
2.549819999999999
 30
0.0
 70
    32
  0
VERTEX
  5
B08
330
9F4
100
AcDbEntity
  8
CENTRALA
100
AcDbVertex
100
AcDb3dPolylineVertex
 10
14.7713
 20
2.36865
 30
0.0
 70
    32
  0
VERTEX
  5
B09
330
9F4
100
AcDbEntity
  8
CENTRALA
100
AcDbVertex
100
AcDb3dPolylineVertex
 10
14.6739
 20
2.187469999999998
 30
0.0
 70
    32
  0
VERTEX
  5
B0A
330
9F4
100
AcDbEntity
  8
CENTRALA
100
AcDbVertex
100
AcDb3dPolylineVertex
 10
14.5756
 20
2.00631
 30
0.0
 70
    32
  0
VERTEX
  5
B0B
330
9F4
100
AcDbEntity
  8
CENTRALA
100
AcDbVertex
100
AcDb3dPolylineVertex
 10
14.4763
 20
1.825159999999995
 30
0.0
 70
    32
  0
VERTEX
  5
B0C
330
9F4
100
AcDbEntity
  8
CENTRALA
100
AcDbVertex
100
AcDb3dPolylineVertex
 10
14.3763
 20
1.64405
 30
0.0
 70
    32
  0
VERTEX
  5
B0D
330
9F4
100
AcDbEntity
  8
CENTRALA
100
AcDbVertex
100
AcDb3dPolylineVertex
 10
14.2755
 20
1.46297
 30
0.0
 70
    32
  0
VERTEX
  5
B0E
330
9F4
100
AcDbEntity
  8
CENTRALA
100
AcDbVertex
100
AcDb3dPolylineVertex
 10
14.1742
 20
1.281949999999999
 30
0.0
 70
    32
  0
VERTEX
  5
B0F
330
9F4
100
AcDbEntity
  8
CENTRALA
100
AcDbVertex
100
AcDb3dPolylineVertex
 10
14.0725
 20
1.100989999999999
 30
0.0
 70
    32
  0
VERTEX
  5
B10
330
9F4
100
AcDbEntity
  8
CENTRALA
100
AcDbVertex
100
AcDb3dPolylineVertex
 10
13.9704
 20
0.9201
 30
0.0
 70
    32
  0
VERTEX
  5
B11
330
9F4
100
AcDbEntity
  8
CENTRALA
100
AcDbVertex
100
AcDb3dPolylineVertex
 10
13.868
 20
0.7392920000000001
 30
0.0
 70
    32
  0
VERTEX
  5
B12
330
9F4
100
AcDbEntity
  8
CENTRALA
100
AcDbVertex
100
AcDb3dPolylineVertex
 10
13.7654
 20
0.5585770000000001
 30
0.0
 70
    32
  0
VERTEX
  5
B13
330
9F4
100
AcDbEntity
  8
CENTRALA
100
AcDbVertex
100
AcDb3dPolylineVertex
 10
13.6628
 20
0.377965
 30
0.0
 70
    32
  0
VERTEX
  5
B14
330
9F4
100
AcDbEntity
  8
CENTRALA
100
AcDbVertex
100
AcDb3dPolylineVertex
 10
13.5602
 20
0.197466
 30
0.0
 70
    32
  0
VERTEX
  5
B15
330
9F4
100
AcDbEntity
  8
CENTRALA
100
AcDbVertex
100
AcDb3dPolylineVertex
 10
13.4578
 20
0.0170916
 30
0.0
 70
    32
  0
VERTEX
  5
B16
330
9F4
100
AcDbEntity
  8
CENTRALA
100
AcDbVertex
100
AcDb3dPolylineVertex
 10
13.3556
 20
-0.163149
 30
0.0
 70
    32
  0
VERTEX
  5
B17
330
9F4
100
AcDbEntity
  8
CENTRALA
100
AcDbVertex
100
AcDb3dPolylineVertex
 10
13.2538
 20
-0.343246
 30
0.0
 70
    32
  0
VERTEX
  5
B18
330
9F4
100
AcDbEntity
  8
CENTRALA
100
AcDbVertex
100
AcDb3dPolylineVertex
 10
13.1524
 20
-0.523187
 30
0.0
 70
    32
  0
VERTEX
  5
B19
330
9F4
100
AcDbEntity
  8
CENTRALA
100
AcDbVertex
100
AcDb3dPolylineVertex
 10
13.0516
 20
-0.702963
 30
0.0
 70
    32
  0
VERTEX
  5
B1A
330
9F4
100
AcDbEntity
  8
CENTRALA
100
AcDbVertex
100
AcDb3dPolylineVertex
 10
12.9515
 20
-0.8825639999999999
 30
0.0
 70
    32
  0
VERTEX
  5
B1B
330
9F4
100
AcDbEntity
  8
CENTRALA
100
AcDbVertex
100
AcDb3dPolylineVertex
 10
12.8521
 20
-1.061979999999999
 30
0.0
 70
    32
  0
VERTEX
  5
B1C
330
9F4
100
AcDbEntity
  8
CENTRALA
100
AcDbVertex
100
AcDb3dPolylineVertex
 10
12.7537
 20
-1.2412
 30
0.0
 70
    32
  0
VERTEX
  5
B1D
330
9F4
100
AcDbEntity
  8
CENTRALA
100
AcDbVertex
100
AcDb3dPolylineVertex
 10
12.6561
 20
-1.420209999999999
 30
0.0
 70
    32
  0
VERTEX
  5
B1E
330
9F4
100
AcDbEntity
  8
CENTRALA
100
AcDbVertex
100
AcDb3dPolylineVertex
 10
12.5597
 20
-1.599
 30
0.0
 70
    32
  0
VERTEX
  5
B1F
330
9F4
100
AcDbEntity
  8
CENTRALA
100
AcDbVertex
100
AcDb3dPolylineVertex
 10
12.4644
 20
-1.77757
 30
0.0
 70
    32
  0
VERTEX
  5
B20
330
9F4
100
AcDbEntity
  8
CENTRALA
100
AcDbVertex
100
AcDb3dPolylineVertex
 10
12.3705
 20
-1.955899999999999
 30
0.0
 70
    32
  0
VERTEX
  5
B21
330
9F4
100
AcDbEntity
  8
CENTRALA
100
AcDbVertex
100
AcDb3dPolylineVertex
 10
12.2779
 20
-2.133979999999996
 30
0.0
 70
    32
  0
VERTEX
  5
B22
330
9F4
100
AcDbEntity
  8
CENTRALA
100
AcDbVertex
100
AcDb3dPolylineVertex
 10
12.1868
 20
-2.311799999999998
 30
0.0
 70
    32
  0
VERTEX
  5
B23
330
9F4
100
AcDbEntity
  8
CENTRALA
100
AcDbVertex
100
AcDb3dPolylineVertex
 10
12.0973
 20
-2.489349999999999
 30
0.0
 70
    32
  0
VERTEX
  5
B24
330
9F4
100
AcDbEntity
  8
CENTRALA
100
AcDbVertex
100
AcDb3dPolylineVertex
 10
12.0095
 20
-2.66663
 30
0.0
 70
    32
  0
VERTEX
  5
B25
330
9F4
100
AcDbEntity
  8
CENTRALA
100
AcDbVertex
100
AcDb3dPolylineVertex
 10
11.9235
 20
-2.843609999999999
 30
0.0
 70
    32
  0
VERTEX
  5
B26
330
9F4
100
AcDbEntity
  8
CENTRALA
100
AcDbVertex
100
AcDb3dPolylineVertex
 10
11.8394
 20
-3.02029
 30
0.0
 70
    32
  0
VERTEX
  5
B27
330
9F4
100
AcDbEntity
  8
CENTRALA
100
AcDbVertex
100
AcDb3dPolylineVertex
 10
11.7574
 20
-3.19666
 30
0.0
 70
    32
  0
VERTEX
  5
B28
330
9F4
100
AcDbEntity
  8
CENTRALA
100
AcDbVertex
100
AcDb3dPolylineVertex
 10
11.6774
 20
-3.372719999999996
 30
0.0
 70
    32
  0
VERTEX
  5
B29
330
9F4
100
AcDbEntity
  8
CENTRALA
100
AcDbVertex
100
AcDb3dPolylineVertex
 10
11.5997
 20
-3.548439999999998
 30
0.0
 70
    32
  0
VERTEX
  5
B2A
330
9F4
100
AcDbEntity
  8
CENTRALA
100
AcDbVertex
100
AcDb3dPolylineVertex
 10
11.5242
 20
-3.723809999999998
 30
0.0
 70
    32
  0
VERTEX
  5
B2B
330
9F4
100
AcDbEntity
  8
CENTRALA
100
AcDbVertex
100
AcDb3dPolylineVertex
 10
11.4512
 20
-3.898839999999998
 30
0.0
 70
    32
  0
VERTEX
  5
B2C
330
9F4
100
AcDbEntity
  8
CENTRALA
100
AcDbVertex
100
AcDb3dPolylineVertex
 10
11.3807
 20
-4.0735
 30
0.0
 70
    32
  0
VERTEX
  5
B2D
330
9F4
100
AcDbEntity
  8
CENTRALA
100
AcDbVertex
100
AcDb3dPolylineVertex
 10
11.3129
 20
-4.247799999999998
 30
0.0
 70
    32
  0
VERTEX
  5
B2E
330
9F4
100
AcDbEntity
  8
CENTRALA
100
AcDbVertex
100
AcDb3dPolylineVertex
 10
11.2478
 20
-4.4217
 30
0.0
 70
    32
  0
VERTEX
  5
B2F
330
9F4
100
AcDbEntity
  8
CENTRALA
100
AcDbVertex
100
AcDb3dPolylineVertex
 10
11.1855
 20
-4.59522
 30
0.0
 70
    32
  0
VERTEX
  5
B30
330
9F4
100
AcDbEntity
  8
CENTRALA
100
AcDbVertex
100
AcDb3dPolylineVertex
 10
11.1261
 20
-4.768329999999997
 30
0.0
 70
    32
  0
VERTEX
  5
B31
330
9F4
100
AcDbEntity
  8
CENTRALA
100
AcDbVertex
100
AcDb3dPolylineVertex
 10
11.0698
 20
-4.941019999999999
 30
0.0
 70
    32
  0
VERTEX
  5
B32
330
9F4
100
AcDbEntity
  8
CENTRALA
100
AcDbVertex
100
AcDb3dPolylineVertex
 10
11.0167
 20
-5.11329
 30
0.0
 70
    32
  0
VERTEX
  5
B33
330
9F4
100
AcDbEntity
  8
CENTRALA
100
AcDbVertex
100
AcDb3dPolylineVertex
 10
10.9668
 20
-5.285129999999996
 30
0.0
 70
    32
  0
VERTEX
  5
B34
330
9F4
100
AcDbEntity
  8
CENTRALA
100
AcDbVertex
100
AcDb3dPolylineVertex
 10
10.9202
 20
-5.45652
 30
0.0
 70
    32
  0
VERTEX
  5
B35
330
9F4
100
AcDbEntity
  8
CENTRALA
100
AcDbVertex
100
AcDb3dPolylineVertex
 10
10.8771
 20
-5.627449999999999
 30
0.0
 70
    32
  0
VERTEX
  5
B36
330
9F4
100
AcDbEntity
  8
CENTRALA
100
AcDbVertex
100
AcDb3dPolylineVertex
 10
10.8376
 20
-5.797919999999999
 30
0.0
 70
    32
  0
VERTEX
  5
B37
330
9F4
100
AcDbEntity
  8
CENTRALA
100
AcDbVertex
100
AcDb3dPolylineVertex
 10
10.8017
 20
-5.967909999999998
 30
0.0
 70
    32
  0
VERTEX
  5
B38
330
9F4
100
AcDbEntity
  8
CENTRALA
100
AcDbVertex
100
AcDb3dPolylineVertex
 10
10.7696
 20
-6.13741
 30
0.0
 70
    32
  0
VERTEX
  5
B39
330
9F4
100
AcDbEntity
  8
CENTRALA
100
AcDbVertex
100
AcDb3dPolylineVertex
 10
10.7414
 20
-6.30642
 30
0.0
 70
    32
  0
VERTEX
  5
B3A
330
9F4
100
AcDbEntity
  8
CENTRALA
100
AcDbVertex
100
AcDb3dPolylineVertex
 10
10.7171
 20
-6.47492
 30
0.0
 70
    32
  0
VERTEX
  5
B3B
330
9F4
100
AcDbEntity
  8
CENTRALA
100
AcDbVertex
100
AcDb3dPolylineVertex
 10
10.6969
 20
-6.6429
 30
0.0
 70
    32
  0
VERTEX
  5
B3C
330
9F4
100
AcDbEntity
  8
CENTRALA
100
AcDbVertex
100
AcDb3dPolylineVertex
 10
10.6809
 20
-6.810349999999997
 30
0.0
 70
    32
  0
VERTEX
  5
B3D
330
9F4
100
AcDbEntity
  8
CENTRALA
100
AcDbVertex
100
AcDb3dPolylineVertex
 10
10.6692
 20
-6.97726
 30
0.0
 70
    32
  0
VERTEX
  5
B3E
330
9F4
100
AcDbEntity
  8
CENTRALA
100
AcDbVertex
100
AcDb3dPolylineVertex
 10
10.6618
 20
-7.14362
 30
0.0
 70
    32
  0
VERTEX
  5
B3F
330
9F4
100
AcDbEntity
  8
CENTRALA
100
AcDbVertex
100
AcDb3dPolylineVertex
 10
10.659
 20
-7.309429999999998
 30
0.0
 70
    32
  0
VERTEX
  5
B40
330
9F4
100
AcDbEntity
  8
CENTRALA
100
AcDbVertex
100
AcDb3dPolylineVertex
 10
10.6607
 20
-7.47466
 30
0.0
 70
    32
  0
VERTEX
  5
B41
330
9F4
100
AcDbEntity
  8
CENTRALA
100
AcDbVertex
100
AcDb3dPolylineVertex
 10
10.6671
 20
-7.63931
 30
0.0
 70
    32
  0
VERTEX
  5
B42
330
9F4
100
AcDbEntity
  8
CENTRALA
100
AcDbVertex
100
AcDb3dPolylineVertex
 10
10.6784
 20
-7.80337
 30
0.0
 70
    32
  0
VERTEX
  5
B43
330
9F4
100
AcDbEntity
  8
CENTRALA
100
AcDbVertex
100
AcDb3dPolylineVertex
 10
10.6945
 20
-7.966829999999998
 30
0.0
 70
    32
  0
VERTEX
  5
B44
330
9F4
100
AcDbEntity
  8
CENTRALA
100
AcDbVertex
100
AcDb3dPolylineVertex
 10
10.7157
 20
-8.12968
 30
0.0
 70
    32
  0
VERTEX
  5
B45
330
9F4
100
AcDbEntity
  8
CENTRALA
100
AcDbVertex
100
AcDb3dPolylineVertex
 10
10.7419
 20
-8.291910000000001
 30
0.0
 70
    32
  0
VERTEX
  5
B46
330
9F4
100
AcDbEntity
  8
CENTRALA
100
AcDbVertex
100
AcDb3dPolylineVertex
 10
10.7734
 20
-8.4535
 30
0.0
 70
    32
  0
VERTEX
  5
B47
330
9F4
100
AcDbEntity
  8
CENTRALA
100
AcDbVertex
100
AcDb3dPolylineVertex
 10
10.8102
 20
-8.614449999999996
 30
0.0
 70
    32
  0
VERTEX
  5
B48
330
9F4
100
AcDbEntity
  8
CENTRALA
100
AcDbVertex
100
AcDb3dPolylineVertex
 10
10.8524
 20
-8.774749999999999
 30
0.0
 70
    32
  0
VERTEX
  5
B49
330
9F4
100
AcDbEntity
  8
CENTRALA
100
AcDbVertex
100
AcDb3dPolylineVertex
 10
10.9001
 20
-8.934389999999998
 30
0.0
 70
    32
  0
VERTEX
  5
B4A
330
9F4
100
AcDbEntity
  8
CENTRALA
100
AcDbVertex
100
AcDb3dPolylineVertex
 10
10.9535
 20
-9.093349999999999
 30
0.0
 70
    32
  0
VERTEX
  5
B4B
330
9F4
100
AcDbEntity
  8
CENTRALA
100
AcDbVertex
100
AcDb3dPolylineVertex
 10
11.0126
 20
-9.25162
 30
0.0
 70
    32
  0
VERTEX
  5
B4C
330
9F4
100
AcDbEntity
  8
CENTRALA
100
AcDbVertex
100
AcDb3dPolylineVertex
 10
11.0775
 20
-9.4092
 30
0.0
 70
    32
  0
VERTEX
  5
B4D
330
9F4
100
AcDbEntity
  8
CENTRALA
100
AcDbVertex
100
AcDb3dPolylineVertex
 10
11.1483
 20
-9.566079999999999
 30
0.0
 70
    32
  0
VERTEX
  5
B4E
330
9F4
100
AcDbEntity
  8
CENTRALA
100
AcDbVertex
100
AcDb3dPolylineVertex
 10
11.2252
 20
-9.722239999999999
 30
0.0
 70
    32
  0
VERTEX
  5
B4F
330
9F4
100
AcDbEntity
  8
CENTRALA
100
AcDbVertex
100
AcDb3dPolylineVertex
 10
11.3083
 20
-9.87767
 30
0.0
 70
    32
  0
VERTEX
  5
B50
330
9F4
100
AcDbEntity
  8
CENTRALA
100
AcDbVertex
100
AcDb3dPolylineVertex
 10
11.3975
 20
-10.0324
 30
0.0
 70
    32
  0
VERTEX
  5
B51
330
9F4
100
AcDbEntity
  8
CENTRALA
100
AcDbVertex
100
AcDb3dPolylineVertex
 10
11.4932
 20
-10.1863
 30
0.0
 70
    32
  0
VERTEX
  5
B52
330
9F4
100
AcDbEntity
  8
CENTRALA
100
AcDbVertex
100
AcDb3dPolylineVertex
 10
11.5953
 20
-10.3395
 30
0.0
 70
    32
  0
VERTEX
  5
B53
330
9F4
100
AcDbEntity
  8
CENTRALA
100
AcDbVertex
100
AcDb3dPolylineVertex
 10
11.7039
 20
-10.4919
 30
0.0
 70
    32
  0
VERTEX
  5
B54
330
9F4
100
AcDbEntity
  8
CENTRALA
100
AcDbVertex
100
AcDb3dPolylineVertex
 10
11.8192
 20
-10.6436
 30
0.0
 70
    32
  0
VERTEX
  5
B55
330
9F4
100
AcDbEntity
  8
CENTRALA
100
AcDbVertex
100
AcDb3dPolylineVertex
 10
11.9413
 20
-10.7945
 30
0.0
 70
    32
  0
VERTEX
  5
B56
330
9F4
100
AcDbEntity
  8
CENTRALA
100
AcDbVertex
100
AcDb3dPolylineVertex
 10
12.07
 20
-10.9445
 30
0.0
 70
    32
  0
VERTEX
  5
B57
330
9F4
100
AcDbEntity
  8
CENTRALA
100
AcDbVertex
100
AcDb3dPolylineVertex
 10
12.2049
 20
-11.0938
 30
0.0
 70
    32
  0
VERTEX
  5
B58
330
9F4
100
AcDbEntity
  8
CENTRALA
100
AcDbVertex
100
AcDb3dPolylineVertex
 10
12.3457
 20
-11.2424
 30
0.0
 70
    32
  0
VERTEX
  5
B59
330
9F4
100
AcDbEntity
  8
CENTRALA
100
AcDbVertex
100
AcDb3dPolylineVertex
 10
12.4919
 20
-11.3903
 30
0.0
 70
    32
  0
VERTEX
  5
B5A
330
9F4
100
AcDbEntity
  8
CENTRALA
100
AcDbVertex
100
AcDb3dPolylineVertex
 10
12.643
 20
-11.5375
 30
0.0
 70
    32
  0
VERTEX
  5
B5B
330
9F4
100
AcDbEntity
  8
CENTRALA
100
AcDbVertex
100
AcDb3dPolylineVertex
 10
12.7987
 20
-11.684
 30
0.0
 70
    32
  0
VERTEX
  5
B5C
330
9F4
100
AcDbEntity
  8
CENTRALA
100
AcDbVertex
100
AcDb3dPolylineVertex
 10
12.9585
 20
-11.8299
 30
0.0
 70
    32
  0
VERTEX
  5
B5D
330
9F4
100
AcDbEntity
  8
CENTRALA
100
AcDbVertex
100
AcDb3dPolylineVertex
 10
13.1221
 20
-11.9752
 30
0.0
 70
    32
  0
VERTEX
  5
B5E
330
9F4
100
AcDbEntity
  8
CENTRALA
100
AcDbVertex
100
AcDb3dPolylineVertex
 10
13.2889
 20
-12.1199
 30
0.0
 70
    32
  0
VERTEX
  5
B5F
330
9F4
100
AcDbEntity
  8
CENTRALA
100
AcDbVertex
100
AcDb3dPolylineVertex
 10
13.4586
 20
-12.264
 30
0.0
 70
    32
  0
VERTEX
  5
B60
330
9F4
100
AcDbEntity
  8
CENTRALA
100
AcDbVertex
100
AcDb3dPolylineVertex
 10
13.6307
 20
-12.4076
 30
0.0
 70
    32
  0
VERTEX
  5
B61
330
9F4
100
AcDbEntity
  8
CENTRALA
100
AcDbVertex
100
AcDb3dPolylineVertex
 10
13.8048
 20
-12.5507
 30
0.0
 70
    32
  0
VERTEX
  5
B62
330
9F4
100
AcDbEntity
  8
CENTRALA
100
AcDbVertex
100
AcDb3dPolylineVertex
 10
13.9806
 20
-12.6933
 30
0.0
 70
    32
  0
VERTEX
  5
B63
330
9F4
100
AcDbEntity
  8
CENTRALA
100
AcDbVertex
100
AcDb3dPolylineVertex
 10
14.1575
 20
-12.8354
 30
0.0
 70
    32
  0
VERTEX
  5
B64
330
9F4
100
AcDbEntity
  8
CENTRALA
100
AcDbVertex
100
AcDb3dPolylineVertex
 10
14.3352
 20
-12.9772
 30
0.0
 70
    32
  0
VERTEX
  5
B65
330
9F4
100
AcDbEntity
  8
CENTRALA
100
AcDbVertex
100
AcDb3dPolylineVertex
 10
14.5132
 20
-13.1184
 30
0.0
 70
    32
  0
VERTEX
  5
B66
330
9F4
100
AcDbEntity
  8
CENTRALA
100
AcDbVertex
100
AcDb3dPolylineVertex
 10
14.6911
 20
-13.2594
 30
0.0
 70
    32
  0
VERTEX
  5
B67
330
9F4
100
AcDbEntity
  8
CENTRALA
100
AcDbVertex
100
AcDb3dPolylineVertex
 10
14.8685
 20
-13.3999
 30
0.0
 70
    32
  0
VERTEX
  5
B68
330
9F4
100
AcDbEntity
  8
CENTRALA
100
AcDbVertex
100
AcDb3dPolylineVertex
 10
15.045
 20
-13.5401
 30
0.0
 70
    32
  0
VERTEX
  5
B69
330
9F4
100
AcDbEntity
  8
CENTRALA
100
AcDbVertex
100
AcDb3dPolylineVertex
 10
15.2201
 20
-13.68
 30
0.0
 70
    32
  0
VERTEX
  5
B6A
330
9F4
100
AcDbEntity
  8
CENTRALA
100
AcDbVertex
100
AcDb3dPolylineVertex
 10
15.3935
 20
-13.8196
 30
0.0
 70
    32
  0
VERTEX
  5
B6B
330
9F4
100
AcDbEntity
  8
CENTRALA
100
AcDbVertex
100
AcDb3dPolylineVertex
 10
15.5646
 20
-13.959
 30
0.0
 70
    32
  0
VERTEX
  5
B6C
330
9F4
100
AcDbEntity
  8
CENTRALA
100
AcDbVertex
100
AcDb3dPolylineVertex
 10
15.7331
 20
-14.0981
 30
0.0
 70
    32
  0
VERTEX
  5
B6D
330
9F4
100
AcDbEntity
  8
CENTRALA
100
AcDbVertex
100
AcDb3dPolylineVertex
 10
15.8986
 20
-14.237
 30
0.0
 70
    32
  0
VERTEX
  5
B6E
330
9F4
100
AcDbEntity
  8
CENTRALA
100
AcDbVertex
100
AcDb3dPolylineVertex
 10
16.0606
 20
-14.3757
 30
0.0
 70
    32
  0
VERTEX
  5
B6F
330
9F4
100
AcDbEntity
  8
CENTRALA
100
AcDbVertex
100
AcDb3dPolylineVertex
 10
16.2187
 20
-14.5143
 30
0.0
 70
    32
  0
VERTEX
  5
B70
330
9F4
100
AcDbEntity
  8
CENTRALA
100
AcDbVertex
100
AcDb3dPolylineVertex
 10
16.3725
 20
-14.6527
 30
0.0
 70
    32
  0
VERTEX
  5
B71
330
9F4
100
AcDbEntity
  8
CENTRALA
100
AcDbVertex
100
AcDb3dPolylineVertex
 10
16.5216
 20
-14.791
 30
0.0
 70
    32
  0
VERTEX
  5
B72
330
9F4
100
AcDbEntity
  8
CENTRALA
100
AcDbVertex
100
AcDb3dPolylineVertex
 10
16.6655
 20
-14.9292
 30
0.0
 70
    32
  0
VERTEX
  5
B73
330
9F4
100
AcDbEntity
  8
CENTRALA
100
AcDbVertex
100
AcDb3dPolylineVertex
 10
16.8039
 20
-15.0673
 30
0.0
 70
    32
  0
VERTEX
  5
B74
330
9F4
100
AcDbEntity
  8
CENTRALA
100
AcDbVertex
100
AcDb3dPolylineVertex
 10
16.9362
 20
-15.2055
 30
0.0
 70
    32
  0
VERTEX
  5
B75
330
9F4
100
AcDbEntity
  8
CENTRALA
100
AcDbVertex
100
AcDb3dPolylineVertex
 10
16.9141
 20
-15.3009
 30
0.0
 70
    32
  0
VERTEX
  5
B76
330
9F4
100
AcDbEntity
  8
CENTRALA
100
AcDbVertex
100
AcDb3dPolylineVertex
 10
16.7422
 20
-15.3537
 30
0.0
 70
    32
  0
VERTEX
  5
B77
330
9F4
100
AcDbEntity
  8
CENTRALA
100
AcDbVertex
100
AcDb3dPolylineVertex
 10
16.5704
 20
-15.4064
 30
0.0
 70
    32
  0
VERTEX
  5
B78
330
9F4
100
AcDbEntity
  8
CENTRALA
100
AcDbVertex
100
AcDb3dPolylineVertex
 10
16.3985
 20
-15.459
 30
0.0
 70
    32
  0
VERTEX
  5
B79
330
9F4
100
AcDbEntity
  8
CENTRALA
100
AcDbVertex
100
AcDb3dPolylineVertex
 10
16.2267
 20
-15.5114
 30
0.0
 70
    32
  0
VERTEX
  5
B7A
330
9F4
100
AcDbEntity
  8
CENTRALA
100
AcDbVertex
100
AcDb3dPolylineVertex
 10
16.0548
 20
-15.5635
 30
0.0
 70
    32
  0
VERTEX
  5
B7B
330
9F4
100
AcDbEntity
  8
CENTRALA
100
AcDbVertex
100
AcDb3dPolylineVertex
 10
15.8829
 20
-15.6154
 30
0.0
 70
    32
  0
VERTEX
  5
B7C
330
9F4
100
AcDbEntity
  8
CENTRALA
100
AcDbVertex
100
AcDb3dPolylineVertex
 10
15.7109
 20
-15.6669
 30
0.0
 70
    32
  0
VERTEX
  5
B7D
330
9F4
100
AcDbEntity
  8
CENTRALA
100
AcDbVertex
100
AcDb3dPolylineVertex
 10
15.539
 20
-15.718
 30
0.0
 70
    32
  0
VERTEX
  5
B7E
330
9F4
100
AcDbEntity
  8
CENTRALA
100
AcDbVertex
100
AcDb3dPolylineVertex
 10
15.367
 20
-15.7686
 30
0.0
 70
    32
  0
VERTEX
  5
B7F
330
9F4
100
AcDbEntity
  8
CENTRALA
100
AcDbVertex
100
AcDb3dPolylineVertex
 10
15.195
 20
-15.8187
 30
0.0
 70
    32
  0
VERTEX
  5
B80
330
9F4
100
AcDbEntity
  8
CENTRALA
100
AcDbVertex
100
AcDb3dPolylineVertex
 10
15.0229
 20
-15.8683
 30
0.0
 70
    32
  0
VERTEX
  5
B81
330
9F4
100
AcDbEntity
  8
CENTRALA
100
AcDbVertex
100
AcDb3dPolylineVertex
 10
14.8508
 20
-15.9173
 30
0.0
 70
    32
  0
VERTEX
  5
B82
330
9F4
100
AcDbEntity
  8
CENTRALA
100
AcDbVertex
100
AcDb3dPolylineVertex
 10
14.6787
 20
-15.9655
 30
0.0
 70
    32
  0
VERTEX
  5
B83
330
9F4
100
AcDbEntity
  8
CENTRALA
100
AcDbVertex
100
AcDb3dPolylineVertex
 10
14.5065
 20
-16.0131
 30
0.0
 70
    32
  0
VERTEX
  5
B84
330
9F4
100
AcDbEntity
  8
CENTRALA
100
AcDbVertex
100
AcDb3dPolylineVertex
 10
14.3342
 20
-16.0599
 30
0.0
 70
    32
  0
VERTEX
  5
B85
330
9F4
100
AcDbEntity
  8
CENTRALA
100
AcDbVertex
100
AcDb3dPolylineVertex
 10
14.1619
 20
-16.1058
 30
0.0
 70
    32
  0
VERTEX
  5
B86
330
9F4
100
AcDbEntity
  8
CENTRALA
100
AcDbVertex
100
AcDb3dPolylineVertex
 10
13.9896
 20
-16.1509
 30
0.0
 70
    32
  0
VERTEX
  5
B87
330
9F4
100
AcDbEntity
  8
CENTRALA
100
AcDbVertex
100
AcDb3dPolylineVertex
 10
13.8171
 20
-16.195
 30
0.0
 70
    32
  0
VERTEX
  5
B88
330
9F4
100
AcDbEntity
  8
CENTRALA
100
AcDbVertex
100
AcDb3dPolylineVertex
 10
13.6446
 20
-16.2381
 30
0.0
 70
    32
  0
VERTEX
  5
B89
330
9F4
100
AcDbEntity
  8
CENTRALA
100
AcDbVertex
100
AcDb3dPolylineVertex
 10
13.4721
 20
-16.2802
 30
0.0
 70
    32
  0
VERTEX
  5
B8A
330
9F4
100
AcDbEntity
  8
CENTRALA
100
AcDbVertex
100
AcDb3dPolylineVertex
 10
13.2994
 20
-16.3212
 30
0.0
 70
    32
  0
VERTEX
  5
B8B
330
9F4
100
AcDbEntity
  8
CENTRALA
100
AcDbVertex
100
AcDb3dPolylineVertex
 10
13.1267
 20
-16.361
 30
0.0
 70
    32
  0
VERTEX
  5
B8C
330
9F4
100
AcDbEntity
  8
CENTRALA
100
AcDbVertex
100
AcDb3dPolylineVertex
 10
12.9539
 20
-16.3997
 30
0.0
 70
    32
  0
VERTEX
  5
B8D
330
9F4
100
AcDbEntity
  8
CENTRALA
100
AcDbVertex
100
AcDb3dPolylineVertex
 10
12.781
 20
-16.437
 30
0.0
 70
    32
  0
VERTEX
  5
B8E
330
9F4
100
AcDbEntity
  8
CENTRALA
100
AcDbVertex
100
AcDb3dPolylineVertex
 10
12.6081
 20
-16.4731
 30
0.0
 70
    32
  0
VERTEX
  5
B8F
330
9F4
100
AcDbEntity
  8
CENTRALA
100
AcDbVertex
100
AcDb3dPolylineVertex
 10
12.435
 20
-16.5077
 30
0.0
 70
    32
  0
VERTEX
  5
B90
330
9F4
100
AcDbEntity
  8
CENTRALA
100
AcDbVertex
100
AcDb3dPolylineVertex
 10
12.2618
 20
-16.541
 30
0.0
 70
    32
  0
VERTEX
  5
B91
330
9F4
100
AcDbEntity
  8
CENTRALA
100
AcDbVertex
100
AcDb3dPolylineVertex
 10
12.0886
 20
-16.5728
 30
0.0
 70
    32
  0
VERTEX
  5
B92
330
9F4
100
AcDbEntity
  8
CENTRALA
100
AcDbVertex
100
AcDb3dPolylineVertex
 10
11.9152
 20
-16.603
 30
0.0
 70
    32
  0
VERTEX
  5
B93
330
9F4
100
AcDbEntity
  8
CENTRALA
100
AcDbVertex
100
AcDb3dPolylineVertex
 10
11.7417
 20
-16.6317
 30
0.0
 70
    32
  0
VERTEX
  5
B94
330
9F4
100
AcDbEntity
  8
CENTRALA
100
AcDbVertex
100
AcDb3dPolylineVertex
 10
11.5682
 20
-16.6587
 30
0.0
 70
    32
  0
VERTEX
  5
B95
330
9F4
100
AcDbEntity
  8
CENTRALA
100
AcDbVertex
100
AcDb3dPolylineVertex
 10
11.3945
 20
-16.6841
 30
0.0
 70
    32
  0
VERTEX
  5
B96
330
9F4
100
AcDbEntity
  8
CENTRALA
100
AcDbVertex
100
AcDb3dPolylineVertex
 10
11.2206
 20
-16.7077
 30
0.0
 70
    32
  0
VERTEX
  5
B97
330
9F4
100
AcDbEntity
  8
CENTRALA
100
AcDbVertex
100
AcDb3dPolylineVertex
 10
11.0467
 20
-16.7295
 30
0.0
 70
    32
  0
VERTEX
  5
B98
330
9F4
100
AcDbEntity
  8
CENTRALA
100
AcDbVertex
100
AcDb3dPolylineVertex
 10
10.8726
 20
-16.7494
 30
0.0
 70
    32
  0
VERTEX
  5
B99
330
9F4
100
AcDbEntity
  8
CENTRALA
100
AcDbVertex
100
AcDb3dPolylineVertex
 10
10.6985
 20
-16.7675
 30
0.0
 70
    32
  0
VERTEX
  5
B9A
330
9F4
100
AcDbEntity
  8
CENTRALA
100
AcDbVertex
100
AcDb3dPolylineVertex
 10
10.5241
 20
-16.7835
 30
0.0
 70
    32
  0
VERTEX
  5
B9B
330
9F4
100
AcDbEntity
  8
CENTRALA
100
AcDbVertex
100
AcDb3dPolylineVertex
 10
10.3497
 20
-16.7976
 30
0.0
 70
    32
  0
VERTEX
  5
B9C
330
9F4
100
AcDbEntity
  8
CENTRALA
100
AcDbVertex
100
AcDb3dPolylineVertex
 10
10.1751
 20
-16.8096
 30
0.0
 70
    32
  0
VERTEX
  5
B9D
330
9F4
100
AcDbEntity
  8
CENTRALA
100
AcDbVertex
100
AcDb3dPolylineVertex
 10
10.0003
 20
-16.8195
 30
0.0
 70
    32
  0
VERTEX
  5
B9E
330
9F4
100
AcDbEntity
  8
CENTRALA
100
AcDbVertex
100
AcDb3dPolylineVertex
 10
9.825439999999998
 20
-16.8272
 30
0.0
 70
    32
  0
VERTEX
  5
B9F
330
9F4
100
AcDbEntity
  8
CENTRALA
100
AcDbVertex
100
AcDb3dPolylineVertex
 10
9.650399999999999
 20
-16.8327
 30
0.0
 70
    32
  0
VERTEX
  5
BA0
330
9F4
100
AcDbEntity
  8
CENTRALA
100
AcDbVertex
100
AcDb3dPolylineVertex
 10
9.47521
 20
-16.8359
 30
0.0
 70
    32
  0
VERTEX
  5
BA1
330
9F4
100
AcDbEntity
  8
CENTRALA
100
AcDbVertex
100
AcDb3dPolylineVertex
 10
9.299849999999999
 20
-16.8368
 30
0.0
 70
    32
  0
VERTEX
  5
BA2
330
9F4
100
AcDbEntity
  8
CENTRALA
100
AcDbVertex
100
AcDb3dPolylineVertex
 10
9.12434
 20
-16.8352
 30
0.0
 70
    32
  0
VERTEX
  5
BA3
330
9F4
100
AcDbEntity
  8
CENTRALA
100
AcDbVertex
100
AcDb3dPolylineVertex
 10
8.94866
 20
-16.8313
 30
0.0
 70
    32
  0
VERTEX
  5
BA4
330
9F4
100
AcDbEntity
  8
CENTRALA
100
AcDbVertex
100
AcDb3dPolylineVertex
 10
8.772819999999997
 20
-16.8248
 30
0.0
 70
    32
  0
VERTEX
  5
BA5
330
9F4
100
AcDbEntity
  8
CENTRALA
100
AcDbVertex
100
AcDb3dPolylineVertex
 10
8.596799999999998
 20
-16.8158
 30
0.0
 70
    32
  0
VERTEX
  5
BA6
330
9F4
100
AcDbEntity
  8
CENTRALA
100
AcDbVertex
100
AcDb3dPolylineVertex
 10
8.4206
 20
-16.8042
 30
0.0
 70
    32
  0
VERTEX
  5
BA7
330
9F4
100
AcDbEntity
  8
CENTRALA
100
AcDbVertex
100
AcDb3dPolylineVertex
 10
8.24422
 20
-16.79
 30
0.0
 70
    32
  0
VERTEX
  5
BA8
330
9F4
100
AcDbEntity
  8
CENTRALA
100
AcDbVertex
100
AcDb3dPolylineVertex
 10
8.067669999999996
 20
-16.773
 30
0.0
 70
    32
  0
VERTEX
  5
BA9
330
9F4
100
AcDbEntity
  8
CENTRALA
100
AcDbVertex
100
AcDb3dPolylineVertex
 10
7.890919999999996
 20
-16.7533
 30
0.0
 70
    32
  0
VERTEX
  5
BAA
330
9F4
100
AcDbEntity
  8
CENTRALA
100
AcDbVertex
100
AcDb3dPolylineVertex
 10
7.713989999999999
 20
-16.7307
 30
0.0
 70
    32
  0
VERTEX
  5
BAB
330
9F4
100
AcDbEntity
  8
CENTRALA
100
AcDbVertex
100
AcDb3dPolylineVertex
 10
7.536859999999999
 20
-16.7053
 30
0.0
 70
    32
  0
VERTEX
  5
BAC
330
9F4
100
AcDbEntity
  8
CENTRALA
100
AcDbVertex
100
AcDb3dPolylineVertex
 10
7.35953
 20
-16.6769
 30
0.0
 70
    32
  0
VERTEX
  5
BAD
330
9F4
100
AcDbEntity
  8
CENTRALA
100
AcDbVertex
100
AcDb3dPolylineVertex
 10
7.182
 20
-16.6456
 30
0.0
 70
    32
  0
VERTEX
  5
BAE
330
9F4
100
AcDbEntity
  8
CENTRALA
100
AcDbVertex
100
AcDb3dPolylineVertex
 10
7.00426
 20
-16.6112
 30
0.0
 70
    32
  0
VERTEX
  5
BAF
330
9F4
100
AcDbEntity
  8
CENTRALA
100
AcDbVertex
100
AcDb3dPolylineVertex
 10
6.826319999999999
 20
-16.5738
 30
0.0
 70
    32
  0
VERTEX
  5
BB0
330
9F4
100
AcDbEntity
  8
CENTRALA
100
AcDbVertex
100
AcDb3dPolylineVertex
 10
6.648169999999999
 20
-16.5332
 30
0.0
 70
    32
  0
VERTEX
  5
BB1
330
9F4
100
AcDbEntity
  8
CENTRALA
100
AcDbVertex
100
AcDb3dPolylineVertex
 10
6.4698
 20
-16.4894
 30
0.0
 70
    32
  0
VERTEX
  5
BB2
330
9F4
100
AcDbEntity
  8
CENTRALA
100
AcDbVertex
100
AcDb3dPolylineVertex
 10
6.291209999999999
 20
-16.4424
 30
0.0
 70
    32
  0
VERTEX
  5
BB3
330
9F4
100
AcDbEntity
  8
CENTRALA
100
AcDbVertex
100
AcDb3dPolylineVertex
 10
6.11239
 20
-16.3921
 30
0.0
 70
    32
  0
VERTEX
  5
BB4
330
9F4
100
AcDbEntity
  8
CENTRALA
100
AcDbVertex
100
AcDb3dPolylineVertex
 10
5.933359999999999
 20
-16.3385
 30
0.0
 70
    32
  0
VERTEX
  5
BB5
330
9F4
100
AcDbEntity
  8
CENTRALA
100
AcDbVertex
100
AcDb3dPolylineVertex
 10
5.754129999999999
 20
-16.2819
 30
0.0
 70
    32
  0
VERTEX
  5
BB6
330
9F4
100
AcDbEntity
  8
CENTRALA
100
AcDbVertex
100
AcDb3dPolylineVertex
 10
5.574699999999999
 20
-16.2222
 30
0.0
 70
    32
  0
VERTEX
  5
BB7
330
9F4
100
AcDbEntity
  8
CENTRALA
100
AcDbVertex
100
AcDb3dPolylineVertex
 10
5.39508
 20
-16.1595
 30
0.0
 70
    32
  0
VERTEX
  5
BB8
330
9F4
100
AcDbEntity
  8
CENTRALA
100
AcDbVertex
100
AcDb3dPolylineVertex
 10
5.21529
 20
-16.0941
 30
0.0
 70
    32
  0
VERTEX
  5
BB9
330
9F4
100
AcDbEntity
  8
CENTRALA
100
AcDbVertex
100
AcDb3dPolylineVertex
 10
5.035339999999997
 20
-16.0259
 30
0.0
 70
    32
  0
VERTEX
  5
BBA
330
9F4
100
AcDbEntity
  8
CENTRALA
100
AcDbVertex
100
AcDb3dPolylineVertex
 10
4.855229999999997
 20
-15.9551
 30
0.0
 70
    32
  0
VERTEX
  5
BBB
330
9F4
100
AcDbEntity
  8
CENTRALA
100
AcDbVertex
100
AcDb3dPolylineVertex
 10
4.674979999999997
 20
-15.8818
 30
0.0
 70
    32
  0
VERTEX
  5
BBC
330
9F4
100
AcDbEntity
  8
CENTRALA
100
AcDbVertex
100
AcDb3dPolylineVertex
 10
4.494589999999999
 20
-15.806
 30
0.0
 70
    32
  0
VERTEX
  5
BBD
330
9F4
100
AcDbEntity
  8
CENTRALA
100
AcDbVertex
100
AcDb3dPolylineVertex
 10
4.314079999999997
 20
-15.728
 30
0.0
 70
    32
  0
VERTEX
  5
BBE
330
9F4
100
AcDbEntity
  8
CENTRALA
100
AcDbVertex
100
AcDb3dPolylineVertex
 10
4.133459999999999
 20
-15.6478
 30
0.0
 70
    32
  0
VERTEX
  5
BBF
330
9F4
100
AcDbEntity
  8
CENTRALA
100
AcDbVertex
100
AcDb3dPolylineVertex
 10
3.95274
 20
-15.5655
 30
0.0
 70
    32
  0
VERTEX
  5
BC0
330
9F4
100
AcDbEntity
  8
CENTRALA
100
AcDbVertex
100
AcDb3dPolylineVertex
 10
3.771929999999999
 20
-15.4811
 30
0.0
 70
    32
  0
VERTEX
  5
BC1
330
9F4
100
AcDbEntity
  8
CENTRALA
100
AcDbVertex
100
AcDb3dPolylineVertex
 10
3.591029999999999
 20
-15.3949
 30
0.0
 70
    32
  0
VERTEX
  5
BC2
330
9F4
100
AcDbEntity
  8
CENTRALA
100
AcDbVertex
100
AcDb3dPolylineVertex
 10
3.410059999999999
 20
-15.3069
 30
0.0
 70
    32
  0
VERTEX
  5
BC3
330
9F4
100
AcDbEntity
  8
CENTRALA
100
AcDbVertex
100
AcDb3dPolylineVertex
 10
3.229039999999999
 20
-15.2172
 30
0.0
 70
    32
  0
VERTEX
  5
BC4
330
9F4
100
AcDbEntity
  8
CENTRALA
100
AcDbVertex
100
AcDb3dPolylineVertex
 10
3.047959999999998
 20
-15.1259
 30
0.0
 70
    32
  0
VERTEX
  5
BC5
330
9F4
100
AcDbEntity
  8
CENTRALA
100
AcDbVertex
100
AcDb3dPolylineVertex
 10
2.866839999999998
 20
-15.0332
 30
0.0
 70
    32
  0
VERTEX
  5
BC6
330
9F4
100
AcDbEntity
  8
CENTRALA
100
AcDbVertex
100
AcDb3dPolylineVertex
 10
2.68569
 20
-14.939
 30
0.0
 70
    32
  0
VERTEX
  5
BC7
330
9F4
100
AcDbEntity
  8
CENTRALA
100
AcDbVertex
100
AcDb3dPolylineVertex
 10
2.504529999999999
 20
-14.8436
 30
0.0
 70
    32
  0
VERTEX
  5
BC8
330
9F4
100
AcDbEntity
  8
CENTRALA
100
AcDbVertex
100
AcDb3dPolylineVertex
 10
2.32335
 20
-14.7471
 30
0.0
 70
    32
  0
VERTEX
  5
BC9
330
9F4
100
AcDbEntity
  8
CENTRALA
100
AcDbVertex
100
AcDb3dPolylineVertex
 10
2.142179999999996
 20
-14.6494
 30
0.0
 70
    32
  0
VERTEX
  5
BCA
330
9F4
100
AcDbEntity
  8
CENTRALA
100
AcDbVertex
100
AcDb3dPolylineVertex
 10
1.961019999999999
 20
-14.5508
 30
0.0
 70
    32
  0
VERTEX
  5
BCB
330
9F4
100
AcDbEntity
  8
CENTRALA
100
AcDbVertex
100
AcDb3dPolylineVertex
 10
1.779879999999999
 20
-14.4514
 30
0.0
 70
    32
  0
VERTEX
  5
BCC
330
9F4
100
AcDbEntity
  8
CENTRALA
100
AcDbVertex
100
AcDb3dPolylineVertex
 10
1.598779999999999
 20
-14.3511
 30
0.0
 70
    32
  0
VERTEX
  5
BCD
330
9F4
100
AcDbEntity
  8
CENTRALA
100
AcDbVertex
100
AcDb3dPolylineVertex
 10
1.41771
 20
-14.2503
 30
0.0
 70
    32
  0
VERTEX
  5
BCE
330
9F4
100
AcDbEntity
  8
CENTRALA
100
AcDbVertex
100
AcDb3dPolylineVertex
 10
1.236699999999999
 20
-14.1488
 30
0.0
 70
    32
  0
VERTEX
  5
BCF
330
9F4
100
AcDbEntity
  8
CENTRALA
100
AcDbVertex
100
AcDb3dPolylineVertex
 10
1.05576
 20
-14.047
 30
0.0
 70
    32
  0
VERTEX
  5
BD0
330
9F4
100
AcDbEntity
  8
CENTRALA
100
AcDbVertex
100
AcDb3dPolylineVertex
 10
0.8748899999999999
 20
-13.9448
 30
0.0
 70
    32
  0
VERTEX
  5
BD1
330
9F4
100
AcDbEntity
  8
CENTRALA
100
AcDbVertex
100
AcDb3dPolylineVertex
 10
0.6941040000000001
 20
-13.8423
 30
0.0
 70
    32
  0
VERTEX
  5
BD2
330
9F4
100
AcDbEntity
  8
CENTRALA
100
AcDbVertex
100
AcDb3dPolylineVertex
 10
0.5134140000000002
 20
-13.7397
 30
0.0
 70
    32
  0
VERTEX
  5
BD3
330
9F4
100
AcDbEntity
  8
CENTRALA
100
AcDbVertex
100
AcDb3dPolylineVertex
 10
0.332829
 20
-13.6371
 30
0.0
 70
    32
  0
VERTEX
  5
BD4
330
9F4
100
AcDbEntity
  8
CENTRALA
100
AcDbVertex
100
AcDb3dPolylineVertex
 10
0.152361
 20
-13.5346
 30
0.0
 70
    32
  0
VERTEX
  5
BD5
330
9F4
100
AcDbEntity
  8
CENTRALA
100
AcDbVertex
100
AcDb3dPolylineVertex
 10
-0.0279816
 20
-13.4322
 30
0.0
 70
    32
  0
VERTEX
  5
BD6
330
9F4
100
AcDbEntity
  8
CENTRALA
100
AcDbVertex
100
AcDb3dPolylineVertex
 10
-0.208187
 20
-13.3301
 30
0.0
 70
    32
  0
VERTEX
  5
BD7
330
9F4
100
AcDbEntity
  8
CENTRALA
100
AcDbVertex
100
AcDb3dPolylineVertex
 10
-0.388246
 20
-13.2284
 30
0.0
 70
    32
  0
VERTEX
  5
BD8
330
9F4
100
AcDbEntity
  8
CENTRALA
100
AcDbVertex
100
AcDb3dPolylineVertex
 10
-0.5681470000000001
 20
-13.1272
 30
0.0
 70
    32
  0
VERTEX
  5
BD9
330
9F4
100
AcDbEntity
  8
CENTRALA
100
AcDbVertex
100
AcDb3dPolylineVertex
 10
-0.74788
 20
-13.0265
 30
0.0
 70
    32
  0
VERTEX
  5
BDA
330
9F4
100
AcDbEntity
  8
CENTRALA
100
AcDbVertex
100
AcDb3dPolylineVertex
 10
-0.927435
 20
-12.9266
 30
0.0
 70
    32
  0
VERTEX
  5
BDB
330
9F4
100
AcDbEntity
  8
CENTRALA
100
AcDbVertex
100
AcDb3dPolylineVertex
 10
-1.1068
 20
-12.8274
 30
0.0
 70
    32
  0
VERTEX
  5
BDC
330
9F4
100
AcDbEntity
  8
CENTRALA
100
AcDbVertex
100
AcDb3dPolylineVertex
 10
-1.28597
 20
-12.7292
 30
0.0
 70
    32
  0
VERTEX
  5
BDD
330
9F4
100
AcDbEntity
  8
CENTRALA
100
AcDbVertex
100
AcDb3dPolylineVertex
 10
-1.464929999999999
 20
-12.6319
 30
0.0
 70
    32
  0
VERTEX
  5
BDE
330
9F4
100
AcDbEntity
  8
CENTRALA
100
AcDbVertex
100
AcDb3dPolylineVertex
 10
-1.64367
 20
-12.5358
 30
0.0
 70
    32
  0
VERTEX
  5
BDF
330
9F4
100
AcDbEntity
  8
CENTRALA
100
AcDbVertex
100
AcDb3dPolylineVertex
 10
-1.82217
 20
-12.4408
 30
0.0
 70
    32
  0
VERTEX
  5
BE0
330
9F4
100
AcDbEntity
  8
CENTRALA
100
AcDbVertex
100
AcDb3dPolylineVertex
 10
-2.00044
 20
-12.3472
 30
0.0
 70
    32
  0
VERTEX
  5
BE1
330
9F4
100
AcDbEntity
  8
CENTRALA
100
AcDbVertex
100
AcDb3dPolylineVertex
 10
-2.178459999999998
 20
-12.255
 30
0.0
 70
    32
  0
VERTEX
  5
BE2
330
9F4
100
AcDbEntity
  8
CENTRALA
100
AcDbVertex
100
AcDb3dPolylineVertex
 10
-2.356209999999999
 20
-12.1643
 30
0.0
 70
    32
  0
VERTEX
  5
BE3
330
9F4
100
AcDbEntity
  8
CENTRALA
100
AcDbVertex
100
AcDb3dPolylineVertex
 10
-2.5337
 20
-12.0752
 30
0.0
 70
    32
  0
VERTEX
  5
BE4
330
9F4
100
AcDbEntity
  8
CENTRALA
100
AcDbVertex
100
AcDb3dPolylineVertex
 10
-2.7109
 20
-11.9879
 30
0.0
 70
    32
  0
VERTEX
  5
BE5
330
9F4
100
AcDbEntity
  8
CENTRALA
100
AcDbVertex
100
AcDb3dPolylineVertex
 10
-2.887809999999999
 20
-11.9023
 30
0.0
 70
    32
  0
VERTEX
  5
BE6
330
9F4
100
AcDbEntity
  8
CENTRALA
100
AcDbVertex
100
AcDb3dPolylineVertex
 10
-3.064409999999999
 20
-11.8187
 30
0.0
 70
    32
  0
VERTEX
  5
BE7
330
9F4
100
AcDbEntity
  8
CENTRALA
100
AcDbVertex
100
AcDb3dPolylineVertex
 10
-3.240709999999999
 20
-11.7372
 30
0.0
 70
    32
  0
VERTEX
  5
BE8
330
9F4
100
AcDbEntity
  8
CENTRALA
100
AcDbVertex
100
AcDb3dPolylineVertex
 10
-3.416679999999999
 20
-11.6578
 30
0.0
 70
    32
  0
VERTEX
  5
BE9
330
9F4
100
AcDbEntity
  8
CENTRALA
100
AcDbVertex
100
AcDb3dPolylineVertex
 10
-3.592309999999999
 20
-11.5806
 30
0.0
 70
    32
  0
VERTEX
  5
BEA
330
9F4
100
AcDbEntity
  8
CENTRALA
100
AcDbVertex
100
AcDb3dPolylineVertex
 10
-3.767599999999999
 20
-11.5057
 30
0.0
 70
    32
  0
VERTEX
  5
BEB
330
9F4
100
AcDbEntity
  8
CENTRALA
100
AcDbVertex
100
AcDb3dPolylineVertex
 10
-3.94254
 20
-11.4334
 30
0.0
 70
    32
  0
VERTEX
  5
BEC
330
9F4
100
AcDbEntity
  8
CENTRALA
100
AcDbVertex
100
AcDb3dPolylineVertex
 10
-4.11711
 20
-11.3635
 30
0.0
 70
    32
  0
VERTEX
  5
BED
330
9F4
100
AcDbEntity
  8
CENTRALA
100
AcDbVertex
100
AcDb3dPolylineVertex
 10
-4.29131
 20
-11.2964
 30
0.0
 70
    32
  0
VERTEX
  5
BEE
330
9F4
100
AcDbEntity
  8
CENTRALA
100
AcDbVertex
100
AcDb3dPolylineVertex
 10
-4.465119999999997
 20
-11.2319
 30
0.0
 70
    32
  0
VERTEX
  5
BEF
330
9F4
100
AcDbEntity
  8
CENTRALA
100
AcDbVertex
100
AcDb3dPolylineVertex
 10
-4.63853
 20
-11.1704
 30
0.0
 70
    32
  0
VERTEX
  5
BF0
330
9F4
100
AcDbEntity
  8
CENTRALA
100
AcDbVertex
100
AcDb3dPolylineVertex
 10
-4.811539999999999
 20
-11.1118
 30
0.0
 70
    32
  0
VERTEX
  5
BF1
330
9F4
100
AcDbEntity
  8
CENTRALA
100
AcDbVertex
100
AcDb3dPolylineVertex
 10
-4.98413
 20
-11.0563
 30
0.0
 70
    32
  0
VERTEX
  5
BF2
330
9F4
100
AcDbEntity
  8
CENTRALA
100
AcDbVertex
100
AcDb3dPolylineVertex
 10
-5.15629
 20
-11.0039
 30
0.0
 70
    32
  0
VERTEX
  5
BF3
330
9F4
100
AcDbEntity
  8
CENTRALA
100
AcDbVertex
100
AcDb3dPolylineVertex
 10
-5.328019999999999
 20
-10.9548
 30
0.0
 70
    32
  0
VERTEX
  5
BF4
330
9F4
100
AcDbEntity
  8
CENTRALA
100
AcDbVertex
100
AcDb3dPolylineVertex
 10
-5.49929
 20
-10.9091
 30
0.0
 70
    32
  0
VERTEX
  5
BF5
330
9F4
100
AcDbEntity
  8
CENTRALA
100
AcDbVertex
100
AcDb3dPolylineVertex
 10
-5.67011
 20
-10.8669
 30
0.0
 70
    32
  0
VERTEX
  5
BF6
330
9F4
100
AcDbEntity
  8
CENTRALA
100
AcDbVertex
100
AcDb3dPolylineVertex
 10
-5.84046
 20
-10.8283
 30
0.0
 70
    32
  0
VERTEX
  5
BF7
330
9F4
100
AcDbEntity
  8
CENTRALA
100
AcDbVertex
100
AcDb3dPolylineVertex
 10
-6.010329999999997
 20
-10.7933
 30
0.0
 70
    32
  0
VERTEX
  5
BF8
330
9F4
100
AcDbEntity
  8
CENTRALA
100
AcDbVertex
100
AcDb3dPolylineVertex
 10
-6.17971
 20
-10.7622
 30
0.0
 70
    32
  0
VERTEX
  5
BF9
330
9F4
100
AcDbEntity
  8
CENTRALA
100
AcDbVertex
100
AcDb3dPolylineVertex
 10
-6.348589999999997
 20
-10.7349
 30
0.0
 70
    32
  0
VERTEX
  5
BFA
330
9F4
100
AcDbEntity
  8
CENTRALA
100
AcDbVertex
100
AcDb3dPolylineVertex
 10
-6.51696
 20
-10.7117
 30
0.0
 70
    32
  0
VERTEX
  5
BFB
330
9F4
100
AcDbEntity
  8
CENTRALA
100
AcDbVertex
100
AcDb3dPolylineVertex
 10
-6.684809999999997
 20
-10.6925
 30
0.0
 70
    32
  0
VERTEX
  5
BFC
330
9F4
100
AcDbEntity
  8
CENTRALA
100
AcDbVertex
100
AcDb3dPolylineVertex
 10
-6.852129999999998
 20
-10.6776
 30
0.0
 70
    32
  0
VERTEX
  5
BFD
330
9F4
100
AcDbEntity
  8
CENTRALA
100
AcDbVertex
100
AcDb3dPolylineVertex
 10
-7.0189
 20
-10.6669
 30
0.0
 70
    32
  0
VERTEX
  5
BFE
330
9F4
100
AcDbEntity
  8
CENTRALA
100
AcDbVertex
100
AcDb3dPolylineVertex
 10
-7.18513
 20
-10.6607
 30
0.0
 70
    32
  0
VERTEX
  5
BFF
330
9F4
100
AcDbEntity
  8
CENTRALA
100
AcDbVertex
100
AcDb3dPolylineVertex
 10
-7.350789999999999
 20
-10.659
 30
0.0
 70
    32
  0
VERTEX
  5
C00
330
9F4
100
AcDbEntity
  8
CENTRALA
100
AcDbVertex
100
AcDb3dPolylineVertex
 10
-7.51588
 20
-10.6619
 30
0.0
 70
    32
  0
VERTEX
  5
C01
330
9F4
100
AcDbEntity
  8
CENTRALA
100
AcDbVertex
100
AcDb3dPolylineVertex
 10
-7.68038
 20
-10.6695
 30
0.0
 70
    32
  0
VERTEX
  5
C02
330
9F4
100
AcDbEntity
  8
CENTRALA
100
AcDbVertex
100
AcDb3dPolylineVertex
 10
-7.844299999999996
 20
-10.682
 30
0.0
 70
    32
  0
VERTEX
  5
C03
330
9F4
100
AcDbEntity
  8
CENTRALA
100
AcDbVertex
100
AcDb3dPolylineVertex
 10
-8.0076
 20
-10.6993
 30
0.0
 70
    32
  0
VERTEX
  5
C04
330
9F4
100
AcDbEntity
  8
CENTRALA
100
AcDbVertex
100
AcDb3dPolylineVertex
 10
-8.170299999999999
 20
-10.7217
 30
0.0
 70
    32
  0
VERTEX
  5
C05
330
9F4
100
AcDbEntity
  8
CENTRALA
100
AcDbVertex
100
AcDb3dPolylineVertex
 10
-8.332369999999999
 20
-10.7493
 30
0.0
 70
    32
  0
VERTEX
  5
C06
330
9F4
100
AcDbEntity
  8
CENTRALA
100
AcDbVertex
100
AcDb3dPolylineVertex
 10
-8.4938
 20
-10.7821
 30
0.0
 70
    32
  0
VERTEX
  5
C07
330
9F4
100
AcDbEntity
  8
CENTRALA
100
AcDbVertex
100
AcDb3dPolylineVertex
 10
-8.654589999999997
 20
-10.8202
 30
0.0
 70
    32
  0
VERTEX
  5
C08
330
9F4
100
AcDbEntity
  8
CENTRALA
100
AcDbVertex
100
AcDb3dPolylineVertex
 10
-8.814719999999997
 20
-10.8638
 30
0.0
 70
    32
  0
VERTEX
  5
C09
330
9F4
100
AcDbEntity
  8
CENTRALA
100
AcDbVertex
100
AcDb3dPolylineVertex
 10
-8.97419
 20
-10.9129
 30
0.0
 70
    32
  0
VERTEX
  5
C0A
330
9F4
100
AcDbEntity
  8
CENTRALA
100
AcDbVertex
100
AcDb3dPolylineVertex
 10
-9.132980000000001
 20
-10.9677
 30
0.0
 70
    32
  0
VERTEX
  5
C0B
330
9F4
100
AcDbEntity
  8
CENTRALA
100
AcDbVertex
100
AcDb3dPolylineVertex
 10
-9.291079999999999
 20
-11.0282
 30
0.0
 70
    32
  0
VERTEX
  5
C0C
330
9F4
100
AcDbEntity
  8
CENTRALA
100
AcDbVertex
100
AcDb3dPolylineVertex
 10
-9.448489999999999
 20
-11.0946
 30
0.0
 70
    32
  0
VERTEX
  5
C0D
330
9F4
100
AcDbEntity
  8
CENTRALA
100
AcDbVertex
100
AcDb3dPolylineVertex
 10
-9.605189999999998
 20
-11.167
 30
0.0
 70
    32
  0
VERTEX
  5
C0E
330
9F4
100
AcDbEntity
  8
CENTRALA
100
AcDbVertex
100
AcDb3dPolylineVertex
 10
-9.761169999999998
 20
-11.2454
 30
0.0
 70
    32
  0
VERTEX
  5
C0F
330
9F4
100
AcDbEntity
  8
CENTRALA
100
AcDbVertex
100
AcDb3dPolylineVertex
 10
-9.91642
 20
-11.33
 30
0.0
 70
    32
  0
VERTEX
  5
C10
330
9F4
100
AcDbEntity
  8
CENTRALA
100
AcDbVertex
100
AcDb3dPolylineVertex
 10
-10.0709
 20
-11.4209
 30
0.0
 70
    32
  0
VERTEX
  5
C11
330
9F4
100
AcDbEntity
  8
CENTRALA
100
AcDbVertex
100
AcDb3dPolylineVertex
 10
-10.2247
 20
-11.5181
 30
0.0
 70
    32
  0
VERTEX
  5
C12
330
9F4
100
AcDbEntity
  8
CENTRALA
100
AcDbVertex
100
AcDb3dPolylineVertex
 10
-10.3777
 20
-11.6218
 30
0.0
 70
    32
  0
VERTEX
  5
C13
330
9F4
100
AcDbEntity
  8
CENTRALA
100
AcDbVertex
100
AcDb3dPolylineVertex
 10
-10.5299
 20
-11.7321
 30
0.0
 70
    32
  0
VERTEX
  5
C14
330
9F4
100
AcDbEntity
  8
CENTRALA
100
AcDbVertex
100
AcDb3dPolylineVertex
 10
-10.6814
 20
-11.8491
 30
0.0
 70
    32
  0
VERTEX
  5
C15
330
9F4
100
AcDbEntity
  8
CENTRALA
100
AcDbVertex
100
AcDb3dPolylineVertex
 10
-10.832
 20
-11.9729
 30
0.0
 70
    32
  0
VERTEX
  5
C16
330
9F4
100
AcDbEntity
  8
CENTRALA
100
AcDbVertex
100
AcDb3dPolylineVertex
 10
-10.9819
 20
-12.1032
 30
0.0
 70
    32
  0
VERTEX
  5
C17
330
9F4
100
AcDbEntity
  8
CENTRALA
100
AcDbVertex
100
AcDb3dPolylineVertex
 10
-11.1311
 20
-12.2396
 30
0.0
 70
    32
  0
VERTEX
  5
C18
330
9F4
100
AcDbEntity
  8
CENTRALA
100
AcDbVertex
100
AcDb3dPolylineVertex
 10
-11.2795
 20
-12.3818
 30
0.0
 70
    32
  0
VERTEX
  5
C19
330
9F4
100
AcDbEntity
  8
CENTRALA
100
AcDbVertex
100
AcDb3dPolylineVertex
 10
-11.4272
 20
-12.5292
 30
0.0
 70
    32
  0
VERTEX
  5
C1A
330
9F4
100
AcDbEntity
  8
CENTRALA
100
AcDbVertex
100
AcDb3dPolylineVertex
 10
-11.5742
 20
-12.6815
 30
0.0
 70
    32
  0
VERTEX
  5
C1B
330
9F4
100
AcDbEntity
  8
CENTRALA
100
AcDbVertex
100
AcDb3dPolylineVertex
 10
-11.7205
 20
-12.8383
 30
0.0
 70
    32
  0
VERTEX
  5
C1C
330
9F4
100
AcDbEntity
  8
CENTRALA
100
AcDbVertex
100
AcDb3dPolylineVertex
 10
-11.8663
 20
-12.9991
 30
0.0
 70
    32
  0
VERTEX
  5
C1D
330
9F4
100
AcDbEntity
  8
CENTRALA
100
AcDbVertex
100
AcDb3dPolylineVertex
 10
-12.0114
 20
-13.1635
 30
0.0
 70
    32
  0
VERTEX
  5
C1E
330
9F4
100
AcDbEntity
  8
CENTRALA
100
AcDbVertex
100
AcDb3dPolylineVertex
 10
-12.156
 20
-13.3311
 30
0.0
 70
    32
  0
VERTEX
  5
C1F
330
9F4
100
AcDbEntity
  8
CENTRALA
100
AcDbVertex
100
AcDb3dPolylineVertex
 10
-12.3
 20
-13.5014
 30
0.0
 70
    32
  0
VERTEX
  5
C20
330
9F4
100
AcDbEntity
  8
CENTRALA
100
AcDbVertex
100
AcDb3dPolylineVertex
 10
-12.4434
 20
-13.6741
 30
0.0
 70
    32
  0
VERTEX
  5
C21
330
9F4
100
AcDbEntity
  8
CENTRALA
100
AcDbVertex
100
AcDb3dPolylineVertex
 10
-12.5864
 20
-13.8486
 30
0.0
 70
    32
  0
VERTEX
  5
C22
330
9F4
100
AcDbEntity
  8
CENTRALA
100
AcDbVertex
100
AcDb3dPolylineVertex
 10
-12.7289
 20
-14.0247
 30
0.0
 70
    32
  0
VERTEX
  5
C23
330
9F4
100
AcDbEntity
  8
CENTRALA
100
AcDbVertex
100
AcDb3dPolylineVertex
 10
-12.8709
 20
-14.2019
 30
0.0
 70
    32
  0
VERTEX
  5
C24
330
9F4
100
AcDbEntity
  8
CENTRALA
100
AcDbVertex
100
AcDb3dPolylineVertex
 10
-13.0125
 20
-14.3797
 30
0.0
 70
    32
  0
VERTEX
  5
C25
330
9F4
100
AcDbEntity
  8
CENTRALA
100
AcDbVertex
100
AcDb3dPolylineVertex
 10
-13.1537
 20
-14.5577
 30
0.0
 70
    32
  0
VERTEX
  5
C26
330
9F4
100
AcDbEntity
  8
CENTRALA
100
AcDbVertex
100
AcDb3dPolylineVertex
 10
-13.2945
 20
-14.7355
 30
0.0
 70
    32
  0
VERTEX
  5
C27
330
9F4
100
AcDbEntity
  8
CENTRALA
100
AcDbVertex
100
AcDb3dPolylineVertex
 10
-13.435
 20
-14.9128
 30
0.0
 70
    32
  0
VERTEX
  5
C28
330
9F4
100
AcDbEntity
  8
CENTRALA
100
AcDbVertex
100
AcDb3dPolylineVertex
 10
-13.5751
 20
-15.0889
 30
0.0
 70
    32
  0
VERTEX
  5
C29
330
9F4
100
AcDbEntity
  8
CENTRALA
100
AcDbVertex
100
AcDb3dPolylineVertex
 10
-13.7149
 20
-15.2636
 30
0.0
 70
    32
  0
VERTEX
  5
C2A
330
9F4
100
AcDbEntity
  8
CENTRALA
100
AcDbVertex
100
AcDb3dPolylineVertex
 10
-13.8545
 20
-15.4365
 30
0.0
 70
    32
  0
VERTEX
  5
C2B
330
9F4
100
AcDbEntity
  8
CENTRALA
100
AcDbVertex
100
AcDb3dPolylineVertex
 10
-13.9938
 20
-15.607
 30
0.0
 70
    32
  0
VERTEX
  5
C2C
330
9F4
100
AcDbEntity
  8
CENTRALA
100
AcDbVertex
100
AcDb3dPolylineVertex
 10
-14.1328
 20
-15.7748
 30
0.0
 70
    32
  0
VERTEX
  5
C2D
330
9F4
100
AcDbEntity
  8
CENTRALA
100
AcDbVertex
100
AcDb3dPolylineVertex
 10
-14.2717
 20
-15.9394
 30
0.0
 70
    32
  0
VERTEX
  5
C2E
330
9F4
100
AcDbEntity
  8
CENTRALA
100
AcDbVertex
100
AcDb3dPolylineVertex
 10
-14.4104
 20
-16.1005
 30
0.0
 70
    32
  0
VERTEX
  5
C2F
330
9F4
100
AcDbEntity
  8
CENTRALA
100
AcDbVertex
100
AcDb3dPolylineVertex
 10
-14.5489
 20
-16.2576
 30
0.0
 70
    32
  0
VERTEX
  5
C30
330
9F4
100
AcDbEntity
  8
CENTRALA
100
AcDbVertex
100
AcDb3dPolylineVertex
 10
-14.6873
 20
-16.4103
 30
0.0
 70
    32
  0
VERTEX
  5
C31
330
9F4
100
AcDbEntity
  8
CENTRALA
100
AcDbVertex
100
AcDb3dPolylineVertex
 10
-14.8255
 20
-16.5581
 30
0.0
 70
    32
  0
VERTEX
  5
C32
330
9F4
100
AcDbEntity
  8
CENTRALA
100
AcDbVertex
100
AcDb3dPolylineVertex
 10
-14.9637
 20
-16.7006
 30
0.0
 70
    32
  0
VERTEX
  5
C33
330
9F4
100
AcDbEntity
  8
CENTRALA
100
AcDbVertex
100
AcDb3dPolylineVertex
 10
-15.1019
 20
-16.8375
 30
0.0
 70
    32
  0
VERTEX
  5
C34
330
9F4
100
AcDbEntity
  8
CENTRALA
100
AcDbVertex
100
AcDb3dPolylineVertex
 10
-15.24
 20
-16.9683
 30
0.0
 70
    32
  0
VERTEX
  5
C35
330
9F4
100
AcDbEntity
  8
CENTRALA
100
AcDbVertex
100
AcDb3dPolylineVertex
 10
-15.3141
 20
-16.8711
 30
0.0
 70
    32
  0
VERTEX
  5
C36
330
9F4
100
AcDbEntity
  8
CENTRALA
100
AcDbVertex
100
AcDb3dPolylineVertex
 10
-15.3669
 20
-16.6993
 30
0.0
 70
    32
  0
VERTEX
  5
C37
330
9F4
100
AcDbEntity
  8
CENTRALA
100
AcDbVertex
100
AcDb3dPolylineVertex
 10
-15.4196
 20
-16.5274
 30
0.0
 70
    32
  0
VERTEX
  5
C38
330
9F4
100
AcDbEntity
  8
CENTRALA
100
AcDbVertex
100
AcDb3dPolylineVertex
 10
-15.4721
 20
-16.3556
 30
0.0
 70
    32
  0
VERTEX
  5
C39
330
9F4
100
AcDbEntity
  8
CENTRALA
100
AcDbVertex
100
AcDb3dPolylineVertex
 10
-15.5244
 20
-16.1837
 30
0.0
 70
    32
  0
VERTEX
  5
C3A
330
9F4
100
AcDbEntity
  8
CENTRALA
100
AcDbVertex
100
AcDb3dPolylineVertex
 10
-15.5765
 20
-16.0118
 30
0.0
 70
    32
  0
VERTEX
  5
C3B
330
9F4
100
AcDbEntity
  8
CENTRALA
100
AcDbVertex
100
AcDb3dPolylineVertex
 10
-15.6283
 20
-15.8399
 30
0.0
 70
    32
  0
VERTEX
  5
C3C
330
9F4
100
AcDbEntity
  8
CENTRALA
100
AcDbVertex
100
AcDb3dPolylineVertex
 10
-15.6797
 20
-15.668
 30
0.0
 70
    32
  0
VERTEX
  5
C3D
330
9F4
100
AcDbEntity
  8
CENTRALA
100
AcDbVertex
100
AcDb3dPolylineVertex
 10
-15.7307
 20
-15.496
 30
0.0
 70
    32
  0
VERTEX
  5
C3E
330
9F4
100
AcDbEntity
  8
CENTRALA
100
AcDbVertex
100
AcDb3dPolylineVertex
 10
-15.7812
 20
-15.324
 30
0.0
 70
    32
  0
VERTEX
  5
C3F
330
9F4
100
AcDbEntity
  8
CENTRALA
100
AcDbVertex
100
AcDb3dPolylineVertex
 10
-15.8312
 20
-15.152
 30
0.0
 70
    32
  0
VERTEX
  5
C40
330
9F4
100
AcDbEntity
  8
CENTRALA
100
AcDbVertex
100
AcDb3dPolylineVertex
 10
-15.8806
 20
-14.9799
 30
0.0
 70
    32
  0
VERTEX
  5
C41
330
9F4
100
AcDbEntity
  8
CENTRALA
100
AcDbVertex
100
AcDb3dPolylineVertex
 10
-15.9294
 20
-14.8078
 30
0.0
 70
    32
  0
VERTEX
  5
C42
330
9F4
100
AcDbEntity
  8
CENTRALA
100
AcDbVertex
100
AcDb3dPolylineVertex
 10
-15.9775
 20
-14.6356
 30
0.0
 70
    32
  0
VERTEX
  5
C43
330
9F4
100
AcDbEntity
  8
CENTRALA
100
AcDbVertex
100
AcDb3dPolylineVertex
 10
-16.0249
 20
-14.4634
 30
0.0
 70
    32
  0
VERTEX
  5
C44
330
9F4
100
AcDbEntity
  8
CENTRALA
100
AcDbVertex
100
AcDb3dPolylineVertex
 10
-16.0715
 20
-14.2912
 30
0.0
 70
    32
  0
VERTEX
  5
C45
330
9F4
100
AcDbEntity
  8
CENTRALA
100
AcDbVertex
100
AcDb3dPolylineVertex
 10
-16.1172
 20
-14.1188
 30
0.0
 70
    32
  0
VERTEX
  5
C46
330
9F4
100
AcDbEntity
  8
CENTRALA
100
AcDbVertex
100
AcDb3dPolylineVertex
 10
-16.162
 20
-13.9465
 30
0.0
 70
    32
  0
VERTEX
  5
C47
330
9F4
100
AcDbEntity
  8
CENTRALA
100
AcDbVertex
100
AcDb3dPolylineVertex
 10
-16.2059
 20
-13.774
 30
0.0
 70
    32
  0
VERTEX
  5
C48
330
9F4
100
AcDbEntity
  8
CENTRALA
100
AcDbVertex
100
AcDb3dPolylineVertex
 10
-16.2488
 20
-13.6015
 30
0.0
 70
    32
  0
VERTEX
  5
C49
330
9F4
100
AcDbEntity
  8
CENTRALA
100
AcDbVertex
100
AcDb3dPolylineVertex
 10
-16.2906
 20
-13.4289
 30
0.0
 70
    32
  0
VERTEX
  5
C4A
330
9F4
100
AcDbEntity
  8
CENTRALA
100
AcDbVertex
100
AcDb3dPolylineVertex
 10
-16.3313
 20
-13.2563
 30
0.0
 70
    32
  0
VERTEX
  5
C4B
330
9F4
100
AcDbEntity
  8
CENTRALA
100
AcDbVertex
100
AcDb3dPolylineVertex
 10
-16.3708
 20
-13.0835
 30
0.0
 70
    32
  0
VERTEX
  5
C4C
330
9F4
100
AcDbEntity
  8
CENTRALA
100
AcDbVertex
100
AcDb3dPolylineVertex
 10
-16.4091
 20
-12.9107
 30
0.0
 70
    32
  0
VERTEX
  5
C4D
330
9F4
100
AcDbEntity
  8
CENTRALA
100
AcDbVertex
100
AcDb3dPolylineVertex
 10
-16.4462
 20
-12.7378
 30
0.0
 70
    32
  0
VERTEX
  5
C4E
330
9F4
100
AcDbEntity
  8
CENTRALA
100
AcDbVertex
100
AcDb3dPolylineVertex
 10
-16.4819
 20
-12.5648
 30
0.0
 70
    32
  0
VERTEX
  5
C4F
330
9F4
100
AcDbEntity
  8
CENTRALA
100
AcDbVertex
100
AcDb3dPolylineVertex
 10
-16.5162
 20
-12.3917
 30
0.0
 70
    32
  0
VERTEX
  5
C50
330
9F4
100
AcDbEntity
  8
CENTRALA
100
AcDbVertex
100
AcDb3dPolylineVertex
 10
-16.5491
 20
-12.2185
 30
0.0
 70
    32
  0
VERTEX
  5
C51
330
9F4
100
AcDbEntity
  8
CENTRALA
100
AcDbVertex
100
AcDb3dPolylineVertex
 10
-16.5805
 20
-12.0452
 30
0.0
 70
    32
  0
VERTEX
  5
C52
330
9F4
100
AcDbEntity
  8
CENTRALA
100
AcDbVertex
100
AcDb3dPolylineVertex
 10
-16.6103
 20
-11.8719
 30
0.0
 70
    32
  0
VERTEX
  5
C53
330
9F4
100
AcDbEntity
  8
CENTRALA
100
AcDbVertex
100
AcDb3dPolylineVertex
 10
-16.6386
 20
-11.6984
 30
0.0
 70
    32
  0
VERTEX
  5
C54
330
9F4
100
AcDbEntity
  8
CENTRALA
100
AcDbVertex
100
AcDb3dPolylineVertex
 10
-16.6652
 20
-11.5247
 30
0.0
 70
    32
  0
VERTEX
  5
C55
330
9F4
100
AcDbEntity
  8
CENTRALA
100
AcDbVertex
100
AcDb3dPolylineVertex
 10
-16.6901
 20
-11.351
 30
0.0
 70
    32
  0
VERTEX
  5
C56
330
9F4
100
AcDbEntity
  8
CENTRALA
100
AcDbVertex
100
AcDb3dPolylineVertex
 10
-16.7133
 20
-11.1772
 30
0.0
 70
    32
  0
VERTEX
  5
C57
330
9F4
100
AcDbEntity
  8
CENTRALA
100
AcDbVertex
100
AcDb3dPolylineVertex
 10
-16.7346
 20
-11.0032
 30
0.0
 70
    32
  0
VERTEX
  5
C58
330
9F4
100
AcDbEntity
  8
CENTRALA
100
AcDbVertex
100
AcDb3dPolylineVertex
 10
-16.7541
 20
-10.8291
 30
0.0
 70
    32
  0
VERTEX
  5
C59
330
9F4
100
AcDbEntity
  8
CENTRALA
100
AcDbVertex
100
AcDb3dPolylineVertex
 10
-16.7717
 20
-10.6549
 30
0.0
 70
    32
  0
VERTEX
  5
C5A
330
9F4
100
AcDbEntity
  8
CENTRALA
100
AcDbVertex
100
AcDb3dPolylineVertex
 10
-16.7872
 20
-10.4805
 30
0.0
 70
    32
  0
VERTEX
  5
C5B
330
9F4
100
AcDbEntity
  8
CENTRALA
100
AcDbVertex
100
AcDb3dPolylineVertex
 10
-16.8008
 20
-10.306
 30
0.0
 70
    32
  0
VERTEX
  5
C5C
330
9F4
100
AcDbEntity
  8
CENTRALA
100
AcDbVertex
100
AcDb3dPolylineVertex
 10
-16.8123
 20
-10.1314
 30
0.0
 70
    32
  0
VERTEX
  5
C5D
330
9F4
100
AcDbEntity
  8
CENTRALA
100
AcDbVertex
100
AcDb3dPolylineVertex
 10
-16.8216
 20
-9.956619999999999
 30
0.0
 70
    32
  0
VERTEX
  5
C5E
330
9F4
100
AcDbEntity
  8
CENTRALA
100
AcDbVertex
100
AcDb3dPolylineVertex
 10
-16.8288
 20
-9.781689999999999
 30
0.0
 70
    32
  0
VERTEX
  5
C5F
330
9F4
100
AcDbEntity
  8
CENTRALA
100
AcDbVertex
100
AcDb3dPolylineVertex
 10
-16.8337
 20
-9.606619999999999
 30
0.0
 70
    32
  0
VERTEX
  5
C60
330
9F4
100
AcDbEntity
  8
CENTRALA
100
AcDbVertex
100
AcDb3dPolylineVertex
 10
-16.8363
 20
-9.43138
 30
0.0
 70
    32
  0
VERTEX
  5
C61
330
9F4
100
AcDbEntity
  8
CENTRALA
100
AcDbVertex
100
AcDb3dPolylineVertex
 10
-16.8366
 20
-9.25599
 30
0.0
 70
    32
  0
VERTEX
  5
C62
330
9F4
100
AcDbEntity
  8
CENTRALA
100
AcDbVertex
100
AcDb3dPolylineVertex
 10
-16.8345
 20
-9.080439999999999
 30
0.0
 70
    32
  0
VERTEX
  5
C63
330
9F4
100
AcDbEntity
  8
CENTRALA
100
AcDbVertex
100
AcDb3dPolylineVertex
 10
-16.8299
 20
-8.904719999999997
 30
0.0
 70
    32
  0
VERTEX
  5
C64
330
9F4
100
AcDbEntity
  8
CENTRALA
100
AcDbVertex
100
AcDb3dPolylineVertex
 10
-16.8228
 20
-8.72883
 30
0.0
 70
    32
  0
VERTEX
  5
C65
330
9F4
100
AcDbEntity
  8
CENTRALA
100
AcDbVertex
100
AcDb3dPolylineVertex
 10
-16.8132
 20
-8.552760000000001
 30
0.0
 70
    32
  0
VERTEX
  5
C66
330
9F4
100
AcDbEntity
  8
CENTRALA
100
AcDbVertex
100
AcDb3dPolylineVertex
 10
-16.8009
 20
-8.376519999999997
 30
0.0
 70
    32
  0
VERTEX
  5
C67
330
9F4
100
AcDbEntity
  8
CENTRALA
100
AcDbVertex
100
AcDb3dPolylineVertex
 10
-16.786
 20
-8.2001
 30
0.0
 70
    32
  0
VERTEX
  5
C68
330
9F4
100
AcDbEntity
  8
CENTRALA
100
AcDbVertex
100
AcDb3dPolylineVertex
 10
-16.7683
 20
-8.0235
 30
0.0
 70
    32
  0
VERTEX
  5
C69
330
9F4
100
AcDbEntity
  8
CENTRALA
100
AcDbVertex
100
AcDb3dPolylineVertex
 10
-16.7479
 20
-7.846709999999998
 30
0.0
 70
    32
  0
VERTEX
  5
C6A
330
9F4
100
AcDbEntity
  8
CENTRALA
100
AcDbVertex
100
AcDb3dPolylineVertex
 10
-16.7246
 20
-7.669719999999998
 30
0.0
 70
    32
  0
VERTEX
  5
C6B
330
9F4
100
AcDbEntity
  8
CENTRALA
100
AcDbVertex
100
AcDb3dPolylineVertex
 10
-16.6985
 20
-7.492539999999998
 30
0.0
 70
    32
  0
VERTEX
  5
C6C
330
9F4
100
AcDbEntity
  8
CENTRALA
100
AcDbVertex
100
AcDb3dPolylineVertex
 10
-16.6694
 20
-7.315159999999998
 30
0.0
 70
    32
  0
VERTEX
  5
C6D
330
9F4
100
AcDbEntity
  8
CENTRALA
100
AcDbVertex
100
AcDb3dPolylineVertex
 10
-16.6373
 20
-7.137579999999998
 30
0.0
 70
    32
  0
VERTEX
  5
C6E
330
9F4
100
AcDbEntity
  8
CENTRALA
100
AcDbVertex
100
AcDb3dPolylineVertex
 10
-16.6022
 20
-6.9598
 30
0.0
 70
    32
  0
VERTEX
  5
C6F
330
9F4
100
AcDbEntity
  8
CENTRALA
100
AcDbVertex
100
AcDb3dPolylineVertex
 10
-16.5639
 20
-6.781799999999999
 30
0.0
 70
    32
  0
VERTEX
  5
C70
330
9F4
100
AcDbEntity
  8
CENTRALA
100
AcDbVertex
100
AcDb3dPolylineVertex
 10
-16.5226
 20
-6.603589999999999
 30
0.0
 70
    32
  0
VERTEX
  5
C71
330
9F4
100
AcDbEntity
  8
CENTRALA
100
AcDbVertex
100
AcDb3dPolylineVertex
 10
-16.478
 20
-6.425169999999999
 30
0.0
 70
    32
  0
VERTEX
  5
C72
330
9F4
100
AcDbEntity
  8
CENTRALA
100
AcDbVertex
100
AcDb3dPolylineVertex
 10
-16.4301
 20
-6.24652
 30
0.0
 70
    32
  0
VERTEX
  5
C73
330
9F4
100
AcDbEntity
  8
CENTRALA
100
AcDbVertex
100
AcDb3dPolylineVertex
 10
-16.379
 20
-6.06766
 30
0.0
 70
    32
  0
VERTEX
  5
C74
330
9F4
100
AcDbEntity
  8
CENTRALA
100
AcDbVertex
100
AcDb3dPolylineVertex
 10
-16.3247
 20
-5.888569999999999
 30
0.0
 70
    32
  0
VERTEX
  5
C75
330
9F4
100
AcDbEntity
  8
CENTRALA
100
AcDbVertex
100
AcDb3dPolylineVertex
 10
-16.2672
 20
-5.70929
 30
0.0
 70
    32
  0
VERTEX
  5
C76
330
9F4
100
AcDbEntity
  8
CENTRALA
100
AcDbVertex
100
AcDb3dPolylineVertex
 10
-16.2068
 20
-5.529809999999999
 30
0.0
 70
    32
  0
VERTEX
  5
C77
330
9F4
100
AcDbEntity
  8
CENTRALA
100
AcDbVertex
100
AcDb3dPolylineVertex
 10
-16.1434
 20
-5.35015
 30
0.0
 70
    32
  0
VERTEX
  5
C78
330
9F4
100
AcDbEntity
  8
CENTRALA
100
AcDbVertex
100
AcDb3dPolylineVertex
 10
-16.0773
 20
-5.17032
 30
0.0
 70
    32
  0
VERTEX
  5
C79
330
9F4
100
AcDbEntity
  8
CENTRALA
100
AcDbVertex
100
AcDb3dPolylineVertex
 10
-16.0084
 20
-4.99033
 30
0.0
 70
    32
  0
VERTEX
  5
C7A
330
9F4
100
AcDbEntity
  8
CENTRALA
100
AcDbVertex
100
AcDb3dPolylineVertex
 10
-15.937
 20
-4.810179999999999
 30
0.0
 70
    32
  0
VERTEX
  5
C7B
330
9F4
100
AcDbEntity
  8
CENTRALA
100
AcDbVertex
100
AcDb3dPolylineVertex
 10
-15.8631
 20
-4.629889999999999
 30
0.0
 70
    32
  0
VERTEX
  5
C7C
330
9F4
100
AcDbEntity
  8
CENTRALA
100
AcDbVertex
100
AcDb3dPolylineVertex
 10
-15.7867
 20
-4.44948
 30
0.0
 70
    32
  0
VERTEX
  5
C7D
330
9F4
100
AcDbEntity
  8
CENTRALA
100
AcDbVertex
100
AcDb3dPolylineVertex
 10
-15.7082
 20
-4.268939999999997
 30
0.0
 70
    32
  0
VERTEX
  5
C7E
330
9F4
100
AcDbEntity
  8
CENTRALA
100
AcDbVertex
100
AcDb3dPolylineVertex
 10
-15.6274
 20
-4.088289999999997
 30
0.0
 70
    32
  0
VERTEX
  5
C7F
330
9F4
100
AcDbEntity
  8
CENTRALA
100
AcDbVertex
100
AcDb3dPolylineVertex
 10
-15.5446
 20
-3.90755
 30
0.0
 70
    32
  0
VERTEX
  5
C80
330
9F4
100
AcDbEntity
  8
CENTRALA
100
AcDbVertex
100
AcDb3dPolylineVertex
 10
-15.4597
 20
-3.726709999999999
 30
0.0
 70
    32
  0
VERTEX
  5
C81
330
9F4
100
AcDbEntity
  8
CENTRALA
100
AcDbVertex
100
AcDb3dPolylineVertex
 10
-15.3731
 20
-3.54579
 30
0.0
 70
    32
  0
VERTEX
  5
C82
330
9F4
100
AcDbEntity
  8
CENTRALA
100
AcDbVertex
100
AcDb3dPolylineVertex
 10
-15.2846
 20
-3.364809999999998
 30
0.0
 70
    32
  0
VERTEX
  5
C83
330
9F4
100
AcDbEntity
  8
CENTRALA
100
AcDbVertex
100
AcDb3dPolylineVertex
 10
-15.1945
 20
-3.183769999999999
 30
0.0
 70
    32
  0
VERTEX
  5
C84
330
9F4
100
AcDbEntity
  8
CENTRALA
100
AcDbVertex
100
AcDb3dPolylineVertex
 10
-15.1029
 20
-3.002679999999998
 30
0.0
 70
    32
  0
VERTEX
  5
C85
330
9F4
100
AcDbEntity
  8
CENTRALA
100
AcDbVertex
100
AcDb3dPolylineVertex
 10
-15.0098
 20
-2.821559999999998
 30
0.0
 70
    32
  0
VERTEX
  5
C86
330
9F4
100
AcDbEntity
  8
CENTRALA
100
AcDbVertex
100
AcDb3dPolylineVertex
 10
-14.9153
 20
-2.6404
 30
0.0
 70
    32
  0
VERTEX
  5
C87
330
9F4
100
AcDbEntity
  8
CENTRALA
100
AcDbVertex
100
AcDb3dPolylineVertex
 10
-14.8196
 20
-2.459229999999998
 30
0.0
 70
    32
  0
VERTEX
  5
C88
330
9F4
100
AcDbEntity
  8
CENTRALA
100
AcDbVertex
100
AcDb3dPolylineVertex
 10
-14.7227
 20
-2.278059999999999
 30
0.0
 70
    32
  0
VERTEX
  5
C89
330
9F4
100
AcDbEntity
  8
CENTRALA
100
AcDbVertex
100
AcDb3dPolylineVertex
 10
-14.6249
 20
-2.09689
 30
0.0
 70
    32
  0
VERTEX
  5
C8A
330
9F4
100
AcDbEntity
  8
CENTRALA
100
AcDbVertex
100
AcDb3dPolylineVertex
 10
-14.526
 20
-1.915729999999999
 30
0.0
 70
    32
  0
VERTEX
  5
C8B
330
9F4
100
AcDbEntity
  8
CENTRALA
100
AcDbVertex
100
AcDb3dPolylineVertex
 10
-14.4264
 20
-1.734599999999999
 30
0.0
 70
    32
  0
VERTEX
  5
C8C
330
9F4
100
AcDbEntity
  8
CENTRALA
100
AcDbVertex
100
AcDb3dPolylineVertex
 10
-14.326
 20
-1.553509999999999
 30
0.0
 70
    32
  0
VERTEX
  5
C8D
330
9F4
100
AcDbEntity
  8
CENTRALA
100
AcDbVertex
100
AcDb3dPolylineVertex
 10
-14.225
 20
-1.37246
 30
0.0
 70
    32
  0
VERTEX
  5
C8E
330
9F4
100
AcDbEntity
  8
CENTRALA
100
AcDbVertex
100
AcDb3dPolylineVertex
 10
-14.1234
 20
-1.191459999999999
 30
0.0
 70
    32
  0
VERTEX
  5
C8F
330
9F4
100
AcDbEntity
  8
CENTRALA
100
AcDbVertex
100
AcDb3dPolylineVertex
 10
-14.0215
 20
-1.010529999999999
 30
0.0
 70
    32
  0
VERTEX
  5
C90
330
9F4
100
AcDbEntity
  8
CENTRALA
100
AcDbVertex
100
AcDb3dPolylineVertex
 10
-13.9192
 20
-0.8296849999999999
 30
0.0
 70
    32
  0
VERTEX
  5
C91
330
9F4
100
AcDbEntity
  8
CENTRALA
100
AcDbVertex
100
AcDb3dPolylineVertex
 10
-13.8167
 20
-0.648922
 30
0.0
 70
    32
  0
VERTEX
  5
C92
330
9F4
100
AcDbEntity
  8
CENTRALA
100
AcDbVertex
100
AcDb3dPolylineVertex
 10
-13.7141
 20
-0.468258
 30
0.0
 70
    32
  0
VERTEX
  5
C93
330
9F4
100
AcDbEntity
  8
CENTRALA
100
AcDbVertex
100
AcDb3dPolylineVertex
 10
-13.6115
 20
-0.287701
 30
0.0
 70
    32
  0
VERTEX
  5
C94
330
9F4
100
AcDbEntity
  8
CENTRALA
100
AcDbVertex
100
AcDb3dPolylineVertex
 10
-13.509
 20
-0.107263
 30
0.0
 70
    32
  0
VERTEX
  5
C95
330
9F4
100
AcDbEntity
  8
CENTRALA
100
AcDbVertex
100
AcDb3dPolylineVertex
 10
-13.4067
 20
0.0730463
 30
0.0
 70
    32
  0
VERTEX
  5
C96
330
9F4
100
AcDbEntity
  8
CENTRALA
100
AcDbVertex
100
AcDb3dPolylineVertex
 10
-13.3046
 20
0.253216
 30
0.0
 70
    32
  0
VERTEX
  5
C97
330
9F4
100
AcDbEntity
  8
CENTRALA
100
AcDbVertex
100
AcDb3dPolylineVertex
 10
-13.203
 20
0.433236
 30
0.0
 70
    32
  0
VERTEX
  5
C98
330
9F4
100
AcDbEntity
  8
CENTRALA
100
AcDbVertex
100
AcDb3dPolylineVertex
 10
-13.102
 20
0.613096
 30
0.0
 70
    32
  0
VERTEX
  5
C99
330
9F4
100
AcDbEntity
  8
CENTRALA
100
AcDbVertex
100
AcDb3dPolylineVertex
 10
-13.0015
 20
0.792786
 30
0.0
 70
    32
  0
VERTEX
  5
C9A
330
9F4
100
AcDbEntity
  8
CENTRALA
100
AcDbVertex
100
AcDb3dPolylineVertex
 10
-12.9017
 20
0.972295
 30
0.0
 70
    32
  0
VERTEX
  5
C9B
330
9F4
100
AcDbEntity
  8
CENTRALA
100
AcDbVertex
100
AcDb3dPolylineVertex
 10
-12.8028
 20
1.15161
 30
0.0
 70
    32
  0
VERTEX
  5
C9C
330
9F4
100
AcDbEntity
  8
CENTRALA
100
AcDbVertex
100
AcDb3dPolylineVertex
 10
-12.7048
 20
1.330729999999999
 30
0.0
 70
    32
  0
VERTEX
  5
C9D
330
9F4
100
AcDbEntity
  8
CENTRALA
100
AcDbVertex
100
AcDb3dPolylineVertex
 10
-12.6078
 20
1.50963
 30
0.0
 70
    32
  0
VERTEX
  5
C9E
330
9F4
100
AcDbEntity
  8
CENTRALA
100
AcDbVertex
100
AcDb3dPolylineVertex
 10
-12.5119
 20
1.688309999999999
 30
0.0
 70
    32
  0
VERTEX
  5
C9F
330
9F4
100
AcDbEntity
  8
CENTRALA
100
AcDbVertex
100
AcDb3dPolylineVertex
 10
-12.4173
 20
1.866759999999999
 30
0.0
 70
    32
  0
VERTEX
  5
CA0
330
9F4
100
AcDbEntity
  8
CENTRALA
100
AcDbVertex
100
AcDb3dPolylineVertex
 10
-12.324
 20
2.04497
 30
0.0
 70
    32
  0
VERTEX
  5
CA1
330
9F4
100
AcDbEntity
  8
CENTRALA
100
AcDbVertex
100
AcDb3dPolylineVertex
 10
-12.2322
 20
2.222919999999998
 30
0.0
 70
    32
  0
VERTEX
  5
CA2
330
9F4
100
AcDbEntity
  8
CENTRALA
100
AcDbVertex
100
AcDb3dPolylineVertex
 10
-12.1419
 20
2.400609999999999
 30
0.0
 70
    32
  0
VERTEX
  5
CA3
330
9F4
100
AcDbEntity
  8
CENTRALA
100
AcDbVertex
100
AcDb3dPolylineVertex
 10
-12.0532
 20
2.578019999999999
 30
0.0
 70
    32
  0
VERTEX
  5
CA4
330
9F4
100
AcDbEntity
  8
CENTRALA
100
AcDbVertex
100
AcDb3dPolylineVertex
 10
-11.9663
 20
2.755149999999999
 30
0.0
 70
    32
  0
VERTEX
  5
CA5
330
9F4
100
AcDbEntity
  8
CENTRALA
100
AcDbVertex
100
AcDb3dPolylineVertex
 10
-11.8812
 20
2.931989999999998
 30
0.0
 70
    32
  0
VERTEX
  5
CA6
330
9F4
100
AcDbEntity
  8
CENTRALA
100
AcDbVertex
100
AcDb3dPolylineVertex
 10
-11.7982
 20
3.108519999999999
 30
0.0
 70
    32
  0
VERTEX
  5
CA7
330
9F4
100
AcDbEntity
  8
CENTRALA
100
AcDbVertex
100
AcDb3dPolylineVertex
 10
-11.7171
 20
3.28473
 30
0.0
 70
    32
  0
VERTEX
  5
CA8
330
9F4
100
AcDbEntity
  8
CENTRALA
100
AcDbVertex
100
AcDb3dPolylineVertex
 10
-11.6383
 20
3.460619999999999
 30
0.0
 70
    32
  0
VERTEX
  5
CA9
330
9F4
100
AcDbEntity
  8
CENTRALA
100
AcDbVertex
100
AcDb3dPolylineVertex
 10
-11.5616
 20
3.636169999999999
 30
0.0
 70
    32
  0
VERTEX
  5
CAA
330
9F4
100
AcDbEntity
  8
CENTRALA
100
AcDbVertex
100
AcDb3dPolylineVertex
 10
-11.4874
 20
3.811369999999999
 30
0.0
 70
    32
  0
VERTEX
  5
CAB
330
9F4
100
AcDbEntity
  8
CENTRALA
100
AcDbVertex
100
AcDb3dPolylineVertex
 10
-11.4157
 20
3.986219999999999
 30
0.0
 70
    32
  0
VERTEX
  5
CAC
330
9F4
100
AcDbEntity
  8
CENTRALA
100
AcDbVertex
100
AcDb3dPolylineVertex
 10
-11.3465
 20
4.1607
 30
0.0
 70
    32
  0
VERTEX
  5
CAD
330
9F4
100
AcDbEntity
  8
CENTRALA
100
AcDbVertex
100
AcDb3dPolylineVertex
 10
-11.28
 20
4.3348
 30
0.0
 70
    32
  0
VERTEX
  5
CAE
330
9F4
100
AcDbEntity
  8
CENTRALA
100
AcDbVertex
100
AcDb3dPolylineVertex
 10
-11.2163
 20
4.50851
 30
0.0
 70
    32
  0
VERTEX
  5
CAF
330
9F4
100
AcDbEntity
  8
CENTRALA
100
AcDbVertex
100
AcDb3dPolylineVertex
 10
-11.1554
 20
4.68182
 30
0.0
 70
    32
  0
VERTEX
  5
CB0
330
9F4
100
AcDbEntity
  8
CENTRALA
100
AcDbVertex
100
AcDb3dPolylineVertex
 10
-11.0976
 20
4.854729999999999
 30
0.0
 70
    32
  0
VERTEX
  5
CB1
330
9F4
100
AcDbEntity
  8
CENTRALA
100
AcDbVertex
100
AcDb3dPolylineVertex
 10
-11.0429
 20
5.02721
 30
0.0
 70
    32
  0
VERTEX
  5
CB2
330
9F4
100
AcDbEntity
  8
CENTRALA
100
AcDbVertex
100
AcDb3dPolylineVertex
 10
-10.9913
 20
5.19927
 30
0.0
 70
    32
  0
VERTEX
  5
CB3
330
9F4
100
AcDbEntity
  8
CENTRALA
100
AcDbVertex
100
AcDb3dPolylineVertex
 10
-10.9431
 20
5.370879999999997
 30
0.0
 70
    32
  0
VERTEX
  5
CB4
330
9F4
100
AcDbEntity
  8
CENTRALA
100
AcDbVertex
100
AcDb3dPolylineVertex
 10
-10.8982
 20
5.54204
 30
0.0
 70
    32
  0
VERTEX
  5
CB5
330
9F4
100
AcDbEntity
  8
CENTRALA
100
AcDbVertex
100
AcDb3dPolylineVertex
 10
-10.8569
 20
5.71274
 30
0.0
 70
    32
  0
VERTEX
  5
CB6
330
9F4
100
AcDbEntity
  8
CENTRALA
100
AcDbVertex
100
AcDb3dPolylineVertex
 10
-10.8192
 20
5.88297
 30
0.0
 70
    32
  0
VERTEX
  5
CB7
330
9F4
100
AcDbEntity
  8
CENTRALA
100
AcDbVertex
100
AcDb3dPolylineVertex
 10
-10.7852
 20
6.052719999999998
 30
0.0
 70
    32
  0
VERTEX
  5
CB8
330
9F4
100
AcDbEntity
  8
CENTRALA
100
AcDbVertex
100
AcDb3dPolylineVertex
 10
-10.755
 20
6.22198
 30
0.0
 70
    32
  0
VERTEX
  5
CB9
330
9F4
100
AcDbEntity
  8
CENTRALA
100
AcDbVertex
100
AcDb3dPolylineVertex
 10
-10.7287
 20
6.390729999999999
 30
0.0
 70
    32
  0
VERTEX
  5
CBA
330
9F4
100
AcDbEntity
  8
CENTRALA
100
AcDbVertex
100
AcDb3dPolylineVertex
 10
-10.7065
 20
6.558969999999999
 30
0.0
 70
    32
  0
VERTEX
  5
CBB
330
9F4
100
AcDbEntity
  8
CENTRALA
100
AcDbVertex
100
AcDb3dPolylineVertex
 10
-10.6884
 20
6.726689999999999
 30
0.0
 70
    32
  0
VERTEX
  5
CBC
330
9F4
100
AcDbEntity
  8
CENTRALA
100
AcDbVertex
100
AcDb3dPolylineVertex
 10
-10.6745
 20
6.893869999999997
 30
0.0
 70
    32
  0
VERTEX
  5
CBD
330
9F4
100
AcDbEntity
  8
CENTRALA
100
AcDbVertex
100
AcDb3dPolylineVertex
 10
-10.6649
 20
7.060509999999998
 30
0.0
 70
    32
  0
VERTEX
  5
CBE
330
9F4
100
AcDbEntity
  8
CENTRALA
100
AcDbVertex
100
AcDb3dPolylineVertex
 10
-10.6598
 20
7.2266
 30
0.0
 70
    32
  0
VERTEX
  5
CBF
330
9F4
100
AcDbEntity
  8
CENTRALA
100
AcDbVertex
100
AcDb3dPolylineVertex
 10
-10.6593
 20
7.392119999999996
 30
0.0
 70
    32
  0
VERTEX
  5
CC0
330
9F4
100
AcDbEntity
  8
CENTRALA
100
AcDbVertex
100
AcDb3dPolylineVertex
 10
-10.6633
 20
7.557059999999999
 30
0.0
 70
    32
  0
VERTEX
  5
CC1
330
9F4
100
AcDbEntity
  8
CENTRALA
100
AcDbVertex
100
AcDb3dPolylineVertex
 10
-10.6722
 20
7.721419999999998
 30
0.0
 70
    32
  0
VERTEX
  5
CC2
330
9F4
100
AcDbEntity
  8
CENTRALA
100
AcDbVertex
100
AcDb3dPolylineVertex
 10
-10.6858
 20
7.88518
 30
0.0
 70
    32
  0
VERTEX
  5
CC3
330
9F4
100
AcDbEntity
  8
CENTRALA
100
AcDbVertex
100
AcDb3dPolylineVertex
 10
-10.7045
 20
8.048339999999996
 30
0.0
 70
    32
  0
VERTEX
  5
CC4
330
9F4
100
AcDbEntity
  8
CENTRALA
100
AcDbVertex
100
AcDb3dPolylineVertex
 10
-10.7281
 20
8.210869999999998
 30
0.0
 70
    32
  0
VERTEX
  5
CC5
330
9F4
100
AcDbEntity
  8
CENTRALA
100
AcDbVertex
100
AcDb3dPolylineVertex
 10
-10.757
 20
8.37279
 30
0.0
 70
    32
  0
VERTEX
  5
CC6
330
9F4
100
AcDbEntity
  8
CENTRALA
100
AcDbVertex
100
AcDb3dPolylineVertex
 10
-10.7911
 20
8.53406
 30
0.0
 70
    32
  0
VERTEX
  5
CC7
330
9F4
100
AcDbEntity
  8
CENTRALA
100
AcDbVertex
100
AcDb3dPolylineVertex
 10
-10.8306
 20
8.694679999999998
 30
0.0
 70
    32
  0
VERTEX
  5
CC8
330
9F4
100
AcDbEntity
  8
CENTRALA
100
AcDbVertex
100
AcDb3dPolylineVertex
 10
-10.8755
 20
8.854649999999994
 30
0.0
 70
    32
  0
VERTEX
  5
CC9
330
9F4
100
AcDbEntity
  8
CENTRALA
100
AcDbVertex
100
AcDb3dPolylineVertex
 10
-10.9261
 20
9.013949999999999
 30
0.0
 70
    32
  0
VERTEX
  5
CCA
330
9F4
100
AcDbEntity
  8
CENTRALA
100
AcDbVertex
100
AcDb3dPolylineVertex
 10
-10.9823
 20
9.17257
 30
0.0
 70
    32
  0
VERTEX
  5
CCB
330
9F4
100
AcDbEntity
  8
CENTRALA
100
AcDbVertex
100
AcDb3dPolylineVertex
 10
-11.0443
 20
9.3305
 30
0.0
 70
    32
  0
VERTEX
  5
CCC
330
9F4
100
AcDbEntity
  8
CENTRALA
100
AcDbVertex
100
AcDb3dPolylineVertex
 10
-11.1121
 20
9.48773
 30
0.0
 70
    32
  0
VERTEX
  5
CCD
330
9F4
100
AcDbEntity
  8
CENTRALA
100
AcDbVertex
100
AcDb3dPolylineVertex
 10
-11.186
 20
9.644249999999999
 30
0.0
 70
    32
  0
VERTEX
  5
CCE
330
9F4
100
AcDbEntity
  8
CENTRALA
100
AcDbVertex
100
AcDb3dPolylineVertex
 10
-11.266
 20
9.80005
 30
0.0
 70
    32
  0
VERTEX
  5
CCF
330
9F4
100
AcDbEntity
  8
CENTRALA
100
AcDbVertex
100
AcDb3dPolylineVertex
 10
-11.3521
 20
9.955109999999999
 30
0.0
 70
    32
  0
VERTEX
  5
CD0
330
9F4
100
AcDbEntity
  8
CENTRALA
100
AcDbVertex
100
AcDb3dPolylineVertex
 10
-11.4446
 20
10.1094
 30
0.0
 70
    32
  0
VERTEX
  5
CD1
330
9F4
100
AcDbEntity
  8
CENTRALA
100
AcDbVertex
100
AcDb3dPolylineVertex
 10
-11.5434
 20
10.263
 30
0.0
 70
    32
  0
VERTEX
  5
CD2
330
9F4
100
AcDbEntity
  8
CENTRALA
100
AcDbVertex
100
AcDb3dPolylineVertex
 10
-11.6488
 20
10.4158
 30
0.0
 70
    32
  0
VERTEX
  5
CD3
330
9F4
100
AcDbEntity
  8
CENTRALA
100
AcDbVertex
100
AcDb3dPolylineVertex
 10
-11.7607
 20
10.5679
 30
0.0
 70
    32
  0
VERTEX
  5
CD4
330
9F4
100
AcDbEntity
  8
CENTRALA
100
AcDbVertex
100
AcDb3dPolylineVertex
 10
-11.8794
 20
10.7191
 30
0.0
 70
    32
  0
VERTEX
  5
CD5
330
9F4
100
AcDbEntity
  8
CENTRALA
100
AcDbVertex
100
AcDb3dPolylineVertex
 10
-12.0048
 20
10.8696
 30
0.0
 70
    32
  0
VERTEX
  5
CD6
330
9F4
100
AcDbEntity
  8
CENTRALA
100
AcDbVertex
100
AcDb3dPolylineVertex
 10
-12.1367
 20
11.0193
 30
0.0
 70
    32
  0
VERTEX
  5
CD7
330
9F4
100
AcDbEntity
  8
CENTRALA
100
AcDbVertex
100
AcDb3dPolylineVertex
 10
-12.2746
 20
11.1682
 30
0.0
 70
    32
  0
VERTEX
  5
CD8
330
9F4
100
AcDbEntity
  8
CENTRALA
100
AcDbVertex
100
AcDb3dPolylineVertex
 10
-12.4181
 20
11.3165
 30
0.0
 70
    32
  0
VERTEX
  5
CD9
330
9F4
100
AcDbEntity
  8
CENTRALA
100
AcDbVertex
100
AcDb3dPolylineVertex
 10
-12.5668
 20
11.464
 30
0.0
 70
    32
  0
VERTEX
  5
CDA
330
9F4
100
AcDbEntity
  8
CENTRALA
100
AcDbVertex
100
AcDb3dPolylineVertex
 10
-12.7203
 20
11.6108
 30
0.0
 70
    32
  0
VERTEX
  5
CDB
330
9F4
100
AcDbEntity
  8
CENTRALA
100
AcDbVertex
100
AcDb3dPolylineVertex
 10
-12.8781
 20
11.757
 30
0.0
 70
    32
  0
VERTEX
  5
CDC
330
9F4
100
AcDbEntity
  8
CENTRALA
100
AcDbVertex
100
AcDb3dPolylineVertex
 10
-13.0399
 20
11.9026
 30
0.0
 70
    32
  0
VERTEX
  5
CDD
330
9F4
100
AcDbEntity
  8
CENTRALA
100
AcDbVertex
100
AcDb3dPolylineVertex
 10
-13.2051
 20
12.0476
 30
0.0
 70
    32
  0
VERTEX
  5
CDE
330
9F4
100
AcDbEntity
  8
CENTRALA
100
AcDbVertex
100
AcDb3dPolylineVertex
 10
-13.3734
 20
12.192
 30
0.0
 70
    32
  0
VERTEX
  5
CDF
330
9F4
100
AcDbEntity
  8
CENTRALA
100
AcDbVertex
100
AcDb3dPolylineVertex
 10
-13.5444
 20
12.3359
 30
0.0
 70
    32
  0
VERTEX
  5
CE0
330
9F4
100
AcDbEntity
  8
CENTRALA
100
AcDbVertex
100
AcDb3dPolylineVertex
 10
-13.7175
 20
12.4792
 30
0.0
 70
    32
  0
VERTEX
  5
CE1
330
9F4
100
AcDbEntity
  8
CENTRALA
100
AcDbVertex
100
AcDb3dPolylineVertex
 10
-13.8925
 20
12.6221
 30
0.0
 70
    32
  0
VERTEX
  5
CE2
330
9F4
100
AcDbEntity
  8
CENTRALA
100
AcDbVertex
100
AcDb3dPolylineVertex
 10
-14.0689
 20
12.7644
 30
0.0
 70
    32
  0
VERTEX
  5
CE3
330
9F4
100
AcDbEntity
  8
CENTRALA
100
AcDbVertex
100
AcDb3dPolylineVertex
 10
-14.2463
 20
12.9064
 30
0.0
 70
    32
  0
VERTEX
  5
CE4
330
9F4
100
AcDbEntity
  8
CENTRALA
100
AcDbVertex
100
AcDb3dPolylineVertex
 10
-14.4242
 20
13.0479
 30
0.0
 70
    32
  0
VERTEX
  5
CE5
330
9F4
100
AcDbEntity
  8
CENTRALA
100
AcDbVertex
100
AcDb3dPolylineVertex
 10
-14.6022
 20
13.1889
 30
0.0
 70
    32
  0
VERTEX
  5
CE6
330
9F4
100
AcDbEntity
  8
CENTRALA
100
AcDbVertex
100
AcDb3dPolylineVertex
 10
-14.7799
 20
13.3297
 30
0.0
 70
    32
  0
VERTEX
  5
CE7
330
9F4
100
AcDbEntity
  8
CENTRALA
100
AcDbVertex
100
AcDb3dPolylineVertex
 10
-14.9569
 20
13.47
 30
0.0
 70
    32
  0
VERTEX
  5
CE8
330
9F4
100
AcDbEntity
  8
CENTRALA
100
AcDbVertex
100
AcDb3dPolylineVertex
 10
-15.1328
 20
13.6101
 30
0.0
 70
    32
  0
VERTEX
  5
CE9
330
9F4
100
AcDbEntity
  8
CENTRALA
100
AcDbVertex
100
AcDb3dPolylineVertex
 10
-15.307
 20
13.7499
 30
0.0
 70
    32
  0
VERTEX
  5
CEA
330
9F4
100
AcDbEntity
  8
CENTRALA
100
AcDbVertex
100
AcDb3dPolylineVertex
 10
-15.4793
 20
13.8893
 30
0.0
 70
    32
  0
VERTEX
  5
CEB
330
9F4
100
AcDbEntity
  8
CENTRALA
100
AcDbVertex
100
AcDb3dPolylineVertex
 10
-15.6492
 20
14.0286
 30
0.0
 70
    32
  0
VERTEX
  5
CEC
330
9F4
100
AcDbEntity
  8
CENTRALA
100
AcDbVertex
100
AcDb3dPolylineVertex
 10
-15.8163
 20
14.1676
 30
0.0
 70
    32
  0
VERTEX
  5
CED
330
9F4
100
AcDbEntity
  8
CENTRALA
100
AcDbVertex
100
AcDb3dPolylineVertex
 10
-15.9801
 20
14.3064
 30
0.0
 70
    32
  0
VERTEX
  5
CEE
330
9F4
100
AcDbEntity
  8
CENTRALA
100
AcDbVertex
100
AcDb3dPolylineVertex
 10
-16.1402
 20
14.445
 30
0.0
 70
    32
  0
VERTEX
  5
CEF
330
9F4
100
AcDbEntity
  8
CENTRALA
100
AcDbVertex
100
AcDb3dPolylineVertex
 10
-16.2962
 20
14.5835
 30
0.0
 70
    32
  0
VERTEX
  5
CF0
330
9F4
100
AcDbEntity
  8
CENTRALA
100
AcDbVertex
100
AcDb3dPolylineVertex
 10
-16.4477
 20
14.7218
 30
0.0
 70
    32
  0
VERTEX
  5
CF1
330
9F4
100
AcDbEntity
  8
CENTRALA
100
AcDbVertex
100
AcDb3dPolylineVertex
 10
-16.5942
 20
14.8601
 30
0.0
 70
    32
  0
VERTEX
  5
CF2
330
9F4
100
AcDbEntity
  8
CENTRALA
100
AcDbVertex
100
AcDb3dPolylineVertex
 10
-16.7354
 20
14.9983
 30
0.0
 70
    32
  0
VERTEX
  5
CF3
330
9F4
100
AcDbEntity
  8
CENTRALA
100
AcDbVertex
100
AcDb3dPolylineVertex
 10
-16.8708
 20
15.1364
 30
0.0
 70
    32
  0
VERTEX
  5
CF4
330
9F4
100
AcDbEntity
  8
CENTRALA
100
AcDbVertex
100
AcDb3dPolylineVertex
 10
-17.0
 20
15.2745
 30
0.0
 70
    32
  0
SEQEND
  5
CF5
330
9F4
100
AcDbEntity
  8
CENTRALA
  0
CIRCLE
  5
CF6
330
9F2
100
AcDbEntity
  8
CENTRALA
100
AcDbCircle
 10
0.0
 20
0.0
 30
0.0
 40
8.0
1001
ACDBBLOCKREPETAG
1070
     1
1071
        1
1005
CF6
  0
ENDBLK
  5
CF7
330
9F2
100
AcDbEntity
  8
0
100
AcDbBlockEnd
  0
BLOCK
  5
F5D
330
F5B
100
AcDbEntity
  8
0
100
AcDbBlockBegin
  2
*U62
 70
     1
 10
0.0
 20
0.0
 30
0.0
  3
*U62
  1

  0
LINE
  5
F5F
330
F5B
100
AcDbEntity
  8
Cenrala
100
AcDbLine
 10
-129.3732280150329
 20
2473.978107650602
 30
0.0
 11
-129.3732280150329
 21
1533.978107650602
 31
0.0
1001
ACDBBLOCKREPETAG
1070
     1
1071
        0
1005
F5F
  0
LINE
  5
F60
330
F5B
100
AcDbEntity
  8
Cenrala
100
AcDbLine
 10
-1329.373228015033
 20
1533.978107650602
 30
0.0
 11
-1329.373228015033
 21
2503.978106674996
 31
0.0
1001
ACDBBLOCKREPETAG
1070
     1
1071
        1
1005
F60
  0
LINE
  5
F61
330
F5B
100
AcDbEntity
  8
Cenrala
100
AcDbLine
 10
-1329.373228015033
 20
1503.978107650602
 30
0.0
 11
-1329.373228015033
 21
1533.978107650602
 31
0.0
1001
ACDBBLOCKREPETAG
1070
     1
1071
        2
1005
F61
  0
LINE
  5
F62
330
F5B
100
AcDbEntity
  8
Cenrala
100
AcDbLine
 10
-129.3732280150329
 20
1503.978107650602
 30
0.0
 11
-1329.373228015033
 21
1503.978107650602
 31
0.0
1001
ACDBBLOCKREPETAG
1070
     1
1071
        3
1005
F62
  0
LINE
  5
F63
330
F5B
100
AcDbEntity
  8
Cenrala
100
AcDbLine
 10
-129.3732280150329
 20
1533.978107650602
 30
0.0
 11
-129.3732280150329
 21
1503.978107650602
 31
0.0
1001
ACDBBLOCKREPETAG
1070
     1
1071
        4
1005
F63
  0
LINE
  5
F64
330
F5B
100
AcDbEntity
  8
Cenrala
100
AcDbLine
 10
-129.3732347760838
 20
2503.978106674996
 30
0.0
 11
-129.3732347760838
 21
2473.978106674997
 31
0.0
1001
ACDBBLOCKREPETAG
1070
     1
1071
        5
1005
F64
  0
LINE
  5
F65
330
F5B
100
AcDbEntity
  8
Cenrala
100
AcDbLine
 10
-1329.373234776084
 20
2503.978106674996
 30
0.0
 11
-129.3732347760838
 21
2503.978106674996
 31
0.0
1001
ACDBBLOCKREPETAG
1070
     1
1071
        6
1005
F65
  0
CIRCLE
  5
F66
330
F5B
100
AcDbEntity
  8
Cenrala
100
AcDbCircle
 10
-149.3732280150329
 20
1526.978107650602
 30
0.0
 40
8.0
1001
ACDBBLOCKREPETAG
1070
     1
1071
        7
1005
F66
  0
CIRCLE
  5
F67
330
F5B
100
AcDbEntity
  8
Cenrala
100
AcDbCircle
 10
-149.3732280150329
 20
1526.978107650602
 30
0.0
 40
10.0
1001
ACDBBLOCKREPETAG
1070
     1
1071
        8
1005
F67
  0
LWPOLYLINE
  5
F68
330
F5B
100
AcDbEntity
  8
Cenrala
100
AcDbPolyline
 90
        4
 70
     1
 43
0.0
 10
-1331.373228015033
 20
2433.978107650601
 10
-1341.373228015033
 20
2433.978107650601
 10
-1341.373228015033
 20
1633.978107650602
 10
-1331.373228015033
 20
1633.978107650602
1001
ACDBBLOCKREPETAG
1070
     1
1071
        9
1005
F68
  0
LWPOLYLINE
  5
F69
330
F5B
100
AcDbEntity
  8
Cenrala
100
AcDbPolyline
 90
        2
 70
     0
 43
0.0
 10
-735.3732280150328
 20
2043.978106674996
 10
-735.3732280150328
 20
2443.978106674996
1001
ACDBBLOCKREPETAG
1070
     1
1071
       10
1005
F69
  0
LWPOLYLINE
  5
F6A
330
F5B
100
AcDbEntity
  8
Cenrala
100
AcDbPolyline
 90
        2
 70
     0
 43
0.0
 10
-723.3732280150331
 20
2043.978106674996
 10
-723.3732280150331
 20
2443.978106674996
1001
ACDBBLOCKREPETAG
1070
     1
1071
       11
1005
F6A
  0
LWPOLYLINE
  5
F6B
330
F5B
100
AcDbEntity
  8
Cenrala
100
AcDbPolyline
 90
        4
 70
     1
 43
0.0
 10
-329.3732280150329
 20
1955.978107650602
 10
-1129.373228015033
 20
1955.978107650602
 10
-1129.373228015033
 20
1555.978107650603
 10
-329.3732280150329
 20
1555.978107650603
1001
ACDBBLOCKREPETAG
1070
     1
1071
       12
1005
F6B
  0
LWPOLYLINE
  5
F6C
330
F5B
100
AcDbEntity
  8
Cenrala
100
AcDbPolyline
 90
        4
 70
     1
 43
0.0
 10
-309.3732280150329
 20
1975.978107650601
 10
-1149.373228015033
 20
1975.978107650601
 10
-1149.373228015033
 20
1535.978107650603
 10
-309.3732280150329
 20
1535.978107650603
1001
ACDBBLOCKREPETAG
1070
     1
1071
       13
1005
F6C
  0
LWPOLYLINE
  5
F6D
330
F5B
100
AcDbEntity
  8
Cenrala
100
AcDbPolyline
 90
        4
 70
     1
 43
0.0
 10
-309.3732280150329
 20
2463.978106674996
 10
-1149.373228015033
 20
2463.978106674996
 10
-1149.373228015033
 20
2023.978106674996
 10
-309.3732280150329
 20
2023.978106674996
1001
ACDBBLOCKREPETAG
1070
     1
1071
       14
1005
F6D
  0
LWPOLYLINE
  5
F6E
330
F5B
100
AcDbEntity
  8
Cenrala
100
AcDbPolyline
 90
        4
 70
     1
 43
0.0
 10
-329.3732280150329
 20
2443.978106674996
 10
-1129.373228015033
 20
2443.978106674996
 10
-1129.373228015033
 20
2043.978106674996
 10
-329.3732280150329
 20
2043.978106674996
1001
ACDBBLOCKREPETAG
1070
     1
1071
       15
1005
F6E
  0
LWPOLYLINE
  5
F6F
330
F5B
100
AcDbEntity
  8
Cenrala
100
AcDbPolyline
 90
        2
 70
     0
 43
0.0
 10
-735.3732280150328
 20
1555.978107650602
 10
-735.3732280150328
 20
1955.978107650602
1001
ACDBBLOCKREPETAG
1070
     1
1071
       16
1005
F6F
  0
LWPOLYLINE
  5
F70
330
F5B
100
AcDbEntity
  8
Cenrala
100
AcDbPolyline
 90
        2
 70
     0
 43
0.0
 10
-723.3732280150331
 20
1555.978107650602
 10
-723.3732280150331
 20
1955.978107650602
1001
ACDBBLOCKREPETAG
1070
     1
1071
       17
1005
F70
  0
LWPOLYLINE
  5
F71
330
F5B
100
AcDbEntity
  8
0
100
AcDbPolyline
 90
        4
 70
     1
 43
0.0
 10
-1324.373228015033
 20
1503.978107650602
 10
-1234.373228015033
 20
1503.978107650602
 10
-1234.373228015033
 20
1483.978107650602
 10
-1324.373228015033
 20
1483.978107650602
1001
ACDBBLOCKREPETAG
1070
     1
1071
       18
1005
F71
  0
LWPOLYLINE
  5
F72
330
F5B
100
AcDbEntity
  8
0
100
AcDbPolyline
 90
        4
 70
     1
 43
0.0
 10
-224.373228015033
 20
1503.978107650602
 10
-134.3732280150329
 20
1503.978107650602
 10
-134.3732280150329
 20
1483.978107650602
 10
-224.373228015033
 20
1483.978107650602
1001
ACDBBLOCKREPETAG
1070
     1
1071
       19
1005
F72
  0
ENDBLK
  5
F5E
330
F5B
100
AcDbEntity
  8
0
100
AcDbBlockEnd
  0
BLOCK
  5
F9C
330
F9B
100
AcDbEntity
  8
0
100
AcDbBlockBegin
  2
*D64
 70
     1
 10
0.0
 20
0.0
 30
0.0
  3
*D64
  1

  0
LINE
  5
FA8
330
F9B
100
AcDbEntity
  8
wymiary
 62
     0
100
AcDbLine
 10
323.7994656434604
 20
2511.978107650602
 30
0.0
 11
323.7994656434604
 21
2575.485430121526
 31
0.0
  0
LINE
  5
FA9
330
F9B
100
AcDbEntity
  8
wymiary
 62
     0
100
AcDbLine
 10
1543.79946564346
 20
2511.978107650602
 30
0.0
 11
1543.79946564346
 21
2575.485430121526
 31
0.0
  0
LINE
  5
FAA
330
F9B
100
AcDbEntity
  8
wymiary
 62
     0
370
    -2
100
AcDbLine
 10
358.7994656434604
 20
2567.485430121525
 30
0.0
 11
1508.79946564346
 21
2567.485430121525
 31
0.0
  0
SOLID
  5
FAB
330
F9B
100
AcDbEntity
  8
wymiary
 62
     0
100
AcDbTrace
 10
358.7994656434604
 20
2573.318763454859
 30
0.0
 11
358.7994656434604
 21
2561.652096788192
 31
0.0
 12
323.7994656434604
 22
2567.485430121525
 32
0.0
 13
323.7994656434604
 23
2567.485430121525
 33
0.0
  0
SOLID
  5
FAC
330
F9B
100
AcDbEntity
  8
wymiary
 62
     0
100
AcDbTrace
 10
1508.79946564346
 20
2573.318763454859
 30
0.0
 11
1508.79946564346
 21
2561.652096788192
 31
0.0
 12
1543.79946564346
 22
2567.485430121525
 32
0.0
 13
1543.79946564346
 23
2567.485430121525
 33
0.0
  0
MTEXT
  5
FAD
330
F9B
100
AcDbEntity
  8
wymiary
 62
     0
100
AcDbMText
 10
933.7994656434602
 20
2594.985430121525
 30
0.0
 40
35.0
 41
0.0
 46
0.0
 71
     5
 72
     1
  1
1220
 73
     1
 44
1.0
  0
POINT
  5
FAE
330
F9B
100
AcDbEntity
  8
Defpoints
 62
     0
100
AcDbPoint
 10
323.7994656434604
 20
2503.978107650602
 30
0.0
  0
POINT
  5
FAF
330
F9B
100
AcDbEntity
  8
Defpoints
 62
     0
100
AcDbPoint
 10
1543.79946564346
 20
2503.978107650602
 30
0.0
  0
POINT
  5
FB0
330
F9B
100
AcDbEntity
  8
Defpoints
 62
     0
100
AcDbPoint
 10
1543.79946564346
 20
2567.485430121525
 30
0.0
  0
ENDBLK
  5
F9D
330
F9B
100
AcDbEntity
  8
0
100
AcDbBlockEnd
  0
BLOCK
  5
FB4
330
FB3
100
AcDbEntity
  8
0
100
AcDbBlockBegin
  2
*D65
 70
     1
 10
0.0
 20
0.0
 30
0.0
  3
*D65
  1

  0
LINE
  5
FC0
330
FB3
100
AcDbEntity
  8
wymiary
 62
     0
100
AcDbLine
 10
315.7994656434604
 20
1503.978107650601
 30
0.0
 11
154.6581981849078
 21
1503.978107650601
 31
0.0
  0
LINE
  5
FC1
330
FB3
100
AcDbEntity
  8
wymiary
 62
     0
100
AcDbLine
 10
315.7994656434604
 20
2503.978107650602
 30
0.0
 11
154.6581981849081
 21
2503.978107650602
 31
0.0
  0
LINE
  5
FC2
330
FB3
100
AcDbEntity
  8
wymiary
 62
     0
370
    -2
100
AcDbLine
 10
162.6581981849078
 20
1538.978107650601
 30
0.0
 11
162.658198184908
 21
2468.978107650602
 31
0.0
  0
SOLID
  5
FC3
330
FB3
100
AcDbEntity
  8
wymiary
 62
     0
100
AcDbTrace
 10
156.8248648515745
 20
1538.978107650601
 30
0.0
 11
168.4915315182412
 21
1538.978107650601
 31
0.0
 12
162.6581981849078
 22
1503.978107650601
 32
0.0
 13
162.6581981849078
 23
1503.978107650601
 33
0.0
  0
SOLID
  5
FC4
330
FB3
100
AcDbEntity
  8
wymiary
 62
     0
100
AcDbTrace
 10
156.8248648515747
 20
2468.978107650602
 30
0.0
 11
168.4915315182414
 21
2468.978107650602
 31
0.0
 12
162.6581981849081
 22
2503.978107650602
 32
0.0
 13
162.6581981849081
 23
2503.978107650602
 33
0.0
  0
MTEXT
  5
FC5
330
FB3
100
AcDbEntity
  8
wymiary
 62
     0
100
AcDbMText
 10
135.1581981849076
 20
2003.978107650601
 30
0.0
 40
35.0
 41
0.0
 46
0.0
 71
     5
 72
     1
  1
1000
 11
0.0000000000000001
 21
1.0
 31
0.0
 73
     1
 44
1.0
  0
POINT
  5
FC6
330
FB3
100
AcDbEntity
  8
Defpoints
 62
     0
100
AcDbPoint
 10
323.7994656434604
 20
1503.978107650601
 30
0.0
  0
POINT
  5
FC7
330
FB3
100
AcDbEntity
  8
Defpoints
 62
     0
100
AcDbPoint
 10
323.7994656434604
 20
2503.978107650602
 30
0.0
  0
POINT
  5
FC8
330
FB3
100
AcDbEntity
  8
Defpoints
 62
     0
100
AcDbPoint
 10
162.6581981849081
 20
2503.978107650602
 30
0.0
  0
ENDBLK
  5
FB5
330
FB3
100
AcDbEntity
  8
0
100
AcDbBlockEnd
  0
BLOCK
  5
FCC
330
FCB
100
AcDbEntity
  8
0
100
AcDbBlockBegin
  2
*D66
 70
     1
 10
0.0
 20
0.0
 30
0.0
  3
*D66
  1

  0
LINE
  5
1177
330
FCB
100
AcDbEntity
  8
wymiary
 62
     0
100
AcDbLine
 10
2096.972152540903
 20
2511.978106674997
 30
0.0
 11
2096.972152540903
 21
2575.472425975166
 31
0.0
  0
LINE
  5
1178
330
FCB
100
AcDbEntity
  8
wymiary
 62
     0
100
AcDbLine
 10
3296.972152540903
 20
2511.978106674997
 30
0.0
 11
3296.972152540903
 21
2575.472425975166
 31
0.0
  0
LINE
  5
1179
330
FCB
100
AcDbEntity
  8
wymiary
 62
     0
370
    -2
100
AcDbLine
 10
2131.972152540902
 20
2567.472425975166
 30
0.0
 11
3261.972152540903
 21
2567.472425975166
 31
0.0
  0
SOLID
  5
117A
330
FCB
100
AcDbEntity
  8
wymiary
 62
     0
100
AcDbTrace
 10
2131.972152540902
 20
2573.3057593085
 30
0.0
 11
2131.972152540902
 21
2561.639092641832
 31
0.0
 12
2096.972152540903
 22
2567.472425975166
 32
0.0
 13
2096.972152540903
 23
2567.472425975166
 33
0.0
  0
SOLID
  5
117B
330
FCB
100
AcDbEntity
  8
wymiary
 62
     0
100
AcDbTrace
 10
3261.972152540903
 20
2573.3057593085
 30
0.0
 11
3261.972152540903
 21
2561.639092641832
 31
0.0
 12
3296.972152540903
 22
2567.472425975166
 32
0.0
 13
3296.972152540903
 23
2567.472425975166
 33
0.0
  0
MTEXT
  5
117C
330
FCB
100
AcDbEntity
  8
wymiary
 62
     0
100
AcDbMText
 10
2696.972152540903
 20
2594.972425975166
 30
0.0
 40
35.0
 41
0.0
 46
0.0
 71
     5
 72
     1
  1
1200
 73
     1
 44
1.0
  0
POINT
  5
117D
330
FCB
100
AcDbEntity
  8
Defpoints
 62
     0
100
AcDbPoint
 10
2096.972152540903
 20
2503.978106674997
 30
0.0
  0
POINT
  5
117E
330
FCB
100
AcDbEntity
  8
Defpoints
 62
     0
100
AcDbPoint
 10
3296.972152540903
 20
2503.978106674997
 30
0.0
  0
POINT
  5
117F
330
FCB
100
AcDbEntity
  8
Defpoints
 62
     0
100
AcDbPoint
 10
3296.972152540903
 20
2567.472425975166
 30
0.0
  0
ENDBLK
  5
FCD
330
FCB
100
AcDbEntity
  8
0
100
AcDbBlockEnd
  0
BLOCK
  5
FE4
330
FE3
100
AcDbEntity
  8
0
100
AcDbBlockBegin
  2
*D67
 70
     1
 10
0.0
 20
0.0
 30
0.0
  3
*D67
  1

  0
LINE
  5
1093
330
FE3
100
AcDbEntity
  8
wymiary
 62
     0
100
AcDbLine
 10
-1237.373228015033
 20
1555.978107650603
 30
0.0
 11
-1319.40439407448
 21
1555.978107650603
 31
0.0
  0
LINE
  5
1094
330
FE3
100
AcDbEntity
  8
wymiary
 62
     0
100
AcDbLine
 10
-1237.373228015033
 20
1955.978107650602
 30
0.0
 11
-1319.40439407448
 21
1955.978107650602
 31
0.0
  0
LINE
  5
1095
330
FE3
100
AcDbEntity
  8
wymiary
 62
     0
370
    -2
100
AcDbLine
 10
-1311.40439407448
 20
1590.978107650603
 30
0.0
 11
-1311.40439407448
 21
1920.978107650601
 31
0.0
  0
SOLID
  5
1096
330
FE3
100
AcDbEntity
  8
wymiary
 62
     0
100
AcDbTrace
 10
-1317.237727407813
 20
1590.978107650603
 30
0.0
 11
-1305.571060741147
 21
1590.978107650603
 31
0.0
 12
-1311.40439407448
 22
1555.978107650603
 32
0.0
 13
-1311.40439407448
 23
1555.978107650603
 33
0.0
  0
SOLID
  5
1097
330
FE3
100
AcDbEntity
  8
wymiary
 62
     0
100
AcDbTrace
 10
-1317.237727407813
 20
1920.978107650601
 30
0.0
 11
-1305.571060741147
 21
1920.978107650601
 31
0.0
 12
-1311.40439407448
 22
1955.978107650602
 32
0.0
 13
-1311.40439407448
 23
1955.978107650602
 33
0.0
  0
MTEXT
  5
1098
330
FE3
100
AcDbEntity
  8
wymiary
 62
     0
100
AcDbMText
 10
-1338.90439407448
 20
1755.978107650602
 30
0.0
 40
35.0
 41
0.0
 46
0.0
 71
     5
 72
     1
  1
400
 11
0.0000000000000001
 21
1.0
 31
0.0
 73
     1
 44
1.0
  0
POINT
  5
1099
330
FE3
100
AcDbEntity
  8
Defpoints
 62
     0
100
AcDbPoint
 10
-1229.373228015033
 20
1555.978107650603
 30
0.0
  0
POINT
  5
109A
330
FE3
100
AcDbEntity
  8
Defpoints
 62
     0
100
AcDbPoint
 10
-1229.373228015033
 20
1955.978107650602
 30
0.0
  0
POINT
  5
109B
330
FE3
100
AcDbEntity
  8
Defpoints
 62
     0
100
AcDbPoint
 10
-1311.40439407448
 20
1955.978107650602
 30
0.0
  0
ENDBLK
  5
FE5
330
FE3
100
AcDbEntity
  8
0
100
AcDbBlockEnd
  0
BLOCK
  5
FFC
330
FFB
100
AcDbEntity
  8
0
100
AcDbBlockBegin
  2
*D68
 70
     1
 10
0.0
 20
0.0
 30
0.0
  3
*D68
  1

  0
LINE
  5
109C
330
FFB
100
AcDbEntity
  8
wymiary
 62
     0
100
AcDbLine
 10
-1229.373228015033
 20
1547.978107650603
 30
0.0
 11
-1229.373228015033
 21
1442.196694141787
 31
0.0
  0
LINE
  5
109D
330
FFB
100
AcDbEntity
  8
wymiary
 62
     0
100
AcDbLine
 10
-429.3732280150329
 20
1547.978107650603
 30
0.0
 11
-429.3732280150329
 21
1442.196694141787
 31
0.0
  0
LINE
  5
109E
330
FFB
100
AcDbEntity
  8
wymiary
 62
     0
370
    -2
100
AcDbLine
 10
-1194.373228015033
 20
1450.196694141787
 30
0.0
 11
-464.3732280150329
 21
1450.196694141787
 31
0.0
  0
SOLID
  5
109F
330
FFB
100
AcDbEntity
  8
wymiary
 62
     0
100
AcDbTrace
 10
-1194.373228015033
 20
1456.03002747512
 30
0.0
 11
-1194.373228015033
 21
1444.363360808454
 31
0.0
 12
-1229.373228015033
 22
1450.196694141787
 32
0.0
 13
-1229.373228015033
 23
1450.196694141787
 33
0.0
  0
SOLID
  5
10A0
330
FFB
100
AcDbEntity
  8
wymiary
 62
     0
100
AcDbTrace
 10
-464.3732280150329
 20
1456.03002747512
 30
0.0
 11
-464.3732280150329
 21
1444.363360808454
 31
0.0
 12
-429.3732280150329
 22
1450.196694141787
 32
0.0
 13
-429.3732280150329
 23
1450.196694141787
 33
0.0
  0
MTEXT
  5
10A1
330
FFB
100
AcDbEntity
  8
wymiary
 62
     0
100
AcDbMText
 10
-829.3732280150329
 20
1477.696694141787
 30
0.0
 40
35.0
 41
0.0
 46
0.0
 71
     5
 72
     1
  1
800
 73
     1
 44
1.0
  0
POINT
  5
10A2
330
FFB
100
AcDbEntity
  8
Defpoints
 62
     0
100
AcDbPoint
 10
-1229.373228015033
 20
1555.978107650603
 30
0.0
  0
POINT
  5
10A3
330
FFB
100
AcDbEntity
  8
Defpoints
 62
     0
100
AcDbPoint
 10
-429.3732280150329
 20
1555.978107650603
 30
0.0
  0
POINT
  5
10A4
330
FFB
100
AcDbEntity
  8
Defpoints
 62
     0
100
AcDbPoint
 10
-429.3732280150329
 20
1450.196694141787
 30
0.0
  0
ENDBLK
  5
FFD
330
FFB
100
AcDbEntity
  8
0
100
AcDbBlockEnd
  0
BLOCK
  5
1014
330
1013
100
AcDbEntity
  8
0
100
AcDbBlockBegin
  2
*D69
 70
     1
 10
0.0
 20
0.0
 30
0.0
  3
*D69
  1

  0
LINE
  5
10B7
330
1013
100
AcDbEntity
  8
wymiary
 62
     0
100
AcDbLine
 10
-221.3732280150329
 20
2243.978106674996
 30
0.0
 11
-149.9903615725544
 21
2243.978106674996
 31
0.0
  0
LINE
  5
10B8
330
1013
100
AcDbEntity
  8
wymiary
 62
     0
100
AcDbLine
 10
-221.3732347760838
 20
2503.978106674996
 30
0.0
 11
-149.9903615725543
 21
2503.978106674996
 31
0.0
  0
LINE
  5
10B9
330
1013
100
AcDbEntity
  8
wymiary
 62
     0
370
    -2
100
AcDbLine
 10
-157.9903615725543
 20
2278.978106674996
 30
0.0
 11
-157.9903615725543
 21
2468.978106674996
 31
0.0
  0
SOLID
  5
10BA
330
1013
100
AcDbEntity
  8
wymiary
 62
     0
100
AcDbTrace
 10
-163.8236949058877
 20
2278.978106674996
 30
0.0
 11
-152.157028239221
 21
2278.978106674996
 31
0.0
 12
-157.9903615725543
 22
2243.978106674996
 32
0.0
 13
-157.9903615725543
 23
2243.978106674996
 33
0.0
  0
SOLID
  5
10BB
330
1013
100
AcDbEntity
  8
wymiary
 62
     0
100
AcDbTrace
 10
-163.8236949058877
 20
2468.978106674996
 30
0.0
 11
-152.157028239221
 21
2468.978106674996
 31
0.0
 12
-157.9903615725543
 22
2503.978106674996
 32
0.0
 13
-157.9903615725543
 23
2503.978106674996
 33
0.0
  0
MTEXT
  5
10BC
330
1013
100
AcDbEntity
  8
wymiary
 62
     0
100
AcDbMText
 10
-185.4903615725547
 20
2373.978106674996
 30
0.0
 40
35.0
 41
0.0
 46
0.0
 71
     5
 72
     1
  1
260
 11
0.0000000000000001
 21
1.0
 31
0.0
 73
     1
 44
1.0
  0
POINT
  5
10BD
330
1013
100
AcDbEntity
  8
Defpoints
 62
     0
100
AcDbPoint
 10
-229.3732280150329
 20
2243.978106674996
 30
0.0
  0
POINT
  5
10BE
330
1013
100
AcDbEntity
  8
Defpoints
 62
     0
100
AcDbPoint
 10
-229.3732347760838
 20
2503.978106674996
 30
0.0
  0
POINT
  5
10BF
330
1013
100
AcDbEntity
  8
Defpoints
 62
     0
100
AcDbPoint
 10
-157.9903615725543
 20
2503.978106674996
 30
0.0
  0
ENDBLK
  5
1015
330
1013
100
AcDbEntity
  8
0
100
AcDbBlockEnd
  0
BLOCK
  5
1047
330
1046
100
AcDbEntity
  8
0
100
AcDbBlockBegin
  2
*D70
 70
     1
 10
0.0
 20
0.0
 30
0.0
  3
*D70
  1

  0
LINE
  5
10C0
330
1046
100
AcDbEntity
  8
wymiary
 62
     0
100
AcDbLine
 10
-221.3732280150329
 20
1755.978107650602
 30
0.0
 11
-149.9903615725543
 21
1755.978107650602
 31
0.0
  0
LINE
  5
10C1
330
1046
100
AcDbEntity
  8
wymiary
 62
     0
100
AcDbLine
 10
-221.3732280150329
 20
1503.978107650602
 30
0.0
 11
-149.9903615725543
 21
1503.978107650602
 31
0.0
  0
LINE
  5
10C2
330
1046
100
AcDbEntity
  8
wymiary
 62
     0
370
    -2
100
AcDbLine
 10
-157.9903615725543
 20
1720.978107650602
 30
0.0
 11
-157.9903615725543
 21
1538.978107650602
 31
0.0
  0
SOLID
  5
10C3
330
1046
100
AcDbEntity
  8
wymiary
 62
     0
100
AcDbTrace
 10
-163.8236949058876
 20
1720.978107650602
 30
0.0
 11
-152.1570282392209
 21
1720.978107650602
 31
0.0
 12
-157.9903615725542
 22
1755.978107650602
 32
0.0
 13
-157.9903615725542
 23
1755.978107650602
 33
0.0
  0
SOLID
  5
10C4
330
1046
100
AcDbEntity
  8
wymiary
 62
     0
100
AcDbTrace
 10
-163.8236949058876
 20
1538.978107650602
 30
0.0
 11
-152.1570282392209
 21
1538.978107650602
 31
0.0
 12
-157.9903615725543
 22
1503.978107650602
 32
0.0
 13
-157.9903615725543
 23
1503.978107650602
 33
0.0
  0
MTEXT
  5
10C5
330
1046
100
AcDbEntity
  8
wymiary
 62
     0
100
AcDbMText
 10
-185.4903615725545
 20
1629.978107650602
 30
0.0
 40
35.0
 41
0.0
 46
0.0
 71
     5
 72
     1
  1
252
 11
0.0000000000000001
 21
1.0
 31
0.0
 73
     1
 44
1.0
  0
POINT
  5
10C6
330
1046
100
AcDbEntity
  8
Defpoints
 62
     0
100
AcDbPoint
 10
-229.3732280150329
 20
1755.978107650602
 30
0.0
  0
POINT
  5
10C7
330
1046
100
AcDbEntity
  8
Defpoints
 62
     0
100
AcDbPoint
 10
-229.3732280150329
 20
1503.978107650602
 30
0.0
  0
POINT
  5
10C8
330
1046
100
AcDbEntity
  8
Defpoints
 62
     0
100
AcDbPoint
 10
-157.9903615725543
 20
1503.978107650602
 30
0.0
  0
ENDBLK
  5
1048
330
1046
100
AcDbEntity
  8
0
100
AcDbBlockEnd
  0
BLOCK
  5
10CB
330
10CA
100
AcDbEntity
  8
0
100
AcDbBlockBegin
  2
*D71
 70
     1
 10
0.0
 20
0.0
 30
0.0
  3
*D71
  1

  0
LINE
  5
10D7
330
10CA
100
AcDbEntity
  8
wymiary
 62
     0
100
AcDbLine
 10
-829.3732347760839
 20
2511.978106674996
 30
0.0
 11
-829.3732347760839
 21
2569.908641173997
 31
0.0
  0
LINE
  5
10D8
330
10CA
100
AcDbEntity
  8
wymiary
 62
     0
100
AcDbLine
 10
-229.3732347760838
 20
2511.978106674996
 30
0.0
 11
-229.3732347760838
 21
2569.908641173997
 31
0.0
  0
LINE
  5
10D9
330
10CA
100
AcDbEntity
  8
wymiary
 62
     0
370
    -2
100
AcDbLine
 10
-794.3732347760839
 20
2561.908641173997
 30
0.0
 11
-264.3732347760838
 21
2561.908641173997
 31
0.0
  0
SOLID
  5
10DA
330
10CA
100
AcDbEntity
  8
wymiary
 62
     0
100
AcDbTrace
 10
-794.3732347760839
 20
2567.741974507331
 30
0.0
 11
-794.3732347760839
 21
2556.075307840664
 31
0.0
 12
-829.3732347760839
 22
2561.908641173997
 32
0.0
 13
-829.3732347760839
 23
2561.908641173997
 33
0.0
  0
SOLID
  5
10DB
330
10CA
100
AcDbEntity
  8
wymiary
 62
     0
100
AcDbTrace
 10
-264.3732347760838
 20
2567.741974507331
 30
0.0
 11
-264.3732347760838
 21
2556.075307840664
 31
0.0
 12
-229.3732347760838
 22
2561.908641173997
 32
0.0
 13
-229.3732347760838
 23
2561.908641173997
 33
0.0
  0
MTEXT
  5
10DC
330
10CA
100
AcDbEntity
  8
wymiary
 62
     0
100
AcDbMText
 10
-529.3732347760838
 20
2589.408641173998
 30
0.0
 40
35.0
 41
0.0
 46
0.0
 71
     5
 72
     1
  1
600
 73
     1
 44
1.0
  0
POINT
  5
10DD
330
10CA
100
AcDbEntity
  8
Defpoints
 62
     0
100
AcDbPoint
 10
-829.3732347760839
 20
2503.978106674996
 30
0.0
  0
POINT
  5
10DE
330
10CA
100
AcDbEntity
  8
Defpoints
 62
     0
100
AcDbPoint
 10
-229.3732347760838
 20
2503.978106674996
 30
0.0
  0
POINT
  5
10DF
330
10CA
100
AcDbEntity
  8
Defpoints
 62
     0
100
AcDbPoint
 10
-229.3732347760838
 20
2561.908641173997
 30
0.0
  0
ENDBLK
  5
10CC
330
10CA
100
AcDbEntity
  8
0
100
AcDbBlockEnd
  0
BLOCK
  5
10E3
330
10E2
100
AcDbEntity
  8
0
100
AcDbBlockBegin
  2
*D72
 70
     1
 10
0.0
 20
0.0
 30
0.0
  3
*D72
  1

  0
LINE
  5
1180
330
10E2
100
AcDbEntity
  8
wymiary
 62
     0
100
AcDbLine
 10
3104.972145779851
 20
1555.978107650603
 30
0.0
 11
3197.589678620088
 21
1555.978107650603
 31
0.0
  0
LINE
  5
1181
330
10E2
100
AcDbEntity
  8
wymiary
 62
     0
100
AcDbLine
 10
3104.972145779851
 20
1955.978107650602
 30
0.0
 11
3197.589678620088
 21
1955.978107650602
 31
0.0
  0
LINE
  5
1182
330
10E2
100
AcDbEntity
  8
wymiary
 62
     0
370
    -2
100
AcDbLine
 10
3189.589678620088
 20
1590.978107650603
 30
0.0
 11
3189.589678620088
 21
1920.978107650601
 31
0.0
  0
SOLID
  5
1183
330
10E2
100
AcDbEntity
  8
wymiary
 62
     0
100
AcDbTrace
 10
3183.756345286754
 20
1590.978107650603
 30
0.0
 11
3195.423011953421
 21
1590.978107650603
 31
0.0
 12
3189.589678620088
 22
1555.978107650603
 32
0.0
 13
3189.589678620088
 23
1555.978107650603
 33
0.0
  0
SOLID
  5
1184
330
10E2
100
AcDbEntity
  8
wymiary
 62
     0
100
AcDbTrace
 10
3183.756345286754
 20
1920.978107650601
 30
0.0
 11
3195.423011953421
 21
1920.978107650601
 31
0.0
 12
3189.589678620088
 22
1955.978107650602
 32
0.0
 13
3189.589678620088
 23
1955.978107650602
 33
0.0
  0
MTEXT
  5
1185
330
10E2
100
AcDbEntity
  8
wymiary
 62
     0
100
AcDbMText
 10
3162.089678620088
 20
1755.978107650603
 30
0.0
 40
35.0
 41
0.0
 46
0.0
 71
     5
 72
     1
  1
400
 11
0.0000000000000001
 21
1.0
 31
0.0
 73
     1
 44
1.0
  0
POINT
  5
1186
330
10E2
100
AcDbEntity
  8
Defpoints
 62
     0
100
AcDbPoint
 10
3096.972145779851
 20
1555.978107650603
 30
0.0
  0
POINT
  5
1187
330
10E2
100
AcDbEntity
  8
Defpoints
 62
     0
100
AcDbPoint
 10
3096.972145779851
 20
1955.978107650602
 30
0.0
  0
POINT
  5
1188
330
10E2
100
AcDbEntity
  8
Defpoints
 62
     0
100
AcDbPoint
 10
3189.589678620088
 20
1955.978107650602
 30
0.0
  0
ENDBLK
  5
10E4
330
10E2
100
AcDbEntity
  8
0
100
AcDbBlockEnd
  0
BLOCK
  5
10FB
330
10FA
100
AcDbEntity
  8
0
100
AcDbBlockBegin
  2
*D73
 70
     1
 10
0.0
 20
0.0
 30
0.0
  3
*D73
  1

  0
LINE
  5
1189
330
10FA
100
AcDbEntity
  8
wymiary
 62
     0
100
AcDbLine
 10
2296.972145779851
 20
1547.978107650603
 30
0.0
 11
2296.972145779851
 21
1433.741563310688
 31
0.0
  0
LINE
  5
118A
330
10FA
100
AcDbEntity
  8
wymiary
 62
     0
100
AcDbLine
 10
3096.972145779851
 20
1547.978107650603
 30
0.0
 11
3096.972145779851
 21
1433.741563310688
 31
0.0
  0
LINE
  5
118B
330
10FA
100
AcDbEntity
  8
wymiary
 62
     0
370
    -2
100
AcDbLine
 10
2331.972145779851
 20
1441.741563310688
 30
0.0
 11
3061.972145779851
 21
1441.741563310688
 31
0.0
  0
SOLID
  5
118C
330
10FA
100
AcDbEntity
  8
wymiary
 62
     0
100
AcDbTrace
 10
2331.972145779851
 20
1447.574896644022
 30
0.0
 11
2331.972145779851
 21
1435.908229977355
 31
0.0
 12
2296.972145779851
 22
1441.741563310688
 32
0.0
 13
2296.972145779851
 23
1441.741563310688
 33
0.0
  0
SOLID
  5
118D
330
10FA
100
AcDbEntity
  8
wymiary
 62
     0
100
AcDbTrace
 10
3061.972145779851
 20
1447.574896644022
 30
0.0
 11
3061.972145779851
 21
1435.908229977355
 31
0.0
 12
3096.972145779851
 22
1441.741563310688
 32
0.0
 13
3096.972145779851
 23
1441.741563310688
 33
0.0
  0
MTEXT
  5
118E
330
10FA
100
AcDbEntity
  8
wymiary
 62
     0
100
AcDbMText
 10
2696.972145779851
 20
1469.241563310689
 30
0.0
 40
35.0
 41
0.0
 46
0.0
 71
     5
 72
     1
  1
800
 73
     1
 44
1.0
  0
POINT
  5
118F
330
10FA
100
AcDbEntity
  8
Defpoints
 62
     0
100
AcDbPoint
 10
2296.972145779851
 20
1555.978107650603
 30
0.0
  0
POINT
  5
1190
330
10FA
100
AcDbEntity
  8
Defpoints
 62
     0
100
AcDbPoint
 10
3096.972145779851
 20
1555.978107650603
 30
0.0
  0
POINT
  5
1191
330
10FA
100
AcDbEntity
  8
Defpoints
 62
     0
100
AcDbPoint
 10
3096.972145779851
 20
1441.741563310688
 30
0.0
  0
ENDBLK
  5
10FC
330
10FA
100
AcDbEntity
  8
0
100
AcDbBlockEnd
  0
BLOCK
  5
1113
330
1112
100
AcDbEntity
  8
0
100
AcDbBlockBegin
  2
*D74
 70
     1
 10
0.0
 20
0.0
 30
0.0
  3
*D74
  1

  0
LINE
  5
1192
330
1112
100
AcDbEntity
  8
wymiary
 62
     0
100
AcDbLine
 10
2088.972159301953
 20
2243.978106674996
 30
0.0
 11
1993.823950630584
 21
2243.978106674996
 31
0.0
  0
LINE
  5
1193
330
1112
100
AcDbEntity
  8
wymiary
 62
     0
100
AcDbLine
 10
2088.972152540902
 20
2503.978106674997
 30
0.0
 11
1993.823950630584
 21
2503.978106674997
 31
0.0
  0
LINE
  5
1194
330
1112
100
AcDbEntity
  8
wymiary
 62
     0
370
    -2
100
AcDbLine
 10
2001.823950630585
 20
2278.978106674996
 30
0.0
 11
2001.823950630585
 21
2468.978106674997
 31
0.0
  0
SOLID
  5
1195
330
1112
100
AcDbEntity
  8
wymiary
 62
     0
100
AcDbTrace
 10
1995.990617297252
 20
2278.978106674996
 30
0.0
 11
2007.657283963919
 21
2278.978106674996
 31
0.0
 12
2001.823950630585
 22
2243.978106674996
 32
0.0
 13
2001.823950630585
 23
2243.978106674996
 33
0.0
  0
SOLID
  5
1196
330
1112
100
AcDbEntity
  8
wymiary
 62
     0
100
AcDbTrace
 10
1995.990617297252
 20
2468.978106674997
 30
0.0
 11
2007.657283963919
 21
2468.978106674997
 31
0.0
 12
2001.823950630585
 22
2503.978106674997
 32
0.0
 13
2001.823950630585
 23
2503.978106674997
 33
0.0
  0
MTEXT
  5
1197
330
1112
100
AcDbEntity
  8
wymiary
 62
     0
100
AcDbMText
 10
1974.323950630585
 20
2373.978106674996
 30
0.0
 40
35.0
 41
0.0
 46
0.0
 71
     5
 72
     1
  1
260
 11
0.0000000000000001
 21
1.0
 31
0.0
 73
     1
 44
1.0
  0
POINT
  5
1198
330
1112
100
AcDbEntity
  8
Defpoints
 62
     0
100
AcDbPoint
 10
2096.972159301953
 20
2243.978106674996
 30
0.0
  0
POINT
  5
1199
330
1112
100
AcDbEntity
  8
Defpoints
 62
     0
100
AcDbPoint
 10
2096.972152540903
 20
2503.978106674997
 30
0.0
  0
POINT
  5
119A
330
1112
100
AcDbEntity
  8
Defpoints
 62
     0
100
AcDbPoint
 10
2001.823950630585
 20
2503.978106674997
 30
0.0
  0
ENDBLK
  5
1114
330
1112
100
AcDbEntity
  8
0
100
AcDbBlockEnd
  0
BLOCK
  5
112B
330
112A
100
AcDbEntity
  8
0
100
AcDbBlockBegin
  2
*D75
 70
     1
 10
0.0
 20
0.0
 30
0.0
  3
*D75
  1

  0
LINE
  5
119B
330
112A
100
AcDbEntity
  8
wymiary
 62
     0
100
AcDbLine
 10
2088.972159301953
 20
1755.978107650602
 30
0.0
 11
1993.823950630585
 21
1755.978107650602
 31
0.0
  0
LINE
  5
119C
330
112A
100
AcDbEntity
  8
wymiary
 62
     0
100
AcDbLine
 10
2088.972145779851
 20
1503.978107650602
 30
0.0
 11
1993.823950630584
 21
1503.978107650602
 31
0.0
  0
LINE
  5
119D
330
112A
100
AcDbEntity
  8
wymiary
 62
     0
370
    -2
100
AcDbLine
 10
2001.823950630585
 20
1720.978107650602
 30
0.0
 11
2001.823950630585
 21
1538.978107650602
 31
0.0
  0
SOLID
  5
119E
330
112A
100
AcDbEntity
  8
wymiary
 62
     0
100
AcDbTrace
 10
1995.990617297252
 20
1720.978107650602
 30
0.0
 11
2007.657283963919
 21
1720.978107650602
 31
0.0
 12
2001.823950630585
 22
1755.978107650602
 32
0.0
 13
2001.823950630585
 23
1755.978107650602
 33
0.0
  0
SOLID
  5
119F
330
112A
100
AcDbEntity
  8
wymiary
 62
     0
100
AcDbTrace
 10
1995.990617297252
 20
1538.978107650602
 30
0.0
 11
2007.657283963919
 21
1538.978107650602
 31
0.0
 12
2001.823950630585
 22
1503.978107650602
 32
0.0
 13
2001.823950630585
 23
1503.978107650602
 33
0.0
  0
MTEXT
  5
11A0
330
112A
100
AcDbEntity
  8
wymiary
 62
     0
100
AcDbMText
 10
1974.323950630585
 20
1629.978107650602
 30
0.0
 40
35.0
 41
0.0
 46
0.0
 71
     5
 72
     1
  1
252
 11
0.0000000000000001
 21
1.0
 31
0.0
 73
     1
 44
1.0
  0
POINT
  5
11A1
330
112A
100
AcDbEntity
  8
Defpoints
 62
     0
100
AcDbPoint
 10
2096.972159301953
 20
1755.978107650602
 30
0.0
  0
POINT
  5
11A2
330
112A
100
AcDbEntity
  8
Defpoints
 62
     0
100
AcDbPoint
 10
2096.972145779851
 20
1503.978107650602
 30
0.0
  0
POINT
  5
11A3
330
112A
100
AcDbEntity
  8
Defpoints
 62
     0
100
AcDbPoint
 10
2001.823950630585
 20
1503.978107650602
 30
0.0
  0
ENDBLK
  5
112C
330
112A
100
AcDbEntity
  8
0
100
AcDbBlockEnd
  0
ENDSEC
  0
SECTION
  2
ENTITIES
  0
INSERT
  5
569
330
1F
100
AcDbEntity
  8
Cenrala
100
AcDbBlockReference
  2
4000_g
 10
0.0
 20
-95.8084622361275
 30
0.0
  0
MTEXT
  5
660
330
1F
100
AcDbEntity
  8
wymiary
100
AcDbMText
 10
2431.636130176367
 20
674.2258315803142
 30
0.0
 40
30.0
 41
566.4293908612997
 46
0.0
 71
     1
 72
     5
  1
{\Ftxt.shx|c238;Mistral 4000 \Pwykonanie prawe\Ftxt.shx|c0;\H0.125x;}
 73
     1
 44
1.0
1001
ACAD
1000
MTEXTBEGIN
1070
    73
1070
     1
1070
    44
1040
1.0
1070
    74
1070
     0
1000
MTEXTEND
  0
MTEXT
  5
661
330
1F
100
AcDbEntity
  8
wymiary
100
AcDbMText
 10
30.3937694872493
 20
1300.282841864729
 30
0.0
 40
30.0
 41
902.3463737508771
 46
0.0
 71
     1
 72
     5
  1
{\Ftxt.shx|c238;Rzut z góry\Ftxt.shx|c0;\H0.25x;}
 73
     1
 44
1.0
1001
ACAD
1000
MTEXTBEGIN
1070
    73
1070
     1
1070
    44
1040
1.0
1070
    74
1070
     0
1000
MTEXTEND
  0
MTEXT
  5
662
330
1F
100
AcDbEntity
  8
wymiary
100
AcDbMText
 10
142.0240529826896
 20
2702.131223046999
 30
0.0
 40
30.0
 41
902.3463737508771
 46
0.0
 71
     1
 72
     5
  1
{\Ftxt.shx|c238;Rzut od przodu\Ftxt.shx|c0;\H0.25x;}
 73
     1
 44
1.0
1001
ACAD
1000
MTEXTBEGIN
1070
    73
1070
     1
1070
    44
1040
1.0
1070
    74
1070
     0
1000
MTEXTEND
  0
MTEXT
  5
663
330
1F
100
AcDbEntity
  8
wymiary
100
AcDbMText
 10
1955.029616429783
 20
2710.732557910937
 30
0.0
 40
30.0
 41
902.3463737508771
 46
0.0
 71
     1
 72
     5
  1
{\Ftxt.shx|c238;Rzut od lewej strony\Ftxt.shx|c0;\H0.1667x;}
 73
     1
 44
1.0
1001
ACAD
1000
MTEXTBEGIN
1070
    73
1070
     1
1070
    44
1040
1.0
1070
    74
1070
     0
1000
MTEXTEND
  0
MTEXT
  5
664
330
1F
100
AcDbEntity
  8
wymiary
100
AcDbMText
 10
-1488.762324121693
 20
2716.911887731405
 30
0.0
 40
30.0
 41
902.3463737508771
 46
0.0
 71
     1
 72
     5
  1
{\Ftxt.shx|c238;Rzut od prawej strony\Ftxt.shx|c0;\H0.125x;}
 73
     1
 44
1.0
1001
ACAD
1000
MTEXTBEGIN
1070
    73
1070
     1
1070
    44
1040
1.0
1070
    74
1070
     0
1000
MTEXTEND
  0
LWPOLYLINE
  5
665
330
1F
100
AcDbEntity
  8
wymiary
100
AcDbPolyline
 90
        2
 70
     0
 43
0.0
 10
-249.3732280150329
 20
1516.978107650602
 10
-249.6483937155572
 20
1453.082108758258
  0
MTEXT
  5
666
330
1F
100
AcDbEntity
  8
wymiary
100
AcDbMText
 10
-283.2952230630326
 20
1447.077810719313
 30
0.0
 40
2.5
 41
58.2673491777168
 46
0.0
 71
     1
 72
     5
  1
{\Ftxt.shx|c238;\H6x;odpływ^Jskroplin}
 73
     1
 44
1.0
1001
ACAD
1000
MTEXTBEGIN
1070
    73
1070
     1
1070
    44
1040
1.0
1070
    74
1070
     0
1000
MTEXTEND
  0
LWPOLYLINE
  5
667
330
1F
100
AcDbEntity
  8
wymiary
100
AcDbPolyline
 90
       12
 70
     0
 43
0.0
 10
3254.981005524842
 20
1610.072041019821
 10
3261.657130725249
 20
1610.183211380671
 10
3258.899701842291
 20
1588.149809576761
 10
3269.929411757948
 20
1594.409297878742
 10
3263.161181311542
 20
1567.618688797961
 10
3266.419960389931
 20
1567.618688797961
 10
3262.409153210309
 20
1560.357682474126
 10
3258.64902393649
 20
1567.618688797961
 10
3261.024637261566
 20
1567.631065014245
 10
3263.988123551579
 20
1585.063942439437
 10
3255.761316676004
 20
1581.164297827402
 10
3254.981005524842
 20
1610.072041019821
  0
LWPOLYLINE
  5
668
330
1F
100
AcDbEntity
  8
wymiary
100
AcDbPolyline
 90
        4
 70
     1
 43
0.0
 10
-57.99036157255432
 20
2786.061825830901
 10
1901.823950630585
 20
2786.061825830901
 10
1901.823950630585
 20
1354.551418963751
 10
-57.99036157255432
 20
1354.551418963751
  0
LWPOLYLINE
  5
669
330
1F
100
AcDbEntity
  8
wymiary
100
AcDbPolyline
 90
        4
 70
     1
 43
0.0
 10
1901.823950630585
 20
2786.061825830901
 10
3425.699124655955
 20
2786.061825830901
 10
3425.699124655955
 20
1354.551418963751
 10
1901.823950630585
 20
1354.551418963751
  0
LWPOLYLINE
  5
66A
330
1F
100
AcDbEntity
  8
wymiary
100
AcDbPolyline
 90
        4
 70
     1
 43
0.0
 10
-57.99036157255432
 20
2786.061825830901
 10
-1581.865535597922
 20
2786.061825830901
 10
-1581.865535597922
 20
1354.551418963751
 10
-57.99036157255432
 20
1354.551418963751
  0
LWPOLYLINE
  5
66B
330
1F
100
AcDbEntity
  8
wymiary
100
AcDbPolyline
 90
        4
 70
     1
 43
0.0
 10
-57.99036157255432
 20
1354.551418963751
 10
1901.823950630585
 20
1354.551418963751
 10
1901.823950630585
 20
-99.46025893487922
 10
-57.99036157255432
 20
-99.46025893487922
  0
LWPOLYLINE
  5
66C
330
1F
100
AcDbEntity
  8
wymiary
100
AcDbPolyline
 90
        4
 70
     1
 43
0.0
 10
-1581.865535597922
 20
2786.061825830901
 10
3425.699124655955
 20
2786.061825830901
 10
3425.699124655955
 20
-99.46025893487879
 10
-1581.865535597922
 20
-99.46025893487922
  0
INSERT
  5
96A
102
{ACAD_REACTORS
330
FB1
330
FC9
102
}
330
1F
100
AcDbEntity
  8
Cenrala
100
AcDbBlockReference
  2
4000_f
 10
0.0
 20
0.0
 30
0.0
  0
INSERT
  5
984
102
{ACAD_REACTORS
330
FE1
330
10F8
330
1110
102
}
330
1F
100
AcDbEntity
  8
Cenrala
100
AcDbBlockReference
  2
4000_l
 10
100.0
 20
0.0
 30
0.0
  0
INSERT
  5
9A0
102
{ACAD_XDICTIONARY
360
F74
102
}
102
{ACAD_REACTORS
330
FF9
330
1011
330
10E0
102
}
330
1F
100
AcDbEntity
  8
Cenrala
100
AcDbBlockReference
  2
4000_p
 10
-100.0
 20
0.0
 30
0.0
  0
DIMENSION
  5
F9A
102
{ACAD_XDICTIONARY
360
FA7
102
}
102
{ACAD_REACTORS
330
FB1
102
}
330
1F
100
AcDbEntity
  8
wymiary
100
AcDbDimension
  2
*D64
 10
1543.79946564346
 20
2567.485430121525
 30
0.0
 11
933.7994656434602
 21
2594.985430121525
 31
0.0
 70
    32
 71
     5
 42
1219.999999999999
 73
     0
 74
     0
 75
     0
  3
Kopia ISO-25
100
AcDbAlignedDimension
 13
323.7994656434604
 23
2503.978107650602
 33
0.0
 14
1543.79946564346
 24
2503.978107650602
 34
0.0
100
AcDbRotatedDimension
  0
DIMENSION
  5
FB2
102
{ACAD_XDICTIONARY
360
FBF
102
}
102
{ACAD_REACTORS
330
FC9
102
}
330
1F
100
AcDbEntity
  8
wymiary
100
AcDbDimension
  2
*D65
 10
162.6581981849081
 20
2503.978107650602
 30
0.0
 11
135.1581981849076
 21
2003.978107650601
 31
0.0
 70
    32
 71
     5
 42
1000.000000000001
 73
     0
 74
     0
 75
     0
  3
Kopia ISO-25
100
AcDbAlignedDimension
 13
323.7994656434604
 23
1503.978107650601
 33
0.0
 14
323.7994656434604
 24
2503.978107650602
 34
0.0
 50
90.0
100
AcDbRotatedDimension
  0
DIMENSION
  5
FCA
102
{ACAD_XDICTIONARY
360
FD7
102
}
102
{ACAD_REACTORS
330
FE1
102
}
330
1F
100
AcDbEntity
  8
wymiary
100
AcDbDimension
  2
*D66
 10
3296.972152540903
 20
2567.472425975166
 30
0.0
 11
2696.972152540903
 21
2594.972425975166
 31
0.0
 70
    32
 71
     5
 42
1200.0
 73
     0
 74
     0
 75
     0
  3
Kopia ISO-25
100
AcDbAlignedDimension
 13
2096.972152540903
 23
2503.978106674997
 33
0.0
 14
3296.972152540903
 24
2503.978106674997
 34
0.0
100
AcDbRotatedDimension
  0
DIMENSION
  5
FE2
102
{ACAD_XDICTIONARY
360
FEF
102
}
102
{ACAD_REACTORS
330
FF9
102
}
330
1F
100
AcDbEntity
  8
wymiary
100
AcDbDimension
  2
*D67
 10
-1311.40439407448
 20
1955.978107650602
 30
0.0
 11
-1338.90439407448
 21
1755.978107650602
 31
0.0
 70
    32
 71
     5
 42
399.9999999999986
 73
     0
 74
     0
 75
     0
  3
Kopia ISO-25
100
AcDbAlignedDimension
 13
-1229.373228015033
 23
1555.978107650603
 33
0.0
 14
-1229.373228015033
 24
1955.978107650602
 34
0.0
 50
90.0
100
AcDbRotatedDimension
  0
DIMENSION
  5
FFA
102
{ACAD_XDICTIONARY
360
1007
102
}
102
{ACAD_REACTORS
330
1011
102
}
330
1F
100
AcDbEntity
  8
wymiary
100
AcDbDimension
  2
*D68
 10
-429.3732280150329
 20
1450.196694141787
 30
0.0
 11
-829.3732280150329
 21
1477.696694141787
 31
0.0
 70
    32
 71
     5
 42
800.0
 73
     0
 74
     0
 75
     0
  3
Kopia ISO-25
100
AcDbAlignedDimension
 13
-1229.373228015033
 23
1555.978107650603
 33
0.0
 14
-429.3732280150329
 24
1555.978107650603
 34
0.0
100
AcDbRotatedDimension
  0
DIMENSION
  5
1012
330
1F
100
AcDbEntity
  8
wymiary
100
AcDbDimension
  2
*D69
 10
-157.9903615725543
 20
2503.978106674996
 30
0.0
 11
-185.4903615725547
 21
2373.978106674996
 31
0.0
 70
    32
 71
     5
 42
260.0
 73
     0
 74
     0
 75
     0
  3
Kopia ISO-25
100
AcDbAlignedDimension
 13
-229.3732280150329
 23
2243.978106674996
 33
0.0
 14
-229.3732347760838
 24
2503.978106674996
 34
0.0
 50
90.0
100
AcDbRotatedDimension
  0
DIMENSION
  5
1045
330
1F
100
AcDbEntity
  8
wymiary
100
AcDbDimension
  2
*D70
 10
-157.9903615725543
 20
1503.978107650602
 30
0.0
 11
-185.4903615725545
 21
1629.978107650602
 31
0.0
 70
    32
 71
     5
 42
252.0000000000002
 73
     0
 74
     0
 75
     0
  3
Kopia ISO-25
100
AcDbAlignedDimension
 13
-229.3732280150329
 23
1755.978107650602
 33
0.0
 14
-229.3732280150329
 24
1503.978107650602
 34
0.0
 50
90.0
100
AcDbRotatedDimension
  0
DIMENSION
  5
10C9
102
{ACAD_XDICTIONARY
360
10D6
102
}
102
{ACAD_REACTORS
330
10E0
102
}
330
1F
100
AcDbEntity
  8
wymiary
100
AcDbDimension
  2
*D71
 10
-229.3732347760838
 20
2561.908641173997
 30
0.0
 11
-529.3732347760838
 21
2589.408641173998
 31
0.0
 70
    32
 71
     5
 42
600.0
 73
     0
 74
     0
 75
     0
  3
Kopia ISO-25
100
AcDbAlignedDimension
 13
-829.3732347760839
 23
2503.978106674996
 33
0.0
 14
-229.3732347760838
 24
2503.978106674996
 34
0.0
100
AcDbRotatedDimension
  0
DIMENSION
  5
10E1
102
{ACAD_XDICTIONARY
360
10EE
102
}
102
{ACAD_REACTORS
330
10F8
102
}
330
1F
100
AcDbEntity
  8
wymiary
100
AcDbDimension
  2
*D72
 10
3189.589678620088
 20
1955.978107650602
 30
0.0
 11
3162.089678620088
 21
1755.978107650603
 31
0.0
 70
    32
 71
     5
 42
399.9999999999986
 73
     0
 74
     0
 75
     0
  3
Kopia ISO-25
100
AcDbAlignedDimension
 13
3096.972145779851
 23
1555.978107650603
 33
0.0
 14
3096.972145779851
 24
1955.978107650602
 34
0.0
 50
90.0
100
AcDbRotatedDimension
  0
DIMENSION
  5
10F9
102
{ACAD_XDICTIONARY
360
1106
102
}
102
{ACAD_REACTORS
330
1110
102
}
330
1F
100
AcDbEntity
  8
wymiary
100
AcDbDimension
  2
*D73
 10
3096.972145779851
 20
1441.741563310688
 30
0.0
 11
2696.972145779851
 21
1469.241563310689
 31
0.0
 70
    32
 71
     5
 42
800.0
 73
     0
 74
     0
 75
     0
  3
Kopia ISO-25
100
AcDbAlignedDimension
 13
2296.972145779851
 23
1555.978107650603
 33
0.0
 14
3096.972145779851
 24
1555.978107650603
 34
0.0
100
AcDbRotatedDimension
  0
DIMENSION
  5
1111
330
1F
100
AcDbEntity
  8
wymiary
100
AcDbDimension
  2
*D74
 10
2001.823950630585
 20
2503.978106674997
 30
0.0
 11
1974.323950630585
 21
2373.978106674996
 31
0.0
 70
    32
 71
     5
 42
260.0000000000014
 73
     0
 74
     0
 75
     0
  3
Kopia ISO-25
100
AcDbAlignedDimension
 13
2096.972159301953
 23
2243.978106674996
 33
0.0
 14
2096.972152540903
 24
2503.978106674997
 34
0.0
 50
90.0
100
AcDbRotatedDimension
  0
DIMENSION
  5
1129
330
1F
100
AcDbEntity
  8
wymiary
100
AcDbDimension
  2
*D75
 10
2001.823950630585
 20
1503.978107650602
 30
0.0
 11
1974.323950630585
 21
1629.978107650602
 31
0.0
 70
    32
 71
     5
 42
251.9999999999998
 73
     0
 74
     0
 75
     0
  3
Kopia ISO-25
100
AcDbAlignedDimension
 13
2096.972159301953
 23
1755.978107650602
 33
0.0
 14
2096.972145779851
 24
1503.978107650602
 34
0.0
 50
90.0
100
AcDbRotatedDimension
  0
ENDSEC
  0
SECTION
  2
OBJECTS
  0
DICTIONARY
  5
C
330
0
100
AcDbDictionary
281
     1
  3
ACAD_COLOR
350
6B
  3
ACAD_GROUP
350
D
  3
ACAD_LAYOUT
350
1A
  3
ACAD_MATERIAL
350
6A
  3
ACAD_MLEADERSTYLE
350
9ED
  3
ACAD_MLINESTYLE
350
17
  3
ACAD_PLOTSETTINGS
350
19
  3
ACAD_PLOTSTYLENAME
350
E
  3
ACAD_SCALELIST
350
9DB
  3
ACAD_TABLESTYLE
350
9D9
  3
ACAD_VISUALSTYLE
350
9C8
  3
ACDB_RECOMPOSE_DATA
350
11A9
  3
AcDbVariableDictionary
350
5E
  3
AEC_PROPERTY_SET_DEFS
350
D16
  0
DICTIONARY
  5
EFE
330
10
100
AcDbDictionary
280
     1
281
     1
  3
ADSK_XREC_LAYER_RECONCILED
360
EFF
  0
DICTIONARY
  5
F00
330
503
100
AcDbDictionary
280
     1
281
     1
  3
ADSK_XREC_LAYER_RECONCILED
360
F01
  0
DICTIONARY
  5
F02
330
504
100
AcDbDictionary
280
     1
281
     1
  3
ADSK_XREC_LAYER_RECONCILED
360
F03
  0
DICTIONARY
  5
F04
330
CF8
100
AcDbDictionary
280
     1
281
     1
  3
ADSK_XREC_LAYER_RECONCILED
360
F05
  0
DICTIONARY
  5
F06
330
CF9
100
AcDbDictionary
280
     1
281
     1
  3
ADSK_XREC_LAYER_RECONCILED
360
F07
  0
DICTIONARY
  5
F08
330
CFA
100
AcDbDictionary
280
     1
281
     1
  3
ADSK_XREC_LAYER_RECONCILED
360
F09
  0
DICTIONARY
  5
EB0
330
532
100
AcDbDictionary
280
     1
281
     1
  0
DICTIONARY
  5
EDF
330
555
100
AcDbDictionary
280
     1
281
     1
  0
DICTIONARY
  5
F93
330
56A
100
AcDbDictionary
280
     1
281
     1
  0
DICTIONARY
  5
F22
330
580
100
AcDbDictionary
280
     1
281
     1
  0
DICTIONARY
  5
F73
330
F5B
100
AcDbDictionary
280
     1
281
     1
  0
DICTIONARY
  5
F74
330
9A0
100
AcDbDictionary
280
     1
281
     1
  0
DICTIONARY
  5
FA7
330
F9A
100
AcDbDictionary
280
     1
281
     1
  3
ACAD_DIMASSOC
360
FB1
  0
DICTIONARY
  5
FBF
330
FB2
100
AcDbDictionary
280
     1
281
     1
  3
ACAD_DIMASSOC
360
FC9
  0
DICTIONARY
  5
FD7
330
FCA
100
AcDbDictionary
280
     1
281
     1
  3
ACAD_DIMASSOC
360
FE1
  0
DICTIONARY
  5
FEF
330
FE2
100
AcDbDictionary
280
     1
281
     1
  3
ACAD_DIMASSOC
360
FF9
  0
DICTIONARY
  5
1007
330
FFA
100
AcDbDictionary
280
     1
281
     1
  3
ACAD_DIMASSOC
360
1011
  0
DICTIONARY
  5
10D6
330
10C9
100
AcDbDictionary
280
     1
281
     1
  3
ACAD_DIMASSOC
360
10E0
  0
DICTIONARY
  5
10EE
330
10E1
100
AcDbDictionary
280
     1
281
     1
  3
ACAD_DIMASSOC
360
10F8
  0
DICTIONARY
  5
1106
330
10F9
100
AcDbDictionary
280
     1
281
     1
  3
ACAD_DIMASSOC
360
1110
  0
DICTIONARY
  5
6B
102
{ACAD_REACTORS
330
C
102
}
330
C
100
AcDbDictionary
281
     1
  0
DICTIONARY
  5
D
102
{ACAD_REACTORS
330
C
102
}
330
C
100
AcDbDictionary
281
     1
  0
DICTIONARY
  5
1A
102
{ACAD_REACTORS
330
C
102
}
330
C
100
AcDbDictionary
281
     1
  3
Arkusz1
350
51
  3
Arkusz2
350
56
  3
Model
350
22
  0
DICTIONARY
  5
6A
102
{ACAD_REACTORS
330
C
102
}
330
C
100
AcDbDictionary
281
     1
  3
ByBlock
350
9B8
  3
ByLayer
350
9B0
  3
Global
350
9C0
  0
DICTIONARY
  5
9ED
102
{ACAD_REACTORS
330
C
102
}
330
C
100
AcDbDictionary
281
     1
  3
Standard
350
9EE
  0
DICTIONARY
  5
17
102
{ACAD_REACTORS
330
C
102
}
330
C
100
AcDbDictionary
281
     1
  3
Standard
350
18
  0
DICTIONARY
  5
19
102
{ACAD_REACTORS
330
C
102
}
330
C
100
AcDbDictionary
281
     1
  0
ACDBDICTIONARYWDFLT
  5
E
102
{ACAD_REACTORS
330
C
102
}
330
C
100
AcDbDictionary
281
     1
  3
Normal
350
F
100
AcDbDictionaryWithDefault
340
F
  0
DICTIONARY
  5
9DB
102
{ACAD_REACTORS
330
C
102
}
330
C
100
AcDbDictionary
281
     1
  3
A0
350
9DC
  3
A1
350
9DD
  3
A2
350
9DE
  3
A3
350
9DF
  3
A4
350
9E0
  3
A5
350
9E1
  3
A6
350
9E2
  3
A7
350
9E3
  3
A8
350
9E4
  3
A9
350
9E5
  3
B0
350
9E6
  3
B1
350
9E7
  3
B2
350
9E8
  3
B3
350
9E9
  3
B4
350
9EA
  3
B5
350
9EB
  3
B6
350
9EC
  0
DICTIONARY
  5
9D9
102
{ACAD_REACTORS
330
C
102
}
330
C
100
AcDbDictionary
281
     1
  3
Standard
350
9DA
  0
DICTIONARY
  5
9C8
102
{ACAD_REACTORS
330
C
102
}
330
C
100
AcDbDictionary
281
     1
  3
2dWireframe
350
9CE
  3
3D Hidden
350
9D0
  3
3dWireframe
350
9CF
  3
Basic
350
9CD
  3
Brighten
350
9D4
  3
ColorChange
350
9D8
  3
Conceptual
350
9D1
  3
Dim
350
9D3
  3
Facepattern
350
9D7
  3
Flat
350
9C9
  3
FlatWithEdges
350
9CA
  3
Gouraud
350
9CB
  3
GouraudWithEdges
350
9CC
  3
Linepattern
350
9D6
  3
Realistic
350
9D2
  3
Thicken
350
9D5
  0
XRECORD
  5
11A9
102
{ACAD_REACTORS
330
C
102
}
330
C
100
AcDbXrecord
280
     1
 90
        1
330
9DA
  0
DICTIONARY
  5
5E
102
{ACAD_REACTORS
330
C
102
}
330
C
100
AcDbDictionary
281
     1
  3
CANNOSCALE
350
F54
  3
CMLEADERSTYLE
350
F52
  3
CTABLESTYLE
350
F51
  3
DIMASSOC
350
5F
  3
HIDETEXT
350
63
  3
LAYEREVAL
350
F56
  3
LAYERNOTIFY
350
F57
  3
LIGHTINGUNITS
350
F55
  3
MSLTSCALE
350
F53
  3
PROJECTNAME
350
81E
  0
DICTIONARY
  5
D16
102
{ACAD_REACTORS
330
C
102
}
330
C
100
AcDbDictionary
281
     1
  0
XRECORD
  5
EFF
102
{ACAD_REACTORS
330
EFE
102
}
330
EFE
100
AcDbXrecord
280
     1
290
     1
  0
XRECORD
  5
F01
102
{ACAD_REACTORS
330
F00
102
}
330
F00
100
AcDbXrecord
280
     1
290
     1
  0
XRECORD
  5
F03
102
{ACAD_REACTORS
330
F02
102
}
330
F02
100
AcDbXrecord
280
     1
290
     1
  0
XRECORD
  5
F05
102
{ACAD_REACTORS
330
F04
102
}
330
F04
100
AcDbXrecord
280
     1
290
     1
  0
XRECORD
  5
F07
102
{ACAD_REACTORS
330
F06
102
}
330
F06
100
AcDbXrecord
280
     1
290
     1
  0
XRECORD
  5
F09
102
{ACAD_REACTORS
330
F08
102
}
330
F08
100
AcDbXrecord
280
     1
290
     1
  0
DIMASSOC
  5
FB1
102
{ACAD_REACTORS
330
FA7
102
}
330
FA7
100
AcDbDimAssoc
330
F9A
 90
        3
 70
     0
 71
     0
  1
AcDbOsnapPointRef
 72
     1
331
96A
331
E84
 73
     2
 91
        0
 40
1.0
 10
0.0
 20
0.0
 30
2.000000000000000E+50
 75
     0
  1
AcDbOsnapPointRef
 72
    13
331
96A
331
E84
 73
     2
 91
        0
 40
0.0
 10
0.0
 20
0.0
 30
2.000000000000000E+50
 75
     0
  0
DIMASSOC
  5
FC9
102
{ACAD_REACTORS
330
FBF
102
}
330
FBF
100
AcDbDimAssoc
330
FB2
 90
        1
 70
     0
 71
     0
  1
AcDbOsnapPointRef
 72
     1
331
96A
331
E88
 73
     2
 91
        0
 40
1.0
 10
0.0
 20
0.0
 30
2.000000000000000E+50
 75
     0
  0
DIMASSOC
  5
FE1
102
{ACAD_REACTORS
330
FD7
102
}
330
FD7
100
AcDbDimAssoc
330
FCA
 90
        3
 70
     0
 71
     0
  1
AcDbOsnapPointRef
 72
     1
331
984
331
F86
 73
     2
 91
        0
 40
1.0
 10
0.0
 20
0.0
 30
2.000000000000000E+50
 75
     0
  1
AcDbOsnapPointRef
 72
     1
331
984
331
F87
 73
     2
 91
        0
 40
1.0
 10
0.0
 20
0.0
 30
2.000000000000000E+50
 75
     0
  0
DIMASSOC
  5
FF9
102
{ACAD_REACTORS
330
FEF
102
}
330
FEF
100
AcDbDimAssoc
330
FE2
 90
        3
 70
     0
 71
     0
  1
AcDbOsnapPointRef
 72
     1
331
9A0
331
F1A
 73
     2
 91
        2
 40
1.0
 10
0.0
 20
0.0
 30
2.000000000000000E+50
 75
     0
  1
AcDbOsnapPointRef
 72
     1
331
9A0
331
F1A
 73
     2
 91
        1
 40
1.0
 10
0.0
 20
0.0
 30
2.000000000000000E+50
 75
     0
  0
DIMASSOC
  5
1011
102
{ACAD_REACTORS
330
1007
102
}
330
1007
100
AcDbDimAssoc
330
FFA
 90
        2
 70
     0
 71
     0
  1
AcDbOsnapPointRef
 72
     1
331
9A0
331
F1A
 73
     2
 91
        3
 40
1.0
 10
0.0
 20
0.0
 30
2.000000000000000E+50
 75
     0
  0
DIMASSOC
  5
10E0
102
{ACAD_REACTORS
330
10D6
102
}
330
10D6
100
AcDbDimAssoc
330
10C9
 90
        1
 70
     0
 71
     0
  1
AcDbOsnapPointRef
 72
     2
331
9A0
331
F14
 73
     2
 91
        0
 40
0.5
 10
0.0
 20
0.0
 30
0.0
 75
     0
  0
DIMASSOC
  5
10F8
102
{ACAD_REACTORS
330
10EE
102
}
330
10EE
100
AcDbDimAssoc
330
10E1
 90
        3
 70
     0
 71
     0
  1
AcDbOsnapPointRef
 72
     1
331
984
331
F8B
 73
     2
 91
        3
 40
1.0
 10
0.0
 20
0.0
 30
2.000000000000000E+50
 75
     0
  1
AcDbOsnapPointRef
 72
    13
331
984
331
F8B
 73
     2
 91
        1
 40
0.0
 10
0.0
 20
0.0
 30
2.000000000000000E+50
 75
     0
  0
DIMASSOC
  5
1110
102
{ACAD_REACTORS
330
1106
102
}
330
1106
100
AcDbDimAssoc
330
10F9
 90
        1
 70
     0
 71
     0
  1
AcDbOsnapPointRef
 72
     1
331
984
331
F8B
 73
     2
 91
        2
 40
1.0
 10
0.0
 20
0.0
 30
2.000000000000000E+50
 75
     0
  0
LAYOUT
  5
51
102
{ACAD_REACTORS
330
1A
102
}
330
1A
100
AcDbPlotSettings
  1

  2
None
  4

  6

 40
0.0
 41
0.0
 42
0.0
 43
0.0
 44
0.0
 45
0.0
 46
0.0
 47
0.0
 48
0.0
 49
0.0
140
0.0
141
0.0
142
1.0
143
1.0
 70
   688
 72
     0
 73
     0
 74
     5
  7

 75
    16
147
1.0
 76
     0
 77
     2
 78
   300
148
0.0
149
0.0
100
AcDbLayout
  1
Arkusz1
 70
     1
 71
     1
 10
0.0
 20
0.0
 11
12.0
 21
9.0
 12
0.0
 22
0.0
 32
0.0
 14
0.0
 24
0.0
 34
0.0
 15
0.0
 25
0.0
 35
0.0
146
0.0
 13
0.0
 23
0.0
 33
0.0
 16
1.0
 26
0.0
 36
0.0
 17
0.0
 27
1.0
 37
0.0
 76
     0
330
50
  0
LAYOUT
  5
56
102
{ACAD_REACTORS
330
1A
102
}
330
1A
100
AcDbPlotSettings
  1

  2
None
  4

  6

 40
0.0
 41
0.0
 42
0.0
 43
0.0
 44
0.0
 45
0.0
 46
0.0
 47
0.0
 48
0.0
 49
0.0
140
0.0
141
0.0
142
1.0
143
1.0
 70
   688
 72
     0
 73
     0
 74
     5
  7

 75
    16
147
1.0
 76
     0
 77
     2
 78
   300
148
0.0
149
0.0
100
AcDbLayout
  1
Arkusz2
 70
     1
 71
     2
 10
0.0
 20
0.0
 11
12.0
 21
9.0
 12
0.0
 22
0.0
 32
0.0
 14
0.0
 24
0.0
 34
0.0
 15
0.0
 25
0.0
 35
0.0
146
0.0
 13
0.0
 23
0.0
 33
0.0
 16
1.0
 26
0.0
 36
0.0
 17
0.0
 27
1.0
 37
0.0
 76
     0
330
55
  0
LAYOUT
  5
22
102
{ACAD_REACTORS
330
1A
102
}
330
1A
100
AcDbPlotSettings
  1

  2
none_device
  4
ANSI_A_(8.50_x_11.00_Inches)
  6

 40
6.349999904632567
 41
19.04999923706055
 42
6.350006103515625
 43
19.04998779296875
 44
215.8999938964844
 45
279.3999938964844
 46
0.0
 47
0.0
 48
0.0
 49
0.0
140
0.0
141
0.0
142
1.0
143
78.436453180766
 70
 11952
 72
     0
 73
     1
 74
     0
  7

 75
     0
147
0.0127491741332998
 76
     0
 77
     2
 78
   300
148
0.0
149
0.0
100
AcDbLayout
  1
Model
 70
     1
 71
     0
 10
0.0
 20
0.0
 11
12.0
 21
9.0
 12
0.0
 22
0.0
 32
0.0
 14
0.0
 24
0.0
 34
0.0
 15
0.0
 25
0.0
 35
0.0
146
0.0
 13
0.0
 23
0.0
 33
0.0
 16
1.0
 26
0.0
 36
0.0
 17
0.0
 27
1.0
 37
0.0
 76
     0
330
1F
331
9A1
  0
MATERIAL
  5
9B8
102
{ACAD_XDICTIONARY
360
9B9
102
}
102
{ACAD_REACTORS
330
6A
102
}
330
6A
100
AcDbMaterial
  1
ByBlock
 72
     0
 43
0.0008202099737533
 43
0.0
 43
0.0
 43
0.0
 43
0.0
 43
0.0008202099737533
 43
0.0
 43
0.0
 43
0.0
 43
0.0
 43
1.0
 43
0.0
 43
0.0
 43
0.0
 43
0.0
 43
1.0
 77
     0
 47
0.0008202099737533
 47
0.0
 47
0.0
 47
0.0
 47
0.0
 47
0.0008202099737533
 47
0.0
 47
0.0
 47
0.0
 47
0.0
 47
1.0
 47
0.0
 47
0.0
 47
0.0
 47
0.0
 47
1.0
171
     0
 49
0.0008202099737533
 49
0.0
 49
0.0
 49
0.0
 49
0.0
 49
0.0008202099737533
 49
0.0
 49
0.0
 49
0.0
 49
0.0
 49
1.0
 49
0.0
 49
0.0
 49
0.0
 49
0.0
 49
1.0
175
     0
142
0.0008202099737533
142
0.0
142
0.0
142
0.0
142
0.0
142
0.0008202099737533
142
0.0
142
0.0
142
0.0
142
0.0
142
1.0
142
0.0
142
0.0
142
0.0
142
0.0
142
1.0
179
     0
144
0.0008202099737533
144
0.0
144
0.0
144
0.0
144
0.0
144
0.0008202099737533
144
0.0
144
0.0
144
0.0
144
0.0
144
1.0
144
0.0
144
0.0
144
0.0
144
0.0
144
1.0
147
0.0008202099737533
147
0.0
147
0.0
147
0.0
147
0.0
147
0.0008202099737533
147
0.0
147
0.0
147
0.0
147
0.0
147
1.0
147
0.0
147
0.0
147
0.0
147
0.0
147
1.0
  0
MATERIAL
  5
9B0
102
{ACAD_XDICTIONARY
360
9B1
102
}
102
{ACAD_REACTORS
330
6A
102
}
330
6A
100
AcDbMaterial
  1
ByLayer
 72
     0
 43
0.0008202099737533
 43
0.0
 43
0.0
 43
0.0
 43
0.0
 43
0.0008202099737533
 43
0.0
 43
0.0
 43
0.0
 43
0.0
 43
1.0
 43
0.0
 43
0.0
 43
0.0
 43
0.0
 43
1.0
 77
     0
 47
0.0008202099737533
 47
0.0
 47
0.0
 47
0.0
 47
0.0
 47
0.0008202099737533
 47
0.0
 47
0.0
 47
0.0
 47
0.0
 47
1.0
 47
0.0
 47
0.0
 47
0.0
 47
0.0
 47
1.0
171
     0
 49
0.0008202099737533
 49
0.0
 49
0.0
 49
0.0
 49
0.0
 49
0.0008202099737533
 49
0.0
 49
0.0
 49
0.0
 49
0.0
 49
1.0
 49
0.0
 49
0.0
 49
0.0
 49
0.0
 49
1.0
175
     0
142
0.0008202099737533
142
0.0
142
0.0
142
0.0
142
0.0
142
0.0008202099737533
142
0.0
142
0.0
142
0.0
142
0.0
142
1.0
142
0.0
142
0.0
142
0.0
142
0.0
142
1.0
179
     0
144
0.0008202099737533
144
0.0
144
0.0
144
0.0
144
0.0
144
0.0008202099737533
144
0.0
144
0.0
144
0.0
144
0.0
144
1.0
144
0.0
144
0.0
144
0.0
144
0.0
144
1.0
147
0.0008202099737533
147
0.0
147
0.0
147
0.0
147
0.0
147
0.0008202099737533
147
0.0
147
0.0
147
0.0
147
0.0
147
1.0
147
0.0
147
0.0
147
0.0
147
0.0
147
1.0
  0
MATERIAL
  5
9C0
102
{ACAD_XDICTIONARY
360
9C1
102
}
102
{ACAD_REACTORS
330
6A
102
}
330
6A
100
AcDbMaterial
  1
Global
 72
     0
 43
0.0008202099737533
 43
0.0
 43
0.0
 43
0.0
 43
0.0
 43
0.0008202099737533
 43
0.0
 43
0.0
 43
0.0
 43
0.0
 43
1.0
 43
0.0
 43
0.0
 43
0.0
 43
0.0
 43
1.0
 77
     0
 47
0.0008202099737533
 47
0.0
 47
0.0
 47
0.0
 47
0.0
 47
0.0008202099737533
 47
0.0
 47
0.0
 47
0.0
 47
0.0
 47
1.0
 47
0.0
 47
0.0
 47
0.0
 47
0.0
 47
1.0
171
     0
 49
0.0008202099737533
 49
0.0
 49
0.0
 49
0.0
 49
0.0
 49
0.0008202099737533
 49
0.0
 49
0.0
 49
0.0
 49
0.0
 49
1.0
 49
0.0
 49
0.0
 49
0.0
 49
0.0
 49
1.0
175
     0
142
0.0008202099737533
142
0.0
142
0.0
142
0.0
142
0.0
142
0.0008202099737533
142
0.0
142
0.0
142
0.0
142
0.0
142
1.0
142
0.0
142
0.0
142
0.0
142
0.0
142
1.0
179
     0
144
0.0008202099737533
144
0.0
144
0.0
144
0.0
144
0.0
144
0.0008202099737533
144
0.0
144
0.0
144
0.0
144
0.0
144
1.0
144
0.0
144
0.0
144
0.0
144
0.0
144
1.0
147
0.0008202099737533
147
0.0
147
0.0
147
0.0
147
0.0
147
0.0008202099737533
147
0.0
147
0.0
147
0.0
147
0.0
147
1.0
147
0.0
147
0.0
147
0.0
147
0.0
147
1.0
  0
MLEADERSTYLE
  5
9EE
102
{ACAD_REACTORS
330
9ED
102
}
330
9ED
100
AcDbMLeaderStyle
170
     2
171
     1
172
     0
 90
        2
 40
0.0
 41
0.0
173
     1
 91
-1056964608
340
14
 92
       -2
290
     1
 42
2.0
291
     1
 43
0.36
  3
Standard
 44
4.0
300

342
11
174
     1
178
     6
175
     1
176
     0
 93
-1056964608
 45
4.0
292
     0
297
     0
 46
4.0
 94
-1056964608
 47
1.0
 49
1.0
140
1.0
293
     1
141
0.0
294
     1
177
     0
142
1.0
295
     0
296
     0
143
0.125
1001
ACAD_MLEADERVER
1070
     2
  0
MLINESTYLE
  5
18
102
{ACAD_REACTORS
330
17
102
}
330
17
100
AcDbMlineStyle
  2
STANDARD
 70
     0
  3

 62
   256
 51
90.0
 52
90.0
 71
     2
 49
0.5
 62
   256
  6
BYLAYER
 49
-0.5
 62
   256
  6
BYLAYER
  0
ACDBPLACEHOLDER
  5
F
102
{ACAD_REACTORS
330
E
102
}
330
E
  0
SCALE
  5
9DC
102
{ACAD_REACTORS
330
9DB
102
}
330
9DB
100
AcDbScale
 70
     0
300
1:1
140
1.0
141
1.0
290
     1
  0
SCALE
  5
9DD
102
{ACAD_REACTORS
330
9DB
102
}
330
9DB
100
AcDbScale
 70
     0
300
1:2
140
1.0
141
2.0
290
     0
  0
SCALE
  5
9DE
102
{ACAD_REACTORS
330
9DB
102
}
330
9DB
100
AcDbScale
 70
     0
300
1:4
140
1.0
141
4.0
290
     0
  0
SCALE
  5
9DF
102
{ACAD_REACTORS
330
9DB
102
}
330
9DB
100
AcDbScale
 70
     0
300
1:5
140
1.0
141
5.0
290
     0
  0
SCALE
  5
9E0
102
{ACAD_REACTORS
330
9DB
102
}
330
9DB
100
AcDbScale
 70
     0
300
1:8
140
1.0
141
8.0
290
     0
  0
SCALE
  5
9E1
102
{ACAD_REACTORS
330
9DB
102
}
330
9DB
100
AcDbScale
 70
     0
300
1:10
140
1.0
141
10.0
290
     0
  0
SCALE
  5
9E2
102
{ACAD_REACTORS
330
9DB
102
}
330
9DB
100
AcDbScale
 70
     0
300
1:16
140
1.0
141
16.0
290
     0
  0
SCALE
  5
9E3
102
{ACAD_REACTORS
330
9DB
102
}
330
9DB
100
AcDbScale
 70
     0
300
1:20
140
1.0
141
20.0
290
     0
  0
SCALE
  5
9E4
102
{ACAD_REACTORS
330
9DB
102
}
330
9DB
100
AcDbScale
 70
     0
300
1:30
140
1.0
141
30.0
290
     0
  0
SCALE
  5
9E5
102
{ACAD_REACTORS
330
9DB
102
}
330
9DB
100
AcDbScale
 70
     0
300
1:40
140
1.0
141
40.0
290
     0
  0
SCALE
  5
9E6
102
{ACAD_REACTORS
330
9DB
102
}
330
9DB
100
AcDbScale
 70
     0
300
1:50
140
1.0
141
50.0
290
     0
  0
SCALE
  5
9E7
102
{ACAD_REACTORS
330
9DB
102
}
330
9DB
100
AcDbScale
 70
     0
300
1:100
140
1.0
141
100.0
290
     0
  0
SCALE
  5
9E8
102
{ACAD_REACTORS
330
9DB
102
}
330
9DB
100
AcDbScale
 70
     0
300
2:1
140
2.0
141
1.0
290
     0
  0
SCALE
  5
9E9
102
{ACAD_REACTORS
330
9DB
102
}
330
9DB
100
AcDbScale
 70
     0
300
4:1
140
4.0
141
1.0
290
     0
  0
SCALE
  5
9EA
102
{ACAD_REACTORS
330
9DB
102
}
330
9DB
100
AcDbScale
 70
     0
300
8:1
140
8.0
141
1.0
290
     0
  0
SCALE
  5
9EB
102
{ACAD_REACTORS
330
9DB
102
}
330
9DB
100
AcDbScale
 70
     0
300
10:1
140
10.0
141
1.0
290
     0
  0
SCALE
  5
9EC
102
{ACAD_REACTORS
330
9DB
102
}
330
9DB
100
AcDbScale
 70
     0
300
100:1
140
100.0
141
1.0
290
     0
  0
TABLESTYLE
  5
9DA
102
{ACAD_XDICTIONARY
360
11A7
102
}
102
{ACAD_REACTORS
330
9D9
102
}
330
9D9
100
AcDbTableStyle
  3
Standard
 70
     0
 71
     0
 40
1.5
 41
1.5
280
     0
281
     0
  7
Standard
140
4.5
170
     2
 62
     0
 63
     7
283
     0
 90
      512
 91
        0
  1

274
    -2
284
     1
 64
     0
275
    -2
285
     1
 65
     0
276
    -2
286
     1
 66
     0
277
    -2
287
     1
 67
     0
278
    -2
288
     1
 68
     0
279
    -2
289
     1
 69
     0
  7
Standard
140
6.0
170
     5
 62
     0
 63
     7
283
     0
 90
      512
 91
        0
  1

274
    -2
284
     1
 64
     0
275
    -2
285
     1
 65
     0
276
    -2
286
     1
 66
     0
277
    -2
287
     1
 67
     0
278
    -2
288
     1
 68
     0
279
    -2
289
     1
 69
     0
  7
Standard
140
4.5
170
     5
 62
     0
 63
     7
283
     0
 90
      512
 91
        0
  1

274
    -2
284
     1
 64
     0
275
    -2
285
     1
 65
     0
276
    -2
286
     1
 66
     0
277
    -2
287
     1
 67
     0
278
    -2
288
     1
 68
     0
279
    -2
289
     1
 69
     0
  0
VISUALSTYLE
  5
9CE
102
{ACAD_REACTORS
330
9C8
102
}
330
9C8
100
AcDbVisualStyle
  2
2dWireframe
 70
     4
 71
     0
 72
     2
 73
     0
 90
        0
 40
-0.6
 41
-30.0
 62
     5
 63
     7
421
 16777215
 74
     1
 91
        4
 64
     7
 65
   257
 75
     1
175
     1
 42
1.0
 92
        0
 66
   257
 43
1.0
 76
     1
 77
     6
 78
     2
 67
     7
 79
     5
170
     0
171
     0
290
     0
174
     0
 93
        1
 44
0.0
173
     0
291
     0
 45
0.0
  0
VISUALSTYLE
  5
9D0
102
{ACAD_REACTORS
330
9C8
102
}
330
9C8
100
AcDbVisualStyle
  2
3D Hidden
 70
     6
 71
     1
 72
     2
 73
     2
 90
        0
 40
-0.6
 41
-30.0
 62
     5
 63
     7
421
 16777215
 74
     2
 91
        2
 64
     7
 65
   257
 75
     2
175
     1
 42
40.0
 92
        0
 66
   257
 43
1.0
 76
     1
 77
     6
 78
     2
 67
     7
 79
     3
170
     0
171
     0
290
     0
174
     0
 93
        1
 44
0.0
173
     0
291
     0
 45
0.0
  0
VISUALSTYLE
  5
9CF
102
{ACAD_REACTORS
330
9C8
102
}
330
9C8
100
AcDbVisualStyle
  2
3dWireframe
 70
     5
 71
     0
 72
     2
 73
     0
 90
        0
 40
-0.6
 41
-30.0
 62
     5
 63
     7
421
 16777215
 74
     1
 91
        4
 64
     7
 65
   257
 75
     1
175
     1
 42
1.0
 92
        0
 66
   257
 43
1.0
 76
     1
 77
     6
 78
     2
 67
     7
 79
     5
170
     0
171
     0
290
     0
174
     0
 93
        1
 44
0.0
173
     0
291
     0
 45
0.0
  0
VISUALSTYLE
  5
9CD
102
{ACAD_REACTORS
330
9C8
102
}
330
9C8
100
AcDbVisualStyle
  2
Basic
 70
     7
 71
     1
 72
     0
 73
     1
 90
        0
 40
-0.6
 41
-30.0
 62
     5
 63
     7
421
 16777215
 74
     0
 91
        4
 64
     7
 65
   257
 75
     1
175
     1
 42
1.0
 92
        8
 66
     7
 43
1.0
 76
     1
 77
     6
 78
     2
 67
     7
 79
     5
170
     0
171
     0
290
     0
174
     0
 93
        1
 44
0.0
173
     0
291
     1
 45
0.0
  0
VISUALSTYLE
  5
9D4
102
{ACAD_REACTORS
330
9C8
102
}
330
9C8
100
AcDbVisualStyle
  2
Brighten
 70
    12
 71
     2
 72
     2
 73
     0
 90
        0
 40
-0.6
 41
-30.0
 62
     5
 63
     7
421
 16777215
 74
     1
 91
        4
 64
     7
 65
   257
 75
     1
175
     1
 42
1.0
 92
        8
 66
     7
 43
1.0
 76
     1
 77
     6
 78
     2
 67
     7
 79
     5
170
     0
171
     0
290
     0
174
     0
 93
        1
 44
50.0
173
     0
291
     1
 45
0.0
  0
VISUALSTYLE
  5
9D8
102
{ACAD_REACTORS
330
9C8
102
}
330
9C8
100
AcDbVisualStyle
  2
ColorChange
 70
    16
 71
     2
 72
     2
 73
     3
 90
        0
 40
-0.6
 41
-30.0
 62
     5
 63
     8
421
  8421504
 74
     1
 91
        4
 64
     7
 65
   257
 75
     1
175
     1
 42
1.0
 92
        8
 66
     8
424
  8421504
 43
1.0
 76
     1
 77
     6
 78
     2
 67
     7
 79
     5
170
     0
171
     0
290
     0
174
     0
 93
        1
 44
0.0
173
     0
291
     1
 45
0.0
  0
VISUALSTYLE
  5
9D1
102
{ACAD_REACTORS
330
9C8
102
}
330
9C8
100
AcDbVisualStyle
  2
Conceptual
 70
     9
 71
     3
 72
     2
 73
     0
 90
        0
 40
-0.6
 41
-30.0
 62
     5
 63
     7
421
 16777215
 74
     2
 91
        2
 64
     7
 65
   257
 75
     1
175
     1
 42
40.0
 92
        8
 66
     7
 43
1.0
 76
     1
 77
     6
 78
     2
 67
     7
 79
     3
170
     0
171
     0
290
     0
174
     0
 93
        1
 44
0.0
173
     0
291
     0
 45
0.0
  0
VISUALSTYLE
  5
9D3
102
{ACAD_REACTORS
330
9C8
102
}
330
9C8
100
AcDbVisualStyle
  2
Dim
 70
    11
 71
     2
 72
     2
 73
     0
 90
        0
 40
-0.6
 41
-30.0
 62
     5
 63
     7
421
 16777215
 74
     1
 91
        4
 64
     7
 65
   257
 75
     1
175
     1
 42
1.0
 92
        8
 66
     7
 43
1.0
 76
     1
 77
     6
 78
     2
 67
     7
 79
     5
170
     0
171
     0
290
     0
174
     0
 93
        1
 44
-50.0
173
     0
291
     1
 45
0.0
  0
VISUALSTYLE
  5
9D7
102
{ACAD_REACTORS
330
9C8
102
}
330
9C8
100
AcDbVisualStyle
  2
Facepattern
 70
    15
 71
     2
 72
     2
 73
     0
 90
        0
 40
-0.6
 41
-30.0
 62
     5
 63
     7
421
 16777215
 74
     1
 91
        4
 64
     7
 65
   257
 75
     1
175
     1
 42
1.0
 92
        8
 66
     7
 43
1.0
 76
     1
 77
     6
 78
     2
 67
     7
 79
     5
170
     0
171
     0
290
     0
174
     0
 93
        1
 44
0.0
173
     0
291
     1
 45
0.0
  0
VISUALSTYLE
  5
9C9
102
{ACAD_REACTORS
330
9C8
102
}
330
9C8
100
AcDbVisualStyle
  2
Flat
 70
     0
 71
     2
 72
     1
 73
     1
 90
        2
 40
-0.6
 41
30.0
 62
     5
 63
     7
421
 16777215
 74
     0
 91
        4
 64
     7
 65
   257
 75
     1
175
     1
 42
1.0
 92
        8
 66
     7
 43
1.0
 76
     1
 77
     6
 78
     2
 67
     7
 79
     5
170
     0
171
     0
290
     0
174
     0
 93
       13
 44
0.0
173
     0
291
     1
 45
0.0
  0
VISUALSTYLE
  5
9CA
102
{ACAD_REACTORS
330
9C8
102
}
330
9C8
100
AcDbVisualStyle
  2
FlatWithEdges
 70
     1
 71
     2
 72
     1
 73
     1
 90
        2
 40
-0.6
 41
30.0
 62
     5
 63
     7
421
 16777215
 74
     1
 91
        4
 64
     7
 65
   257
 75
     1
175
     1
 42
1.0
 92
        0
 66
   257
 43
1.0
 76
     1
 77
     6
 78
     2
 67
     7
 79
     5
170
     0
171
     0
290
     0
174
     0
 93
       13
 44
0.0
173
     0
291
     1
 45
0.0
  0
VISUALSTYLE
  5
9CB
102
{ACAD_REACTORS
330
9C8
102
}
330
9C8
100
AcDbVisualStyle
  2
Gouraud
 70
     2
 71
     2
 72
     2
 73
     1
 90
        2
 40
-0.6
 41
30.0
 62
     5
 63
     7
421
 16777215
 74
     0
 91
        4
 64
     7
 65
   257
 75
     1
175
     1
 42
1.0
 92
        0
 66
     7
 43
1.0
 76
     1
 77
     6
 78
     2
 67
     7
 79
     5
170
     0
171
     0
290
     0
174
     0
 93
       13
 44
0.0
173
     0
291
     1
 45
0.0
  0
VISUALSTYLE
  5
9CC
102
{ACAD_REACTORS
330
9C8
102
}
330
9C8
100
AcDbVisualStyle
  2
GouraudWithEdges
 70
     3
 71
     2
 72
     2
 73
     1
 90
        2
 40
-0.6
 41
30.0
 62
     5
 63
     7
421
 16777215
 74
     1
 91
        4
 64
     7
 65
   257
 75
     1
175
     1
 42
1.0
 92
        0
 66
   257
 43
1.0
 76
     1
 77
     6
 78
     2
 67
     7
 79
     5
170
     0
171
     0
290
     0
174
     0
 93
       13
 44
0.0
173
     0
291
     1
 45
0.0
  0
VISUALSTYLE
  5
9D6
102
{ACAD_REACTORS
330
9C8
102
}
330
9C8
100
AcDbVisualStyle
  2
Linepattern
 70
    14
 71
     2
 72
     2
 73
     0
 90
        0
 40
-0.6
 41
-30.0
 62
     5
 63
     7
421
 16777215
 74
     1
 91
        4
 64
     7
 65
   257
 75
     7
175
     7
 42
1.0
 92
        8
 66
     7
 43
1.0
 76
     1
 77
     6
 78
     2
 67
     7
 79
     5
170
     0
171
     0
290
     0
174
     0
 93
        1
 44
0.0
173
     0
291
     1
 45
0.0
  0
VISUALSTYLE
  5
9D2
102
{ACAD_REACTORS
330
9C8
102
}
330
9C8
100
AcDbVisualStyle
  2
Realistic
 70
     8
 71
     2
 72
     2
 73
     0
 90
        0
 40
-0.6
 41
-30.0
 62
     5
 63
     7
421
 16777215
 74
     1
 91
        0
 64
     7
 65
   257
 75
     1
175
     1
 42
1.0
 92
        8
 66
     8
424
  7895160
 43
1.0
 76
     1
 77
     6
 78
     2
 67
     7
 79
     5
170
     0
171
     0
290
     0
174
     0
 93
       13
 44
0.0
173
     0
291
     0
 45
0.0
  0
VISUALSTYLE
  5
9D5
102
{ACAD_REACTORS
330
9C8
102
}
330
9C8
100
AcDbVisualStyle
  2
Thicken
 70
    13
 71
     2
 72
     2
 73
     0
 90
        0
 40
-0.6
 41
-30.0
 62
     5
 63
     7
421
 16777215
 74
     1
 91
        4
 64
     7
 65
   257
 75
     1
175
     1
 42
1.0
 92
       12
 66
     7
 43
1.0
 76
     1
 77
     6
 78
     2
 67
     7
 79
     5
170
     0
171
     0
290
     0
174
     0
 93
        1
 44
0.0
173
     0
291
     1
 45
0.0
  0
DICTIONARYVAR
  5
F54
102
{ACAD_REACTORS
330
5E
102
}
330
5E
100
DictionaryVariables
280
     0
  1
1:1
  0
DICTIONARYVAR
  5
F52
102
{ACAD_REACTORS
330
5E
102
}
330
5E
100
DictionaryVariables
280
     0
  1
STANDARD
  0
DICTIONARYVAR
  5
F51
102
{ACAD_REACTORS
330
5E
102
}
330
5E
100
DictionaryVariables
280
     0
  1
STANDARD
  0
DICTIONARYVAR
  5
5F
102
{ACAD_REACTORS
330
5E
102
}
330
5E
100
DictionaryVariables
280
     0
  1
2
  0
DICTIONARYVAR
  5
63
102
{ACAD_REACTORS
330
5E
102
}
330
5E
100
DictionaryVariables
280
     0
  1
1
  0
DICTIONARYVAR
  5
F56
102
{ACAD_REACTORS
330
5E
102
}
330
5E
100
DictionaryVariables
280
     0
  1
1
  0
DICTIONARYVAR
  5
F57
102
{ACAD_REACTORS
330
5E
102
}
330
5E
100
DictionaryVariables
280
     0
  1
15
  0
DICTIONARYVAR
  5
F55
102
{ACAD_REACTORS
330
5E
102
}
330
5E
100
DictionaryVariables
280
     0
  1
0
  0
DICTIONARYVAR
  5
F53
102
{ACAD_REACTORS
330
5E
102
}
330
5E
100
DictionaryVariables
280
     0
  1
0
  0
DICTIONARYVAR
  5
81E
102
{ACAD_REACTORS
330
5E
102
}
330
5E
100
DictionaryVariables
280
     0
  1

  0
DICTIONARY
  5
9B9
330
9B8
100
AcDbDictionary
280
     1
281
     1
  3
BUMPTILE
360
9BB
  3
DIFFUSETILE
360
9BA
  3
OPACITYTILE
360
9BE
  3
REFLECTIONTILE
360
9BD
  3
REFRACTIONTILE
360
9BF
  3
SPECULARTILE
360
9BC
  0
DICTIONARY
  5
9B1
330
9B0
100
AcDbDictionary
280
     1
281
     1
  3
BUMPTILE
360
9B3
  3
DIFFUSETILE
360
9B2
  3
OPACITYTILE
360
9B6
  3
REFLECTIONTILE
360
9B5
  3
REFRACTIONTILE
360
9B7
  3
SPECULARTILE
360
9B4
  0
DICTIONARY
  5
9C1
330
9C0
100
AcDbDictionary
280
     1
281
     1
  3
BUMPTILE
360
9C3
  3
DIFFUSETILE
360
9C2
  3
OPACITYTILE
360
9C6
  3
REFLECTIONTILE
360
9C5
  3
REFRACTIONTILE
360
9C7
  3
SPECULARTILE
360
9C4
  0
DICTIONARY
  5
11A7
330
9DA
100
AcDbDictionary
280
     1
281
     1
  3
ACAD_ROUNDTRIP_2008_TABLESTYLE_CELLSTYLEMAP
360
11A8
  0
XRECORD
  5
9BB
102
{ACAD_REACTORS
330
9B9
102
}
330
9B9
100
AcDbXrecord
280
     1
270
     1
271
     1
  0
XRECORD
  5
9BA
102
{ACAD_REACTORS
330
9B9
102
}
330
9B9
100
AcDbXrecord
280
     1
270
     1
271
     1
  0
XRECORD
  5
9BE
102
{ACAD_REACTORS
330
9B9
102
}
330
9B9
100
AcDbXrecord
280
     1
270
     1
271
     1
  0
XRECORD
  5
9BD
102
{ACAD_REACTORS
330
9B9
102
}
330
9B9
100
AcDbXrecord
280
     1
270
     1
271
     1
  0
XRECORD
  5
9BF
102
{ACAD_REACTORS
330
9B9
102
}
330
9B9
100
AcDbXrecord
280
     1
270
     1
271
     1
  0
XRECORD
  5
9BC
102
{ACAD_REACTORS
330
9B9
102
}
330
9B9
100
AcDbXrecord
280
     1
270
     1
271
     1
  0
XRECORD
  5
9B3
102
{ACAD_REACTORS
330
9B1
102
}
330
9B1
100
AcDbXrecord
280
     1
270
     1
271
     1
  0
XRECORD
  5
9B2
102
{ACAD_REACTORS
330
9B1
102
}
330
9B1
100
AcDbXrecord
280
     1
270
     1
271
     1
  0
XRECORD
  5
9B6
102
{ACAD_REACTORS
330
9B1
102
}
330
9B1
100
AcDbXrecord
280
     1
270
     1
271
     1
  0
XRECORD
  5
9B5
102
{ACAD_REACTORS
330
9B1
102
}
330
9B1
100
AcDbXrecord
280
     1
270
     1
271
     1
  0
XRECORD
  5
9B7
102
{ACAD_REACTORS
330
9B1
102
}
330
9B1
100
AcDbXrecord
280
     1
270
     1
271
     1
  0
XRECORD
  5
9B4
102
{ACAD_REACTORS
330
9B1
102
}
330
9B1
100
AcDbXrecord
280
     1
270
     1
271
     1
  0
XRECORD
  5
9C3
102
{ACAD_REACTORS
330
9C1
102
}
330
9C1
100
AcDbXrecord
280
     1
270
     1
271
     1
  0
XRECORD
  5
9C2
102
{ACAD_REACTORS
330
9C1
102
}
330
9C1
100
AcDbXrecord
280
     1
270
     1
271
     1
  0
XRECORD
  5
9C6
102
{ACAD_REACTORS
330
9C1
102
}
330
9C1
100
AcDbXrecord
280
     1
270
     1
271
     1
  0
XRECORD
  5
9C5
102
{ACAD_REACTORS
330
9C1
102
}
330
9C1
100
AcDbXrecord
280
     1
270
     1
271
     1
  0
XRECORD
  5
9C7
102
{ACAD_REACTORS
330
9C1
102
}
330
9C1
100
AcDbXrecord
280
     1
270
     1
271
     1
  0
XRECORD
  5
9C4
102
{ACAD_REACTORS
330
9C1
102
}
330
9C1
100
AcDbXrecord
280
     1
270
     1
271
     1
  0
CELLSTYLEMAP
  5
11A8
102
{ACAD_REACTORS
330
11A7
102
}
330
11A7
100
AcDbCellStyleMap
 90
        3
300
CELLSTYLE
  1
TABLEFORMAT_BEGIN
 90
        5
170
     1
 91
        0
 92
    32768
 62
   257
 93
        1
300
CONTENTFORMAT
  1
CONTENTFORMAT_BEGIN
 90
        0
 91
        0
 92
      512
 93
        0
300

 40
0.0
140
1.0
 94
        5
 62
     0
340
11
144
6.0
309
CONTENTFORMAT_END
171
     1
301
MARGIN
  1
CELLMARGIN_BEGIN
 40
1.5
 40
1.5
 40
1.5
 40
1.5
 40
4.5
 40
4.5
309
CELLMARGIN_END
 94
        6
 95
        1
302
GRIDFORMAT
  1
GRIDFORMAT_BEGIN
 90
        0
 91
        1
 62
     0
 92
       -2
340
0
 93
        0
 40
1.125
309
GRIDFORMAT_END
 95
        2
302
GRIDFORMAT
  1
GRIDFORMAT_BEGIN
 90
        0
 91
        1
 62
     0
 92
       -2
340
0
 93
        0
 40
1.125
309
GRIDFORMAT_END
 95
        4
302
GRIDFORMAT
  1
GRIDFORMAT_BEGIN
 90
        0
 91
        1
 62
     0
 92
       -2
340
0
 93
        0
 40
1.125
309
GRIDFORMAT_END
 95
        8
302
GRIDFORMAT
  1
GRIDFORMAT_BEGIN
 90
        0
 91
        1
 62
     0
 92
       -2
340
0
 93
        0
 40
1.125
309
GRIDFORMAT_END
 95
       16
302
GRIDFORMAT
  1
GRIDFORMAT_BEGIN
 90
        0
 91
        1
 62
     0
 92
       -2
340
0
 93
        0
 40
1.125
309
GRIDFORMAT_END
 95
       32
302
GRIDFORMAT
  1
GRIDFORMAT_BEGIN
 90
        0
 91
        1
 62
     0
 92
       -2
340
0
 93
        0
 40
1.125
309
GRIDFORMAT_END
309
TABLEFORMAT_END
  1
CELLSTYLE_BEGIN
 90
        1
 91
        1
300
_TITLE
309
CELLSTYLE_END
300
CELLSTYLE
  1
TABLEFORMAT_BEGIN
 90
        5
170
     1
 91
        0
 92
        0
 62
   257
 93
        1
300
CONTENTFORMAT
  1
CONTENTFORMAT_BEGIN
 90
        0
 91
        0
 92
      512
 93
        0
300

 40
0.0
140
1.0
 94
        5
 62
     0
340
11
144
4.5
309
CONTENTFORMAT_END
171
     1
301
MARGIN
  1
CELLMARGIN_BEGIN
 40
1.5
 40
1.5
 40
1.5
 40
1.5
 40
4.5
 40
4.5
309
CELLMARGIN_END
 94
        6
 95
        1
302
GRIDFORMAT
  1
GRIDFORMAT_BEGIN
 90
        0
 91
        1
 62
     0
 92
       -2
340
0
 93
        0
 40
1.125
309
GRIDFORMAT_END
 95
        2
302
GRIDFORMAT
  1
GRIDFORMAT_BEGIN
 90
        0
 91
        1
 62
     0
 92
       -2
340
0
 93
        0
 40
1.125
309
GRIDFORMAT_END
 95
        4
302
GRIDFORMAT
  1
GRIDFORMAT_BEGIN
 90
        0
 91
        1
 62
     0
 92
       -2
340
0
 93
        0
 40
1.125
309
GRIDFORMAT_END
 95
        8
302
GRIDFORMAT
  1
GRIDFORMAT_BEGIN
 90
        0
 91
        1
 62
     0
 92
       -2
340
0
 93
        0
 40
1.125
309
GRIDFORMAT_END
 95
       16
302
GRIDFORMAT
  1
GRIDFORMAT_BEGIN
 90
        0
 91
        1
 62
     0
 92
       -2
340
0
 93
        0
 40
1.125
309
GRIDFORMAT_END
 95
       32
302
GRIDFORMAT
  1
GRIDFORMAT_BEGIN
 90
        0
 91
        1
 62
     0
 92
       -2
340
0
 93
        0
 40
1.125
309
GRIDFORMAT_END
309
TABLEFORMAT_END
  1
CELLSTYLE_BEGIN
 90
        2
 91
        1
300
_HEADER
309
CELLSTYLE_END
300
CELLSTYLE
  1
TABLEFORMAT_BEGIN
 90
        5
170
     1
 91
        0
 92
        0
 62
   257
 93
        1
300
CONTENTFORMAT
  1
CONTENTFORMAT_BEGIN
 90
        0
 91
        0
 92
      512
 93
        0
300

 40
0.0
140
1.0
 94
        2
 62
     0
340
11
144
4.5
309
CONTENTFORMAT_END
171
     1
301
MARGIN
  1
CELLMARGIN_BEGIN
 40
1.5
 40
1.5
 40
1.5
 40
1.5
 40
4.5
 40
4.5
309
CELLMARGIN_END
 94
        6
 95
        1
302
GRIDFORMAT
  1
GRIDFORMAT_BEGIN
 90
        0
 91
        1
 62
     0
 92
       -2
340
0
 93
        0
 40
1.125
309
GRIDFORMAT_END
 95
        2
302
GRIDFORMAT
  1
GRIDFORMAT_BEGIN
 90
        0
 91
        1
 62
     0
 92
       -2
340
0
 93
        0
 40
1.125
309
GRIDFORMAT_END
 95
        4
302
GRIDFORMAT
  1
GRIDFORMAT_BEGIN
 90
        0
 91
        1
 62
     0
 92
       -2
340
0
 93
        0
 40
1.125
309
GRIDFORMAT_END
 95
        8
302
GRIDFORMAT
  1
GRIDFORMAT_BEGIN
 90
        0
 91
        1
 62
     0
 92
       -2
340
0
 93
        0
 40
1.125
309
GRIDFORMAT_END
 95
       16
302
GRIDFORMAT
  1
GRIDFORMAT_BEGIN
 90
        0
 91
        1
 62
     0
 92
       -2
340
0
 93
        0
 40
1.125
309
GRIDFORMAT_END
 95
       32
302
GRIDFORMAT
  1
GRIDFORMAT_BEGIN
 90
        0
 91
        1
 62
     0
 92
       -2
340
0
 93
        0
 40
1.125
309
GRIDFORMAT_END
309
TABLEFORMAT_END
  1
CELLSTYLE_BEGIN
 90
        3
 91
        2
300
_DATA
309
CELLSTYLE_END
  0
ENDSEC
  0
EOF
