  0
SECTION
  2
HEADER
  9
$ACADVER
  1
AC1015
  9
$ACADMAINTVER
 70
    20
  9
$DWGCODEPAGE
  3
ANSI_1250
  9
$INSBASE
 10
0.0
 20
0.0
 30
0.0
  9
$EXTMIN
 10
-1213.820801571102
 20
1538.062859121752
 30
0.0
  9
$EXTMAX
 10
2604.071237312248
 20
3768.118956294443
 30
0.0
  9
$LIMMIN
 10
0.0
 20
0.0
  9
$LIMMAX
 10
420.0
 20
297.0
  9
$ORTHOMODE
 70
     1
  9
$REGENMODE
 70
     1
  9
$FILLMODE
 70
     1
  9
$QTEXTMODE
 70
     0
  9
$MIRRTEXT
 70
     0
  9
$LTSCALE
 40
1.0
  9
$ATTMODE
 70
     1
  9
$TEXTSIZE
 40
2.5
  9
$TRACEWID
 40
1.0
  9
$TEXTSTYLE
  7
Standard
  9
$CLAYER
  8
wymiary
  9
$CELTYPE
  6
ByLayer
  9
$CECOLOR
 62
   256
  9
$CELTSCALE
 40
1.0
  9
$DISPSILH
 70
     0
  9
$DIMSCALE
 40
1.0
  9
$DIMASZ
 40
20.0
  9
$DIMEXO
 40
0.0
  9
$DIMDLI
 40
3.75
  9
$DIMRND
 40
0.0
  9
$DIMDLE
 40
0.0
  9
$DIMEXE
 40
0.0
  9
$DIMTP
 40
0.0
  9
$DIMTM
 40
0.0
  9
$DIMTXT
 40
15.0
  9
$DIMCEN
 40
2.5
  9
$DIMTSZ
 40
0.0
  9
$DIMTOL
 70
     0
  9
$DIMLIM
 70
     0
  9
$DIMTIH
 70
     0
  9
$DIMTOH
 70
     0
  9
$DIMSE1
 70
     0
  9
$DIMSE2
 70
     0
  9
$DIMTAD
 70
     1
  9
$DIMZIN
 70
     8
  9
$DIMBLK
  1

  9
$DIMASO
 70
     1
  9
$DIMSHO
 70
     1
  9
$DIMPOST
  1

  9
$DIMAPOST
  1

  9
$DIMALT
 70
     0
  9
$DIMALTD
 70
     3
  9
$DIMALTF
 40
0.03937007874016
  9
$DIMLFAC
 40
1.0
  9
$DIMTOFL
 70
     1
  9
$DIMTVP
 40
0.0
  9
$DIMTIX
 70
     0
  9
$DIMSOXD
 70
     0
  9
$DIMSAH
 70
     0
  9
$DIMBLK1
  1

  9
$DIMBLK2
  1

  9
$DIMSTYLE
  2
Kopia ISO-25
  9
$DIMCLRD
 70
     0
  9
$DIMCLRE
 70
     0
  9
$DIMCLRT
 70
     0
  9
$DIMTFAC
 40
1.0
  9
$DIMGAP
 40
6.0
  9
$DIMJUST
 70
     0
  9
$DIMSD1
 70
     0
  9
$DIMSD2
 70
     0
  9
$DIMTOLJ
 70
     0
  9
$DIMTZIN
 70
     8
  9
$DIMALTZ
 70
     0
  9
$DIMALTTZ
 70
     0
  9
$DIMUPT
 70
     0
  9
$DIMDEC
 70
     2
  9
$DIMTDEC
 70
     2
  9
$DIMALTU
 70
     2
  9
$DIMALTTD
 70
     3
  9
$DIMTXSTY
  7
Standard
  9
$DIMAUNIT
 70
     0
  9
$DIMADEC
 70
     0
  9
$DIMALTRND
 40
0.0
  9
$DIMAZIN
 70
     0
  9
$DIMDSEP
 70
    44
  9
$DIMATFIT
 70
     3
  9
$DIMFRAC
 70
     0
  9
$DIMLDRBLK
  1

  9
$DIMLUNIT
 70
     2
  9
$DIMLWD
 70
    -2
  9
$DIMLWE
 70
    -1
  9
$DIMTMOVE
 70
     0
  9
$LUNITS
 70
     2
  9
$LUPREC
 70
     4
  9
$SKETCHINC
 40
1.0
  9
$FILLETRAD
 40
0.0
  9
$AUNITS
 70
     0
  9
$AUPREC
 70
     0
  9
$MENU
  1
.
  9
$ELEVATION
 40
0.0
  9
$PELEVATION
 40
0.0
  9
$THICKNESS
 40
0.0
  9
$LIMCHECK
 70
     0
  9
$CHAMFERA
 40
0.0
  9
$CHAMFERB
 40
0.0
  9
$CHAMFERC
 40
0.0
  9
$CHAMFERD
 40
0.0
  9
$SKPOLY
 70
     0
  9
$TDCREATE
 40
2453959.416956308
  9
$TDUCREATE
 40
2453959.375289641
  9
$TDUPDATE
 40
2456666.942548102
  9
$TDUUPDATE
 40
2456666.900881435
  9
$TDINDWG
 40
0.1446656250
  9
$TDUSRTIMER
 40
0.1446641667
  9
$USRTIMER
 70
     1
  9
$ANGBASE
 50
0.0
  9
$ANGDIR
 70
     0
  9
$PDMODE
 70
     0
  9
$PDSIZE
 40
0.0
  9
$PLINEWID
 40
0.0
  9
$SPLFRAME
 70
     0
  9
$SPLINETYPE
 70
     6
  9
$SPLINESEGS
 70
     8
  9
$HANDSEED
  5
AF3
  9
$SURFTAB1
 70
     6
  9
$SURFTAB2
 70
     6
  9
$SURFTYPE
 70
     6
  9
$SURFU
 70
     6
  9
$SURFV
 70
     6
  9
$UCSBASE
  2

  9
$UCSNAME
  2

  9
$UCSORG
 10
0.0
 20
0.0
 30
0.0
  9
$UCSXDIR
 10
1.0
 20
0.0
 30
0.0
  9
$UCSYDIR
 10
0.0
 20
1.0
 30
0.0
  9
$UCSORTHOREF
  2

  9
$UCSORTHOVIEW
 70
     0
  9
$UCSORGTOP
 10
0.0
 20
0.0
 30
0.0
  9
$UCSORGBOTTOM
 10
0.0
 20
0.0
 30
0.0
  9
$UCSORGLEFT
 10
0.0
 20
0.0
 30
0.0
  9
$UCSORGRIGHT
 10
0.0
 20
0.0
 30
0.0
  9
$UCSORGFRONT
 10
0.0
 20
0.0
 30
0.0
  9
$UCSORGBACK
 10
0.0
 20
0.0
 30
0.0
  9
$PUCSBASE
  2

  9
$PUCSNAME
  2

  9
$PUCSORG
 10
0.0
 20
0.0
 30
0.0
  9
$PUCSXDIR
 10
1.0
 20
0.0
 30
0.0
  9
$PUCSYDIR
 10
0.0
 20
1.0
 30
0.0
  9
$PUCSORTHOREF
  2

  9
$PUCSORTHOVIEW
 70
     0
  9
$PUCSORGTOP
 10
0.0
 20
0.0
 30
0.0
  9
$PUCSORGBOTTOM
 10
0.0
 20
0.0
 30
0.0
  9
$PUCSORGLEFT
 10
0.0
 20
0.0
 30
0.0
  9
$PUCSORGRIGHT
 10
0.0
 20
0.0
 30
0.0
  9
$PUCSORGFRONT
 10
0.0
 20
0.0
 30
0.0
  9
$PUCSORGBACK
 10
0.0
 20
0.0
 30
0.0
  9
$USERI1
 70
     0
  9
$USERI2
 70
     0
  9
$USERI3
 70
     0
  9
$USERI4
 70
     0
  9
$USERI5
 70
     0
  9
$USERR1
 40
0.0
  9
$USERR2
 40
0.0
  9
$USERR3
 40
0.0
  9
$USERR4
 40
0.0
  9
$USERR5
 40
0.0
  9
$WORLDVIEW
 70
     1
  9
$SHADEDGE
 70
     3
  9
$SHADEDIF
 70
    70
  9
$TILEMODE
 70
     1
  9
$MAXACTVP
 70
    64
  9
$PINSBASE
 10
0.0
 20
0.0
 30
0.0
  9
$PLIMCHECK
 70
     0
  9
$PEXTMIN
 10
0.0
 20
0.0
 30
0.0
  9
$PEXTMAX
 10
0.0
 20
0.0
 30
0.0
  9
$PLIMMIN
 10
0.0
 20
0.0
  9
$PLIMMAX
 10
12.0
 20
9.0
  9
$UNITMODE
 70
     0
  9
$VISRETAIN
 70
     1
  9
$PLINEGEN
 70
     0
  9
$PSLTSCALE
 70
     1
  9
$TREEDEPTH
 70
  3020
  9
$CMLSTYLE
  2
Standard
  9
$CMLJUST
 70
     0
  9
$CMLSCALE
 40
20.0
  9
$PROXYGRAPHICS
 70
     1
  9
$MEASUREMENT
 70
     1
  9
$CELWEIGHT
370
    -1
  9
$ENDCAPS
280
     0
  9
$JOINSTYLE
280
     0
  9
$LWDISPLAY
290
     0
  9
$INSUNITS
 70
     4
  9
$HYPERLINKBASE
  1

  9
$STYLESHEET
  1

  9
$XEDIT
290
     1
  9
$CEPSNTYPE
380
     0
  9
$PSTYLEMODE
290
     1
  9
$FINGERPRINTGUID
  2
{FDEAD578-A652-11D2-9A35-0060089B3A3F}
  9
$VERSIONGUID
  2
{534E5E14-EB66-4EC7-A13B-961296949F31}
  9
$EXTNAMES
290
     1
  9
$PSVPSCALE
 40
0.0
  9
$OLESTARTUP
290
     0
  0
ENDSEC
  0
SECTION
  2
CLASSES
  0
CLASS
  1
ACDBDICTIONARYWDFLT
  2
AcDbDictionaryWithDefault
  3
ObjectDBX Classes
 90
        0
280
     0
281
     0
  0
CLASS
  1
DICTIONARYVAR
  2
AcDbDictionaryVar
  3
ObjectDBX Classes
 90
        0
280
     0
281
     0
  0
CLASS
  1
DIMASSOC
  2
AcDbDimAssoc
  3
"AcDbDimAssoc|Product Desc:     AcDim ARX App For Dimension|Company:          Autodesk, Inc.|WEB Address:      www.autodesk.com"
 90
        0
280
     0
281
     0
  0
CLASS
  1
ACDBPLACEHOLDER
  2
AcDbPlaceHolder
  3
ObjectDBX Classes
 90
        0
280
     0
281
     0
  0
CLASS
  1
LAYOUT
  2
AcDbLayout
  3
ObjectDBX Classes
 90
        0
280
     0
281
     0
  0
CLASS
  1
MATERIAL
  2
AcDbMaterial
  3
ObjectDBX Classes
 90
     1153
280
     0
281
     0
  0
CLASS
  1
VISUALSTYLE
  2
AcDbVisualStyle
  3
ObjectDBX Classes
 90
     4095
280
     0
281
     0
  0
CLASS
  1
TABLESTYLE
  2
AcDbTableStyle
  3
ObjectDBX Classes
 90
     4095
280
     0
281
     0
  0
CLASS
  1
SCALE
  2
AcDbScale
  3
ObjectDBX Classes
 90
     1153
280
     0
281
     0
  0
CLASS
  1
MLEADERSTYLE
  2
AcDbMLeaderStyle
  3
ACDB_MLEADERSTYLE_CLASS
 90
     4095
280
     0
281
     0
  0
CLASS
  1
ACAD_EVALUATION_GRAPH
  2
AcDbEvalGraph
  3
ObjectDBX Classes
 90
     1153
280
     0
281
     0
  0
CLASS
  1
ACAECUSTOBJ
  2
AcAeEditorObj
  3
AcAeEditorObj
 90
     1024
280
     0
281
     0
  0
CLASS
  1
ACDB_DYNAMICBLOCKPURGEPREVENTER_VERSION
  2
AcDbDynamicBlockPurgePreventer
  3
ObjectDBX Classes
 90
     1153
280
     0
281
     0
  0
CLASS
  1
CELLSTYLEMAP
  2
AcDbCellStyleMap
  3
ObjectDBX Classes
 90
     1152
280
     0
281
     0
  0
ENDSEC
  0
SECTION
  2
TABLES
  0
TABLE
  2
VPORT
  5
8
330
0
100
AcDbSymbolTable
 70
     1
  0
VPORT
  5
7BF
330
8
100
AcDbSymbolTableRecord
100
AcDbViewportTableRecord
  2
*Active
 70
     0
 10
0.0
 20
0.0
 11
1.0
 21
1.0
 12
883.0363204112254
 22
2326.571312143826
 13
0.0
 23
0.0
 14
10.0
 24
10.0
 15
10.0
 25
10.0
 16
0.0
 26
0.0
 36
1.0
 17
0.0
 27
0.0
 37
0.0
 40
3651.671245311141
 41
1.797650130548302
 42
50.0
 43
0.0
 44
0.0
 50
0.0
 51
0.0
 71
     0
 72
  1000
 73
     1
 74
     3
 75
     0
 76
     0
 77
     0
 78
     0
281
     0
 65
     1
110
0.0
120
0.0
130
0.0
111
1.0
121
0.0
131
0.0
112
0.0
122
1.0
132
0.0
 79
     0
146
0.0
  0
ENDTAB
  0
TABLE
  2
LTYPE
  5
5
330
0
100
AcDbSymbolTable
 70
     1
  0
LTYPE
  5
14
330
5
100
AcDbSymbolTableRecord
100
AcDbLinetypeTableRecord
  2
ByBlock
 70
     0
  3

 72
    65
 73
     0
 40
0.0
  0
LTYPE
  5
15
330
5
100
AcDbSymbolTableRecord
100
AcDbLinetypeTableRecord
  2
ByLayer
 70
     0
  3

 72
    65
 73
     0
 40
0.0
  0
LTYPE
  5
16
330
5
100
AcDbSymbolTableRecord
100
AcDbLinetypeTableRecord
  2
Continuous
 70
     0
  3
Solid line
 72
    65
 73
     0
 40
0.0
  0
ENDTAB
  0
TABLE
  2
LAYER
  5
2
330
0
100
AcDbSymbolTable
 70
     4
  0
LAYER
  5
10
102
{ACAD_XDICTIONARY
360
844
102
}
330
2
100
AcDbSymbolTableRecord
100
AcDbLayerTableRecord
  2
0
 70
     0
 62
     7
  6
Continuous
370
    -3
390
F
  0
LAYER
  5
2FD
330
2
100
AcDbSymbolTableRecord
100
AcDbLayerTableRecord
  2
Defpoints
 70
     0
 62
     7
  6
Continuous
290
     0
370
    -3
390
F
  0
LAYER
  5
338
102
{ACAD_XDICTIONARY
360
846
102
}
330
2
100
AcDbSymbolTableRecord
100
AcDbLayerTableRecord
  2
wymiary
 70
     0
 62
     1
  6
Continuous
370
    -3
390
F
  0
LAYER
  5
339
102
{ACAD_XDICTIONARY
360
848
102
}
330
2
100
AcDbSymbolTableRecord
100
AcDbLayerTableRecord
  2
Cenrala
 70
     0
 62
     7
  6
Continuous
370
    -3
390
F
  0
ENDTAB
  0
TABLE
  2
STYLE
  5
3
330
0
100
AcDbSymbolTable
 70
     1
  0
STYLE
  5
11
330
3
100
AcDbSymbolTableRecord
100
AcDbTextStyleTableRecord
  2
Standard
 70
     0
 40
0.0
 41
1.0
 50
0.0
 71
     0
 42
2.5
  3
txt
  4

  0
ENDTAB
  0
TABLE
  2
VIEW
  5
6
330
0
100
AcDbSymbolTable
 70
     0
  0
ENDTAB
  0
TABLE
  2
UCS
  5
7
330
0
100
AcDbSymbolTable
 70
     0
  0
ENDTAB
  0
TABLE
  2
APPID
  5
9
330
0
100
AcDbSymbolTable
 70
     6
  0
APPID
  5
12
330
9
100
AcDbSymbolTableRecord
100
AcDbRegAppTableRecord
  2
ACAD
 70
     0
  0
APPID
  5
80F
330
9
100
AcDbSymbolTableRecord
100
AcDbRegAppTableRecord
  2
ACAD_MLEADERVER
 70
     0
  0
APPID
  5
824
330
9
100
AcDbSymbolTableRecord
100
AcDbRegAppTableRecord
  2
ACAUTHENVIRON
 70
     0
  0
APPID
  5
828
330
9
100
AcDbSymbolTableRecord
100
AcDbRegAppTableRecord
  2
AcDbDynamicBlockTrueName
 70
     0
  0
APPID
  5
829
330
9
100
AcDbSymbolTableRecord
100
AcDbRegAppTableRecord
  2
AcDbDynamicBlockGUID
 70
     0
  0
APPID
  5
82B
330
9
100
AcDbSymbolTableRecord
100
AcDbRegAppTableRecord
  2
AcDbBlockRepETag
 70
     0
  0
ENDTAB
  0
TABLE
  2
DIMSTYLE
  5
A
330
0
100
AcDbSymbolTable
 70
     2
100
AcDbDimStyleTable
 71
     2
340
33A
340
27
  0
DIMSTYLE
105
27
330
A
100
AcDbSymbolTableRecord
100
AcDbDimStyleTableRecord
  2
ISO-25
 70
     0
 41
2.5
 42
0.625
 43
3.75
 44
1.25
 73
     0
 74
     0
 77
     1
 78
     8
140
2.5
141
2.5
143
0.03937007874016
147
0.625
171
     3
172
     1
271
     2
272
     2
274
     3
278
    44
283
     0
284
     8
340
11
  0
DIMSTYLE
105
33A
102
{ACAD_REACTORS
330
45C
330
45D
330
45E
330
617
330
650
330
664
330
678
330
695
330
68F
330
68C
330
692
330
6DE
330
6EE
330
6FE
330
71E
102
}
330
A
100
AcDbSymbolTableRecord
100
AcDbDimStyleTableRecord
  2
Kopia ISO-25
 70
     0
 41
20.0
 42
0.0
 43
3.75
 44
0.0
 73
     0
 74
     0
 77
     1
 78
     8
140
15.0
141
2.5
143
0.03937007874016
147
6.0
171
     3
172
     1
271
     2
272
     2
274
     3
278
    44
283
     0
284
     8
340
11
372
    -1
  0
ENDTAB
  0
TABLE
  2
BLOCK_RECORD
  5
1
330
0
100
AcDbSymbolTable
 70
    53
  0
BLOCK_RECORD
  5
1F
330
1
100
AcDbSymbolTableRecord
100
AcDbBlockTableRecord
  2
*Model_Space
340
22
  0
BLOCK_RECORD
  5
50
330
1
100
AcDbSymbolTableRecord
100
AcDbBlockTableRecord
  2
*Paper_Space
340
51
  0
BLOCK_RECORD
  5
55
330
1
100
AcDbSymbolTableRecord
100
AcDbBlockTableRecord
  2
*Paper_Space0
340
56
  0
BLOCK_RECORD
  5
E2
330
1
100
AcDbSymbolTableRecord
100
AcDbBlockTableRecord
  2
A$C012D247B
340
0
  0
BLOCK_RECORD
  5
214
330
1
100
AcDbSymbolTableRecord
100
AcDbBlockTableRecord
  2
A$C7187238A
340
0
  0
BLOCK_RECORD
  5
344
330
1
100
AcDbSymbolTableRecord
100
AcDbBlockTableRecord
  2
1100BSR_f
340
0
310
2800000020000000200000000100080000000000000400000000000000000000000000000000000000000000000080000080000000808000800000008000800080800000C0C0C000C0DCC000F0CAA6000020400000206000002080000020A0000020C0000020E00000400000004020000040400000406000004080000040A0
310
000040C0000040E00000600000006020000060400000606000006080000060A0000060C0000060E00000800000008020000080400000806000008080000080A0000080C0000080E00000A0000000A0200000A0400000A0600000A0800000A0A00000A0C00000A0E00000C0000000C0200000C0400000C0600000C0800000C0
310
A00000C0C00000C0E00000E0000000E0200000E0400000E0600000E0800000E0A00000E0C00000E0E00040000000400020004000400040006000400080004000A0004000C0004000E00040200000402020004020400040206000402080004020A0004020C0004020E000404000004040200040404000404060004040800040
310
40A0004040C0004040E00040600000406020004060400040606000406080004060A0004060C0004060E00040800000408020004080400040806000408080004080A0004080C0004080E00040A0000040A0200040A0400040A0600040A0800040A0A00040A0C00040A0E00040C0000040C0200040C0400040C0600040C08000
310
40C0A00040C0C00040C0E00040E0000040E0200040E0400040E0600040E0800040E0A00040E0C00040E0E00080000000800020008000400080006000800080008000A0008000C0008000E00080200000802020008020400080206000802080008020A0008020C0008020E00080400000804020008040400080406000804080
310
008040A0008040C0008040E00080600000806020008060400080606000806080008060A0008060C0008060E00080800000808020008080400080806000808080008080A0008080C0008080E00080A0000080A0200080A0400080A0600080A0800080A0A00080A0C00080A0E00080C0000080C0200080C0400080C0600080C0
310
800080C0A00080C0C00080C0E00080E0000080E0200080E0400080E0600080E0800080E0A00080E0C00080E0E000C0000000C0002000C0004000C0006000C0008000C000A000C000C000C000E000C0200000C0202000C0204000C0206000C0208000C020A000C020C000C020E000C0400000C0402000C0404000C0406000C0
310
408000C040A000C040C000C040E000C0600000C0602000C0604000C0606000C0608000C060A000C060C000C060E000C0800000C0802000C0804000C0806000C0808000C080A000C080C000C080E000C0A00000C0A02000C0A04000C0A06000C0A08000C0A0A000C0A0C000C0A0E000C0C00000C0C02000C0C04000C0C06000
310
C0C08000C0C0A000F0FBFF00A4A0A000808080000000FF0000FF000000FFFF00FF000000FF00FF00FFFF0000FFFFFF0000000000000000000000000000000000000000000000000000000000000000000000000000000000000000000000000000000000000000000000000000000000000000000000000000000000000000
310
00000000000000000000000000000000000000000000000000000000000000000000000000000000000000000000000000000000000000000000000000000000000000000000000000000000000000000000000000000000000000000000000000000000000000000000000000000000000000FFFFFFFFFFFFFFFFFFFFFFFF
310
FFFFFFFFFFFFFFFFFFFFFFFFFFFFFFFF000000FFFF00000000000000000000000000000000000000FFFFFFFFFFFFFFFFFF0000FFFF00000000000000000000000000000000000000FFFFFFFFFFFFFFFFFF0000FFFF0000000000000000000000000000000000000000000000000000FFFF0000FFFF0000000000000000FFFF
310
FFFFFFFFFFFFFFFFFFFFFFFF00000000FFFF0000FFFF0000000000000000FF000000000000000000000000FF00000000FFFF0000FFFF0000000000000000FF000000000000000000000000FF00000000FFFF0000FFFF0000000000000000FF000000000000000000000000FF00000000FFFF0000FFFF0000000000000000FF
310
000000000000000000000000FF00000000FFFF0000FFFF0000000000000000FF000000000000000000000000FF00000000FFFF000000FF00FFFFFFFF000000FF000000FFFFFFFFFFFFFF0000FFFFFFFF00FF000000FFFF00FFFFFFFF000000FF000000FFFF00FFFF00000000FFFFFFFF00FFFF0000FFFF00FF0000FF000000
310
FF000000000000000000000000FF0000FF00FFFF0000FFFF00FF0000FF000000FF000000000000000000000000FF0000FF00FFFF0000FFFF00FF0000FF000000FF000000000000000000000000FF0000FF00FFFF0000FFFF00FF0000FF000000FF000000000000000000000000FF0000FF00FFFF0000FFFF00FF0000FF0000
310
00FFFFFFFFFFFFFFFFFFFFFFFFFFFF0000FF00FFFF0000FFFF00FF0000FF00000000000000000000000000000000FF0000FF00FFFF0000FFFF00FFFFFFFF00000000000000000000000000000000FF0000FF00FFFF0000FFFFFFFFFFFFFFFFFFFFFFFFFFFFFFFFFFFFFFFFFFFFFFFFFFFFFFFFFFFF00000000000000000000
310
00000000000000000000000000000000000000000000000000000000000000000000000000000000000000000000000000000000000000000000000000000000000000000000000000000000000000000000000000000000000000000000000000000000000000000000000000000000000000000000000000000000000000
310
0000000000000000000000000000000000000000000000000000000000000000000000000000000000000000000000000000000000000000
102
{BLKREFS
331
7BC
102
}
1001
ACAD
1000
DesignCenter Data
1002
{
1070
     1
1070
     4
1002
}
  0
BLOCK_RECORD
  5
35D
330
1
100
AcDbSymbolTableRecord
100
AcDbBlockTableRecord
  2
1100BSR_g
340
0
310
2800000020000000200000000100080000000000000400000000000000000000000000000000000000000000000080000080000000808000800000008000800080800000C0C0C000C0DCC000F0CAA6000020400000206000002080000020A0000020C0000020E00000400000004020000040400000406000004080000040A0
310
000040C0000040E00000600000006020000060400000606000006080000060A0000060C0000060E00000800000008020000080400000806000008080000080A0000080C0000080E00000A0000000A0200000A0400000A0600000A0800000A0A00000A0C00000A0E00000C0000000C0200000C0400000C0600000C0800000C0
310
A00000C0C00000C0E00000E0000000E0200000E0400000E0600000E0800000E0A00000E0C00000E0E00040000000400020004000400040006000400080004000A0004000C0004000E00040200000402020004020400040206000402080004020A0004020C0004020E000404000004040200040404000404060004040800040
310
40A0004040C0004040E00040600000406020004060400040606000406080004060A0004060C0004060E00040800000408020004080400040806000408080004080A0004080C0004080E00040A0000040A0200040A0400040A0600040A0800040A0A00040A0C00040A0E00040C0000040C0200040C0400040C0600040C08000
310
40C0A00040C0C00040C0E00040E0000040E0200040E0400040E0600040E0800040E0A00040E0C00040E0E00080000000800020008000400080006000800080008000A0008000C0008000E00080200000802020008020400080206000802080008020A0008020C0008020E00080400000804020008040400080406000804080
310
008040A0008040C0008040E00080600000806020008060400080606000806080008060A0008060C0008060E00080800000808020008080400080806000808080008080A0008080C0008080E00080A0000080A0200080A0400080A0600080A0800080A0A00080A0C00080A0E00080C0000080C0200080C0400080C0600080C0
310
800080C0A00080C0C00080C0E00080E0000080E0200080E0400080E0600080E0800080E0A00080E0C00080E0E000C0000000C0002000C0004000C0006000C0008000C000A000C000C000C000E000C0200000C0202000C0204000C0206000C0208000C020A000C020C000C020E000C0400000C0402000C0404000C0406000C0
310
408000C040A000C040C000C040E000C0600000C0602000C0604000C0606000C0608000C060A000C060C000C060E000C0800000C0802000C0804000C0806000C0808000C080A000C080C000C080E000C0A00000C0A02000C0A04000C0A06000C0A08000C0A0A000C0A0C000C0A0E000C0C00000C0C02000C0C04000C0C06000
310
C0C08000C0C0A000F0FBFF00A4A0A000808080000000FF0000FF000000FFFF00FF000000FF00FF00FFFF0000FFFFFF0000000000000000000000000000000000000000000000000000000000000000000000000000000000000000000000000000000000000000000000000000000000000000000000000000000000000000
310
00000000000000000000000000000000000000000000000000000000000000000000000000000000000000000000000000000000000000000000000000000000000000000000000000000000000000000000000000000000000000000000000000000000000000000000000000000000000000000000000000000000000000
310
00000000000000000000000000000000000000000000FFFFFFFF000000FFFFFFFFFFFFFFFFFFFFFFFFFFFFFFFFFF000000000000FFFFFFFFFFFFFFFFFFFFFFFFFFFFFFFFFFFFFFFFFFFFFFFFFFFFFFFF00000000FF0000000000000000000000000000000000000000000000000000FF00000000FF00000000000000000000
310
00000000000000000000000000000000FF00000000FF0000000000000000000000000000000000000000000000000000FF000000FFFF0000000000000000000000000000000000000000000000000000FFFF0000FFFF0000000000000000000000000000000000000000000000000000FFFF0000FFFF000000000000000000
310
0000000000000000000000000000000000FFFF0000FFFF0000000000000000000000000000000000000000000000000000FFFF0000FFFF0000000000000000000000000000000000000000000000000000FFFF0000FFFF0000000000000000000000000000000000000000000000000000FFFF0000FFFF0000000000000000
310
000000000000000000000000000000000000FFFF0000FFFF0000000000000000000000000000000000000000000000000000FFFF0000FFFF0000000000000000000000000000000000000000000000000000FFFF0000FFFF0000000000000000000000000000000000000000000000000000FFFF000000FF00000000000000
310
00000000000000000000000000000000000000FF00000000FF0000000000000000000000000000000000000000000000000000FF00000000FFFFFFFFFFFFFFFFFFFFFFFFFFFFFFFFFFFFFFFFFFFFFFFFFFFFFFFF00000000000000000000000000000000000000000000000000000000000000000000000000000000000000
310
00000000000000000000000000000000000000000000000000000000000000000000000000000000000000000000000000000000000000000000000000000000000000000000000000000000000000000000000000000000000000000000000000000000000000000000000000000000000000000000000000000000000000
310
0000000000000000000000000000000000000000000000000000000000000000000000000000000000000000000000000000000000000000
102
{BLKREFS
331
36D
102
}
1001
ACAD
1000
DesignCenter Data
1002
{
1070
     1
1070
     4
1002
}
  0
BLOCK_RECORD
  5
36E
102
{ACAD_XDICTIONARY
360
840
102
}
330
1
100
AcDbSymbolTableRecord
100
AcDbBlockTableRecord
  2
1100BSR_l
340
0
310
2800000020000000200000000100080000000000000400000000000000000000000000000000000000000000000080000080000000808000800000008000800080800000C0C0C000C0DCC000F0CAA6000020400000206000002080000020A0000020C0000020E00000400000004020000040400000406000004080000040A0
310
000040C0000040E00000600000006020000060400000606000006080000060A0000060C0000060E00000800000008020000080400000806000008080000080A0000080C0000080E00000A0000000A0200000A0400000A0600000A0800000A0A00000A0C00000A0E00000C0000000C0200000C0400000C0600000C0800000C0
310
A00000C0C00000C0E00000E0000000E0200000E0400000E0600000E0800000E0A00000E0C00000E0E00040000000400020004000400040006000400080004000A0004000C0004000E00040200000402020004020400040206000402080004020A0004020C0004020E000404000004040200040404000404060004040800040
310
40A0004040C0004040E00040600000406020004060400040606000406080004060A0004060C0004060E00040800000408020004080400040806000408080004080A0004080C0004080E00040A0000040A0200040A0400040A0600040A0800040A0A00040A0C00040A0E00040C0000040C0200040C0400040C0600040C08000
310
40C0A00040C0C00040C0E00040E0000040E0200040E0400040E0600040E0800040E0A00040E0C00040E0E00080000000800020008000400080006000800080008000A0008000C0008000E00080200000802020008020400080206000802080008020A0008020C0008020E00080400000804020008040400080406000804080
310
008040A0008040C0008040E00080600000806020008060400080606000806080008060A0008060C0008060E00080800000808020008080400080806000808080008080A0008080C0008080E00080A0000080A0200080A0400080A0600080A0800080A0A00080A0C00080A0E00080C0000080C0200080C0400080C0600080C0
310
800080C0A00080C0C00080C0E00080E0000080E0200080E0400080E0600080E0800080E0A00080E0C00080E0E000C0000000C0002000C0004000C0006000C0008000C000A000C000C000C000E000C0200000C0202000C0204000C0206000C0208000C020A000C020C000C020E000C0400000C0402000C0404000C0406000C0
310
408000C040A000C040C000C040E000C0600000C0602000C0604000C0606000C0608000C060A000C060C000C060E000C0800000C0802000C0804000C0806000C0808000C080A000C080C000C080E000C0A00000C0A02000C0A04000C0A06000C0A08000C0A0A000C0A0C000C0A0E000C0C00000C0C02000C0C04000C0C06000
310
C0C08000C0C0A000F0FBFF00A4A0A000808080000000FF0000FF000000FFFF00FF000000FF00FF00FFFF0000FFFFFF00000000000000000000000000000000000000000000000000000000000000000000000000FFFF00000000000000000000000000000000000000FFFFFF00000000000000FFFFFFFFFFFFFFFFFFFFFFFF
310
FFFFFFFFFFFFFFFFFFFFFFFFFF00000000000000FF0000000000000000000000000000000000000000000000FF00000000000000FF0000000000000000FFFFFFFFFF0000000000000000FF00FF00000000000000FF000000000000FFFF0000000000FF00000000000000FF00FF00000000000000FF0000000000FFFF000000
310
00000000FFFF0000000000FF00FFFF000000000000FF0000000000FF000000000000000000FF00000000000000FFFF000000000000FF00000000FFFFFFFFFFFFFFFFFFFFFFFFFF00000000FFFFFF00000000000000FF00000000FFFF000000000000000000FFFF00000000FFFFFF00000000000000FF00000000FFFF000000
310
000000000000FFFF000000000000FF00000000000000FF00000000FFFFFFFFFFFFFFFFFFFFFFFFFF000000000000FF00000000000000FF0000000000FF000000000000000000FF00000000000000FF00000000000000FF0000000000FF000000000000000000FF00000000000000FF00000000000000FF000000000000FFFF
310
0000000000FFFF0000000000000000FF00000000000000FF00000000000000FFFFFFFFFFFF00000000000000000000FF00000000000000FF0000000000000000000000000000000000000000000000FF00000000000000FF000000000000000000FFFFFFFFFF000000000000000000FFFF000000000000FF00000000000000
310
FFFFFF000000FFFFFF00000000000000FF00000000000000FF00000000000000FF00000000000000FFFF000000000000FF00000000000000FF000000000000FFFF0000000000000000FF000000000000FF00000000000000FF000000000000FF00000000000000000000FF0000000000FF00000000000000FF000000000000
310
FF00000000000000000000FF0000000000FF00000000000000FF000000000000FF00000000000000000000FF0000000000FF00000000000000FF000000000000FF00000000000000000000FF0000000000FF00000000000000FF000000000000FF00000000000000000000FF0000000000FF00000000000000FF0000000000
310
00FFFF0000000000000000FF000000000000FF00000000000000FF00000000000000FF00000000000000FFFF000000000000FF00000000000000FF0000000000000000FFFFFF00FFFFFFFF00000000000000FFFF000000000000FF00000000000000000000FFFFFFFF000000000000000000FF00000000000000FFFFFFFFFF
310
FFFFFFFFFFFFFFFFFFFFFFFFFFFFFFFFFFFFFFFF000000000000000000000000000000000000000000000000000000000000000000000000
102
{BLKREFS
331
382
102
}
1001
AcDbDynamicBlockGUID
1000
{8109EB20-8003-4010-8CBA-0C7618FE533D}
1001
AcDbBlockRepETag
1070
     1
1071
       16
1001
ACAD
1000
DesignCenter Data
1002
{
1070
     1
1070
     4
1002
}
  0
BLOCK_RECORD
  5
383
102
{ACAD_XDICTIONARY
360
825
102
}
330
1
100
AcDbSymbolTableRecord
100
AcDbBlockTableRecord
  2
1100BSR_p
340
0
310
2800000020000000200000000100080000000000000400000000000000000000000000000000000000000000000080000080000000808000800000008000800080800000C0C0C000C0DCC000F0CAA6000020400000206000002080000020A0000020C0000020E00000400000004020000040400000406000004080000040A0
310
000040C0000040E00000600000006020000060400000606000006080000060A0000060C0000060E00000800000008020000080400000806000008080000080A0000080C0000080E00000A0000000A0200000A0400000A0600000A0800000A0A00000A0C00000A0E00000C0000000C0200000C0400000C0600000C0800000C0
310
A00000C0C00000C0E00000E0000000E0200000E0400000E0600000E0800000E0A00000E0C00000E0E00040000000400020004000400040006000400080004000A0004000C0004000E00040200000402020004020400040206000402080004020A0004020C0004020E000404000004040200040404000404060004040800040
310
40A0004040C0004040E00040600000406020004060400040606000406080004060A0004060C0004060E00040800000408020004080400040806000408080004080A0004080C0004080E00040A0000040A0200040A0400040A0600040A0800040A0A00040A0C00040A0E00040C0000040C0200040C0400040C0600040C08000
310
40C0A00040C0C00040C0E00040E0000040E0200040E0400040E0600040E0800040E0A00040E0C00040E0E00080000000800020008000400080006000800080008000A0008000C0008000E00080200000802020008020400080206000802080008020A0008020C0008020E00080400000804020008040400080406000804080
310
008040A0008040C0008040E00080600000806020008060400080606000806080008060A0008060C0008060E00080800000808020008080400080806000808080008080A0008080C0008080E00080A0000080A0200080A0400080A0600080A0800080A0A00080A0C00080A0E00080C0000080C0200080C0400080C0600080C0
310
800080C0A00080C0C00080C0E00080E0000080E0200080E0400080E0600080E0800080E0A00080E0C00080E0E000C0000000C0002000C0004000C0006000C0008000C000A000C000C000C000E000C0200000C0202000C0204000C0206000C0208000C020A000C020C000C020E000C0400000C0402000C0404000C0406000C0
310
408000C040A000C040C000C040E000C0600000C0602000C0604000C0606000C0608000C060A000C060C000C060E000C0800000C0802000C0804000C0806000C0808000C080A000C080C000C080E000C0A00000C0A02000C0A04000C0A06000C0A08000C0A0A000C0A0C000C0A0E000C0C00000C0C02000C0C04000C0C06000
310
C0C08000C0C0A000F0FBFF00A4A0A000808080000000FF0000FF000000FFFF00FF000000FF00FF00FFFF0000FFFFFF00000000000000000000000000000000000000000000000000000000000000000000000000FFFFFF00000000000000000000000000000000000000FFFF0000000000000000FFFFFFFFFFFFFFFFFFFFFF
310
FFFFFFFFFFFFFFFFFFFFFFFFFFFF00000000000000FF0000000000000000000000FFFFFFFF00000000000000FFFF00000000000000FF000000000000000000FFFF000000FFFFFF000000000000FF00000000000000FF0000000000000000FF00000000000000FF000000000000FF000000000000FFFF00000000000000FF00
310
0000000000000000FF0000000000FF000000000000FFFF00000000000000FFFFFFFFFFFFFFFFFFFFFFFF00000000FF00000000000000FF000000000000FFFF000000000000000000FFFF00000000FF00000000000000FF000000000000FFFF000000000000000000FFFF00000000FF00000000000000FF000000000000FFFF
310
00000000FF00000000FFFF00000000FF00000000000000FF00000000000000FFFFFFFFFFFFFFFFFFFFFFFF00000000FF00000000000000FF00000000000000FF000000000000000000FF0000000000FF00000000000000FF0000000000000000FF00000000000000FF000000000000FF00000000000000FF00000000000000
310
0000FFFF000000FFFFFF000000000000FF00000000000000FF00000000000000000000FFFFFFFFFF0000000000000000FF00000000000000FF0000000000000000000000000000000000000000000000FF000000000000FFFF000000000000000000FFFFFFFF00000000000000000000FF00000000000000FF000000000000
310
00FFFFFF000000FFFF0000000000000000FF00000000000000FF000000000000FFFF00000000000000FF00000000000000FF00000000000000FF0000000000FFFF0000000000000000FFFF000000000000FF00000000000000FF0000000000FF00000000000000000000FF000000000000FF00000000000000FF0000000000
310
FF00000000000000000000FF000000000000FF00000000000000FF0000000000FF00000000000000000000FFFF0000000000FF00000000000000FF0000000000FF00000000000000000000FF000000000000FF00000000000000FF0000000000FF00000000000000000000FF000000000000FF00000000000000FF00000000
310
00FFFF0000000000000000FFFF000000000000FF00000000000000FF00000000000000FF00000000000000FF00000000000000FF000000000000FFFF00000000000000FFFFFFFF00FFFFFF0000000000000000FF00000000000000FF00000000000000000000FFFFFF00000000000000000000FF00000000000000FFFFFFFF
310
FFFFFFFFFFFFFFFFFFFFFFFFFFFFFFFFFFFFFFFFFF0000000000000000000000000000000000000000000000000000000000000000000000
102
{BLKREFS
331
395
102
}
1001
AcDbDynamicBlockGUID
1000
{371E0A6B-1248-4030-95FB-1D6BB22D3823}
1001
AcDbBlockRepETag
1070
     1
1071
       14
1001
ACAD
1000
DesignCenter Data
1002
{
1070
     1
1070
     4
1002
}
  0
BLOCK_RECORD
  5
396
330
1
100
AcDbSymbolTableRecord
100
AcDbBlockTableRecord
  2
*D7
340
0
  0
BLOCK_RECORD
  5
3A2
330
1
100
AcDbSymbolTableRecord
100
AcDbBlockTableRecord
  2
*D8
340
0
  0
BLOCK_RECORD
  5
3AE
330
1
100
AcDbSymbolTableRecord
100
AcDbBlockTableRecord
  2
*D9
340
0
  0
BLOCK_RECORD
  5
3B8
330
1
100
AcDbSymbolTableRecord
100
AcDbBlockTableRecord
  2
*D10
340
0
  0
BLOCK_RECORD
  5
3C3
330
1
100
AcDbSymbolTableRecord
100
AcDbBlockTableRecord
  2
*D11
340
0
  0
BLOCK_RECORD
  5
3CD
330
1
100
AcDbSymbolTableRecord
100
AcDbBlockTableRecord
  2
*D12
340
0
  0
BLOCK_RECORD
  5
3D7
330
1
100
AcDbSymbolTableRecord
100
AcDbBlockTableRecord
  2
*D13
340
0
  0
BLOCK_RECORD
  5
3E3
330
1
100
AcDbSymbolTableRecord
100
AcDbBlockTableRecord
  2
*D14
340
0
  0
BLOCK_RECORD
  5
3ED
330
1
100
AcDbSymbolTableRecord
100
AcDbBlockTableRecord
  2
*D15
340
0
  0
BLOCK_RECORD
  5
3F8
330
1
100
AcDbSymbolTableRecord
100
AcDbBlockTableRecord
  2
*D16
340
0
  0
BLOCK_RECORD
  5
402
330
1
100
AcDbSymbolTableRecord
100
AcDbBlockTableRecord
  2
*D17
340
0
  0
BLOCK_RECORD
  5
40C
330
1
100
AcDbSymbolTableRecord
100
AcDbBlockTableRecord
  2
*D18
340
0
  0
BLOCK_RECORD
  5
415
330
1
100
AcDbSymbolTableRecord
100
AcDbBlockTableRecord
  2
*D19
340
0
  0
BLOCK_RECORD
  5
41E
330
1
100
AcDbSymbolTableRecord
100
AcDbBlockTableRecord
  2
*D20
340
0
  0
BLOCK_RECORD
  5
427
330
1
100
AcDbSymbolTableRecord
100
AcDbBlockTableRecord
  2
*D21
340
0
  0
BLOCK_RECORD
  5
46C
330
1
100
AcDbSymbolTableRecord
100
AcDbBlockTableRecord
  2
*D22
340
0
  0
BLOCK_RECORD
  5
475
330
1
100
AcDbSymbolTableRecord
100
AcDbBlockTableRecord
  2
*D23
340
0
  0
BLOCK_RECORD
  5
47E
330
1
100
AcDbSymbolTableRecord
100
AcDbBlockTableRecord
  2
*D24
340
0
  0
BLOCK_RECORD
  5
487
330
1
100
AcDbSymbolTableRecord
100
AcDbBlockTableRecord
  2
*D25
340
0
  0
BLOCK_RECORD
  5
490
330
1
100
AcDbSymbolTableRecord
100
AcDbBlockTableRecord
  2
*D26
340
0
  0
BLOCK_RECORD
  5
49B
330
1
100
AcDbSymbolTableRecord
100
AcDbBlockTableRecord
  2
*D27
340
0
  0
BLOCK_RECORD
  5
4A5
330
1
100
AcDbSymbolTableRecord
100
AcDbBlockTableRecord
  2
*D28
340
0
  0
BLOCK_RECORD
  5
4AF
330
1
100
AcDbSymbolTableRecord
100
AcDbBlockTableRecord
  2
*D29
340
0
  0
BLOCK_RECORD
  5
4B9
330
1
100
AcDbSymbolTableRecord
100
AcDbBlockTableRecord
  2
*D30
340
0
  0
BLOCK_RECORD
  5
4C3
330
1
100
AcDbSymbolTableRecord
100
AcDbBlockTableRecord
  2
*D31
340
0
  0
BLOCK_RECORD
  5
4CD
330
1
100
AcDbSymbolTableRecord
100
AcDbBlockTableRecord
  2
*D32
340
0
  0
BLOCK_RECORD
  5
4D8
330
1
100
AcDbSymbolTableRecord
100
AcDbBlockTableRecord
  2
*D33
340
0
  0
BLOCK_RECORD
  5
4E2
330
1
100
AcDbSymbolTableRecord
100
AcDbBlockTableRecord
  2
*D34
340
0
  0
BLOCK_RECORD
  5
4EE
330
1
100
AcDbSymbolTableRecord
100
AcDbBlockTableRecord
  2
*D35
340
0
  0
BLOCK_RECORD
  5
4FA
330
1
100
AcDbSymbolTableRecord
100
AcDbBlockTableRecord
  2
*D36
340
0
  0
BLOCK_RECORD
  5
5E1
330
1
100
AcDbSymbolTableRecord
100
AcDbBlockTableRecord
  2
*D37
340
0
  0
BLOCK_RECORD
  5
618
330
1
100
AcDbSymbolTableRecord
100
AcDbBlockTableRecord
  2
*D38
340
0
  0
BLOCK_RECORD
  5
651
330
1
100
AcDbSymbolTableRecord
100
AcDbBlockTableRecord
  2
*D39
340
0
  0
BLOCK_RECORD
  5
665
330
1
100
AcDbSymbolTableRecord
100
AcDbBlockTableRecord
  2
*D40
340
0
  0
BLOCK_RECORD
  5
679
330
1
100
AcDbSymbolTableRecord
100
AcDbBlockTableRecord
  2
*D41
340
0
  0
BLOCK_RECORD
  5
698
330
1
100
AcDbSymbolTableRecord
100
AcDbBlockTableRecord
  2
*D42
340
0
  0
BLOCK_RECORD
  5
6A3
330
1
100
AcDbSymbolTableRecord
100
AcDbBlockTableRecord
  2
*D43
340
0
  0
BLOCK_RECORD
  5
6AD
330
1
100
AcDbSymbolTableRecord
100
AcDbBlockTableRecord
  2
*D44
340
0
  0
BLOCK_RECORD
  5
6B7
330
1
100
AcDbSymbolTableRecord
100
AcDbBlockTableRecord
  2
*D45
340
0
  0
BLOCK_RECORD
  5
6DF
330
1
100
AcDbSymbolTableRecord
100
AcDbBlockTableRecord
  2
*D46
340
0
  0
BLOCK_RECORD
  5
6EF
330
1
100
AcDbSymbolTableRecord
100
AcDbBlockTableRecord
  2
*D47
340
0
  0
BLOCK_RECORD
  5
6FF
330
1
100
AcDbSymbolTableRecord
100
AcDbBlockTableRecord
  2
*D48
340
0
  0
BLOCK_RECORD
  5
70F
330
1
100
AcDbSymbolTableRecord
100
AcDbBlockTableRecord
  2
*D49
340
0
  0
BLOCK_RECORD
  5
71F
330
1
100
AcDbSymbolTableRecord
100
AcDbBlockTableRecord
  2
*D50
340
0
  0
ENDTAB
  0
ENDSEC
  0
SECTION
  2
BLOCKS
  0
BLOCK
  5
20
330
1F
100
AcDbEntity
  8
0
100
AcDbBlockBegin
  2
*Model_Space
 70
     0
 10
0.0
 20
0.0
 30
0.0
  3
*Model_Space
  1

  0
ENDBLK
  5
21
330
1F
100
AcDbEntity
  8
0
100
AcDbBlockEnd
  0
BLOCK
  5
52
330
50
100
AcDbEntity
 67
     1
  8
0
100
AcDbBlockBegin
  2
*Paper_Space
 70
     0
 10
0.0
 20
0.0
 30
0.0
  3
*Paper_Space
  1

  0
ENDBLK
  5
53
330
50
100
AcDbEntity
 67
     1
  8
0
100
AcDbBlockEnd
  0
BLOCK
  5
57
330
55
100
AcDbEntity
 67
     1
  8
0
100
AcDbBlockBegin
  2
*Paper_Space0
 70
     0
 10
0.0
 20
0.0
 30
0.0
  3
*Paper_Space0
  1

  0
ENDBLK
  5
58
330
55
100
AcDbEntity
 67
     1
  8
0
100
AcDbBlockEnd
  0
BLOCK
  5
E4
330
E2
100
AcDbEntity
  8
0
100
AcDbBlockBegin
  2
A$C012D247B
 70
     0
 10
0.0
 20
0.0
 30
0.0
  3
A$C012D247B
  1

  0
LWPOLYLINE
  5
E3
330
E2
100
AcDbEntity
  8
0
100
AcDbPolyline
 90
        4
 70
     1
 43
0.0
 10
-0.0000015100049495
 20
166.0000007704744
 10
29.99999848999505
 20
166.0000007704744
 10
29.99999848999505
 20
0.0000007704744576
 10
-0.0000015100049495
 20
0.0000007704744576
  0
ENDBLK
  5
E5
330
E2
100
AcDbEntity
  8
0
100
AcDbBlockEnd
  0
BLOCK
  5
216
330
214
100
AcDbEntity
  8
0
100
AcDbBlockBegin
  2
A$C7187238A
 70
     0
 10
0.0
 20
0.0
 30
0.0
  3
A$C7187238A
  1

  0
LWPOLYLINE
  5
215
330
214
100
AcDbEntity
  8
0
100
AcDbPolyline
 90
        4
 70
     1
 43
0.0
 10
0.0
 20
0.0
 10
256.0
 20
0.0
 10
256.0
 20
30.0
 10
0.0
 20
30.0
  0
ENDBLK
  5
217
330
214
100
AcDbEntity
  8
0
100
AcDbBlockEnd
  0
BLOCK
  5
345
330
344
100
AcDbEntity
  8
0
100
AcDbBlockBegin
  2
1100BSR_f
 70
     0
 10
0.0
 20
0.0
 30
0.0
  3
1100BSR_f
  1

  4
1100BSR_front
  0
LWPOLYLINE
  5
7A8
330
344
100
AcDbEntity
  8
Cenrala
100
AcDbPolyline
 90
        4
 70
     1
 43
0.0
 10
1176.237321565417
 20
2855.263596407852
 10
1156.237321565417
 20
2855.263596407852
 10
1156.237321565417
 20
2840.263596407853
 10
1176.237321565417
 20
2840.263596407853
  0
LWPOLYLINE
  5
7A9
330
344
100
AcDbEntity
  8
Cenrala
100
AcDbPolyline
 90
        4
 70
     1
 43
0.0
 10
151.237321565417
 20
2855.263596407852
 10
1201.237321565417
 20
2855.263596407852
 10
1201.237321565417
 20
3615.263596407852
 10
151.237321565417
 20
3615.263596407852
  0
CIRCLE
  5
7AA
330
344
100
AcDbEntity
  8
Cenrala
100
AcDbCircle
 10
501.237321565417
 20
3472.263596407852
 30
0.0
 40
8.0
  0
LWPOLYLINE
  5
7AB
330
344
100
AcDbEntity
  8
Cenrala
100
AcDbPolyline
 90
        4
 70
     1
 43
0.0
 10
176.2373215654172
 20
2855.263596407852
 10
196.2373215654172
 20
2855.263596407852
 10
196.2373215654172
 20
2840.263596407853
 10
176.2373215654172
 20
2840.263596407853
  0
LWPOLYLINE
  5
7AC
330
344
100
AcDbEntity
  8
Cenrala
100
AcDbPolyline
 90
        4
 70
     1
 43
0.0
 10
1201.237321565417
 20
2865.263596407853
 10
1221.237321565417
 20
2865.263596407853
 10
1221.237321565417
 20
2885.263596407853
 10
1201.237321565417
 20
2885.263596407853
  0
LWPOLYLINE
  5
7AD
330
344
100
AcDbEntity
  8
Cenrala
100
AcDbPolyline
 90
        4
 70
     1
 43
0.0
 10
1201.237321565417
 20
2889.763596407852
 10
1231.237321565417
 20
2889.763596407852
 10
1231.237321565417
 20
3210.763596407853
 10
1201.237321565417
 20
3210.763596407853
  0
LWPOLYLINE
  5
7AE
330
344
100
AcDbEntity
  8
Cenrala
100
AcDbPolyline
 90
        4
 70
     1
 43
0.0
 10
1201.237321565417
 20
3269.763596407852
 10
1231.237321565417
 20
3269.763596407852
 10
1231.237321565417
 20
3590.763596407852
 10
1201.237321565417
 20
3590.763596407852
  0
LWPOLYLINE
  5
7AF
330
344
100
AcDbEntity
  8
Cenrala
100
AcDbPolyline
 90
        4
 70
     1
 43
0.0
 10
238.737321565417
 20
3615.263596407852
 10
323.737321565417
 20
3615.263596407852
 10
323.737321565417
 20
3265.263596407852
 10
238.737321565417
 20
3265.263596407852
  0
CIRCLE
  5
7B0
330
344
100
AcDbEntity
  8
Cenrala
100
AcDbCircle
 10
281.237321565417
 20
3295.263596407853
 30
0.0
 40
8.0
  0
CIRCLE
  5
7B1
330
344
100
AcDbEntity
  8
Cenrala
100
AcDbCircle
 10
1071.237321565417
 20
3295.263596407853
 30
0.0
 40
8.0
  0
LWPOLYLINE
  5
7B2
330
344
100
AcDbEntity
  8
Cenrala
100
AcDbPolyline
 90
        4
 70
     1
 43
0.0
 10
1113.737321565417
 20
3615.263596407852
 10
1028.737321565417
 20
3615.263596407852
 10
1028.737321565417
 20
3265.263596407852
 10
1113.737321565417
 20
3265.263596407852
  0
LWPOLYLINE
  5
7B3
330
344
100
AcDbEntity
  8
Cenrala
100
AcDbPolyline
 90
        4
 70
     1
 43
0.0
 10
481.237321565417
 20
3492.263596407852
 10
1021.237321565417
 20
3492.263596407852
 10
1021.237321565417
 20
3028.263596407852
 10
481.237321565417
 20
3028.263596407852
  0
CIRCLE
  5
7B4
330
344
100
AcDbEntity
  8
Cenrala
100
AcDbCircle
 10
1001.237321565417
 20
3472.263596407852
 30
0.0
 40
8.0
  0
CIRCLE
  5
7B5
330
344
100
AcDbEntity
  8
Cenrala
100
AcDbCircle
 10
1001.237321565417
 20
3048.263596407852
 30
0.0
 40
8.0
  0
CIRCLE
  5
7B6
330
344
100
AcDbEntity
  8
Cenrala
100
AcDbCircle
 10
501.237321565417
 20
3048.263596407852
 30
0.0
 40
8.0
  0
MTEXT
  5
7B7
330
344
100
AcDbEntity
  8
Cenrala
100
AcDbMText
 10
668.8380410271728
 20
3269.842545918134
 30
0.0
 40
25.0
 41
260.8191601825456
 71
     1
 72
     5
  1
{\Ftxt.shx|c238;\H1.2x;P\H0.8333x;RO-\H1.2x;V\H0.8333x;ENT}
 73
     1
 44
1.0
1001
ACAD
1000
MTEXTBEGIN
1070
    73
1070
     1
1070
    44
1040
1.0
1070
    74
1070
     0
1000
MTEXTEND
  0
MTEXT
  5
7B8
330
344
100
AcDbEntity
  8
Cenrala
100
AcDbMText
 10
938.933045768068
 20
2924.642680085766
 30
0.0
 40
18.0
 41
273.857804750156
 71
     1
 72
     5
  1
{\Ftxt.shx|c238;MISTRAL 1100BSR}
 73
     1
 44
1.0
1001
ACAD
1000
MTEXTBEGIN
1070
    73
1070
     1
1070
    44
1040
1.0
1070
    74
1070
     0
1000
MTEXTEND
  0
LWPOLYLINE
  5
7B9
330
344
100
AcDbEntity
  8
Cenrala
100
AcDbPolyline
 90
        4
 70
     1
 43
0.0
 10
151.237321565417
 20
3269.763596407852
 10
121.237321565417
 20
3269.763596407852
 10
121.237321565417
 20
3590.763596407852
 10
151.237321565417
 20
3590.763596407852
  0
LWPOLYLINE
  5
7BA
330
344
100
AcDbEntity
  8
Cenrala
100
AcDbPolyline
 90
        4
 70
     1
 43
0.0
 10
151.237321565417
 20
2904.763596407852
 10
121.237321565417
 20
2904.763596407852
 10
121.237321565417
 20
3225.763596407853
 10
151.237321565417
 20
3225.763596407853
  0
CIRCLE
  5
7BB
330
344
100
AcDbEntity
  8
Cenrala
100
AcDbCircle
 10
281.237321565417
 20
3585.263596407852
 30
0.0
 40
8.0
  0
ENDBLK
  5
346
330
344
100
AcDbEntity
  8
0
100
AcDbBlockEnd
  0
BLOCK
  5
35E
330
35D
100
AcDbEntity
  8
0
100
AcDbBlockBegin
  2
1100BSR_g
 70
     0
 10
0.0
 20
0.0
 30
0.0
  3
1100BSR_g
  1

  4
1100BSR_gora
  0
LWPOLYLINE
  5
360
330
35D
100
AcDbEntity
  8
Cenrala
100
AcDbPolyline
 90
        4
 70
     1
 43
0.0
 10
1079.237321565417
 20
1894.976831103129
 10
1063.237321565417
 20
1894.976831103129
 10
1063.237321565417
 20
1884.976831103129
 10
1079.237321565417
 20
1884.976831103129
  0
LWPOLYLINE
  5
361
330
35D
100
AcDbEntity
  8
Cenrala
100
AcDbPolyline
 90
        4
 70
     1
 43
0.0
 10
1113.737321565417
 20
1904.976831103129
 10
1028.737321565417
 20
1904.976831103129
 10
1028.737321565417
 20
1894.976831103129
 10
1113.737321565417
 20
1894.976831103129
  0
LWPOLYLINE
  5
362
330
35D
100
AcDbEntity
  8
Cenrala
100
AcDbPolyline
 90
        4
 70
     1
 43
0.0
 10
1009.237321565417
 20
1894.976831103129
 10
993.237321565417
 20
1894.976831103129
 10
993.237321565417
 20
1884.976831103129
 10
1009.237321565417
 20
1884.976831103129
  0
LWPOLYLINE
  5
363
330
35D
100
AcDbEntity
  8
Cenrala
100
AcDbPolyline
 90
        4
 70
     1
 43
0.0
 10
481.237321565417
 20
1904.976831103129
 10
1021.237321565417
 20
1904.976831103129
 10
1021.237321565417
 20
1894.976831103129
 10
481.237321565417
 20
1894.976831103129
  0
LWPOLYLINE
  5
364
330
35D
100
AcDbEntity
  8
Cenrala
100
AcDbPolyline
 90
        4
 70
     1
 43
0.0
 10
238.737321565417
 20
1904.976831103129
 10
323.737321565417
 20
1904.976831103129
 10
323.737321565417
 20
1894.976831103129
 10
238.737321565417
 20
1894.976831103129
  0
LWPOLYLINE
  5
365
330
35D
100
AcDbEntity
  8
Cenrala
100
AcDbPolyline
 90
        4
 70
     0
 43
0.0
 10
1201.237321565417
 20
2107.476831103129
 10
1201.237321565417
 20
2428.476831103129
 10
1231.237321565417
 20
2428.476831103129
 10
1231.237321565417
 20
2107.476831103129
  0
LWPOLYLINE
  5
366
330
35D
100
AcDbEntity
  8
Cenrala
100
AcDbPolyline
 90
        4
 70
     0
 43
0.0
 10
121.237321565417
 20
2104.476831103129
 10
121.237321565417
 20
2425.47683110313
 10
151.237321565417
 20
2425.47683110313
 10
151.237321565417
 20
2104.476831103129
  0
LWPOLYLINE
  5
367
330
35D
100
AcDbEntity
  8
Cenrala
100
AcDbPolyline
 90
        4
 70
     1
 43
0.0
 10
1201.237321565417
 20
2064.47683110313
 10
1231.237321565417
 20
2064.47683110313
 10
1231.237321565417
 20
2385.47683110313
 10
1201.237321565417
 20
2385.47683110313
  0
LWPOLYLINE
  5
368
330
35D
100
AcDbEntity
  8
Cenrala
100
AcDbPolyline
 90
        4
 70
     1
 43
0.0
 10
151.237321565417
 20
2064.47683110313
 10
121.237321565417
 20
2064.47683110313
 10
121.237321565417
 20
2385.47683110313
 10
151.237321565417
 20
2385.47683110313
  0
LWPOLYLINE
  5
369
330
35D
100
AcDbEntity
  8
Cenrala
100
AcDbPolyline
 90
        4
 70
     1
 43
0.0
 10
1201.237321565417
 20
2544.976831103129
 10
1221.237321565417
 20
2544.976831103129
 10
1221.237321565417
 20
2524.976831103129
 10
1201.237321565417
 20
2524.976831103129
  0
LWPOLYLINE
  5
36A
330
35D
100
AcDbEntity
  8
Cenrala
100
AcDbPolyline
 90
        4
 70
     1
 43
0.0
 10
493.237321565417
 20
1894.976831103129
 10
509.237321565417
 20
1894.976831103129
 10
509.237321565417
 20
1884.976831103129
 10
493.237321565417
 20
1884.976831103129
  0
LWPOLYLINE
  5
36B
330
35D
100
AcDbEntity
  8
Cenrala
100
AcDbPolyline
 90
        4
 70
     1
 43
0.0
 10
273.237321565417
 20
1894.976831103129
 10
289.237321565417
 20
1894.976831103129
 10
289.237321565417
 20
1884.976831103129
 10
273.237321565417
 20
1884.976831103129
  0
LWPOLYLINE
  5
36C
330
35D
100
AcDbEntity
  8
Cenrala
100
AcDbPolyline
 90
        4
 70
     1
 43
0.0
 10
151.237321565417
 20
2554.976831103129
 10
1201.237321565417
 20
2554.976831103129
 10
1201.237321565417
 20
1904.976831103129
 10
151.237321565417
 20
1904.976831103129
  0
ENDBLK
  5
35F
330
35D
100
AcDbEntity
  8
0
100
AcDbBlockEnd
  0
BLOCK
  5
36F
330
36E
100
AcDbEntity
  8
0
100
AcDbBlockBegin
  2
1100BSR_l
 70
     0
 10
0.0
 20
0.0
 30
0.0
  3
1100BSR_l
  1

  4
1100BSR_lewa
  0
LWPOLYLINE
  5
830
330
36E
100
AcDbEntity
  8
Cenrala
100
AcDbPolyline
 90
        4
 70
     1
 43
0.0
 10
1590.319041750099
 20
2870.263596407852
 10
1590.319041750099
 20
2870.263596407852
 10
1590.319041750099
 20
2870.263596407852
 10
1590.319041750099
 20
2870.263596407852
1001
AcDbBlockRepETag
1070
     1
1071
        0
1005
830
  0
CIRCLE
  5
831
102
{ACAD_REACTORS
330
663
102
}
330
36E
100
AcDbEntity
  8
Cenrala
100
AcDbCircle
 10
1877.319041750099
 20
3065.263596407853
 30
0.0
 40
157.5
1001
AcDbBlockRepETag
1070
     1
1071
        1
1005
831
  0
CIRCLE
  5
832
330
36E
100
AcDbEntity
  8
Cenrala
100
AcDbCircle
 10
1877.319041750099
 20
3065.263596407853
 30
0.0
 40
160.5
1001
AcDbBlockRepETag
1070
     1
1071
        2
1005
832
  0
CIRCLE
  5
833
330
36E
100
AcDbEntity
  8
Cenrala
100
AcDbCircle
 10
1917.319041750099
 20
3430.263596407853
 30
0.0
 40
160.5
1001
AcDbBlockRepETag
1070
     1
1071
        3
1005
833
  0
CIRCLE
  5
834
330
36E
100
AcDbEntity
  8
Cenrala
100
AcDbCircle
 10
1917.319041750099
 20
3430.263596407853
 30
0.0
 40
157.5
1001
AcDbBlockRepETag
1070
     1
1071
        4
1005
834
  0
LWPOLYLINE
  5
835
330
36E
100
AcDbEntity
  8
Cenrala
100
AcDbPolyline
 90
        4
 70
     1
 43
0.0
 10
2185.343974653079
 20
3018.295570486074
 10
2200.343974653078
 20
3018.295570486074
 10
2200.343974653078
 20
3043.295570486075
 10
2185.343974653079
 20
3043.295570486075
1001
AcDbBlockRepETag
1070
     1
1071
        5
1005
835
  0
LWPOLYLINE
  5
836
330
36E
100
AcDbEntity
  8
Cenrala
100
AcDbPolyline
 90
        4
 70
     1
 43
0.0
 10
2187.843974653079
 20
3020.795570486075
 10
2197.843974653078
 20
3020.795570486075
 10
2197.843974653078
 20
3040.795570486075
 10
2187.843974653079
 20
3040.795570486075
1001
AcDbBlockRepETag
1070
     1
1071
        6
1005
836
  0
CIRCLE
  5
837
330
36E
100
AcDbEntity
  8
Cenrala
100
AcDbCircle
 10
2191.737804058162
 20
2953.445682942282
 30
0.0
 40
5.0
1001
AcDbBlockRepETag
1070
     1
1071
        7
1005
837
  0
CIRCLE
  5
838
330
36E
100
AcDbEntity
  8
Cenrala
100
AcDbCircle
 10
2191.737804058162
 20
2927.513360038319
 30
0.0
 40
5.0
1001
AcDbBlockRepETag
1070
     1
1071
        8
1005
838
  0
LWPOLYLINE
  5
839
330
36E
100
AcDbEntity
  8
Cenrala
100
AcDbPolyline
 90
        4
 70
     1
 43
0.0
 10
2247.319041750099
 20
2993.263596407852
 10
2257.319041750099
 20
2993.263596407852
 10
2257.319041750099
 20
2977.263596407852
 10
2247.319041750099
 20
2977.263596407852
1001
AcDbBlockRepETag
1070
     1
1071
        9
1005
839
  0
LWPOLYLINE
  5
83A
330
36E
100
AcDbEntity
  8
Cenrala
100
AcDbPolyline
 90
        4
 70
     1
 43
0.0
 10
2247.319041750099
 20
3278.263596407852
 10
2257.319041750099
 20
3278.263596407852
 10
2257.319041750099
 20
3262.263596407853
 10
2247.319041750099
 20
3262.263596407853
1001
AcDbBlockRepETag
1070
     1
1071
       10
1005
83A
  0
LWPOLYLINE
  5
83B
330
36E
100
AcDbEntity
  8
Cenrala
100
AcDbPolyline
 90
        4
 70
     1
 43
0.0
 10
2247.319041750099
 20
3583.263596407852
 10
2257.319041750099
 20
3583.263596407852
 10
2257.319041750099
 20
3567.263596407852
 10
2247.319041750099
 20
3567.263596407852
1001
AcDbBlockRepETag
1070
     1
1071
       11
1005
83B
  0
LWPOLYLINE
  5
83C
330
36E
100
AcDbEntity
  8
Cenrala
100
AcDbPolyline
 90
        4
 70
     1
 43
0.0
 10
2237.319041750099
 20
3590.263596407852
 10
2247.319041750099
 20
3590.263596407852
 10
2247.319041750099
 20
2970.263596407852
 10
2237.319041750099
 20
2970.263596407852
1001
AcDbBlockRepETag
1070
     1
1071
       12
1005
83C
  0
LWPOLYLINE
  5
83D
330
36E
100
AcDbEntity
  8
Cenrala
100
AcDbPolyline
 90
        4
 70
     1
 43
0.0
 10
1597.319041750099
 20
2840.263596407853
 10
1642.319041750099
 20
2840.263596407853
 10
1642.319041750099
 20
2855.263596407852
 10
1597.319041750099
 20
2855.263596407852
1001
AcDbBlockRepETag
1070
     1
1071
       13
1005
83D
  0
LWPOLYLINE
  5
83E
330
36E
100
AcDbEntity
  8
Cenrala
100
AcDbPolyline
 90
        4
 70
     1
 43
0.0
 10
2227.319041750099
 20
2840.263596407853
 10
2182.319041750099
 20
2840.263596407853
 10
2182.319041750099
 20
2855.263596407852
 10
2227.319041750099
 20
2855.263596407852
1001
AcDbBlockRepETag
1070
     1
1071
       14
1005
83E
  0
LWPOLYLINE
  5
83F
330
36E
100
AcDbEntity
  8
Cenrala
100
AcDbPolyline
 90
        4
 70
     1
 43
0.0
 10
1587.319041750099
 20
2855.263596407852
 10
2237.319041750099
 20
2855.263596407852
 10
2237.319041750099
 20
3615.263596407852
 10
1587.319041750099
 20
3615.263596407852
1001
AcDbBlockRepETag
1070
     1
1071
       15
1005
83F
  0
ENDBLK
  5
370
330
36E
100
AcDbEntity
  8
0
100
AcDbBlockEnd
  0
BLOCK
  5
384
330
383
100
AcDbEntity
  8
0
100
AcDbBlockBegin
  2
1100BSR_p
 70
     0
 10
0.0
 20
0.0
 30
0.0
  3
1100BSR_p
  1

  4
1100BSR_prawa
  0
LWPOLYLINE
  5
815
330
383
100
AcDbEntity
  8
Cenrala
100
AcDbPolyline
 90
        4
 70
     1
 43
0.0
 10
-234.8443986192647
 20
2855.263596407852
 10
-884.8443986192647
 20
2855.263596407852
 10
-884.8443986192647
 20
3615.263596407852
 10
-234.8443986192647
 20
3615.263596407852
1001
AcDbBlockRepETag
1070
     1
1071
        0
1005
815
  0
LWPOLYLINE
  5
816
330
383
100
AcDbEntity
  8
Cenrala
100
AcDbPolyline
 90
        4
 70
     1
 43
0.0
 10
-874.8443986192647
 20
2840.263596407853
 10
-829.8443986192646
 20
2840.263596407853
 10
-829.8443986192646
 20
2855.263596407852
 10
-874.8443986192647
 20
2855.263596407852
1001
AcDbBlockRepETag
1070
     1
1071
        1
1005
816
  0
LWPOLYLINE
  5
817
330
383
100
AcDbEntity
  8
Cenrala
100
AcDbPolyline
 90
        4
 70
     1
 43
0.0
 10
-244.8443986192647
 20
2840.263596407853
 10
-289.8443986192646
 20
2840.263596407853
 10
-289.8443986192646
 20
2855.263596407852
 10
-244.8443986192647
 20
2855.263596407852
1001
AcDbBlockRepETag
1070
     1
1071
        2
1005
817
  0
LWPOLYLINE
  5
818
330
383
100
AcDbEntity
  8
Cenrala
100
AcDbPolyline
 90
        4
 70
     1
 43
0.0
 10
-884.8443986192647
 20
3590.263596407852
 10
-894.8443986192646
 20
3590.263596407852
 10
-894.8443986192646
 20
2970.263596407852
 10
-884.8443986192647
 20
2970.263596407852
1001
AcDbBlockRepETag
1070
     1
1071
        3
1005
818
  0
LWPOLYLINE
  5
819
330
383
100
AcDbEntity
  8
Cenrala
100
AcDbPolyline
 90
        4
 70
     1
 43
0.0
 10
-894.8443986192646
 20
3583.263596407852
 10
-904.8443986192646
 20
3583.263596407852
 10
-904.8443986192646
 20
3567.263596407852
 10
-894.8443986192646
 20
3567.263596407852
1001
AcDbBlockRepETag
1070
     1
1071
        4
1005
819
  0
LWPOLYLINE
  5
81A
330
383
100
AcDbEntity
  8
Cenrala
100
AcDbPolyline
 90
        4
 70
     1
 43
0.0
 10
-894.8443986192646
 20
3278.263596407852
 10
-904.8443986192646
 20
3278.263596407852
 10
-904.8443986192646
 20
3262.263596407853
 10
-894.8443986192646
 20
3262.263596407853
1001
AcDbBlockRepETag
1070
     1
1071
        5
1005
81A
  0
LWPOLYLINE
  5
81B
330
383
100
AcDbEntity
  8
Cenrala
100
AcDbPolyline
 90
        4
 70
     1
 43
0.0
 10
-894.8443986192646
 20
2993.263596407852
 10
-904.8443986192646
 20
2993.263596407852
 10
-904.8443986192646
 20
2977.263596407852
 10
-894.8443986192646
 20
2977.263596407852
1001
AcDbBlockRepETag
1070
     1
1071
        6
1005
81B
  0
CIRCLE
  5
81C
330
383
100
AcDbEntity
  8
Cenrala
100
AcDbCircle
 10
-564.8443986192645
 20
3430.263596407853
 30
0.0
 40
157.5
1001
AcDbBlockRepETag
1070
     1
1071
        7
1005
81C
  0
CIRCLE
  5
81D
330
383
100
AcDbEntity
  8
Cenrala
100
AcDbCircle
 10
-564.8443986192645
 20
3430.263596407853
 30
0.0
 40
160.5
1001
AcDbBlockRepETag
1070
     1
1071
        8
1005
81D
  0
CIRCLE
  5
81E
330
383
100
AcDbEntity
  8
Cenrala
100
AcDbCircle
 10
-521.8443986192645
 20
3050.263596407852
 30
0.0
 40
160.5
1001
AcDbBlockRepETag
1070
     1
1071
        9
1005
81E
  0
CIRCLE
  5
81F
330
383
100
AcDbEntity
  8
Cenrala
100
AcDbCircle
 10
-521.8443986192645
 20
3050.263596407852
 30
0.0
 40
157.5
1001
AcDbBlockRepETag
1070
     1
1071
       10
1005
81F
  0
LWPOLYLINE
  5
820
330
383
100
AcDbEntity
  8
Cenrala
100
AcDbPolyline
 90
        4
 70
     1
 43
0.0
 10
-524.8443986192645
 20
3065.263596407853
 10
-524.8443986192645
 20
3065.263596407853
 10
-524.8443986192645
 20
3065.263596407853
 10
-524.8443986192645
 20
3065.263596407853
1001
AcDbBlockRepETag
1070
     1
1071
       11
1005
820
  0
CIRCLE
  5
822
330
383
100
AcDbEntity
  8
Cenrala
100
AcDbCircle
 10
-254.8443986192647
 20
2875.263596407852
 30
0.0
 40
10.0
1001
AcDbBlockRepETag
1070
     1
1071
       12
1005
822
  0
CIRCLE
  5
823
330
383
100
AcDbEntity
  8
Cenrala
100
AcDbCircle
 10
-254.8443986192647
 20
2875.263596407852
 30
0.0
 40
8.0
1001
AcDbBlockRepETag
1070
     1
1071
       13
1005
823
  0
ENDBLK
  5
385
330
383
100
AcDbEntity
  8
0
100
AcDbBlockEnd
  0
BLOCK
  5
397
330
396
100
AcDbEntity
  8
0
100
AcDbBlockBegin
  2
*D7
 70
     1
 10
0.0
 20
0.0
 30
0.0
  3
*D7
  1

  0
LINE
  5
398
330
396
100
AcDbEntity
  8
wymiary
 62
     0
100
AcDbLine
 10
151.237321565417
 20
3615.263596407852
 30
0.0
 11
151.237321565417
 21
3656.231712546827
 31
0.0
  0
LINE
  5
399
330
396
100
AcDbEntity
  8
wymiary
 62
     0
100
AcDbLine
 10
1201.237321565417
 20
3615.263596407852
 30
0.0
 11
1201.237321565417
 21
3656.231712546827
 31
0.0
  0
LINE
  5
39A
330
396
100
AcDbEntity
  8
wymiary
 62
     0
370
    -2
100
AcDbLine
 10
171.237321565417
 20
3656.231712546827
 30
0.0
 11
1181.237321565417
 21
3656.231712546827
 31
0.0
  0
SOLID
  5
39B
330
396
100
AcDbEntity
  8
wymiary
 62
     0
100
AcDbTrace
 10
171.237321565417
 20
3659.565045880162
 30
0.0
 11
171.237321565417
 21
3652.898379213495
 31
0.0
 12
151.237321565417
 22
3656.231712546827
 32
0.0
 13
151.237321565417
 23
3656.231712546827
 33
0.0
  0
SOLID
  5
39C
330
396
100
AcDbEntity
  8
wymiary
 62
     0
100
AcDbTrace
 10
1181.237321565417
 20
3659.565045880162
 30
0.0
 11
1181.237321565417
 21
3652.898379213495
 31
0.0
 12
1201.237321565417
 22
3656.231712546827
 32
0.0
 13
1201.237321565417
 23
3656.231712546827
 33
0.0
  0
MTEXT
  5
39D
330
396
100
AcDbEntity
  8
wymiary
 62
     0
100
AcDbMText
 10
676.237321565417
 20
3669.731712546827
 30
0.0
 40
15.0
 41
0.0
 71
     5
 72
     1
  1
1050
 73
     1
 44
1.0
1001
ACAD
1000
MTEXTBEGIN
1070
    73
1070
     1
1070
    44
1040
1.0
1070
    74
1070
     0
1000
MTEXTEND
  0
POINT
  5
39E
330
396
100
AcDbEntity
  8
Defpoints
 62
     0
100
AcDbPoint
 10
151.237321565417
 20
3615.263596407852
 30
0.0
  0
POINT
  5
39F
330
396
100
AcDbEntity
  8
Defpoints
 62
     0
100
AcDbPoint
 10
1201.237321565417
 20
3615.263596407852
 30
0.0
  0
POINT
  5
3A0
330
396
100
AcDbEntity
  8
Defpoints
 62
     0
100
AcDbPoint
 10
1201.237321565417
 20
3656.231712546827
 30
0.0
  0
ENDBLK
  5
3A1
330
396
100
AcDbEntity
  8
0
100
AcDbBlockEnd
  0
BLOCK
  5
3A3
330
3A2
100
AcDbEntity
  8
0
100
AcDbBlockBegin
  2
*D8
 70
     1
 10
0.0
 20
0.0
 30
0.0
  3
*D8
  1

  0
LINE
  5
3A4
330
3A2
100
AcDbEntity
  8
wymiary
 62
     0
100
AcDbLine
 10
151.237321565417
 20
3615.263596407852
 30
0.0
 11
63.8662003537285
 21
3615.263596407852
 31
0.0
  0
LINE
  5
3A5
330
3A2
100
AcDbEntity
  8
wymiary
 62
     0
100
AcDbLine
 10
151.237321565417
 20
2855.263596407852
 30
0.0
 11
63.86620035372835
 21
2855.263596407852
 31
0.0
  0
LINE
  5
3A6
330
3A2
100
AcDbEntity
  8
wymiary
 62
     0
370
    -2
100
AcDbLine
 10
63.8662003537285
 20
3595.263596407852
 30
0.0
 11
63.86620035372835
 21
2875.263596407852
 31
0.0
  0
SOLID
  5
3A7
330
3A2
100
AcDbEntity
  8
wymiary
 62
     0
100
AcDbTrace
 10
60.53286702039518
 20
3595.263596407852
 30
0.0
 11
67.19953368706183
 21
3595.263596407852
 31
0.0
 12
63.8662003537285
 22
3615.263596407852
 32
0.0
 13
63.8662003537285
 23
3615.263596407852
 33
0.0
  0
SOLID
  5
3A8
330
3A2
100
AcDbEntity
  8
wymiary
 62
     0
100
AcDbTrace
 10
60.53286702039501
 20
2875.263596407852
 30
0.0
 11
67.19953368706168
 21
2875.263596407852
 31
0.0
 12
63.86620035372835
 22
2855.263596407852
 32
0.0
 13
63.86620035372835
 23
2855.263596407852
 33
0.0
  0
MTEXT
  5
3A9
330
3A2
100
AcDbEntity
  8
wymiary
 62
     0
100
AcDbMText
 10
50.36620035372791
 20
3235.263596407853
 30
0.0
 40
15.0
 41
0.0
 71
     5
 72
     1
  1
760
 11
0.0000000000000001
 21
1.0
 31
0.0
 73
     1
 44
1.0
1001
ACAD
1000
MTEXTBEGIN
1070
    73
1070
     1
1070
    44
1040
1.0
1070
    74
1070
     0
1000
MTEXTEND
  0
POINT
  5
3AA
330
3A2
100
AcDbEntity
  8
Defpoints
 62
     0
100
AcDbPoint
 10
151.237321565417
 20
3615.263596407852
 30
0.0
  0
POINT
  5
3AB
330
3A2
100
AcDbEntity
  8
Defpoints
 62
     0
100
AcDbPoint
 10
151.237321565417
 20
2855.263596407852
 30
0.0
  0
POINT
  5
3AC
330
3A2
100
AcDbEntity
  8
Defpoints
 62
     0
100
AcDbPoint
 10
63.86620035372835
 20
2855.263596407852
 30
0.0
  0
ENDBLK
  5
3AD
330
3A2
100
AcDbEntity
  8
0
100
AcDbBlockEnd
  0
BLOCK
  5
3AF
330
3AE
100
AcDbEntity
  8
0
100
AcDbBlockBegin
  2
*D9
 70
     1
 10
0.0
 20
0.0
 30
0.0
  3
*D9
  1

  0
LINE
  5
3B0
330
3AE
100
AcDbEntity
  8
wymiary
 62
     0
370
    -2
100
AcDbLine
 10
-544.8443986192651
 20
3445.263596407853
 30
0.0
 11
-254.8443986192651
 21
3445.263596407853
 31
0.0
  0
MTEXT
  5
3B1
330
3AE
100
AcDbEntity
  8
wymiary
 62
     0
100
AcDbMText
 10
-358.9097352895097
 20
3463.967793332911
 30
0.0
 40
15.0
 41
0.0
 71
     5
 72
     1
  1
330
 73
     1
 44
1.0
1001
ACAD
1000
MTEXTBEGIN
1070
    73
1070
     1
1070
    44
1040
1.0
1070
    74
1070
     0
1000
MTEXTEND
  0
SOLID
  5
3B2
330
3AE
100
AcDbEntity
  8
wymiary
 62
     0
100
AcDbTrace
 10
-544.8443986192651
 20
3448.596929741186
 30
0.0
 11
-544.8443986192651
 21
3441.93026307452
 31
0.0
 12
-564.8443986192651
 22
3445.263596407853
 32
0.0
 13
-564.8443986192651
 23
3445.263596407853
 33
0.0
  0
SOLID
  5
3B3
330
3AE
100
AcDbEntity
  8
wymiary
 62
     0
100
AcDbTrace
 10
-254.8443986192651
 20
3448.596929741186
 30
0.0
 11
-254.8443986192651
 21
3441.93026307452
 31
0.0
 12
-234.8443986192651
 22
3445.263596407853
 32
0.0
 13
-234.8443986192651
 23
3445.263596407853
 33
0.0
  0
POINT
  5
3B4
330
3AE
100
AcDbEntity
  8
Defpoints
 62
     0
100
AcDbPoint
 10
-564.8443986192651
 20
3445.263596407853
 30
0.0
  0
POINT
  5
3B5
330
3AE
100
AcDbEntity
  8
Defpoints
 62
     0
100
AcDbPoint
 10
-234.8443986192651
 20
3445.263596407853
 30
0.0
  0
POINT
  5
3B6
330
3AE
100
AcDbEntity
  8
Defpoints
 62
     0
100
AcDbPoint
 10
-234.8443986192651
 20
3445.263596407853
 30
0.0
  0
ENDBLK
  5
3B7
330
3AE
100
AcDbEntity
  8
0
100
AcDbBlockEnd
  0
BLOCK
  5
3B9
330
3B8
100
AcDbEntity
  8
0
100
AcDbBlockBegin
  2
*D10
 70
     1
 10
0.0
 20
0.0
 30
0.0
  3
*D10
  1

  0
LINE
  5
3BA
330
3B8
100
AcDbEntity
  8
wymiary
 62
     0
100
AcDbLine
 10
-559.8443986192651
 20
3615.263596407852
 30
0.0
 11
-564.8443986192652
 21
3615.263596407852
 31
0.0
  0
LINE
  5
3BB
330
3B8
100
AcDbEntity
  8
wymiary
 62
     0
370
    -2
100
AcDbLine
 10
-564.8443986192652
 20
3465.263596407852
 30
0.0
 11
-564.8443986192652
 21
3595.263596407852
 31
0.0
  0
SOLID
  5
3BC
330
3B8
100
AcDbEntity
  8
wymiary
 62
     0
100
AcDbTrace
 10
-568.1777319525987
 20
3465.263596407852
 30
0.0
 11
-561.5110652859319
 21
3465.263596407852
 31
0.0
 12
-564.8443986192652
 22
3445.263596407853
 32
0.0
 13
-564.8443986192652
 23
3445.263596407853
 33
0.0
  0
SOLID
  5
3BD
330
3B8
100
AcDbEntity
  8
wymiary
 62
     0
100
AcDbTrace
 10
-568.1777319525987
 20
3595.263596407852
 30
0.0
 11
-561.5110652859319
 21
3595.263596407852
 31
0.0
 12
-564.8443986192652
 22
3615.263596407852
 32
0.0
 13
-564.8443986192652
 23
3615.263596407852
 33
0.0
  0
MTEXT
  5
3BE
330
3B8
100
AcDbEntity
  8
wymiary
 62
     0
100
AcDbMText
 10
-578.3443986192659
 20
3530.263596407853
 30
0.0
 40
15.0
 41
0.0
 71
     5
 72
     1
  1
170
 11
0.0000000000000001
 21
1.0
 31
0.0
 73
     1
 44
1.0
1001
ACAD
1000
MTEXTBEGIN
1070
    73
1070
     1
1070
    44
1040
1.0
1070
    74
1070
     0
1000
MTEXTEND
  0
POINT
  5
3BF
330
3B8
100
AcDbEntity
  8
Defpoints
 62
     0
100
AcDbPoint
 10
-564.8443986192651
 20
3445.263596407853
 30
0.0
  0
POINT
  5
3C0
330
3B8
100
AcDbEntity
  8
Defpoints
 62
     0
100
AcDbPoint
 10
-559.8443986192651
 20
3615.263596407852
 30
0.0
  0
POINT
  5
3C1
330
3B8
100
AcDbEntity
  8
Defpoints
 62
     0
100
AcDbPoint
 10
-564.8443986192652
 20
3615.263596407852
 30
0.0
  0
ENDBLK
  5
3C2
330
3B8
100
AcDbEntity
  8
0
100
AcDbBlockEnd
  0
BLOCK
  5
3C4
330
3C3
100
AcDbEntity
  8
0
100
AcDbBlockBegin
  2
*D11
 70
     1
 10
0.0
 20
0.0
 30
0.0
  3
*D11
  1

  0
LINE
  5
3C5
330
3C3
100
AcDbEntity
  8
wymiary
 62
     0
370
    -2
100
AcDbLine
 10
-504.844398619265
 20
3065.263596407853
 30
0.0
 11
-254.8443986192653
 21
3065.263596407853
 31
0.0
  0
MTEXT
  5
3C6
330
3C3
100
AcDbEntity
  8
wymiary
 62
     0
100
AcDbMText
 10
-316.6278591439477
 20
3086.048778049751
 30
0.0
 40
15.0
 41
0.0
 71
     5
 72
     1
  1
290
 73
     1
 44
1.0
1001
ACAD
1000
MTEXTBEGIN
1070
    73
1070
     1
1070
    44
1040
1.0
1070
    74
1070
     0
1000
MTEXTEND
  0
SOLID
  5
3C7
330
3C3
100
AcDbEntity
  8
wymiary
 62
     0
100
AcDbTrace
 10
-504.844398619265
 20
3068.596929741185
 30
0.0
 11
-504.844398619265
 21
3061.930263074518
 31
0.0
 12
-524.8443986192651
 22
3065.263596407853
 32
0.0
 13
-524.8443986192651
 23
3065.263596407853
 33
0.0
  0
SOLID
  5
3C8
330
3C3
100
AcDbEntity
  8
wymiary
 62
     0
100
AcDbTrace
 10
-254.8443986192653
 20
3068.596929741185
 30
0.0
 11
-254.8443986192653
 21
3061.930263074518
 31
0.0
 12
-234.8443986192653
 22
3065.263596407853
 32
0.0
 13
-234.8443986192653
 23
3065.263596407853
 33
0.0
  0
POINT
  5
3C9
330
3C3
100
AcDbEntity
  8
Defpoints
 62
     0
100
AcDbPoint
 10
-524.8443986192651
 20
3065.263596407853
 30
0.0
  0
POINT
  5
3CA
330
3C3
100
AcDbEntity
  8
Defpoints
 62
     0
100
AcDbPoint
 10
-234.8443986192653
 20
3065.263596407864
 30
0.0
  0
POINT
  5
3CB
330
3C3
100
AcDbEntity
  8
Defpoints
 62
     0
100
AcDbPoint
 10
-234.8443986192653
 20
3065.263596407853
 30
0.0
  0
ENDBLK
  5
3CC
330
3C3
100
AcDbEntity
  8
0
100
AcDbBlockEnd
  0
BLOCK
  5
3CE
330
3CD
100
AcDbEntity
  8
0
100
AcDbBlockBegin
  2
*D12
 70
     1
 10
0.0
 20
0.0
 30
0.0
  3
*D12
  1

  0
LINE
  5
3CF
330
3CD
100
AcDbEntity
  8
wymiary
 62
     0
370
    -2
100
AcDbLine
 10
-524.8443986192651
 20
3045.263596407853
 30
0.0
 11
-524.8443986192651
 21
2875.263596407852
 31
0.0
  0
SOLID
  5
3D0
330
3CD
100
AcDbEntity
  8
wymiary
 62
     0
100
AcDbTrace
 10
-528.1777319525985
 20
3045.263596407853
 30
0.0
 11
-521.5110652859317
 21
3045.263596407853
 31
0.0
 12
-524.8443986192651
 22
3065.263596407853
 32
0.0
 13
-524.8443986192651
 23
3065.263596407853
 33
0.0
  0
SOLID
  5
3D1
330
3CD
100
AcDbEntity
  8
wymiary
 62
     0
100
AcDbTrace
 10
-528.1777319525985
 20
2875.263596407852
 30
0.0
 11
-521.5110652859317
 21
2875.263596407852
 31
0.0
 12
-524.8443986192651
 22
2855.263596407852
 32
0.0
 13
-524.8443986192651
 23
2855.263596407852
 33
0.0
  0
MTEXT
  5
3D2
330
3CD
100
AcDbEntity
  8
wymiary
 62
     0
100
AcDbMText
 10
-538.3443986192656
 20
2960.263596407852
 30
0.0
 40
15.0
 41
0.0
 71
     5
 72
     1
  1
210
 11
0.0000000000000001
 21
1.0
 31
0.0
 73
     1
 44
1.0
1001
ACAD
1000
MTEXTBEGIN
1070
    73
1070
     1
1070
    44
1040
1.0
1070
    74
1070
     0
1000
MTEXTEND
  0
POINT
  5
3D3
330
3CD
100
AcDbEntity
  8
Defpoints
 62
     0
100
AcDbPoint
 10
-524.8443986192651
 20
3065.263596407853
 30
0.0
  0
POINT
  5
3D4
330
3CD
100
AcDbEntity
  8
Defpoints
 62
     0
100
AcDbPoint
 10
-524.8443986192658
 20
2855.263596407852
 30
0.0
  0
POINT
  5
3D5
330
3CD
100
AcDbEntity
  8
Defpoints
 62
     0
100
AcDbPoint
 10
-524.8443986192651
 20
2855.263596407852
 30
0.0
  0
ENDBLK
  5
3D6
330
3CD
100
AcDbEntity
  8
0
100
AcDbBlockEnd
  0
BLOCK
  5
3D8
330
3D7
100
AcDbEntity
  8
0
100
AcDbBlockBegin
  2
*D13
 70
     1
 10
0.0
 20
0.0
 30
0.0
  3
*D13
  1

  0
LINE
  5
3D9
330
3D7
100
AcDbEntity
  8
wymiary
 62
     0
100
AcDbLine
 10
1587.319041750099
 20
3615.263596407852
 30
0.0
 11
1587.319041750099
 21
3656.231712546827
 31
0.0
  0
LINE
  5
3DA
330
3D7
100
AcDbEntity
  8
wymiary
 62
     0
100
AcDbLine
 10
2237.319041750099
 20
3615.263596407852
 30
0.0
 11
2237.319041750099
 21
3656.231712546827
 31
0.0
  0
LINE
  5
3DB
330
3D7
100
AcDbEntity
  8
wymiary
 62
     0
370
    -2
100
AcDbLine
 10
1607.319041750099
 20
3656.231712546827
 30
0.0
 11
2217.319041750099
 21
3656.231712546827
 31
0.0
  0
SOLID
  5
3DC
330
3D7
100
AcDbEntity
  8
wymiary
 62
     0
100
AcDbTrace
 10
1607.319041750099
 20
3659.565045880162
 30
0.0
 11
1607.319041750099
 21
3652.898379213495
 31
0.0
 12
1587.319041750099
 22
3656.231712546827
 32
0.0
 13
1587.319041750099
 23
3656.231712546827
 33
0.0
  0
SOLID
  5
3DD
330
3D7
100
AcDbEntity
  8
wymiary
 62
     0
100
AcDbTrace
 10
2217.319041750099
 20
3659.565045880162
 30
0.0
 11
2217.319041750099
 21
3652.898379213495
 31
0.0
 12
2237.319041750099
 22
3656.231712546827
 32
0.0
 13
2237.319041750099
 23
3656.231712546827
 33
0.0
  0
MTEXT
  5
3DE
330
3D7
100
AcDbEntity
  8
wymiary
 62
     0
100
AcDbMText
 10
1912.319041750099
 20
3669.731712546827
 30
0.0
 40
15.0
 41
0.0
 71
     5
 72
     1
  1
650
 73
     1
 44
1.0
1001
ACAD
1000
MTEXTBEGIN
1070
    73
1070
     1
1070
    44
1040
1.0
1070
    74
1070
     0
1000
MTEXTEND
  0
POINT
  5
3DF
330
3D7
100
AcDbEntity
  8
Defpoints
 62
     0
100
AcDbPoint
 10
1587.319041750099
 20
3615.263596407852
 30
0.0
  0
POINT
  5
3E0
330
3D7
100
AcDbEntity
  8
Defpoints
 62
     0
100
AcDbPoint
 10
2237.319041750099
 20
3615.263596407852
 30
0.0
  0
POINT
  5
3E1
330
3D7
100
AcDbEntity
  8
Defpoints
 62
     0
100
AcDbPoint
 10
2237.319041750099
 20
3656.231712546827
 30
0.0
  0
ENDBLK
  5
3E2
330
3D7
100
AcDbEntity
  8
0
100
AcDbBlockEnd
  0
BLOCK
  5
3E4
330
3E3
100
AcDbEntity
  8
0
100
AcDbBlockBegin
  2
*D14
 70
     1
 10
0.0
 20
0.0
 30
0.0
  3
*D14
  1

  0
LINE
  5
3E5
330
3E3
100
AcDbEntity
  8
wymiary
 62
     0
370
    -2
100
AcDbLine
 10
1897.319041750099
 20
3445.263596407853
 30
0.0
 11
1607.319041750099
 21
3445.263596407853
 31
0.0
  0
MTEXT
  5
3E6
330
3E3
100
AcDbEntity
  8
wymiary
 62
     0
100
AcDbMText
 10
1697.458679385614
 20
3464.354603054252
 30
0.0
 40
15.0
 41
0.0
 71
     5
 72
     1
  1
330
 73
     1
 44
1.0
1001
ACAD
1000
MTEXTBEGIN
1070
    73
1070
     1
1070
    44
1040
1.0
1070
    74
1070
     0
1000
MTEXTEND
  0
SOLID
  5
3E7
330
3E3
100
AcDbEntity
  8
wymiary
 62
     0
100
AcDbTrace
 10
1897.319041750099
 20
3448.596929741186
 30
0.0
 11
1897.319041750099
 21
3441.93026307452
 31
0.0
 12
1917.319041750099
 22
3445.263596407853
 32
0.0
 13
1917.319041750099
 23
3445.263596407853
 33
0.0
  0
SOLID
  5
3E8
330
3E3
100
AcDbEntity
  8
wymiary
 62
     0
100
AcDbTrace
 10
1607.319041750099
 20
3448.596929741186
 30
0.0
 11
1607.319041750099
 21
3441.93026307452
 31
0.0
 12
1587.319041750099
 22
3445.263596407853
 32
0.0
 13
1587.319041750099
 23
3445.263596407853
 33
0.0
  0
POINT
  5
3E9
330
3E3
100
AcDbEntity
  8
Defpoints
 62
     0
100
AcDbPoint
 10
1917.319041750099
 20
3445.263596407853
 30
0.0
  0
POINT
  5
3EA
330
3E3
100
AcDbEntity
  8
Defpoints
 62
     0
100
AcDbPoint
 10
1587.319041750099
 20
3445.263596407853
 30
0.0
  0
POINT
  5
3EB
330
3E3
100
AcDbEntity
  8
Defpoints
 62
     0
100
AcDbPoint
 10
1587.319041750099
 20
3445.263596407853
 30
0.0
  0
ENDBLK
  5
3EC
330
3E3
100
AcDbEntity
  8
0
100
AcDbBlockEnd
  0
BLOCK
  5
3EE
330
3ED
100
AcDbEntity
  8
0
100
AcDbBlockBegin
  2
*D15
 70
     1
 10
0.0
 20
0.0
 30
0.0
  3
*D15
  1

  0
LINE
  5
3EF
330
3ED
100
AcDbEntity
  8
wymiary
 62
     0
100
AcDbLine
 10
1912.319041750099
 20
3615.263596407852
 30
0.0
 11
1917.319041750099
 21
3615.263596407852
 31
0.0
  0
LINE
  5
3F0
330
3ED
100
AcDbEntity
  8
wymiary
 62
     0
370
    -2
100
AcDbLine
 10
1917.319041750099
 20
3465.263596407852
 30
0.0
 11
1917.319041750099
 21
3595.263596407852
 31
0.0
  0
SOLID
  5
3F1
330
3ED
100
AcDbEntity
  8
wymiary
 62
     0
100
AcDbTrace
 10
1913.985708416766
 20
3465.263596407852
 30
0.0
 11
1920.652375083432
 21
3465.263596407852
 31
0.0
 12
1917.319041750099
 22
3445.263596407853
 32
0.0
 13
1917.319041750099
 23
3445.263596407853
 33
0.0
  0
SOLID
  5
3F2
330
3ED
100
AcDbEntity
  8
wymiary
 62
     0
100
AcDbTrace
 10
1913.985708416766
 20
3595.263596407852
 30
0.0
 11
1920.652375083432
 21
3595.263596407852
 31
0.0
 12
1917.319041750099
 22
3615.263596407852
 32
0.0
 13
1917.319041750099
 23
3615.263596407852
 33
0.0
  0
MTEXT
  5
3F3
330
3ED
100
AcDbEntity
  8
wymiary
 62
     0
100
AcDbMText
 10
1903.819041750099
 20
3530.263596407853
 30
0.0
 40
15.0
 41
0.0
 71
     5
 72
     1
  1
170
 11
0.0000000000000001
 21
1.0
 31
0.0
 73
     1
 44
1.0
1001
ACAD
1000
MTEXTBEGIN
1070
    73
1070
     1
1070
    44
1040
1.0
1070
    74
1070
     0
1000
MTEXTEND
  0
POINT
  5
3F4
330
3ED
100
AcDbEntity
  8
Defpoints
 62
     0
100
AcDbPoint
 10
1917.319041750099
 20
3445.263596407853
 30
0.0
  0
POINT
  5
3F5
330
3ED
100
AcDbEntity
  8
Defpoints
 62
     0
100
AcDbPoint
 10
1912.319041750099
 20
3615.263596407852
 30
0.0
  0
POINT
  5
3F6
330
3ED
100
AcDbEntity
  8
Defpoints
 62
     0
100
AcDbPoint
 10
1917.319041750099
 20
3615.263596407852
 30
0.0
  0
ENDBLK
  5
3F7
330
3ED
100
AcDbEntity
  8
0
100
AcDbBlockEnd
  0
BLOCK
  5
3F9
330
3F8
100
AcDbEntity
  8
0
100
AcDbBlockBegin
  2
*D16
 70
     1
 10
0.0
 20
0.0
 30
0.0
  3
*D16
  1

  0
LINE
  5
3FA
330
3F8
100
AcDbEntity
  8
wymiary
 62
     0
370
    -2
100
AcDbLine
 10
1857.319041750099
 20
3065.263596407853
 30
0.0
 11
1607.319041750099
 21
3065.263596407853
 31
0.0
  0
MTEXT
  5
3FB
330
3F8
100
AcDbEntity
  8
wymiary
 62
     0
100
AcDbMText
 10
1678.4641506551
 20
3083.459737893994
 30
0.0
 40
15.0
 41
0.0
 71
     5
 72
     1
  1
290
 73
     1
 44
1.0
1001
ACAD
1000
MTEXTBEGIN
1070
    73
1070
     1
1070
    44
1040
1.0
1070
    74
1070
     0
1000
MTEXTEND
  0
SOLID
  5
3FC
330
3F8
100
AcDbEntity
  8
wymiary
 62
     0
100
AcDbTrace
 10
1857.319041750099
 20
3068.596929741185
 30
0.0
 11
1857.319041750099
 21
3061.930263074518
 31
0.0
 12
1877.319041750099
 22
3065.263596407853
 32
0.0
 13
1877.319041750099
 23
3065.263596407853
 33
0.0
  0
SOLID
  5
3FD
330
3F8
100
AcDbEntity
  8
wymiary
 62
     0
100
AcDbTrace
 10
1607.319041750099
 20
3068.596929741185
 30
0.0
 11
1607.319041750099
 21
3061.930263074518
 31
0.0
 12
1587.319041750099
 22
3065.263596407853
 32
0.0
 13
1587.319041750099
 23
3065.263596407853
 33
0.0
  0
POINT
  5
3FE
330
3F8
100
AcDbEntity
  8
Defpoints
 62
     0
100
AcDbPoint
 10
1877.319041750099
 20
3065.263596407853
 30
0.0
  0
POINT
  5
3FF
330
3F8
100
AcDbEntity
  8
Defpoints
 62
     0
100
AcDbPoint
 10
1587.319041750099
 20
3065.263596407864
 30
0.0
  0
POINT
  5
400
330
3F8
100
AcDbEntity
  8
Defpoints
 62
     0
100
AcDbPoint
 10
1587.319041750099
 20
3065.263596407853
 30
0.0
  0
ENDBLK
  5
401
330
3F8
100
AcDbEntity
  8
0
100
AcDbBlockEnd
  0
BLOCK
  5
403
330
402
100
AcDbEntity
  8
0
100
AcDbBlockBegin
  2
*D17
 70
     1
 10
0.0
 20
0.0
 30
0.0
  3
*D17
  1

  0
LINE
  5
404
330
402
100
AcDbEntity
  8
wymiary
 62
     0
370
    -2
100
AcDbLine
 10
1877.319041750099
 20
3045.263596407853
 30
0.0
 11
1877.319041750099
 21
2875.263596407852
 31
0.0
  0
SOLID
  5
405
330
402
100
AcDbEntity
  8
wymiary
 62
     0
100
AcDbTrace
 10
1873.985708416766
 20
3045.263596407853
 30
0.0
 11
1880.652375083432
 21
3045.263596407853
 31
0.0
 12
1877.319041750099
 22
3065.263596407853
 32
0.0
 13
1877.319041750099
 23
3065.263596407853
 33
0.0
  0
SOLID
  5
406
330
402
100
AcDbEntity
  8
wymiary
 62
     0
100
AcDbTrace
 10
1873.985708416766
 20
2875.263596407852
 30
0.0
 11
1880.652375083432
 21
2875.263596407852
 31
0.0
 12
1877.319041750099
 22
2855.263596407852
 32
0.0
 13
1877.319041750099
 23
2855.263596407852
 33
0.0
  0
MTEXT
  5
407
330
402
100
AcDbEntity
  8
wymiary
 62
     0
100
AcDbMText
 10
1863.819041750099
 20
2960.263596407852
 30
0.0
 40
15.0
 41
0.0
 71
     5
 72
     1
  1
210
 11
0.0000000000000001
 21
1.0
 31
0.0
 73
     1
 44
1.0
1001
ACAD
1000
MTEXTBEGIN
1070
    73
1070
     1
1070
    44
1040
1.0
1070
    74
1070
     0
1000
MTEXTEND
  0
POINT
  5
408
330
402
100
AcDbEntity
  8
Defpoints
 62
     0
100
AcDbPoint
 10
1877.319041750099
 20
3065.263596407853
 30
0.0
  0
POINT
  5
409
330
402
100
AcDbEntity
  8
Defpoints
 62
     0
100
AcDbPoint
 10
1877.3190417501
 20
2855.263596407852
 30
0.0
  0
POINT
  5
40A
330
402
100
AcDbEntity
  8
Defpoints
 62
     0
100
AcDbPoint
 10
1877.319041750099
 20
2855.263596407852
 30
0.0
  0
ENDBLK
  5
40B
330
402
100
AcDbEntity
  8
0
100
AcDbBlockEnd
  0
BLOCK
  5
40D
330
40C
100
AcDbEntity
  8
0
100
AcDbBlockBegin
  2
*D18
 70
     1
 10
0.0
 20
0.0
 30
0.0
  3
*D18
  1

  0
LINE
  5
40E
330
40C
100
AcDbEntity
  8
wymiary
 62
     0
370
    -2
100
AcDbLine
 10
-444.483467332239
 20
3378.784304747066
 30
0.0
 11
-685.2053299062909
 21
3511.742888068641
 31
0.0
  0
MTEXT
  5
40F
102
{ACAD_XDICTIONARY
360
AD1
102
}
330
40C
100
AcDbEntity
  8
wymiary
 62
     0
100
AcDbMText
 10
-611.1680017499347
 20
3494.242140370491
 30
0.0
 40
15.0
 41
0.0
 71
     5
 72
     1
  1
\U+2205315
 11
0.875352227542004
 21
-0.4834857575329927
 31
0.0
 73
     1
 44
1.0
1001
ACAD
1000
MTEXTBEGIN
1070
    73
1070
     1
1070
    44
1040
1.0
1070
    74
1070
     0
1000
MTEXTEND
  0
SOLID
  5
410
330
40C
100
AcDbEntity
  8
wymiary
 62
     0
100
AcDbTrace
 10
-442.8718481404623
 20
3381.70214550554
 30
0.0
 11
-446.0950865240159
 21
3375.866463988592
 31
0.0
 12
-426.9764227813992
 22
3369.114589596406
 32
0.0
 13
-426.9764227813992
 23
3369.114589596406
 33
0.0
  0
SOLID
  5
411
330
40C
100
AcDbEntity
  8
wymiary
 62
     0
100
AcDbTrace
 10
-683.5937107145142
 20
3514.660728827113
 30
0.0
 11
-686.8169490980676
 21
3508.825047310166
 31
0.0
 12
-702.7123744571309
 22
3521.4126032193
 32
0.0
 13
-702.7123744571309
 23
3521.4126032193
 33
0.0
  0
POINT
  5
412
330
40C
100
AcDbEntity
  8
Defpoints
 62
     0
100
AcDbPoint
 10
-702.7123744571309
 20
3521.4126032193
 30
0.0
  0
POINT
  5
413
330
40C
100
AcDbEntity
  8
Defpoints
 62
     0
100
AcDbPoint
 10
-426.9764227813992
 20
3369.114589596406
 30
0.0
  0
ENDBLK
  5
414
330
40C
100
AcDbEntity
  8
0
100
AcDbBlockEnd
  0
BLOCK
  5
416
330
415
100
AcDbEntity
  8
0
100
AcDbBlockBegin
  2
*D19
 70
     1
 10
0.0
 20
0.0
 30
0.0
  3
*D19
  1

  0
LINE
  5
417
330
415
100
AcDbEntity
  8
wymiary
 62
     0
370
    -2
100
AcDbLine
 10
-410.2970085548161
 20
2989.203452906652
 30
0.0
 11
-639.391788683713
 21
3141.323739909053
 31
0.0
  0
MTEXT
  5
418
102
{ACAD_XDICTIONARY
360
AD3
102
}
330
415
100
AcDbEntity
  8
wymiary
 62
     0
100
AcDbMText
 10
-587.7677297481312
 20
3138.823965693186
 30
0.0
 40
15.0
 41
0.0
 71
     5
 72
     1
  1
\U+2205315
 11
0.8330719277414431
 21
-0.5531646800087259
 31
0.0
 73
     1
 44
1.0
1001
ACAD
1000
MTEXTBEGIN
1070
    73
1070
     1
1070
    44
1040
1.0
1070
    74
1070
     0
1000
MTEXTEND
  0
SOLID
  5
419
330
415
100
AcDbEntity
  8
wymiary
 62
     0
100
AcDbTrace
 10
-408.4531262881204
 20
2991.980359332457
 30
0.0
 11
-412.1408908215118
 21
2986.426546480847
 31
0.0
 12
-393.6355699999872
 22
2978.140159306479
 32
0.0
 13
-393.6355699999872
 23
2978.140159306479
 33
0.0
  0
SOLID
  5
41A
330
415
100
AcDbEntity
  8
wymiary
 62
     0
100
AcDbTrace
 10
-637.547906417017
 20
3144.100646334857
 30
0.0
 11
-641.2356709504088
 21
3138.546833483247
 31
0.0
 12
-656.0532272385416
 22
3152.387033509226
 32
0.0
 13
-656.0532272385416
 23
3152.387033509226
 33
0.0
  0
POINT
  5
41B
330
415
100
AcDbEntity
  8
Defpoints
 62
     0
100
AcDbPoint
 10
-656.0532272385416
 20
3152.387033509226
 30
0.0
  0
POINT
  5
41C
330
415
100
AcDbEntity
  8
Defpoints
 62
     0
100
AcDbPoint
 10
-393.6355699999872
 20
2978.140159306479
 30
0.0
  0
ENDBLK
  5
41D
330
415
100
AcDbEntity
  8
0
100
AcDbBlockEnd
  0
BLOCK
  5
41F
330
41E
100
AcDbEntity
  8
0
100
AcDbBlockBegin
  2
*D20
 70
     1
 10
0.0
 20
0.0
 30
0.0
  3
*D20
  1

  0
LINE
  5
420
330
41E
100
AcDbEntity
  8
wymiary
 62
     0
370
    -2
100
AcDbLine
 10
2037.423822934503
 20
3378.322640807813
 30
0.0
 11
1797.214260565695
 21
3512.204552007892
 31
0.0
  0
MTEXT
  5
421
102
{ACAD_XDICTIONARY
360
AD5
102
}
330
41E
100
AcDbEntity
  8
wymiary
 62
     0
100
AcDbMText
 10
1863.635953492707
 20
3497.331016082579
 30
0.0
 40
15.0
 41
0.0
 71
     5
 72
     1
  1
\U+2205315
 11
0.8734893177047553
 21
-0.4868433134548332
 31
0.0
 73
     1
 44
1.0
1001
ACAD
1000
MTEXTBEGIN
1070
    73
1070
     1
1070
    44
1040
1.0
1070
    74
1070
     0
1000
MTEXTEND
  0
SOLID
  5
422
330
41E
100
AcDbEntity
  8
wymiary
 62
     0
100
AcDbTrace
 10
2039.046633979353
 20
3381.234271866829
 30
0.0
 11
2035.801011889653
 21
3375.411009748797
 31
0.0
 12
2054.893609288598
 22
3368.585774538716
 32
0.0
 13
2054.893609288598
 23
3368.585774538716
 33
0.0
  0
SOLID
  5
423
330
41E
100
AcDbEntity
  8
wymiary
 62
     0
100
AcDbTrace
 10
1798.837071610545
 20
3515.116183066908
 30
0.0
 11
1795.591449520846
 21
3509.292920948877
 31
0.0
 12
1779.7444742116
 22
3521.941418276988
 32
0.0
 13
1779.7444742116
 23
3521.941418276988
 33
0.0
  0
POINT
  5
424
330
41E
100
AcDbEntity
  8
Defpoints
 62
     0
100
AcDbPoint
 10
1779.7444742116
 20
3521.941418276988
 30
0.0
  0
POINT
  5
425
330
41E
100
AcDbEntity
  8
Defpoints
 62
     0
100
AcDbPoint
 10
2054.893609288598
 20
3368.585774538716
 30
0.0
  0
ENDBLK
  5
426
330
41E
100
AcDbEntity
  8
0
100
AcDbBlockEnd
  0
BLOCK
  5
428
330
427
100
AcDbEntity
  8
0
100
AcDbBlockBegin
  2
*D21
 70
     1
 10
0.0
 20
0.0
 30
0.0
  3
*D21
  1

  0
LINE
  5
429
330
427
100
AcDbEntity
  8
wymiary
 62
     0
370
    -2
100
AcDbLine
 10
1988.640449789451
 20
2984.555516811468
 30
0.0
 11
1765.997633710747
 21
3145.971676004235
 31
0.0
  0
MTEXT
  5
42A
102
{ACAD_XDICTIONARY
360
AD7
102
}
330
427
100
AcDbEntity
  8
wymiary
 62
     0
100
AcDbMText
 10
1885.08440328961
 20
3085.005633623661
 30
0.0
 40
15.0
 41
0.0
 71
     5
 72
     1
  1
\U+2205315
 11
0.8096102402861948
 21
-0.5869678516100608
 31
0.0
 73
     1
 44
1.0
1001
ACAD
1000
MTEXTBEGIN
1070
    73
1070
     1
1070
    44
1040
1.0
1070
    74
1070
     0
1000
MTEXTEND
  0
SOLID
  5
42B
330
427
100
AcDbEntity
  8
wymiary
 62
     0
100
AcDbTrace
 10
1990.597009294818
 20
2987.254217612423
 30
0.0
 11
1986.683890284084
 21
2981.856816010515
 31
0.0
 12
2004.832654595174
 22
2972.816159779267
 32
0.0
 13
2004.832654595174
 23
2972.816159779267
 33
0.0
  0
SOLID
  5
42C
330
427
100
AcDbEntity
  8
wymiary
 62
     0
100
AcDbTrace
 10
1767.954193216114
 20
3148.670376805189
 30
0.0
 11
1764.04107420538
 21
3143.272975203282
 31
0.0
 12
1749.805428905023
 22
3157.711033036437
 32
0.0
 13
1749.805428905023
 23
3157.711033036437
 33
0.0
  0
POINT
  5
42D
330
427
100
AcDbEntity
  8
Defpoints
 62
     0
100
AcDbPoint
 10
1749.805428905023
 20
3157.711033036437
 30
0.0
  0
POINT
  5
42E
330
427
100
AcDbEntity
  8
Defpoints
 62
     0
100
AcDbPoint
 10
2004.832654595174
 20
2972.816159779267
 30
0.0
  0
ENDBLK
  5
42F
330
427
100
AcDbEntity
  8
0
100
AcDbBlockEnd
  0
BLOCK
  5
473
330
46C
100
AcDbEntity
  8
0
100
AcDbBlockBegin
  2
*D22
 70
     1
 10
0.0
 20
0.0
 30
0.0
  3
*D22
  1

  0
LINE
  5
5DA
330
46C
100
AcDbEntity
  8
wymiary
 62
     0
370
    -2
100
AcDbLine
 10
1988.64044978945
 20
2984.555516811468
 30
0.0
 11
1765.997633710747
 21
3145.971676004235
 31
0.0
  0
MTEXT
  5
5DB
102
{ACAD_XDICTIONARY
360
AE3
102
}
330
46C
100
AcDbEntity
  8
wymiary
 62
     0
100
AcDbMText
 10
1885.084403289611
 20
3085.005633623661
 30
0.0
 40
15.0
 41
0.0
 71
     5
 72
     1
  1
\U+2205315
 11
0.8096102402861932
 21
-0.5869678516100629
 31
0.0
 73
     1
 44
1.0
1001
ACAD
1000
MTEXTBEGIN
1070
    73
1070
     1
1070
    44
1040
1.0
1070
    74
1070
     0
1000
MTEXTEND
  0
SOLID
  5
5DC
330
46C
100
AcDbEntity
  8
wymiary
 62
     0
100
AcDbTrace
 10
1990.597009294817
 20
2987.254217612422
 30
0.0
 11
1986.683890284083
 21
2981.856816010513
 31
0.0
 12
2004.832654595174
 22
2972.816159779266
 32
0.0
 13
2004.832654595174
 23
2972.816159779266
 33
0.0
  0
SOLID
  5
5DD
330
46C
100
AcDbEntity
  8
wymiary
 62
     0
100
AcDbTrace
 10
1767.954193216114
 20
3148.670376805189
 30
0.0
 11
1764.04107420538
 21
3143.272975203282
 31
0.0
 12
1749.805428905023
 22
3157.711033036437
 32
0.0
 13
1749.805428905023
 23
3157.711033036437
 33
0.0
  0
POINT
  5
5DE
330
46C
100
AcDbEntity
  8
Defpoints
 62
     0
100
AcDbPoint
 10
1749.805428905023
 20
3157.711033036437
 30
0.0
  0
POINT
  5
5DF
330
46C
100
AcDbEntity
  8
Defpoints
 62
     0
100
AcDbPoint
 10
2004.832654595174
 20
2972.816159779266
 30
0.0
  0
ENDBLK
  5
474
330
46C
100
AcDbEntity
  8
0
100
AcDbBlockEnd
  0
BLOCK
  5
47C
330
475
100
AcDbEntity
  8
0
100
AcDbBlockBegin
  2
*D23
 70
     1
 10
0.0
 20
0.0
 30
0.0
  3
*D23
  1

  0
LINE
  5
5D4
330
475
100
AcDbEntity
  8
wymiary
 62
     0
370
    -2
100
AcDbLine
 10
2037.423822934504
 20
3378.322640807814
 30
0.0
 11
1797.214260565695
 21
3512.204552007892
 31
0.0
  0
MTEXT
  5
5D5
102
{ACAD_XDICTIONARY
360
AE1
102
}
330
475
100
AcDbEntity
  8
wymiary
 62
     0
100
AcDbMText
 10
1863.635953492707
 20
3497.331016082579
 30
0.0
 40
15.0
 41
0.0
 71
     5
 72
     1
  1
\U+2205315
 11
0.8734893177047561
 21
-0.4868433134548317
 31
0.0
 73
     1
 44
1.0
1001
ACAD
1000
MTEXTBEGIN
1070
    73
1070
     1
1070
    44
1040
1.0
1070
    74
1070
     0
1000
MTEXTEND
  0
SOLID
  5
5D6
330
475
100
AcDbEntity
  8
wymiary
 62
     0
100
AcDbTrace
 10
2039.046633979353
 20
3381.234271866829
 30
0.0
 11
2035.801011889654
 21
3375.411009748797
 31
0.0
 12
2054.893609288599
 22
3368.585774538717
 32
0.0
 13
2054.893609288599
 23
3368.585774538717
 33
0.0
  0
SOLID
  5
5D7
330
475
100
AcDbEntity
  8
wymiary
 62
     0
100
AcDbTrace
 10
1798.837071610545
 20
3515.116183066908
 30
0.0
 11
1795.591449520846
 21
3509.292920948877
 31
0.0
 12
1779.7444742116
 22
3521.94141827699
 32
0.0
 13
1779.7444742116
 23
3521.94141827699
 33
0.0
  0
POINT
  5
5D8
330
475
100
AcDbEntity
  8
Defpoints
 62
     0
100
AcDbPoint
 10
1779.7444742116
 20
3521.94141827699
 30
0.0
  0
POINT
  5
5D9
330
475
100
AcDbEntity
  8
Defpoints
 62
     0
100
AcDbPoint
 10
2054.893609288599
 20
3368.585774538717
 30
0.0
  0
ENDBLK
  5
47D
330
475
100
AcDbEntity
  8
0
100
AcDbBlockEnd
  0
BLOCK
  5
485
330
47E
100
AcDbEntity
  8
0
100
AcDbBlockBegin
  2
*D24
 70
     1
 10
0.0
 20
0.0
 30
0.0
  3
*D24
  1

  0
LINE
  5
5CE
330
47E
100
AcDbEntity
  8
wymiary
 62
     0
370
    -2
100
AcDbLine
 10
-410.2970085548157
 20
2989.203452906652
 30
0.0
 11
-639.3917886837132
 21
3141.323739909051
 31
0.0
  0
MTEXT
  5
5CF
102
{ACAD_XDICTIONARY
360
ADF
102
}
330
47E
100
AcDbEntity
  8
wymiary
 62
     0
100
AcDbMText
 10
-587.7677297481312
 20
3138.823965693186
 30
0.0
 40
15.0
 41
0.0
 71
     5
 72
     1
  1
\U+2205315
 11
0.8330719277414434
 21
-0.5531646800087251
 31
0.0
 73
     1
 44
1.0
1001
ACAD
1000
MTEXTBEGIN
1070
    73
1070
     1
1070
    44
1040
1.0
1070
    74
1070
     0
1000
MTEXTEND
  0
SOLID
  5
5D0
330
47E
100
AcDbEntity
  8
wymiary
 62
     0
100
AcDbTrace
 10
-408.45312628812
 20
2991.980359332457
 30
0.0
 11
-412.1408908215117
 21
2986.426546480847
 31
0.0
 12
-393.6355699999872
 22
2978.140159306479
 32
0.0
 13
-393.6355699999872
 23
2978.140159306479
 33
0.0
  0
SOLID
  5
5D1
330
47E
100
AcDbEntity
  8
wymiary
 62
     0
100
AcDbTrace
 10
-637.547906417017
 20
3144.100646334857
 30
0.0
 11
-641.2356709504088
 21
3138.546833483247
 31
0.0
 12
-656.0532272385419
 22
3152.387033509226
 32
0.0
 13
-656.0532272385419
 23
3152.387033509226
 33
0.0
  0
POINT
  5
5D2
330
47E
100
AcDbEntity
  8
Defpoints
 62
     0
100
AcDbPoint
 10
-656.0532272385419
 20
3152.387033509226
 30
0.0
  0
POINT
  5
5D3
330
47E
100
AcDbEntity
  8
Defpoints
 62
     0
100
AcDbPoint
 10
-393.6355699999872
 20
2978.140159306479
 30
0.0
  0
ENDBLK
  5
486
330
47E
100
AcDbEntity
  8
0
100
AcDbBlockEnd
  0
BLOCK
  5
48E
330
487
100
AcDbEntity
  8
0
100
AcDbBlockBegin
  2
*D25
 70
     1
 10
0.0
 20
0.0
 30
0.0
  3
*D25
  1

  0
LINE
  5
5C8
330
487
100
AcDbEntity
  8
wymiary
 62
     0
370
    -2
100
AcDbLine
 10
-444.4834673322398
 20
3378.784304747066
 30
0.0
 11
-685.2053299062911
 21
3511.742888068638
 31
0.0
  0
MTEXT
  5
5C9
102
{ACAD_XDICTIONARY
360
ADD
102
}
330
487
100
AcDbEntity
  8
wymiary
 62
     0
100
AcDbMText
 10
-611.168001749935
 20
3494.242140370491
 30
0.0
 40
15.0
 41
0.0
 71
     5
 72
     1
  1
\U+2205315
 11
0.8753522275420053
 21
-0.4834857575329903
 31
0.0
 73
     1
 44
1.0
1001
ACAD
1000
MTEXTBEGIN
1070
    73
1070
     1
1070
    44
1040
1.0
1070
    74
1070
     0
1000
MTEXTEND
  0
SOLID
  5
5CA
330
487
100
AcDbEntity
  8
wymiary
 62
     0
100
AcDbTrace
 10
-442.871848140463
 20
3381.70214550554
 30
0.0
 11
-446.0950865240165
 21
3375.866463988592
 31
0.0
 12
-426.9764227813996
 22
3369.114589596406
 32
0.0
 13
-426.9764227813996
 23
3369.114589596406
 33
0.0
  0
SOLID
  5
5CB
330
487
100
AcDbEntity
  8
wymiary
 62
     0
100
AcDbTrace
 10
-683.5937107145142
 20
3514.660728827113
 30
0.0
 11
-686.8169490980676
 21
3508.825047310164
 31
0.0
 12
-702.712374457131
 22
3521.412603219299
 32
0.0
 13
-702.712374457131
 23
3521.412603219299
 33
0.0
  0
POINT
  5
5CC
330
487
100
AcDbEntity
  8
Defpoints
 62
     0
100
AcDbPoint
 10
-702.712374457131
 20
3521.412603219299
 30
0.0
  0
POINT
  5
5CD
330
487
100
AcDbEntity
  8
Defpoints
 62
     0
100
AcDbPoint
 10
-426.9764227813996
 20
3369.114589596406
 30
0.0
  0
ENDBLK
  5
48F
330
487
100
AcDbEntity
  8
0
100
AcDbBlockEnd
  0
BLOCK
  5
499
330
490
100
AcDbEntity
  8
0
100
AcDbBlockBegin
  2
*D26
 70
     1
 10
0.0
 20
0.0
 30
0.0
  3
*D26
  1

  0
LINE
  5
5C0
330
490
100
AcDbEntity
  8
wymiary
 62
     0
100
AcDbLine
 10
-559.8443986192651
 20
3615.263596407852
 30
0.0
 11
-564.8443986192651
 21
3615.263596407852
 31
0.0
  0
LINE
  5
5C1
330
490
100
AcDbEntity
  8
wymiary
 62
     0
370
    -2
100
AcDbLine
 10
-564.8443986192651
 20
3465.263596407852
 30
0.0
 11
-564.8443986192651
 21
3595.263596407852
 31
0.0
  0
SOLID
  5
5C2
330
490
100
AcDbEntity
  8
wymiary
 62
     0
100
AcDbTrace
 10
-568.1777319525983
 20
3465.263596407852
 30
0.0
 11
-561.5110652859317
 21
3465.263596407852
 31
0.0
 12
-564.8443986192651
 22
3445.263596407853
 32
0.0
 13
-564.8443986192651
 23
3445.263596407853
 33
0.0
  0
SOLID
  5
5C3
330
490
100
AcDbEntity
  8
wymiary
 62
     0
100
AcDbTrace
 10
-568.1777319525983
 20
3595.263596407852
 30
0.0
 11
-561.5110652859317
 21
3595.263596407852
 31
0.0
 12
-564.8443986192651
 22
3615.263596407852
 32
0.0
 13
-564.8443986192651
 23
3615.263596407852
 33
0.0
  0
MTEXT
  5
5C4
330
490
100
AcDbEntity
  8
wymiary
 62
     0
100
AcDbMText
 10
-578.3443986192658
 20
3530.263596407853
 30
0.0
 40
15.0
 41
0.0
 71
     5
 72
     1
  1
170
 11
0.0000000000000001
 21
1.0
 31
0.0
 73
     1
 44
1.0
1001
ACAD
1000
MTEXTBEGIN
1070
    73
1070
     1
1070
    44
1040
1.0
1070
    74
1070
     0
1000
MTEXTEND
  0
POINT
  5
5C5
330
490
100
AcDbEntity
  8
Defpoints
 62
     0
100
AcDbPoint
 10
-564.8443986192651
 20
3445.263596407853
 30
0.0
  0
POINT
  5
5C6
330
490
100
AcDbEntity
  8
Defpoints
 62
     0
100
AcDbPoint
 10
-559.8443986192651
 20
3615.263596407852
 30
0.0
  0
POINT
  5
5C7
330
490
100
AcDbEntity
  8
Defpoints
 62
     0
100
AcDbPoint
 10
-564.8443986192651
 20
3615.263596407852
 30
0.0
  0
ENDBLK
  5
49A
330
490
100
AcDbEntity
  8
0
100
AcDbBlockEnd
  0
BLOCK
  5
4A3
330
49B
100
AcDbEntity
  8
0
100
AcDbBlockBegin
  2
*D27
 70
     1
 10
0.0
 20
0.0
 30
0.0
  3
*D27
  1

  0
LINE
  5
5B9
330
49B
100
AcDbEntity
  8
wymiary
 62
     0
370
    -2
100
AcDbLine
 10
-544.8443986192651
 20
3445.263596407853
 30
0.0
 11
-254.8443986192651
 21
3445.263596407853
 31
0.0
  0
MTEXT
  5
5BA
330
49B
100
AcDbEntity
  8
wymiary
 62
     0
100
AcDbMText
 10
-358.9097352895097
 20
3463.967793332911
 30
0.0
 40
15.0
 41
0.0
 71
     5
 72
     1
  1
330
 73
     1
 44
1.0
1001
ACAD
1000
MTEXTBEGIN
1070
    73
1070
     1
1070
    44
1040
1.0
1070
    74
1070
     0
1000
MTEXTEND
  0
SOLID
  5
5BB
330
49B
100
AcDbEntity
  8
wymiary
 62
     0
100
AcDbTrace
 10
-544.8443986192651
 20
3448.596929741186
 30
0.0
 11
-544.8443986192651
 21
3441.93026307452
 31
0.0
 12
-564.8443986192651
 22
3445.263596407853
 32
0.0
 13
-564.8443986192651
 23
3445.263596407853
 33
0.0
  0
SOLID
  5
5BC
330
49B
100
AcDbEntity
  8
wymiary
 62
     0
100
AcDbTrace
 10
-254.8443986192651
 20
3448.596929741186
 30
0.0
 11
-254.8443986192651
 21
3441.93026307452
 31
0.0
 12
-234.8443986192651
 22
3445.263596407853
 32
0.0
 13
-234.8443986192651
 23
3445.263596407853
 33
0.0
  0
POINT
  5
5BD
330
49B
100
AcDbEntity
  8
Defpoints
 62
     0
100
AcDbPoint
 10
-564.8443986192651
 20
3445.263596407853
 30
0.0
  0
POINT
  5
5BE
330
49B
100
AcDbEntity
  8
Defpoints
 62
     0
100
AcDbPoint
 10
-234.8443986192651
 20
3445.263596407853
 30
0.0
  0
POINT
  5
5BF
330
49B
100
AcDbEntity
  8
Defpoints
 62
     0
100
AcDbPoint
 10
-234.8443986192651
 20
3445.263596407853
 30
0.0
  0
ENDBLK
  5
4A4
330
49B
100
AcDbEntity
  8
0
100
AcDbBlockEnd
  0
BLOCK
  5
4AD
330
4A5
100
AcDbEntity
  8
0
100
AcDbBlockBegin
  2
*D28
 70
     1
 10
0.0
 20
0.0
 30
0.0
  3
*D28
  1

  0
LINE
  5
5B2
330
4A5
100
AcDbEntity
  8
wymiary
 62
     0
370
    -2
100
AcDbLine
 10
-504.844398619265
 20
3065.263596407853
 30
0.0
 11
-254.8443986192651
 21
3065.263596407853
 31
0.0
  0
MTEXT
  5
5B3
330
4A5
100
AcDbEntity
  8
wymiary
 62
     0
100
AcDbMText
 10
-316.6278591439477
 20
3086.048778049751
 30
0.0
 40
15.0
 41
0.0
 71
     5
 72
     1
  1
290
 73
     1
 44
1.0
1001
ACAD
1000
MTEXTBEGIN
1070
    73
1070
     1
1070
    44
1040
1.0
1070
    74
1070
     0
1000
MTEXTEND
  0
SOLID
  5
5B4
330
4A5
100
AcDbEntity
  8
wymiary
 62
     0
100
AcDbTrace
 10
-504.844398619265
 20
3068.596929741185
 30
0.0
 11
-504.844398619265
 21
3061.930263074518
 31
0.0
 12
-524.8443986192651
 22
3065.263596407853
 32
0.0
 13
-524.8443986192651
 23
3065.263596407853
 33
0.0
  0
SOLID
  5
5B5
330
4A5
100
AcDbEntity
  8
wymiary
 62
     0
100
AcDbTrace
 10
-254.8443986192651
 20
3068.596929741185
 30
0.0
 11
-254.8443986192651
 21
3061.930263074518
 31
0.0
 12
-234.8443986192651
 22
3065.263596407853
 32
0.0
 13
-234.8443986192651
 23
3065.263596407853
 33
0.0
  0
POINT
  5
5B6
330
4A5
100
AcDbEntity
  8
Defpoints
 62
     0
100
AcDbPoint
 10
-524.8443986192651
 20
3065.263596407853
 30
0.0
  0
POINT
  5
5B7
330
4A5
100
AcDbEntity
  8
Defpoints
 62
     0
100
AcDbPoint
 10
-234.8443986192651
 20
3065.263596407864
 30
0.0
  0
POINT
  5
5B8
330
4A5
100
AcDbEntity
  8
Defpoints
 62
     0
100
AcDbPoint
 10
-234.8443986192651
 20
3065.263596407853
 30
0.0
  0
ENDBLK
  5
4AE
330
4A5
100
AcDbEntity
  8
0
100
AcDbBlockEnd
  0
BLOCK
  5
4B7
330
4AF
100
AcDbEntity
  8
0
100
AcDbBlockBegin
  2
*D29
 70
     1
 10
0.0
 20
0.0
 30
0.0
  3
*D29
  1

  0
LINE
  5
5AB
330
4AF
100
AcDbEntity
  8
wymiary
 62
     0
370
    -2
100
AcDbLine
 10
-524.8443986192651
 20
3045.263596407853
 30
0.0
 11
-524.8443986192651
 21
2875.263596407852
 31
0.0
  0
SOLID
  5
5AC
330
4AF
100
AcDbEntity
  8
wymiary
 62
     0
100
AcDbTrace
 10
-528.1777319525985
 20
3045.263596407853
 30
0.0
 11
-521.5110652859317
 21
3045.263596407853
 31
0.0
 12
-524.8443986192651
 22
3065.263596407853
 32
0.0
 13
-524.8443986192651
 23
3065.263596407853
 33
0.0
  0
SOLID
  5
5AD
330
4AF
100
AcDbEntity
  8
wymiary
 62
     0
100
AcDbTrace
 10
-528.1777319525985
 20
2875.263596407852
 30
0.0
 11
-521.5110652859317
 21
2875.263596407852
 31
0.0
 12
-524.8443986192651
 22
2855.263596407852
 32
0.0
 13
-524.8443986192651
 23
2855.263596407852
 33
0.0
  0
MTEXT
  5
5AE
330
4AF
100
AcDbEntity
  8
wymiary
 62
     0
100
AcDbMText
 10
-538.3443986192656
 20
2960.263596407852
 30
0.0
 40
15.0
 41
0.0
 71
     5
 72
     1
  1
210
 11
0.0000000000000001
 21
1.0
 31
0.0
 73
     1
 44
1.0
1001
ACAD
1000
MTEXTBEGIN
1070
    73
1070
     1
1070
    44
1040
1.0
1070
    74
1070
     0
1000
MTEXTEND
  0
POINT
  5
5AF
330
4AF
100
AcDbEntity
  8
Defpoints
 62
     0
100
AcDbPoint
 10
-524.8443986192651
 20
3065.263596407853
 30
0.0
  0
POINT
  5
5B0
330
4AF
100
AcDbEntity
  8
Defpoints
 62
     0
100
AcDbPoint
 10
-524.844398619266
 20
2855.263596407852
 30
0.0
  0
POINT
  5
5B1
330
4AF
100
AcDbEntity
  8
Defpoints
 62
     0
100
AcDbPoint
 10
-524.8443986192651
 20
2855.263596407852
 30
0.0
  0
ENDBLK
  5
4B8
330
4AF
100
AcDbEntity
  8
0
100
AcDbBlockEnd
  0
BLOCK
  5
4C1
330
4B9
100
AcDbEntity
  8
0
100
AcDbBlockBegin
  2
*D30
 70
     1
 10
0.0
 20
0.0
 30
0.0
  3
*D30
  1

  0
LINE
  5
5A4
330
4B9
100
AcDbEntity
  8
wymiary
 62
     0
370
    -2
100
AcDbLine
 10
1877.319041750099
 20
3045.263596407853
 30
0.0
 11
1877.319041750099
 21
2875.263596407852
 31
0.0
  0
SOLID
  5
5A5
330
4B9
100
AcDbEntity
  8
wymiary
 62
     0
100
AcDbTrace
 10
1873.985708416766
 20
3045.263596407853
 30
0.0
 11
1880.652375083432
 21
3045.263596407853
 31
0.0
 12
1877.319041750099
 22
3065.263596407853
 32
0.0
 13
1877.319041750099
 23
3065.263596407853
 33
0.0
  0
SOLID
  5
5A6
330
4B9
100
AcDbEntity
  8
wymiary
 62
     0
100
AcDbTrace
 10
1873.985708416766
 20
2875.263596407852
 30
0.0
 11
1880.652375083432
 21
2875.263596407852
 31
0.0
 12
1877.319041750099
 22
2855.263596407852
 32
0.0
 13
1877.319041750099
 23
2855.263596407852
 33
0.0
  0
MTEXT
  5
5A7
330
4B9
100
AcDbEntity
  8
wymiary
 62
     0
100
AcDbMText
 10
1863.819041750099
 20
2960.263596407852
 30
0.0
 40
15.0
 41
0.0
 71
     5
 72
     1
  1
210
 11
0.0000000000000001
 21
1.0
 31
0.0
 73
     1
 44
1.0
1001
ACAD
1000
MTEXTBEGIN
1070
    73
1070
     1
1070
    44
1040
1.0
1070
    74
1070
     0
1000
MTEXTEND
  0
POINT
  5
5A8
330
4B9
100
AcDbEntity
  8
Defpoints
 62
     0
100
AcDbPoint
 10
1877.319041750099
 20
3065.263596407853
 30
0.0
  0
POINT
  5
5A9
330
4B9
100
AcDbEntity
  8
Defpoints
 62
     0
100
AcDbPoint
 10
1877.3190417501
 20
2855.263596407852
 30
0.0
  0
POINT
  5
5AA
330
4B9
100
AcDbEntity
  8
Defpoints
 62
     0
100
AcDbPoint
 10
1877.319041750099
 20
2855.263596407852
 30
0.0
  0
ENDBLK
  5
4C2
330
4B9
100
AcDbEntity
  8
0
100
AcDbBlockEnd
  0
BLOCK
  5
4CB
330
4C3
100
AcDbEntity
  8
0
100
AcDbBlockBegin
  2
*D31
 70
     1
 10
0.0
 20
0.0
 30
0.0
  3
*D31
  1

  0
LINE
  5
59D
330
4C3
100
AcDbEntity
  8
wymiary
 62
     0
370
    -2
100
AcDbLine
 10
1857.319041750099
 20
3065.263596407853
 30
0.0
 11
1607.319041750099
 21
3065.263596407853
 31
0.0
  0
MTEXT
  5
59E
330
4C3
100
AcDbEntity
  8
wymiary
 62
     0
100
AcDbMText
 10
1678.4641506551
 20
3083.459737893994
 30
0.0
 40
15.0
 41
0.0
 71
     5
 72
     1
  1
290
 73
     1
 44
1.0
1001
ACAD
1000
MTEXTBEGIN
1070
    73
1070
     1
1070
    44
1040
1.0
1070
    74
1070
     0
1000
MTEXTEND
  0
SOLID
  5
59F
330
4C3
100
AcDbEntity
  8
wymiary
 62
     0
100
AcDbTrace
 10
1857.319041750099
 20
3068.596929741185
 30
0.0
 11
1857.319041750099
 21
3061.930263074518
 31
0.0
 12
1877.319041750099
 22
3065.263596407853
 32
0.0
 13
1877.319041750099
 23
3065.263596407853
 33
0.0
  0
SOLID
  5
5A0
330
4C3
100
AcDbEntity
  8
wymiary
 62
     0
100
AcDbTrace
 10
1607.319041750099
 20
3068.596929741185
 30
0.0
 11
1607.319041750099
 21
3061.930263074518
 31
0.0
 12
1587.319041750099
 22
3065.263596407853
 32
0.0
 13
1587.319041750099
 23
3065.263596407853
 33
0.0
  0
POINT
  5
5A1
330
4C3
100
AcDbEntity
  8
Defpoints
 62
     0
100
AcDbPoint
 10
1877.319041750099
 20
3065.263596407853
 30
0.0
  0
POINT
  5
5A2
330
4C3
100
AcDbEntity
  8
Defpoints
 62
     0
100
AcDbPoint
 10
1587.319041750099
 20
3065.263596407864
 30
0.0
  0
POINT
  5
5A3
330
4C3
100
AcDbEntity
  8
Defpoints
 62
     0
100
AcDbPoint
 10
1587.319041750099
 20
3065.263596407853
 30
0.0
  0
ENDBLK
  5
4CC
330
4C3
100
AcDbEntity
  8
0
100
AcDbBlockEnd
  0
BLOCK
  5
4D6
330
4CD
100
AcDbEntity
  8
0
100
AcDbBlockBegin
  2
*D32
 70
     1
 10
0.0
 20
0.0
 30
0.0
  3
*D32
  1

  0
LINE
  5
595
330
4CD
100
AcDbEntity
  8
wymiary
 62
     0
100
AcDbLine
 10
1912.319041750099
 20
3615.263596407852
 30
0.0
 11
1917.319041750099
 21
3615.263596407852
 31
0.0
  0
LINE
  5
596
330
4CD
100
AcDbEntity
  8
wymiary
 62
     0
370
    -2
100
AcDbLine
 10
1917.319041750099
 20
3465.263596407852
 30
0.0
 11
1917.319041750099
 21
3595.263596407852
 31
0.0
  0
SOLID
  5
597
330
4CD
100
AcDbEntity
  8
wymiary
 62
     0
100
AcDbTrace
 10
1913.985708416765
 20
3465.263596407852
 30
0.0
 11
1920.652375083432
 21
3465.263596407852
 31
0.0
 12
1917.319041750099
 22
3445.263596407853
 32
0.0
 13
1917.319041750099
 23
3445.263596407853
 33
0.0
  0
SOLID
  5
598
330
4CD
100
AcDbEntity
  8
wymiary
 62
     0
100
AcDbTrace
 10
1913.985708416766
 20
3595.263596407852
 30
0.0
 11
1920.652375083432
 21
3595.263596407852
 31
0.0
 12
1917.319041750099
 22
3615.263596407852
 32
0.0
 13
1917.319041750099
 23
3615.263596407852
 33
0.0
  0
MTEXT
  5
599
330
4CD
100
AcDbEntity
  8
wymiary
 62
     0
100
AcDbMText
 10
1903.819041750098
 20
3530.263596407853
 30
0.0
 40
15.0
 41
0.0
 71
     5
 72
     1
  1
170
 11
0.0000000000000001
 21
1.0
 31
0.0
 73
     1
 44
1.0
1001
ACAD
1000
MTEXTBEGIN
1070
    73
1070
     1
1070
    44
1040
1.0
1070
    74
1070
     0
1000
MTEXTEND
  0
POINT
  5
59A
330
4CD
100
AcDbEntity
  8
Defpoints
 62
     0
100
AcDbPoint
 10
1917.319041750099
 20
3445.263596407853
 30
0.0
  0
POINT
  5
59B
330
4CD
100
AcDbEntity
  8
Defpoints
 62
     0
100
AcDbPoint
 10
1912.319041750099
 20
3615.263596407852
 30
0.0
  0
POINT
  5
59C
330
4CD
100
AcDbEntity
  8
Defpoints
 62
     0
100
AcDbPoint
 10
1917.319041750099
 20
3615.263596407852
 30
0.0
  0
ENDBLK
  5
4D7
330
4CD
100
AcDbEntity
  8
0
100
AcDbBlockEnd
  0
BLOCK
  5
4E0
330
4D8
100
AcDbEntity
  8
0
100
AcDbBlockBegin
  2
*D33
 70
     1
 10
0.0
 20
0.0
 30
0.0
  3
*D33
  1

  0
LINE
  5
58E
330
4D8
100
AcDbEntity
  8
wymiary
 62
     0
370
    -2
100
AcDbLine
 10
1897.319041750099
 20
3445.263596407853
 30
0.0
 11
1607.319041750099
 21
3445.263596407853
 31
0.0
  0
MTEXT
  5
58F
330
4D8
100
AcDbEntity
  8
wymiary
 62
     0
100
AcDbMText
 10
1697.458679385614
 20
3464.354603054252
 30
0.0
 40
15.0
 41
0.0
 71
     5
 72
     1
  1
330
 73
     1
 44
1.0
1001
ACAD
1000
MTEXTBEGIN
1070
    73
1070
     1
1070
    44
1040
1.0
1070
    74
1070
     0
1000
MTEXTEND
  0
SOLID
  5
590
330
4D8
100
AcDbEntity
  8
wymiary
 62
     0
100
AcDbTrace
 10
1897.319041750099
 20
3448.596929741186
 30
0.0
 11
1897.319041750099
 21
3441.93026307452
 31
0.0
 12
1917.319041750099
 22
3445.263596407853
 32
0.0
 13
1917.319041750099
 23
3445.263596407853
 33
0.0
  0
SOLID
  5
591
330
4D8
100
AcDbEntity
  8
wymiary
 62
     0
100
AcDbTrace
 10
1607.319041750099
 20
3448.596929741186
 30
0.0
 11
1607.319041750099
 21
3441.93026307452
 31
0.0
 12
1587.319041750099
 22
3445.263596407853
 32
0.0
 13
1587.319041750099
 23
3445.263596407853
 33
0.0
  0
POINT
  5
592
330
4D8
100
AcDbEntity
  8
Defpoints
 62
     0
100
AcDbPoint
 10
1917.319041750099
 20
3445.263596407853
 30
0.0
  0
POINT
  5
593
330
4D8
100
AcDbEntity
  8
Defpoints
 62
     0
100
AcDbPoint
 10
1587.319041750099
 20
3445.263596407853
 30
0.0
  0
POINT
  5
594
330
4D8
100
AcDbEntity
  8
Defpoints
 62
     0
100
AcDbPoint
 10
1587.319041750099
 20
3445.263596407853
 30
0.0
  0
ENDBLK
  5
4E1
330
4D8
100
AcDbEntity
  8
0
100
AcDbBlockEnd
  0
BLOCK
  5
4EC
330
4E2
100
AcDbEntity
  8
0
100
AcDbBlockBegin
  2
*D34
 70
     1
 10
0.0
 20
0.0
 30
0.0
  3
*D34
  1

  0
LINE
  5
585
330
4E2
100
AcDbEntity
  8
wymiary
 62
     0
100
AcDbLine
 10
1587.319041750099
 20
3615.263596407852
 30
0.0
 11
1587.319041750099
 21
3656.231712546827
 31
0.0
  0
LINE
  5
586
330
4E2
100
AcDbEntity
  8
wymiary
 62
     0
100
AcDbLine
 10
2237.319041750099
 20
3615.263596407852
 30
0.0
 11
2237.319041750099
 21
3656.231712546827
 31
0.0
  0
LINE
  5
587
330
4E2
100
AcDbEntity
  8
wymiary
 62
     0
370
    -2
100
AcDbLine
 10
1607.319041750099
 20
3656.231712546827
 30
0.0
 11
2217.319041750099
 21
3656.231712546827
 31
0.0
  0
SOLID
  5
588
330
4E2
100
AcDbEntity
  8
wymiary
 62
     0
100
AcDbTrace
 10
1607.319041750099
 20
3659.565045880162
 30
0.0
 11
1607.319041750099
 21
3652.898379213495
 31
0.0
 12
1587.319041750099
 22
3656.231712546827
 32
0.0
 13
1587.319041750099
 23
3656.231712546827
 33
0.0
  0
SOLID
  5
589
330
4E2
100
AcDbEntity
  8
wymiary
 62
     0
100
AcDbTrace
 10
2217.319041750099
 20
3659.565045880162
 30
0.0
 11
2217.319041750099
 21
3652.898379213495
 31
0.0
 12
2237.319041750099
 22
3656.231712546827
 32
0.0
 13
2237.319041750099
 23
3656.231712546827
 33
0.0
  0
MTEXT
  5
58A
330
4E2
100
AcDbEntity
  8
wymiary
 62
     0
100
AcDbMText
 10
1912.319041750099
 20
3669.731712546827
 30
0.0
 40
15.0
 41
0.0
 71
     5
 72
     1
  1
650
 73
     1
 44
1.0
1001
ACAD
1000
MTEXTBEGIN
1070
    73
1070
     1
1070
    44
1040
1.0
1070
    74
1070
     0
1000
MTEXTEND
  0
POINT
  5
58B
330
4E2
100
AcDbEntity
  8
Defpoints
 62
     0
100
AcDbPoint
 10
1587.319041750099
 20
3615.263596407852
 30
0.0
  0
POINT
  5
58C
330
4E2
100
AcDbEntity
  8
Defpoints
 62
     0
100
AcDbPoint
 10
2237.319041750099
 20
3615.263596407852
 30
0.0
  0
POINT
  5
58D
330
4E2
100
AcDbEntity
  8
Defpoints
 62
     0
100
AcDbPoint
 10
2237.319041750099
 20
3656.231712546827
 30
0.0
  0
ENDBLK
  5
4ED
330
4E2
100
AcDbEntity
  8
0
100
AcDbBlockEnd
  0
BLOCK
  5
4F8
330
4EE
100
AcDbEntity
  8
0
100
AcDbBlockBegin
  2
*D35
 70
     1
 10
0.0
 20
0.0
 30
0.0
  3
*D35
  1

  0
LINE
  5
57C
330
4EE
100
AcDbEntity
  8
wymiary
 62
     0
100
AcDbLine
 10
151.237321565417
 20
3615.263596407852
 30
0.0
 11
63.86620035372852
 21
3615.263596407852
 31
0.0
  0
LINE
  5
57D
330
4EE
100
AcDbEntity
  8
wymiary
 62
     0
100
AcDbLine
 10
151.237321565417
 20
2855.263596407852
 30
0.0
 11
63.86620035372835
 21
2855.263596407852
 31
0.0
  0
LINE
  5
57E
330
4EE
100
AcDbEntity
  8
wymiary
 62
     0
370
    -2
100
AcDbLine
 10
63.8662003537285
 20
3595.263596407852
 30
0.0
 11
63.86620035372835
 21
2875.263596407852
 31
0.0
  0
SOLID
  5
57F
330
4EE
100
AcDbEntity
  8
wymiary
 62
     0
100
AcDbTrace
 10
60.53286702039518
 20
3595.263596407852
 30
0.0
 11
67.19953368706184
 21
3595.263596407852
 31
0.0
 12
63.8662003537285
 22
3615.263596407852
 32
0.0
 13
63.8662003537285
 23
3615.263596407852
 33
0.0
  0
SOLID
  5
580
330
4EE
100
AcDbEntity
  8
wymiary
 62
     0
100
AcDbTrace
 10
60.53286702039502
 20
2875.263596407852
 30
0.0
 11
67.19953368706168
 21
2875.263596407852
 31
0.0
 12
63.86620035372835
 22
2855.263596407852
 32
0.0
 13
63.86620035372835
 23
2855.263596407852
 33
0.0
  0
MTEXT
  5
581
330
4EE
100
AcDbEntity
  8
wymiary
 62
     0
100
AcDbMText
 10
50.36620035372791
 20
3235.263596407853
 30
0.0
 40
15.0
 41
0.0
 71
     5
 72
     1
  1
760
 11
0.0000000000000001
 21
1.0
 31
0.0
 73
     1
 44
1.0
1001
ACAD
1000
MTEXTBEGIN
1070
    73
1070
     1
1070
    44
1040
1.0
1070
    74
1070
     0
1000
MTEXTEND
  0
POINT
  5
582
330
4EE
100
AcDbEntity
  8
Defpoints
 62
     0
100
AcDbPoint
 10
151.237321565417
 20
3615.263596407852
 30
0.0
  0
POINT
  5
583
330
4EE
100
AcDbEntity
  8
Defpoints
 62
     0
100
AcDbPoint
 10
151.237321565417
 20
2855.263596407852
 30
0.0
  0
POINT
  5
584
330
4EE
100
AcDbEntity
  8
Defpoints
 62
     0
100
AcDbPoint
 10
63.86620035372835
 20
2855.263596407852
 30
0.0
  0
ENDBLK
  5
4F9
330
4EE
100
AcDbEntity
  8
0
100
AcDbBlockEnd
  0
BLOCK
  5
504
330
4FA
100
AcDbEntity
  8
0
100
AcDbBlockBegin
  2
*D36
 70
     1
 10
0.0
 20
0.0
 30
0.0
  3
*D36
  1

  0
LINE
  5
573
330
4FA
100
AcDbEntity
  8
wymiary
 62
     0
100
AcDbLine
 10
151.237321565417
 20
3615.263596407852
 30
0.0
 11
151.237321565417
 21
3656.231712546827
 31
0.0
  0
LINE
  5
574
330
4FA
100
AcDbEntity
  8
wymiary
 62
     0
100
AcDbLine
 10
1201.237321565417
 20
3615.263596407852
 30
0.0
 11
1201.237321565417
 21
3656.231712546827
 31
0.0
  0
LINE
  5
575
330
4FA
100
AcDbEntity
  8
wymiary
 62
     0
370
    -2
100
AcDbLine
 10
171.237321565417
 20
3656.231712546827
 30
0.0
 11
1181.237321565417
 21
3656.231712546827
 31
0.0
  0
SOLID
  5
576
330
4FA
100
AcDbEntity
  8
wymiary
 62
     0
100
AcDbTrace
 10
171.237321565417
 20
3659.565045880162
 30
0.0
 11
171.237321565417
 21
3652.898379213495
 31
0.0
 12
151.237321565417
 22
3656.231712546827
 32
0.0
 13
151.237321565417
 23
3656.231712546827
 33
0.0
  0
SOLID
  5
577
330
4FA
100
AcDbEntity
  8
wymiary
 62
     0
100
AcDbTrace
 10
1181.237321565417
 20
3659.565045880162
 30
0.0
 11
1181.237321565417
 21
3652.898379213495
 31
0.0
 12
1201.237321565417
 22
3656.231712546827
 32
0.0
 13
1201.237321565417
 23
3656.231712546827
 33
0.0
  0
MTEXT
  5
578
330
4FA
100
AcDbEntity
  8
wymiary
 62
     0
100
AcDbMText
 10
676.237321565417
 20
3669.731712546827
 30
0.0
 40
15.0
 41
0.0
 71
     5
 72
     1
  1
1050
 73
     1
 44
1.0
1001
ACAD
1000
MTEXTBEGIN
1070
    73
1070
     1
1070
    44
1040
1.0
1070
    74
1070
     0
1000
MTEXTEND
  0
POINT
  5
579
330
4FA
100
AcDbEntity
  8
Defpoints
 62
     0
100
AcDbPoint
 10
151.237321565417
 20
3615.263596407852
 30
0.0
  0
POINT
  5
57A
330
4FA
100
AcDbEntity
  8
Defpoints
 62
     0
100
AcDbPoint
 10
1201.237321565417
 20
3615.263596407852
 30
0.0
  0
POINT
  5
57B
330
4FA
100
AcDbEntity
  8
Defpoints
 62
     0
100
AcDbPoint
 10
1201.237321565417
 20
3656.231712546827
 30
0.0
  0
ENDBLK
  5
505
330
4FA
100
AcDbEntity
  8
0
100
AcDbBlockEnd
  0
BLOCK
  5
5EB
330
5E1
100
AcDbEntity
  8
0
100
AcDbBlockBegin
  2
*D37
 70
     1
 10
0.0
 20
0.0
 30
0.0
  3
*D37
  1

  0
LINE
  5
60F
330
5E1
100
AcDbEntity
  8
wymiary
 62
     0
100
AcDbLine
 10
1587.319041750099
 20
3615.263596407852
 30
0.0
 11
1587.319041750099
 21
3430.263596407853
 31
0.0
  0
LINE
  5
610
330
5E1
100
AcDbEntity
  8
wymiary
 62
     0
370
    -2
100
AcDbLine
 10
1897.319041750099
 20
3430.263596407853
 30
0.0
 11
1607.319041750099
 21
3430.263596407853
 31
0.0
  0
SOLID
  5
611
330
5E1
100
AcDbEntity
  8
wymiary
 62
     0
100
AcDbTrace
 10
1897.319041750099
 20
3433.596929741185
 30
0.0
 11
1897.319041750099
 21
3426.930263074518
 31
0.0
 12
1917.319041750099
 22
3430.263596407853
 32
0.0
 13
1917.319041750099
 23
3430.263596407853
 33
0.0
  0
SOLID
  5
612
330
5E1
100
AcDbEntity
  8
wymiary
 62
     0
100
AcDbTrace
 10
1607.319041750099
 20
3433.596929741185
 30
0.0
 11
1607.319041750099
 21
3426.930263074518
 31
0.0
 12
1587.319041750099
 22
3430.263596407853
 32
0.0
 13
1587.319041750099
 23
3430.263596407853
 33
0.0
  0
MTEXT
  5
613
330
5E1
100
AcDbEntity
  8
wymiary
 62
     0
100
AcDbMText
 10
1752.319041750099
 20
3443.763596407853
 30
0.0
 40
15.0
 41
0.0
 71
     5
 72
     1
  1
330
 73
     1
 44
1.0
1001
ACAD
1000
MTEXTBEGIN
1070
    73
1070
     1
1070
    44
1040
1.0
1070
    74
1070
     0
1000
MTEXTEND
  0
POINT
  5
614
330
5E1
100
AcDbEntity
  8
Defpoints
 62
     0
100
AcDbPoint
 10
1917.319041750099
 20
3430.263596407853
 30
0.0
  0
POINT
  5
615
330
5E1
100
AcDbEntity
  8
Defpoints
 62
     0
100
AcDbPoint
 10
1587.319041750099
 20
3615.263596407852
 30
0.0
  0
POINT
  5
616
330
5E1
100
AcDbEntity
  8
Defpoints
 62
     0
100
AcDbPoint
 10
1587.319041750099
 20
3430.263596407853
 30
0.0
  0
ENDBLK
  5
5EC
330
5E1
100
AcDbEntity
  8
0
100
AcDbBlockEnd
  0
BLOCK
  5
622
330
618
100
AcDbEntity
  8
0
100
AcDbBlockBegin
  2
*D38
 70
     1
 10
0.0
 20
0.0
 30
0.0
  3
*D38
  1

  0
LINE
  5
648
330
618
100
AcDbEntity
  8
wymiary
 62
     0
100
AcDbLine
 10
1912.319041750099
 20
3615.263596407852
 30
0.0
 11
1917.319041750099
 21
3615.263596407852
 31
0.0
  0
LINE
  5
649
330
618
100
AcDbEntity
  8
wymiary
 62
     0
370
    -2
100
AcDbLine
 10
1917.319041750099
 20
3450.263596407852
 30
0.0
 11
1917.319041750099
 21
3595.263596407852
 31
0.0
  0
SOLID
  5
64A
330
618
100
AcDbEntity
  8
wymiary
 62
     0
100
AcDbTrace
 10
1913.985708416766
 20
3450.263596407852
 30
0.0
 11
1920.652375083432
 21
3450.263596407852
 31
0.0
 12
1917.319041750099
 22
3430.263596407853
 32
0.0
 13
1917.319041750099
 23
3430.263596407853
 33
0.0
  0
SOLID
  5
64B
330
618
100
AcDbEntity
  8
wymiary
 62
     0
100
AcDbTrace
 10
1913.985708416766
 20
3595.263596407852
 30
0.0
 11
1920.652375083432
 21
3595.263596407852
 31
0.0
 12
1917.319041750099
 22
3615.263596407852
 32
0.0
 13
1917.319041750099
 23
3615.263596407852
 33
0.0
  0
MTEXT
  5
64C
330
618
100
AcDbEntity
  8
wymiary
 62
     0
100
AcDbMText
 10
1903.819041750099
 20
3522.763596407852
 30
0.0
 40
15.0
 41
0.0
 71
     5
 72
     1
  1
185
 11
0.0000000000000001
 21
1.0
 31
0.0
 73
     1
 44
1.0
1001
ACAD
1000
MTEXTBEGIN
1070
    73
1070
     1
1070
    44
1040
1.0
1070
    74
1070
     0
1000
MTEXTEND
  0
POINT
  5
64D
330
618
100
AcDbEntity
  8
Defpoints
 62
     0
100
AcDbPoint
 10
1917.319041750099
 20
3430.263596407853
 30
0.0
  0
POINT
  5
64E
330
618
100
AcDbEntity
  8
Defpoints
 62
     0
100
AcDbPoint
 10
1912.319041750099
 20
3615.263596407852
 30
0.0
  0
POINT
  5
64F
330
618
100
AcDbEntity
  8
Defpoints
 62
     0
100
AcDbPoint
 10
1917.319041750099
 20
3615.263596407852
 30
0.0
  0
ENDBLK
  5
623
330
618
100
AcDbEntity
  8
0
100
AcDbBlockEnd
  0
BLOCK
  5
659
330
651
100
AcDbEntity
  8
0
100
AcDbBlockBegin
  2
*D39
 70
     1
 10
0.0
 20
0.0
 30
0.0
  3
*D39
  1

  0
LINE
  5
772
330
651
100
AcDbEntity
  8
wymiary
 62
     0
370
    -2
100
AcDbLine
 10
1857.319041750099
 20
3065.263596407853
 30
0.0
 11
1607.319041750099
 21
3065.263596407853
 31
0.0
  0
MTEXT
  5
773
330
651
100
AcDbEntity
  8
wymiary
 62
     0
100
AcDbMText
 10
1678.917161370093
 20
3083.202618403002
 30
0.0
 40
15.0
 41
0.0
 71
     5
 72
     1
  1
290
 73
     1
 44
1.0
1001
ACAD
1000
MTEXTBEGIN
1070
    73
1070
     1
1070
    44
1040
1.0
1070
    74
1070
     0
1000
MTEXTEND
  0
SOLID
  5
774
330
651
100
AcDbEntity
  8
wymiary
 62
     0
100
AcDbTrace
 10
1857.319041750099
 20
3068.596929741185
 30
0.0
 11
1857.319041750099
 21
3061.930263074518
 31
0.0
 12
1877.319041750099
 22
3065.263596407853
 32
0.0
 13
1877.319041750099
 23
3065.263596407853
 33
0.0
  0
SOLID
  5
775
330
651
100
AcDbEntity
  8
wymiary
 62
     0
100
AcDbTrace
 10
1607.319041750099
 20
3068.596929741185
 30
0.0
 11
1607.319041750099
 21
3061.930263074518
 31
0.0
 12
1587.319041750099
 22
3065.263596407853
 32
0.0
 13
1587.319041750099
 23
3065.263596407853
 33
0.0
  0
POINT
  5
776
330
651
100
AcDbEntity
  8
Defpoints
 62
     0
100
AcDbPoint
 10
1877.319041750099
 20
3065.263596407853
 30
0.0
  0
POINT
  5
777
330
651
100
AcDbEntity
  8
Defpoints
 62
     0
100
AcDbPoint
 10
1587.319041750099
 20
3065.263596407858
 30
0.0
  0
POINT
  5
778
330
651
100
AcDbEntity
  8
Defpoints
 62
     0
100
AcDbPoint
 10
1587.319041750099
 20
3065.263596407853
 30
0.0
  0
ENDBLK
  5
65A
330
651
100
AcDbEntity
  8
0
100
AcDbBlockEnd
  0
BLOCK
  5
66D
330
665
100
AcDbEntity
  8
0
100
AcDbBlockBegin
  2
*D40
 70
     1
 10
0.0
 20
0.0
 30
0.0
  3
*D40
  1

  0
LINE
  5
670
330
665
100
AcDbEntity
  8
wymiary
 62
     0
370
    -2
100
AcDbLine
 10
1877.319041750099
 20
3045.263596407853
 30
0.0
 11
1877.319041750099
 21
2875.263596407852
 31
0.0
  0
SOLID
  5
671
330
665
100
AcDbEntity
  8
wymiary
 62
     0
100
AcDbTrace
 10
1873.985708416766
 20
3045.263596407853
 30
0.0
 11
1880.652375083432
 21
3045.263596407853
 31
0.0
 12
1877.319041750099
 22
3065.263596407853
 32
0.0
 13
1877.319041750099
 23
3065.263596407853
 33
0.0
  0
SOLID
  5
672
330
665
100
AcDbEntity
  8
wymiary
 62
     0
100
AcDbTrace
 10
1873.985708416766
 20
2875.263596407852
 30
0.0
 11
1880.652375083432
 21
2875.263596407852
 31
0.0
 12
1877.319041750099
 22
2855.263596407852
 32
0.0
 13
1877.319041750099
 23
2855.263596407852
 33
0.0
  0
MTEXT
  5
673
330
665
100
AcDbEntity
  8
wymiary
 62
     0
100
AcDbMText
 10
1863.819041750099
 20
2960.263596407852
 30
0.0
 40
15.0
 41
0.0
 71
     5
 72
     1
  1
210
 11
0.0000000000000001
 21
1.0
 31
0.0
 73
     1
 44
1.0
1001
ACAD
1000
MTEXTBEGIN
1070
    73
1070
     1
1070
    44
1040
1.0
1070
    74
1070
     0
1000
MTEXTEND
  0
POINT
  5
674
330
665
100
AcDbEntity
  8
Defpoints
 62
     0
100
AcDbPoint
 10
1877.319041750099
 20
3065.263596407853
 30
0.0
  0
POINT
  5
675
330
665
100
AcDbEntity
  8
Defpoints
 62
     0
100
AcDbPoint
 10
1877.3190417501
 20
2855.263596407852
 30
0.0
  0
POINT
  5
676
330
665
100
AcDbEntity
  8
Defpoints
 62
     0
100
AcDbPoint
 10
1877.319041750099
 20
2855.263596407852
 30
0.0
  0
ENDBLK
  5
66E
330
665
100
AcDbEntity
  8
0
100
AcDbBlockEnd
  0
BLOCK
  5
681
330
679
100
AcDbEntity
  8
0
100
AcDbBlockBegin
  2
*D41
 70
     1
 10
0.0
 20
0.0
 30
0.0
  3
*D41
  1

  0
LINE
  5
780
330
679
100
AcDbEntity
  8
wymiary
 62
     0
370
    -2
100
AcDbLine
 10
1897.319041750099
 20
3430.263596407853
 30
0.0
 11
1607.319041750099
 21
3430.263596407853
 31
0.0
  0
MTEXT
  5
781
330
679
100
AcDbEntity
  8
wymiary
 62
     0
100
AcDbMText
 10
1704.020611527528
 20
3446.002136818832
 30
0.0
 40
15.0
 41
0.0
 71
     5
 72
     1
  1
330
 73
     1
 44
1.0
1001
ACAD
1000
MTEXTBEGIN
1070
    73
1070
     1
1070
    44
1040
1.0
1070
    74
1070
     0
1000
MTEXTEND
  0
SOLID
  5
782
330
679
100
AcDbEntity
  8
wymiary
 62
     0
100
AcDbTrace
 10
1897.319041750099
 20
3433.596929741185
 30
0.0
 11
1897.319041750099
 21
3426.930263074518
 31
0.0
 12
1917.319041750099
 22
3430.263596407853
 32
0.0
 13
1917.319041750099
 23
3430.263596407853
 33
0.0
  0
SOLID
  5
783
330
679
100
AcDbEntity
  8
wymiary
 62
     0
100
AcDbTrace
 10
1607.319041750099
 20
3433.596929741185
 30
0.0
 11
1607.319041750099
 21
3426.930263074518
 31
0.0
 12
1587.319041750099
 22
3430.263596407853
 32
0.0
 13
1587.319041750099
 23
3430.263596407853
 33
0.0
  0
POINT
  5
784
330
679
100
AcDbEntity
  8
Defpoints
 62
     0
100
AcDbPoint
 10
1917.319041750099
 20
3430.263596407853
 30
0.0
  0
POINT
  5
785
330
679
100
AcDbEntity
  8
Defpoints
 62
     0
100
AcDbPoint
 10
1587.319041750099
 20
3430.263596407853
 30
0.0
  0
POINT
  5
786
330
679
100
AcDbEntity
  8
Defpoints
 62
     0
100
AcDbPoint
 10
1587.319041750099
 20
3430.263596407853
 30
0.0
  0
ENDBLK
  5
682
330
679
100
AcDbEntity
  8
0
100
AcDbBlockEnd
  0
BLOCK
  5
6A1
330
698
100
AcDbEntity
  8
0
100
AcDbBlockBegin
  2
*D42
 70
     1
 10
0.0
 20
0.0
 30
0.0
  3
*D42
  1

  0
LINE
  5
6C1
330
698
100
AcDbEntity
  8
wymiary
 62
     0
100
AcDbLine
 10
-559.8443986192651
 20
3615.263596407852
 30
0.0
 11
-564.8443986192652
 21
3615.263596407852
 31
0.0
  0
LINE
  5
6C2
330
698
100
AcDbEntity
  8
wymiary
 62
     0
370
    -2
100
AcDbLine
 10
-564.8443986192652
 20
3450.263596407852
 30
0.0
 11
-564.8443986192652
 21
3595.263596407852
 31
0.0
  0
SOLID
  5
6C3
330
698
100
AcDbEntity
  8
wymiary
 62
     0
100
AcDbTrace
 10
-568.1777319525987
 20
3450.263596407852
 30
0.0
 11
-561.5110652859319
 21
3450.263596407852
 31
0.0
 12
-564.8443986192652
 22
3430.263596407853
 32
0.0
 13
-564.8443986192652
 23
3430.263596407853
 33
0.0
  0
SOLID
  5
6C4
330
698
100
AcDbEntity
  8
wymiary
 62
     0
100
AcDbTrace
 10
-568.1777319525987
 20
3595.263596407852
 30
0.0
 11
-561.5110652859319
 21
3595.263596407852
 31
0.0
 12
-564.8443986192652
 22
3615.263596407852
 32
0.0
 13
-564.8443986192652
 23
3615.263596407852
 33
0.0
  0
MTEXT
  5
6C5
330
698
100
AcDbEntity
  8
wymiary
 62
     0
100
AcDbMText
 10
-578.3443986192659
 20
3522.763596407852
 30
0.0
 40
15.0
 41
0.0
 71
     5
 72
     1
  1
185
 11
0.0000000000000001
 21
1.0
 31
0.0
 73
     1
 44
1.0
1001
ACAD
1000
MTEXTBEGIN
1070
    73
1070
     1
1070
    44
1040
1.0
1070
    74
1070
     0
1000
MTEXTEND
  0
POINT
  5
6C6
330
698
100
AcDbEntity
  8
Defpoints
 62
     0
100
AcDbPoint
 10
-564.8443986192651
 20
3430.263596407853
 30
0.0
  0
POINT
  5
6C7
330
698
100
AcDbEntity
  8
Defpoints
 62
     0
100
AcDbPoint
 10
-559.8443986192651
 20
3615.263596407852
 30
0.0
  0
POINT
  5
6C8
330
698
100
AcDbEntity
  8
Defpoints
 62
     0
100
AcDbPoint
 10
-564.8443986192652
 20
3615.263596407852
 30
0.0
  0
ENDBLK
  5
6A2
330
698
100
AcDbEntity
  8
0
100
AcDbBlockEnd
  0
BLOCK
  5
6AB
330
6A3
100
AcDbEntity
  8
0
100
AcDbBlockBegin
  2
*D43
 70
     1
 10
0.0
 20
0.0
 30
0.0
  3
*D43
  1

  0
LINE
  5
759
330
6A3
100
AcDbEntity
  8
wymiary
 62
     0
370
    -2
100
AcDbLine
 10
-504.844398619265
 20
3065.263596407853
 30
0.0
 11
-254.8443986192649
 21
3065.263596407853
 31
0.0
  0
MTEXT
  5
75A
330
6A3
100
AcDbEntity
  8
wymiary
 62
     0
100
AcDbMText
 10
-335.805395928106
 20
3081.123266083548
 30
0.0
 40
15.0
 41
0.0
 71
     5
 72
     1
  1
290
 73
     1
 44
1.0
1001
ACAD
1000
MTEXTBEGIN
1070
    73
1070
     1
1070
    44
1040
1.0
1070
    74
1070
     0
1000
MTEXTEND
  0
SOLID
  5
75B
330
6A3
100
AcDbEntity
  8
wymiary
 62
     0
100
AcDbTrace
 10
-504.844398619265
 20
3068.596929741185
 30
0.0
 11
-504.844398619265
 21
3061.930263074518
 31
0.0
 12
-524.8443986192651
 22
3065.263596407853
 32
0.0
 13
-524.8443986192651
 23
3065.263596407853
 33
0.0
  0
SOLID
  5
75C
330
6A3
100
AcDbEntity
  8
wymiary
 62
     0
100
AcDbTrace
 10
-254.8443986192649
 20
3068.596929741185
 30
0.0
 11
-254.8443986192649
 21
3061.930263074518
 31
0.0
 12
-234.8443986192649
 22
3065.263596407853
 32
0.0
 13
-234.8443986192649
 23
3065.263596407853
 33
0.0
  0
POINT
  5
75D
330
6A3
100
AcDbEntity
  8
Defpoints
 62
     0
100
AcDbPoint
 10
-524.8443986192651
 20
3065.263596407853
 30
0.0
  0
POINT
  5
75E
330
6A3
100
AcDbEntity
  8
Defpoints
 62
     0
100
AcDbPoint
 10
-234.8443986192649
 20
3065.263596407858
 30
0.0
  0
POINT
  5
75F
330
6A3
100
AcDbEntity
  8
Defpoints
 62
     0
100
AcDbPoint
 10
-234.8443986192649
 20
3065.263596407853
 30
0.0
  0
ENDBLK
  5
6AC
330
6A3
100
AcDbEntity
  8
0
100
AcDbBlockEnd
  0
BLOCK
  5
6B5
330
6AD
100
AcDbEntity
  8
0
100
AcDbBlockBegin
  2
*D44
 70
     1
 10
0.0
 20
0.0
 30
0.0
  3
*D44
  1

  0
LINE
  5
6D0
330
6AD
100
AcDbEntity
  8
wymiary
 62
     0
370
    -2
100
AcDbLine
 10
-524.8443986192651
 20
3045.263596407853
 30
0.0
 11
-524.8443986192651
 21
2875.263596407852
 31
0.0
  0
SOLID
  5
6D1
330
6AD
100
AcDbEntity
  8
wymiary
 62
     0
100
AcDbTrace
 10
-528.1777319525985
 20
3045.263596407853
 30
0.0
 11
-521.5110652859317
 21
3045.263596407853
 31
0.0
 12
-524.8443986192651
 22
3065.263596407853
 32
0.0
 13
-524.8443986192651
 23
3065.263596407853
 33
0.0
  0
SOLID
  5
6D2
330
6AD
100
AcDbEntity
  8
wymiary
 62
     0
100
AcDbTrace
 10
-528.1777319525985
 20
2875.263596407852
 30
0.0
 11
-521.5110652859317
 21
2875.263596407852
 31
0.0
 12
-524.8443986192651
 22
2855.263596407852
 32
0.0
 13
-524.8443986192651
 23
2855.263596407852
 33
0.0
  0
MTEXT
  5
6D3
330
6AD
100
AcDbEntity
  8
wymiary
 62
     0
100
AcDbMText
 10
-538.3443986192656
 20
2960.263596407852
 30
0.0
 40
15.0
 41
0.0
 71
     5
 72
     1
  1
210
 11
0.0000000000000001
 21
1.0
 31
0.0
 73
     1
 44
1.0
1001
ACAD
1000
MTEXTBEGIN
1070
    73
1070
     1
1070
    44
1040
1.0
1070
    74
1070
     0
1000
MTEXTEND
  0
POINT
  5
6D4
330
6AD
100
AcDbEntity
  8
Defpoints
 62
     0
100
AcDbPoint
 10
-524.8443986192651
 20
3065.263596407853
 30
0.0
  0
POINT
  5
6D5
330
6AD
100
AcDbEntity
  8
Defpoints
 62
     0
100
AcDbPoint
 10
-524.8443986192658
 20
2855.263596407852
 30
0.0
  0
POINT
  5
6D6
330
6AD
100
AcDbEntity
  8
Defpoints
 62
     0
100
AcDbPoint
 10
-524.8443986192651
 20
2855.263596407852
 30
0.0
  0
ENDBLK
  5
6B6
330
6AD
100
AcDbEntity
  8
0
100
AcDbBlockEnd
  0
BLOCK
  5
6BF
330
6B7
100
AcDbEntity
  8
0
100
AcDbBlockBegin
  2
*D45
 70
     1
 10
0.0
 20
0.0
 30
0.0
  3
*D45
  1

  0
LINE
  5
74B
330
6B7
100
AcDbEntity
  8
wymiary
 62
     0
370
    -2
100
AcDbLine
 10
-544.8443986192651
 20
3430.263596407853
 30
0.0
 11
-254.8443986192651
 21
3430.263596407853
 31
0.0
  0
MTEXT
  5
74C
330
6B7
100
AcDbEntity
  8
wymiary
 62
     0
100
AcDbMText
 10
-376.4993884614122
 20
3446.91601198314
 30
0.0
 40
15.0
 41
0.0
 71
     5
 72
     1
  1
330
 73
     1
 44
1.0
1001
ACAD
1000
MTEXTBEGIN
1070
    73
1070
     1
1070
    44
1040
1.0
1070
    74
1070
     0
1000
MTEXTEND
  0
SOLID
  5
74D
330
6B7
100
AcDbEntity
  8
wymiary
 62
     0
100
AcDbTrace
 10
-544.8443986192651
 20
3433.596929741185
 30
0.0
 11
-544.8443986192651
 21
3426.930263074518
 31
0.0
 12
-564.8443986192651
 22
3430.263596407853
 32
0.0
 13
-564.8443986192651
 23
3430.263596407853
 33
0.0
  0
SOLID
  5
74E
330
6B7
100
AcDbEntity
  8
wymiary
 62
     0
100
AcDbTrace
 10
-254.8443986192651
 20
3433.596929741185
 30
0.0
 11
-254.8443986192651
 21
3426.930263074518
 31
0.0
 12
-234.8443986192651
 22
3430.263596407853
 32
0.0
 13
-234.8443986192651
 23
3430.263596407853
 33
0.0
  0
POINT
  5
74F
330
6B7
100
AcDbEntity
  8
Defpoints
 62
     0
100
AcDbPoint
 10
-564.8443986192651
 20
3430.263596407853
 30
0.0
  0
POINT
  5
750
330
6B7
100
AcDbEntity
  8
Defpoints
 62
     0
100
AcDbPoint
 10
-234.8443986192651
 20
3430.263596407853
 30
0.0
  0
POINT
  5
751
330
6B7
100
AcDbEntity
  8
Defpoints
 62
     0
100
AcDbPoint
 10
-234.8443986192651
 20
3430.263596407853
 30
0.0
  0
ENDBLK
  5
6C0
330
6B7
100
AcDbEntity
  8
0
100
AcDbBlockEnd
  0
BLOCK
  5
6E5
330
6DF
100
AcDbEntity
  8
0
100
AcDbBlockBegin
  2
*D46
 70
     1
 10
0.0
 20
0.0
 30
0.0
  3
*D46
  1

  0
LINE
  5
78C
330
6DF
100
AcDbEntity
  8
wymiary
 62
     0
370
    -2
100
AcDbLine
 10
2035.445576625504
 20
3359.89050667655
 30
0.0
 11
1799.192506874694
 21
3500.636686139154
 31
0.0
  0
MTEXT
  5
78D
102
{ACAD_XDICTIONARY
360
AED
102
}
330
6DF
100
AcDbEntity
  8
wymiary
 62
     0
100
AcDbMText
 10
1878.883119914493
 20
3477.480879019618
 30
0.0
 40
15.0
 41
0.0
 71
     5
 72
     1
  1
\U+2205315
 11
0.8591020718211222
 21
-0.5118042889549244
 31
0.0
 73
     1
 44
1.0
1001
ACAD
1000
MTEXTBEGIN
1070
    73
1070
     1
1070
    44
1040
1.0
1070
    74
1070
     0
1000
MTEXTEND
  0
SOLID
  5
78E
330
6DF
100
AcDbEntity
  8
wymiary
 62
     0
100
AcDbTrace
 10
2037.15159092202
 20
3362.754180249287
 30
0.0
 11
2033.739562328988
 21
3357.026833103812
 31
0.0
 12
2052.627618061926
 22
3349.654420897451
 32
0.0
 13
2052.627618061926
 23
3349.654420897451
 33
0.0
  0
SOLID
  5
78F
330
6DF
100
AcDbEntity
  8
wymiary
 62
     0
100
AcDbTrace
 10
1800.898521171211
 20
3503.500359711892
 30
0.0
 11
1797.486492578178
 21
3497.773012566418
 31
0.0
 12
1782.010465438272
 22
3510.872771918253
 32
0.0
 13
1782.010465438272
 23
3510.872771918253
 33
0.0
  0
POINT
  5
790
330
6DF
100
AcDbEntity
  8
Defpoints
 62
     0
100
AcDbPoint
 10
1782.010465438272
 20
3510.872771918253
 30
0.0
  0
POINT
  5
791
330
6DF
100
AcDbEntity
  8
Defpoints
 62
     0
100
AcDbPoint
 10
2052.627618061926
 20
3349.654420897451
 30
0.0
  0
ENDBLK
  5
6E6
330
6DF
100
AcDbEntity
  8
0
100
AcDbBlockEnd
  0
BLOCK
  5
6F5
330
6EF
100
AcDbEntity
  8
0
100
AcDbBlockBegin
  2
*D47
 70
     1
 10
0.0
 20
0.0
 30
0.0
  3
*D47
  1

  0
LINE
  5
765
330
6EF
100
AcDbEntity
  8
wymiary
 62
     0
370
    -2
100
AcDbLine
 10
2006.398056486256
 20
3017.883664424541
 30
0.0
 11
1748.240027013942
 21
3112.643528391162
 31
0.0
  0
MTEXT
  5
766
102
{ACAD_XDICTIONARY
360
AEB
102
}
330
6EF
100
AcDbEntity
  8
wymiary
 62
     0
100
AcDbMText
 10
1859.864391073574
 20
3092.841755844046
 30
0.0
 40
15.0
 41
0.0
 71
     5
 72
     1
  1
\U+2205315
 11
0.9387564708084111
 21
-0.3445813235149822
 31
0.0
 73
     1
 44
1.0
1001
ACAD
1000
MTEXTBEGIN
1070
    73
1070
     1
1070
    44
1040
1.0
1070
    74
1070
     0
1000
MTEXTEND
  0
SOLID
  5
767
330
6EF
100
AcDbEntity
  8
wymiary
 62
     0
100
AcDbTrace
 10
2007.546660897973
 20
3021.01285266057
 30
0.0
 11
2005.24945207454
 21
3014.754476188513
 31
0.0
 12
2025.173185902424
 22
3010.992037954242
 32
0.0
 13
2025.173185902424
 23
3010.992037954242
 33
0.0
  0
SOLID
  5
768
330
6EF
100
AcDbEntity
  8
wymiary
 62
     0
100
AcDbTrace
 10
1749.388631425659
 20
3115.772716627189
 30
0.0
 11
1747.091422602225
 21
3109.514340155133
 31
0.0
 12
1729.464897597774
 22
3119.535154861461
 32
0.0
 13
1729.464897597774
 23
3119.535154861461
 33
0.0
  0
POINT
  5
769
330
6EF
100
AcDbEntity
  8
Defpoints
 62
     0
100
AcDbPoint
 10
1729.464897597774
 20
3119.535154861461
 30
0.0
  0
POINT
  5
76A
330
6EF
100
AcDbEntity
  8
Defpoints
 62
     0
100
AcDbPoint
 10
2025.173185902424
 20
3010.992037954242
 30
0.0
  0
ENDBLK
  5
6F6
330
6EF
100
AcDbEntity
  8
0
100
AcDbBlockEnd
  0
BLOCK
  5
705
330
6FF
100
AcDbEntity
  8
0
100
AcDbBlockBegin
  2
*D48
 70
     1
 10
0.0
 20
0.0
 30
0.0
  3
*D48
  1

  0
LINE
  5
73E
330
6FF
100
AcDbEntity
  8
wymiary
 62
     0
370
    -2
100
AcDbLine
 10
-434.7053047559747
 20
3385.878168073297
 30
0.0
 11
-694.9834924825544
 21
3474.649024742406
 31
0.0
  0
MTEXT
  5
73F
102
{ACAD_XDICTIONARY
360
AE9
102
}
330
6FF
100
AcDbEntity
  8
wymiary
 62
     0
100
AcDbMText
 10
-616.7100208095341
 20
3466.20551579413
 30
0.0
 40
15.0
 41
0.0
 71
     5
 72
     1
  1
\U+2205315
 11
0.9464661371875632
 21
-0.3228031151603912
 31
0.0
 73
     1
 44
1.0
1001
ACAD
1000
MTEXTBEGIN
1070
    73
1070
     1
1070
    44
1040
1.0
1070
    74
1070
     0
1000
MTEXTEND
  0
SOLID
  5
740
330
6FF
100
AcDbEntity
  8
wymiary
 62
     0
100
AcDbTrace
 10
-433.6292943721065
 20
3389.033055197257
 30
0.0
 11
-435.7813151398426
 21
3382.72328094934
 31
0.0
 12
-415.7759820122235
 22
3379.422105770089
 32
0.0
 13
-415.7759820122235
 23
3379.422105770089
 33
0.0
  0
SOLID
  5
741
330
6FF
100
AcDbEntity
  8
wymiary
 62
     0
100
AcDbTrace
 10
-693.9074820986864
 20
3477.803911866365
 30
0.0
 11
-696.0595028664226
 21
3471.494137618448
 31
0.0
 12
-713.9128152263057
 22
3481.105087045614
 32
0.0
 13
-713.9128152263057
 23
3481.105087045614
 33
0.0
  0
POINT
  5
742
330
6FF
100
AcDbEntity
  8
Defpoints
 62
     0
100
AcDbPoint
 10
-713.9128152263057
 20
3481.105087045614
 30
0.0
  0
POINT
  5
743
330
6FF
100
AcDbEntity
  8
Defpoints
 62
     0
100
AcDbPoint
 10
-415.7759820122235
 20
3379.422105770089
 30
0.0
  0
ENDBLK
  5
706
330
6FF
100
AcDbEntity
  8
0
100
AcDbBlockEnd
  0
BLOCK
  5
715
330
70F
100
AcDbEntity
  8
0
100
AcDbBlockBegin
  2
*D49
 70
     1
 10
0.0
 20
0.0
 30
0.0
  3
*D49
  1

  0
LINE
  5
718
330
70F
100
AcDbEntity
  8
wymiary
 62
     0
370
    -2
100
AcDbLine
 10
-577.8662889801686
 20
3067.109895716332
 30
0.0
 11
-656.3926994005811
 21
3090.723511841036
 31
0.0
  0
MTEXT
  5
719
102
{ACAD_XDICTIONARY
360
AE5
102
}
330
70F
100
AcDbEntity
  8
wymiary
 62
     0
100
AcDbMText
 10
-603.6654951429644
 20
3088.965123040007
 30
0.0
 40
15.0
 41
0.0
 71
     5
 72
     1
  1
\U+2205321
 11
0.9576391514684441
 21
-0.2879709283500653
 31
0.0
 73
     1
 44
1.0
1001
ACAD
1000
MTEXTBEGIN
1070
    73
1070
     1
1070
    44
1040
1.0
1070
    74
1070
     0
1000
MTEXTEND
  0
SOLID
  5
71A
330
70F
100
AcDbEntity
  8
wymiary
 62
     0
100
AcDbTrace
 10
-655.4327963060808
 20
3093.915642345931
 30
0.0
 11
-657.3526024950814
 21
3087.531381336142
 31
0.0
 12
-675.5454824299497
 22
3096.482930408037
 32
0.0
 13
-675.5454824299497
 23
3096.482930408037
 33
0.0
  0
POINT
  5
71B
330
70F
100
AcDbEntity
  8
Defpoints
 62
     0
100
AcDbPoint
 10
-675.5454824299497
 20
3096.482930408037
 30
0.0
  0
POINT
  5
71C
330
70F
100
AcDbEntity
  8
Defpoints
 62
     0
100
AcDbPoint
 10
-368.1433148085795
 20
3004.044262407667
 30
0.0
  0
ENDBLK
  5
716
330
70F
100
AcDbEntity
  8
0
100
AcDbBlockEnd
  0
BLOCK
  5
725
330
71F
100
AcDbEntity
  8
0
100
AcDbBlockBegin
  2
*D50
 70
     1
 10
0.0
 20
0.0
 30
0.0
  3
*D50
  1

  0
LINE
  5
733
330
71F
100
AcDbEntity
  8
wymiary
 62
     0
370
    -2
100
AcDbLine
 10
-391.9519978921607
 20
3005.161332236865
 30
0.0
 11
-651.7367993463682
 21
3095.365860578838
 31
0.0
  0
MTEXT
  5
734
102
{ACAD_XDICTIONARY
360
AE7
102
}
330
71F
100
AcDbEntity
  8
wymiary
 62
     0
100
AcDbMText
 10
-562.4163515824783
 20
3084.211630387571
 30
0.0
 40
15.0
 41
0.0
 71
     5
 72
     1
  1
\U+2205315
 11
0.9446720052880284
 21
-0.3280164666980842
 31
0.0
 73
     1
 44
1.0
1001
ACAD
1000
MTEXTBEGIN
1070
    73
1070
     1
1070
    44
1040
1.0
1070
    74
1070
     0
1000
MTEXTEND
  0
SOLID
  5
735
330
71F
100
AcDbEntity
  8
wymiary
 62
     0
100
AcDbTrace
 10
-390.8586096698337
 20
3008.310238921158
 30
0.0
 11
-393.0453861144878
 21
3002.012425552571
 31
0.0
 12
-373.0585577864002
 22
2998.601002902903
 32
0.0
 13
-373.0585577864002
 23
2998.601002902903
 33
0.0
  0
SOLID
  5
736
330
71F
100
AcDbEntity
  8
wymiary
 62
     0
100
AcDbTrace
 10
-650.6434111240412
 20
3098.514767263131
 30
0.0
 11
-652.8301875686952
 21
3092.216953894544
 31
0.0
 12
-670.630239452129
 22
3101.926189912801
 32
0.0
 13
-670.630239452129
 23
3101.926189912801
 33
0.0
  0
POINT
  5
737
330
71F
100
AcDbEntity
  8
Defpoints
 62
     0
100
AcDbPoint
 10
-670.630239452129
 20
3101.926189912801
 30
0.0
  0
POINT
  5
738
330
71F
100
AcDbEntity
  8
Defpoints
 62
     0
100
AcDbPoint
 10
-373.0585577864002
 20
2998.601002902903
 30
0.0
  0
ENDBLK
  5
726
330
71F
100
AcDbEntity
  8
0
100
AcDbBlockEnd
  0
ENDSEC
  0
SECTION
  2
ENTITIES
  0
INSERT
  5
36D
330
1F
100
AcDbEntity
  8
Cenrala
100
AcDbBlockReference
  2
1100BSR_g
 10
0.0
 20
0.0
 30
0.0
  0
INSERT
  5
382
102
{ACAD_REACTORS
330
62E
330
663
330
677
330
68B
330
6ED
330
6FD
102
}
330
1F
100
AcDbEntity
  8
Cenrala
100
AcDbBlockReference
  2
1100BSR_l
 10
0.0
 20
0.0
 30
0.0
  0
INSERT
  5
395
102
{ACAD_REACTORS
330
70D
330
72D
102
}
330
1F
100
AcDbEntity
  8
Cenrala
100
AcDbBlockReference
  2
1100BSR_p
 10
0.0
 20
0.0
 30
0.0
  0
DIMENSION
  5
45C
330
1F
100
AcDbEntity
  8
wymiary
100
AcDbDimension
  2
*D34
 10
2237.319041750099
 20
3656.231712546827
 30
0.0
 11
1912.319041750099
 21
3669.731712546827
 31
0.0
 70
    32
 71
     5
 42
650.0
  3
Kopia ISO-25
100
AcDbAlignedDimension
 13
1587.319041750099
 23
3615.263596407852
 33
0.0
 14
2237.319041750099
 24
3615.263596407852
 34
0.0
100
AcDbRotatedDimension
  0
DIMENSION
  5
45D
330
1F
100
AcDbEntity
  8
wymiary
100
AcDbDimension
  2
*D35
 10
63.86620035372835
 20
2855.263596407852
 30
0.0
 11
50.36620035372791
 21
3235.263596407853
 31
0.0
 70
    32
 71
     5
 42
760.0
  3
Kopia ISO-25
100
AcDbAlignedDimension
 13
151.237321565417
 23
3615.263596407852
 33
0.0
 14
151.237321565417
 24
2855.263596407852
 34
0.0
 50
90.0
100
AcDbRotatedDimension
  0
DIMENSION
  5
45E
330
1F
100
AcDbEntity
  8
wymiary
100
AcDbDimension
  2
*D36
 10
1201.237321565417
 20
3656.231712546827
 30
0.0
 11
676.237321565417
 21
3669.731712546827
 31
0.0
 70
    32
 71
     5
 42
1050.0
  3
Kopia ISO-25
100
AcDbAlignedDimension
 13
151.237321565417
 23
3615.263596407852
 33
0.0
 14
1201.237321565417
 24
3615.263596407852
 34
0.0
100
AcDbRotatedDimension
  0
LWPOLYLINE
  5
45F
330
1F
100
AcDbEntity
  8
wymiary
100
AcDbPolyline
 90
        4
 70
     1
 43
0.0
 10
-1213.820801571102
 20
3768.118956294443
 10
2604.071237312248
 20
3768.118956294443
 10
2604.071237312248
 20
1538.062859121752
 10
-1213.820801571102
 20
1538.062859121752
  0
LWPOLYLINE
  5
460
330
1F
100
AcDbEntity
  8
wymiary
100
AcDbPolyline
 90
        4
 70
     1
 43
0.0
 10
-78.16498669839301
 20
2646.813252063756
 10
1468.415422439539
 20
2646.813252063756
 10
1468.415422439539
 20
1538.062859121752
 10
-78.16498669839301
 20
1538.062859121752
  0
LWPOLYLINE
  5
461
330
1F
100
AcDbEntity
  8
wymiary
100
AcDbPolyline
 90
        4
 70
     1
 43
0.0
 10
1468.415422439539
 20
2646.813252063756
 10
2604.071237312248
 20
2646.813252063756
 10
2604.071237312248
 20
3768.118956294443
 10
1468.415422439539
 20
3768.118956294443
  0
LWPOLYLINE
  5
462
330
1F
100
AcDbEntity
  8
wymiary
100
AcDbPolyline
 90
        4
 70
     1
 43
0.0
 10
-78.16498669839301
 20
2646.813252063756
 10
-1213.820801571102
 20
2646.813252063756
 10
-1213.820801571102
 20
3768.118956294443
 10
-78.16498669839301
 20
3768.118956294443
  0
LWPOLYLINE
  5
463
330
1F
100
AcDbEntity
  8
wymiary
100
AcDbPolyline
 90
        4
 70
     1
 43
0.0
 10
-78.16498669839301
 20
3768.118956294443
 10
1468.415422439539
 20
3768.118956294443
 10
1468.415422439539
 20
2646.813252063756
 10
-78.16498669839301
 20
2646.813252063756
  0
MTEXT
  5
464
330
1F
100
AcDbEntity
  8
wymiary
100
AcDbMText
 10
1818.705809970103
 20
2120.077979549638
 30
0.0
 40
30.0
 41
566.4293908612997
 71
     1
 72
     5
  1
{\Ftxt.shx|c238;Mistral 1100BSR \Pwykonanie prawe\Ftxt.shx|c0;\H0.125x;}
 73
     1
 44
1.0
1001
ACAD
1000
MTEXTBEGIN
1070
    73
1070
     1
1070
    44
1040
1.0
1070
    74
1070
     0
1000
MTEXTEND
  0
MTEXT
  5
465
102
{ACAD_XDICTIONARY
360
AD9
102
}
330
1F
100
AcDbEntity
  8
wymiary
100
AcDbMText
 10
-64.48797133812377
 20
2627.900887604332
 30
0.0
 40
30.0
 41
902.3463737508771
 71
     1
 72
     5
  1
{\Ftxt.shx|c238;Rzut z g\U+00F3ry\Ftxt.shx|c0;\H0.25x;}
 73
     1
 44
1.0
1001
ACAD
1000
MTEXTBEGIN
1070
    73
1070
     1
1070
    44
1040
1.0
1070
    74
1070
     0
1000
MTEXTEND
  0
MTEXT
  5
466
330
1F
100
AcDbEntity
  8
wymiary
100
AcDbMText
 10
-30.53809109535405
 20
3747.608249568121
 30
0.0
 40
30.0
 41
902.3463737508771
 71
     1
 72
     5
  1
{\Ftxt.shx|c238;Rzut od przodu\Ftxt.shx|c0;\H0.25x;}
 73
     1
 44
1.0
1001
ACAD
1000
MTEXTBEGIN
1070
    73
1070
     1
1070
    44
1040
1.0
1070
    74
1070
     0
1000
MTEXTEND
  0
MTEXT
  5
467
330
1F
100
AcDbEntity
  8
wymiary
100
AcDbMText
 10
1532.358783731482
 20
3756.20958443206
 30
0.0
 40
30.0
 41
902.3463737508771
 71
     1
 72
     5
  1
{\Ftxt.shx|c238;Rzut od lewej strony\Ftxt.shx|c0;\H0.1667x;}
 73
     1
 44
1.0
1001
ACAD
1000
MTEXTBEGIN
1070
    73
1070
     1
1070
    44
1040
1.0
1070
    74
1070
     0
1000
MTEXTEND
  0
MTEXT
  5
468
330
1F
100
AcDbEntity
  8
wymiary
100
AcDbMText
 10
-1152.870864693999
 20
3755.335388404866
 30
0.0
 40
30.0
 41
902.3463737508771
 71
     1
 72
     5
  1
{\Ftxt.shx|c238;Rzut od prawej strony\Ftxt.shx|c0;\H0.125x;}
 73
     1
 44
1.0
1001
ACAD
1000
MTEXTBEGIN
1070
    73
1070
     1
1070
    44
1040
1.0
1070
    74
1070
     0
1000
MTEXTEND
  0
LWPOLYLINE
  5
469
330
1F
100
AcDbEntity
  8
wymiary
100
AcDbPolyline
 90
        2
 70
     0
 43
0.0
 10
-254.8443986192647
 20
2875.263596407852
 10
-209.7349458078848
 20
2870.500216433925
  0
MTEXT
  5
46A
102
{ACAD_XDICTIONARY
360
ADB
102
}
330
1F
100
AcDbEntity
  8
wymiary
100
AcDbMText
 10
-202.9408192217093
 20
2889.244004815403
 30
0.0
 40
2.5
 41
58.26734917771681
 71
     1
 72
     5
  1
{\H6x;odp\U+0142yw\Pskroplin}
 73
     1
 44
1.0
1001
ACAD
1000
MTEXTBEGIN
1070
    73
1070
     1
1070
    44
1040
1.0
1070
    74
1070
     0
1000
MTEXTEND
  0
LWPOLYLINE
  5
46B
330
1F
100
AcDbEntity
  8
wymiary
100
AcDbPolyline
 90
       12
 70
     0
 43
0.0
 10
2155.880026112293
 20
2985.552036607773
 10
2162.5561513127
 20
2985.663206968624
 10
2159.798722429741
 20
2963.629805164713
 10
2170.828432345399
 20
2969.889293466694
 10
2164.060201898992
 20
2943.098684385913
 10
2167.318980977381
 20
2943.098684385913
 10
2163.308173797759
 20
2935.837678062079
 10
2159.548044523939
 20
2943.098684385913
 10
2161.923657849016
 20
2943.111060602197
 10
2164.887144139029
 20
2960.543938027389
 10
2156.660337263454
 20
2956.644293415354
 10
2155.880026112293
 20
2985.552036607773
  0
DIMENSION
  5
617
102
{ACAD_XDICTIONARY
360
624
102
}
102
{ACAD_REACTORS
330
62E
102
}
330
1F
100
AcDbEntity
  8
wymiary
100
AcDbDimension
  2
*D38
 10
1917.319041750099
 20
3615.263596407852
 30
0.0
 11
1903.819041750099
 21
3522.763596407852
 31
0.0
 70
    32
 71
     5
 42
185.0
  3
Kopia ISO-25
100
AcDbAlignedDimension
 13
1917.319041750099
 23
3430.263596407853
 33
0.0
 14
1912.319041750099
 24
3615.263596407852
 34
0.0
 50
90.0
100
AcDbRotatedDimension
  0
DIMENSION
  5
650
102
{ACAD_XDICTIONARY
360
65B
102
}
102
{ACAD_REACTORS
330
663
102
}
330
1F
100
AcDbEntity
  8
wymiary
100
AcDbDimension
  2
*D39
 10
1587.319041750099
 20
3065.263596407853
 30
0.0
 11
1678.917161370093
 21
3083.202618403002
 31
0.0
 70
   160
 71
     5
 42
290.0000000000002
  3
Kopia ISO-25
100
AcDbAlignedDimension
 13
1877.319041750099
 23
3065.263596407853
 33
0.0
 14
1587.319041750099
 24
3235.263596407853
 34
0.0
100
AcDbRotatedDimension
1001
ACAD
1000
DSTYLE
1002
{
1070
   279
1070
     2
1002
}
  0
DIMENSION
  5
664
102
{ACAD_XDICTIONARY
360
66F
102
}
102
{ACAD_REACTORS
330
677
102
}
330
1F
100
AcDbEntity
  8
wymiary
100
AcDbDimension
  2
*D40
 10
1877.319041750099
 20
2855.263596407852
 30
0.0
 11
1863.819041750099
 21
2960.263596407852
 31
0.0
 70
    32
 71
     5
 42
210.0
  3
Kopia ISO-25
100
AcDbAlignedDimension
 13
1877.319041750099
 23
3065.263596407853
 33
0.0
 14
1877.3190417501
 24
2855.263596407852
 34
0.0
 50
90.0
100
AcDbRotatedDimension
  0
DIMENSION
  5
678
102
{ACAD_XDICTIONARY
360
683
102
}
102
{ACAD_REACTORS
330
68B
102
}
330
1F
100
AcDbEntity
  8
wymiary
100
AcDbDimension
  2
*D41
 10
1587.319041750099
 20
3430.263596407853
 30
0.0
 11
1704.020611527528
 21
3446.002136818832
 31
0.0
 70
   160
 71
     5
 42
330.0
  3
Kopia ISO-25
100
AcDbAlignedDimension
 13
1917.319041750099
 23
3430.263596407853
 33
0.0
 14
1587.319041750099
 24
3430.263596407853
 34
0.0
100
AcDbRotatedDimension
1001
ACAD
1000
DSTYLE
1002
{
1070
   279
1070
     2
1002
}
  0
DIMENSION
  5
68C
330
1F
100
AcDbEntity
  8
wymiary
100
AcDbDimension
  2
*D44
 10
-524.8443986192651
 20
2855.263596407852
 30
0.0
 11
-538.3443986192656
 21
2960.263596407852
 31
0.0
 70
    32
 71
     5
 42
210.0
  3
Kopia ISO-25
100
AcDbAlignedDimension
 13
-524.8443986192651
 23
3065.263596407853
 33
0.0
 14
-524.8443986192658
 24
2855.263596407852
 34
0.0
 50
90.0
100
AcDbRotatedDimension
  0
DIMENSION
  5
68F
330
1F
100
AcDbEntity
  8
wymiary
100
AcDbDimension
  2
*D43
 10
-234.8443986192649
 20
3065.263596407853
 30
0.0
 11
-335.805395928106
 21
3081.123266083548
 31
0.0
 70
   160
 71
     5
 42
290.0000000000002
  3
Kopia ISO-25
100
AcDbAlignedDimension
 13
-524.8443986192651
 23
3065.263596407853
 33
0.0
 14
-234.8443986192649
 24
3065.263596407858
 34
0.0
 50
180.0
100
AcDbRotatedDimension
1001
ACAD
1000
DSTYLE
1002
{
1070
   279
1070
     2
1002
}
  0
DIMENSION
  5
692
330
1F
100
AcDbEntity
  8
wymiary
100
AcDbDimension
  2
*D45
 10
-234.8443986192651
 20
3430.263596407853
 30
0.0
 11
-376.4993884614122
 21
3446.91601198314
 31
0.0
 70
   160
 71
     5
 42
330.0
  3
Kopia ISO-25
100
AcDbAlignedDimension
 13
-564.8443986192651
 23
3430.263596407853
 33
0.0
 14
-234.8443986192651
 24
3430.263596407853
 34
0.0
 50
180.0
100
AcDbRotatedDimension
1001
ACAD
1000
DSTYLE
1002
{
1070
   279
1070
     2
1002
}
  0
DIMENSION
  5
695
330
1F
100
AcDbEntity
  8
wymiary
100
AcDbDimension
  2
*D42
 10
-564.8443986192652
 20
3615.263596407852
 30
0.0
 11
-578.3443986192659
 21
3522.763596407852
 31
0.0
 70
    32
 71
     5
 42
185.0
  3
Kopia ISO-25
100
AcDbAlignedDimension
 13
-564.8443986192651
 23
3430.263596407853
 33
0.0
 14
-559.8443986192651
 24
3615.263596407852
 34
0.0
 50
90.0
100
AcDbRotatedDimension
  0
DIMENSION
  5
6DE
102
{ACAD_XDICTIONARY
360
6E7
102
}
102
{ACAD_REACTORS
330
6ED
102
}
330
1F
100
AcDbEntity
  8
wymiary
100
AcDbDimension
  2
*D46
 10
2052.627618061926
 20
3349.654420897451
 30
0.0
 11
1878.883119914493
 21
3477.480879019618
 31
0.0
 70
   163
 71
     5
 42
315.0000000000005
  3
Kopia ISO-25
100
AcDbDiametricDimension
 15
1782.010465438272
 25
3510.872771918253
 35
0.0
 40
0.0
1001
ACAD
1000
DSTYLE
1002
{
1070
   279
1070
     2
1070
   288
1070
     1
1002
}
  0
DIMENSION
  5
6EE
102
{ACAD_XDICTIONARY
360
6F7
102
}
102
{ACAD_REACTORS
330
6FD
102
}
330
1F
100
AcDbEntity
  8
wymiary
100
AcDbDimension
  2
*D47
 10
2025.173185902424
 20
3010.992037954242
 30
0.0
 11
1859.864391073574
 21
3092.841755844046
 31
0.0
 70
   163
 71
     5
 42
315.0000000000007
  3
Kopia ISO-25
100
AcDbDiametricDimension
 15
1729.464897597774
 25
3119.535154861461
 35
0.0
 40
0.0
1001
ACAD
1000
DSTYLE
1002
{
1070
   279
1070
     2
1070
   288
1070
     1
1002
}
  0
DIMENSION
  5
6FE
102
{ACAD_XDICTIONARY
360
707
102
}
102
{ACAD_REACTORS
330
70D
102
}
330
1F
100
AcDbEntity
  8
wymiary
100
AcDbDimension
  2
*D48
 10
-415.7759820122235
 20
3379.422105770089
 30
0.0
 11
-616.7100208095341
 21
3466.20551579413
 31
0.0
 70
   163
 71
     5
 42
315.0
  3
Kopia ISO-25
100
AcDbDiametricDimension
 15
-713.9128152263057
 25
3481.105087045614
 35
0.0
 40
0.0
1001
ACAD
1000
DSTYLE
1002
{
1070
   279
1070
     2
1070
   288
1070
     1
1002
}
  0
DIMENSION
  5
71E
102
{ACAD_XDICTIONARY
360
727
102
}
102
{ACAD_REACTORS
330
72D
102
}
330
1F
100
AcDbEntity
  8
wymiary
100
AcDbDimension
  2
*D50
 10
-373.0585577864002
 20
2998.601002902903
 30
0.0
 11
-562.4163515824783
 21
3084.211630387571
 31
0.0
 70
   163
 71
     5
 42
315.0
  3
Kopia ISO-25
100
AcDbDiametricDimension
 15
-670.630239452129
 25
3101.926189912801
 35
0.0
 40
0.0
1001
ACAD
1000
DSTYLE
1002
{
1070
   279
1070
     2
1070
   288
1070
     1
1002
}
  0
CIRCLE
  5
798
330
1F
100
AcDbEntity
  8
Cenrala
100
AcDbCircle
 10
1071.237321565417
 20
3585.263596407852
 30
0.0
 40
8.0
  0
INSERT
  5
7BC
330
1F
100
AcDbEntity
  8
Cenrala
100
AcDbBlockReference
  2
1100BSR_f
 10
0.0
 20
0.0
 30
0.0
  0
ENDSEC
  0
SECTION
  2
OBJECTS
  0
DICTIONARY
  5
C
330
0
100
AcDbDictionary
281
     1
  3
ACAD_COLOR
350
6B
  3
ACAD_GROUP
350
D
  3
ACAD_LAYOUT
350
1A
  3
ACAD_MATERIAL
350
6A
  3
ACAD_MLEADERSTYLE
350
80D
  3
ACAD_MLINESTYLE
350
17
  3
ACAD_PLOTSETTINGS
350
19
  3
ACAD_PLOTSTYLENAME
350
E
  3
ACAD_SCALELIST
350
7FB
  3
ACAD_TABLESTYLE
350
7F9
  3
ACAD_VISUALSTYLE
350
7E8
  3
ACDB_RECOMPOSE_DATA
350
AC9
  3
AcDbVariableDictionary
350
5E
  3
DWGPROPS
350
ACA
  0
DICTIONARY
  5
844
330
10
100
AcDbDictionary
280
     1
281
     1
  3
ADSK_XREC_LAYER_RECONCILED
360
845
  0
DICTIONARY
  5
846
330
338
100
AcDbDictionary
280
     1
281
     1
  3
ADSK_XREC_LAYER_RECONCILED
360
847
  0
DICTIONARY
  5
848
330
339
100
AcDbDictionary
280
     1
281
     1
  3
ADSK_XREC_LAYER_RECONCILED
360
849
  0
DICTIONARY
  5
840
330
36E
100
AcDbDictionary
280
     1
281
     1
  0
DICTIONARY
  5
825
330
383
100
AcDbDictionary
280
     1
281
     1
  0
DICTIONARY
  5
AD1
330
40F
100
AcDbDictionary
280
     1
281
     1
  3
ACAD_MTEXT_RT
360
AD2
  0
DICTIONARY
  5
AD3
330
418
100
AcDbDictionary
280
     1
281
     1
  3
ACAD_MTEXT_RT
360
AD4
  0
DICTIONARY
  5
AD5
330
421
100
AcDbDictionary
280
     1
281
     1
  3
ACAD_MTEXT_RT
360
AD6
  0
DICTIONARY
  5
AD7
330
42A
100
AcDbDictionary
280
     1
281
     1
  3
ACAD_MTEXT_RT
360
AD8
  0
DICTIONARY
  5
AE3
330
5DB
100
AcDbDictionary
280
     1
281
     1
  3
ACAD_MTEXT_RT
360
AE4
  0
DICTIONARY
  5
AE1
330
5D5
100
AcDbDictionary
280
     1
281
     1
  3
ACAD_MTEXT_RT
360
AE2
  0
DICTIONARY
  5
ADF
330
5CF
100
AcDbDictionary
280
     1
281
     1
  3
ACAD_MTEXT_RT
360
AE0
  0
DICTIONARY
  5
ADD
330
5C9
100
AcDbDictionary
280
     1
281
     1
  3
ACAD_MTEXT_RT
360
ADE
  0
DICTIONARY
  5
AED
330
78D
100
AcDbDictionary
280
     1
281
     1
  3
ACAD_MTEXT_RT
360
AEE
  0
DICTIONARY
  5
AEB
330
766
100
AcDbDictionary
280
     1
281
     1
  3
ACAD_MTEXT_RT
360
AEC
  0
DICTIONARY
  5
AE9
330
73F
100
AcDbDictionary
280
     1
281
     1
  3
ACAD_MTEXT_RT
360
AEA
  0
DICTIONARY
  5
AE5
330
719
100
AcDbDictionary
280
     1
281
     1
  3
ACAD_MTEXT_RT
360
AE6
  0
DICTIONARY
  5
AE7
330
734
100
AcDbDictionary
280
     1
281
     1
  3
ACAD_MTEXT_RT
360
AE8
  0
DICTIONARY
  5
AD9
330
465
100
AcDbDictionary
280
     1
281
     1
  3
ACAD_MTEXT_RT
360
ADA
  0
DICTIONARY
  5
ADB
330
46A
100
AcDbDictionary
280
     1
281
     1
  3
ACAD_MTEXT_RT
360
ADC
  0
DICTIONARY
  5
624
330
617
100
AcDbDictionary
280
     1
281
     1
  3
ACAD_DIMASSOC
360
62E
  0
DICTIONARY
  5
65B
330
650
100
AcDbDictionary
280
     1
281
     1
  3
ACAD_DIMASSOC
360
663
  0
DICTIONARY
  5
66F
330
664
100
AcDbDictionary
280
     1
281
     1
  3
ACAD_DIMASSOC
360
677
  0
DICTIONARY
  5
683
330
678
100
AcDbDictionary
280
     1
281
     1
  3
ACAD_DIMASSOC
360
68B
  0
DICTIONARY
  5
6E7
330
6DE
100
AcDbDictionary
280
     1
281
     1
  3
ACAD_DIMASSOC
360
6ED
  0
DICTIONARY
  5
6F7
330
6EE
100
AcDbDictionary
280
     1
281
     1
  3
ACAD_DIMASSOC
360
6FD
  0
DICTIONARY
  5
707
330
6FE
100
AcDbDictionary
280
     1
281
     1
  3
ACAD_DIMASSOC
360
70D
  0
DICTIONARY
  5
727
330
71E
100
AcDbDictionary
280
     1
281
     1
  3
ACAD_DIMASSOC
360
72D
  0
DICTIONARY
  5
6B
102
{ACAD_REACTORS
330
C
102
}
330
C
100
AcDbDictionary
281
     1
  0
DICTIONARY
  5
D
102
{ACAD_REACTORS
330
C
102
}
330
C
100
AcDbDictionary
281
     1
  0
DICTIONARY
  5
1A
102
{ACAD_REACTORS
330
C
102
}
330
C
100
AcDbDictionary
281
     1
  3
Arkusz1
350
51
  3
Arkusz2
350
56
  3
Model
350
22
  0
DICTIONARY
  5
6A
102
{ACAD_REACTORS
330
C
102
}
330
C
100
AcDbDictionary
281
     1
  3
ByBlock
350
7D8
  3
ByLayer
350
7D0
  3
Global
350
7E0
  0
DICTIONARY
  5
80D
102
{ACAD_REACTORS
330
C
102
}
330
C
100
AcDbDictionary
281
     1
  3
Standard
350
80E
  0
DICTIONARY
  5
17
102
{ACAD_REACTORS
330
C
102
}
330
C
100
AcDbDictionary
281
     1
  3
Standard
350
18
  0
DICTIONARY
  5
19
102
{ACAD_REACTORS
330
C
102
}
330
C
100
AcDbDictionary
281
     1
  0
ACDBDICTIONARYWDFLT
  5
E
102
{ACAD_REACTORS
330
C
102
}
330
C
100
AcDbDictionary
281
     1
  3
Normal
350
F
100
AcDbDictionaryWithDefault
340
F
  0
DICTIONARY
  5
7FB
102
{ACAD_REACTORS
330
C
102
}
330
C
100
AcDbDictionary
281
     1
  3
A0
350
7FC
  3
A1
350
7FD
  3
A2
350
7FE
  3
A3
350
7FF
  3
A4
350
800
  3
A5
350
801
  3
A6
350
802
  3
A7
350
803
  3
A8
350
804
  3
A9
350
805
  3
B0
350
806
  3
B1
350
807
  3
B2
350
808
  3
B3
350
809
  3
B4
350
80A
  3
B5
350
80B
  3
B6
350
80C
  0
DICTIONARY
  5
7F9
102
{ACAD_REACTORS
330
C
102
}
330
C
100
AcDbDictionary
281
     1
  3
Standard
350
7FA
  0
DICTIONARY
  5
7E8
102
{ACAD_REACTORS
330
C
102
}
330
C
100
AcDbDictionary
281
     1
  3
2dWireframe
350
7EE
  3
3D Hidden
350
7F0
  3
3dWireframe
350
7EF
  3
Basic
350
7ED
  3
Brighten
350
7F4
  3
ColorChange
350
7F8
  3
Conceptual
350
7F1
  3
Dim
350
7F3
  3
Facepattern
350
7F7
  3
Flat
350
7E9
  3
FlatWithEdges
350
7EA
  3
Gouraud
350
7EB
  3
GouraudWithEdges
350
7EC
  3
Linepattern
350
7F6
  3
Realistic
350
7F2
  3
Thicken
350
7F5
  0
XRECORD
  5
AC9
102
{ACAD_REACTORS
330
C
102
}
330
C
100
AcDbXrecord
280
     1
 90
        1
330
7FA
  0
DICTIONARY
  5
5E
102
{ACAD_REACTORS
330
C
102
}
330
C
100
AcDbDictionary
281
     1
  3
CANNOSCALE
350
84C
  3
CMLEADERSTYLE
350
84B
  3
CTABLESTYLE
350
84A
  3
DIMASSOC
350
5F
  3
HIDETEXT
350
63
  3
INDEXCTL
350
84E
  3
PROJECTNAME
350
7BE
  3
SORTENTS
350
84D
  0
XRECORD
  5
ACA
102
{ACAD_REACTORS
330
C
102
}
330
C
100
AcDbXrecord
280
     1
  1
DWGPROPS COOKIE
  2

  3

  4

  6

  7

  8
darek
  9

300
=
301
=
302
=
303
=
304
=
305
=
306
=
307
=
308
=
309
=
 40
0.144665625
 41
2453959.416956308
 42
2456666.942548102
  1

 90
        0
  0
XRECORD
  5
845
102
{ACAD_REACTORS
330
844
102
}
330
844
100
AcDbXrecord
280
     1
290
     1
  0
XRECORD
  5
847
102
{ACAD_REACTORS
330
846
102
}
330
846
100
AcDbXrecord
280
     1
290
     1
  0
XRECORD
  5
849
102
{ACAD_REACTORS
330
848
102
}
330
848
100
AcDbXrecord
280
     1
290
     1
  0
XRECORD
  5
AD2
102
{ACAD_REACTORS
330
AD1
102
}
330
AD1
100
AcDbXrecord
280
     1
 40
2879.0
  1
\U+2205315
  0
XRECORD
  5
AD4
102
{ACAD_REACTORS
330
AD3
102
}
330
AD3
100
AcDbXrecord
280
     1
 40
2879.0
  1
\U+2205315
  0
XRECORD
  5
AD6
102
{ACAD_REACTORS
330
AD5
102
}
330
AD5
100
AcDbXrecord
280
     1
 40
2879.0
  1
\U+2205315
  0
XRECORD
  5
AD8
102
{ACAD_REACTORS
330
AD7
102
}
330
AD7
100
AcDbXrecord
280
     1
 40
2879.0
  1
\U+2205315
  0
XRECORD
  5
AE4
102
{ACAD_REACTORS
330
AE3
102
}
330
AE3
100
AcDbXrecord
280
     1
 40
2879.0
  1
\U+2205315
  0
XRECORD
  5
AE2
102
{ACAD_REACTORS
330
AE1
102
}
330
AE1
100
AcDbXrecord
280
     1
 40
2879.0
  1
\U+2205315
  0
XRECORD
  5
AE0
102
{ACAD_REACTORS
330
ADF
102
}
330
ADF
100
AcDbXrecord
280
     1
 40
2879.0
  1
\U+2205315
  0
XRECORD
  5
ADE
102
{ACAD_REACTORS
330
ADD
102
}
330
ADD
100
AcDbXrecord
280
     1
 40
2879.0
  1
\U+2205315
  0
XRECORD
  5
AEE
102
{ACAD_REACTORS
330
AED
102
}
330
AED
100
AcDbXrecord
280
     1
 40
2879.0
  1
\U+2205315
  0
XRECORD
  5
AEC
102
{ACAD_REACTORS
330
AEB
102
}
330
AEB
100
AcDbXrecord
280
     1
 40
2879.0
  1
\U+2205315
  0
XRECORD
  5
AEA
102
{ACAD_REACTORS
330
AE9
102
}
330
AE9
100
AcDbXrecord
280
     1
 40
2879.0
  1
\U+2205315
  0
XRECORD
  5
AE6
102
{ACAD_REACTORS
330
AE5
102
}
330
AE5
100
AcDbXrecord
280
     1
 40
2848.0
  1
\U+2205321
  0
XRECORD
  5
AE8
102
{ACAD_REACTORS
330
AE7
102
}
330
AE7
100
AcDbXrecord
280
     1
 40
2879.0
  1
\U+2205315
  0
XRECORD
  5
ADA
102
{ACAD_REACTORS
330
AD9
102
}
330
AD9
100
AcDbXrecord
280
     1
 40
128802.0
  1
{\Ftxt.shx|c238;Rzut z góry\Ftxt.shx|c0;\H0.25x;}
  0
XRECORD
  5
ADC
102
{ACAD_REACTORS
330
ADB
102
}
330
ADB
100
AcDbXrecord
280
     1
 40
42289.0
  1
{\Ftxt.shx|c238;\H6x;odpływ^Jskroplin}
  0
DIMASSOC
  5
62E
102
{ACAD_REACTORS
330
624
102
}
330
624
100
AcDbDimAssoc
330
617
 90
        2
 70
     0
 71
     0
  1
AcDbOsnapPointRef
 72
     2
331
382
331
381
 73
     2
 91
        3
 40
0.5
 10
0.0
 20
0.0
 30
0.0
 75
     0
  0
DIMASSOC
  5
663
102
{ACAD_REACTORS
330
65B
102
}
330
65B
100
AcDbDimAssoc
330
650
 90
        3
 70
     0
 71
     0
  1
AcDbOsnapPointRef
 72
     3
331
831
 73
     2
 91
        0
 40
0.0
 10
0.0
 20
0.0
 30
0.0
 75
     0
  1
AcDbOsnapPointRef
 72
     2
331
382
331
83F
 73
     2
 91
        4
 40
0.7236842105263088
 10
0.0
 20
0.0
 30
0.0
 75
     0
  0
DIMASSOC
  5
677
102
{ACAD_REACTORS
330
66F
102
}
330
66F
100
AcDbDimAssoc
330
664
 90
        2
 70
     0
 71
     0
  1
AcDbOsnapPointRef
 72
     2
331
382
331
381
 73
     2
 91
        1
 40
0.4461538461538472
 10
0.0
 20
0.0
 30
0.0
 75
     0
  0
DIMASSOC
  5
68B
102
{ACAD_REACTORS
330
683
102
}
330
683
100
AcDbDimAssoc
330
678
 90
        2
 70
     0
 71
     0
  1
AcDbOsnapPointRef
 72
    13
331
382
331
381
 73
     2
 91
        4
 40
0.2434210526315778
 10
0.0
 20
0.0
 30
2.000000000000000E+50
 75
     0
  0
DIMASSOC
  5
6ED
102
{ACAD_REACTORS
330
6E7
102
}
330
6E7
100
AcDbDimAssoc
330
6DE
 90
        2
 70
     0
 71
     0
  1
AcDbOsnapPointRef
 72
     3
331
382
331
376
 73
     2
 91
        0
 40
0.0
 10
0.0
 20
0.0
 30
0.0
 75
     0
  0
DIMASSOC
  5
6FD
102
{ACAD_REACTORS
330
6F7
102
}
330
6F7
100
AcDbDimAssoc
330
6EE
 90
        2
 70
     0
 71
     0
  1
AcDbOsnapPointRef
 72
     3
331
382
331
373
 73
     2
 91
        0
 40
0.0
 10
0.0
 20
0.0
 30
0.0
 75
     0
  0
DIMASSOC
  5
70D
102
{ACAD_REACTORS
330
707
102
}
330
707
100
AcDbDimAssoc
330
6FE
 90
        2
 70
     0
 71
     0
  1
AcDbOsnapPointRef
 72
     3
331
395
331
38D
 73
     2
 91
        0
 40
0.0
 10
0.0
 20
0.0
 30
0.0
 75
     0
  0
DIMASSOC
  5
72D
102
{ACAD_REACTORS
330
727
102
}
330
727
100
AcDbDimAssoc
330
71E
 90
        2
 70
     0
 71
     0
  1
AcDbOsnapPointRef
 72
     3
331
395
331
390
 73
     2
 91
        0
 40
0.0
 10
0.0
 20
0.0
 30
0.0
 75
     0
  0
LAYOUT
  5
51
102
{ACAD_XDICTIONARY
360
ACD
102
}
102
{ACAD_REACTORS
330
1A
102
}
330
1A
100
AcDbPlotSettings
  1

  2
None
  4

  6

 40
0.0
 41
0.0
 42
0.0
 43
0.0
 44
0.0
 45
0.0
 46
0.0
 47
0.0
 48
0.0
 49
0.0
140
0.0
141
0.0
142
1.0
143
1.0
 70
   688
 72
     0
 73
     0
 74
     5
  7

 75
    16
147
1.0
148
0.0
149
0.0
100
AcDbLayout
  1
Arkusz1
 70
     1
 71
     1
 10
0.0
 20
0.0
 11
12.0
 21
9.0
 12
0.0
 22
0.0
 32
0.0
 14
0.0
 24
0.0
 34
0.0
 15
0.0
 25
0.0
 35
0.0
146
0.0
 13
0.0
 23
0.0
 33
0.0
 16
1.0
 26
0.0
 36
0.0
 17
0.0
 27
1.0
 37
0.0
 76
     0
330
50
  0
LAYOUT
  5
56
102
{ACAD_XDICTIONARY
360
ACF
102
}
102
{ACAD_REACTORS
330
1A
102
}
330
1A
100
AcDbPlotSettings
  1

  2
None
  4

  6

 40
0.0
 41
0.0
 42
0.0
 43
0.0
 44
0.0
 45
0.0
 46
0.0
 47
0.0
 48
0.0
 49
0.0
140
0.0
141
0.0
142
1.0
143
1.0
 70
   688
 72
     0
 73
     0
 74
     5
  7

 75
    16
147
1.0
148
0.0
149
0.0
100
AcDbLayout
  1
Arkusz2
 70
     1
 71
     2
 10
0.0
 20
0.0
 11
12.0
 21
9.0
 12
0.0
 22
0.0
 32
0.0
 14
0.0
 24
0.0
 34
0.0
 15
0.0
 25
0.0
 35
0.0
146
0.0
 13
0.0
 23
0.0
 33
0.0
 16
1.0
 26
0.0
 36
0.0
 17
0.0
 27
1.0
 37
0.0
 76
     0
330
55
  0
LAYOUT
  5
22
102
{ACAD_XDICTIONARY
360
ACB
102
}
102
{ACAD_REACTORS
330
1A
102
}
330
1A
100
AcDbPlotSettings
  1

  2
none_device
  4
ANSI_A_(8.50_x_11.00_Inches)
  6

 40
6.349999904632567
 41
19.04999923706055
 42
6.350006103515625
 43
19.04998779296875
 44
215.8999938964844
 45
279.3999938964844
 46
0.0
 47
0.0
 48
0.0
 49
0.0
140
0.0
141
0.0
142
1.0
143
78.436453180766
 70
 11952
 72
     0
 73
     1
 74
     0
  7

 75
     0
147
0.0127491741332998
148
0.0
149
0.0
100
AcDbLayout
  1
Model
 70
     1
 71
     0
 10
0.0
 20
0.0
 11
12.0
 21
9.0
 12
0.0
 22
0.0
 32
0.0
 14
0.0
 24
0.0
 34
0.0
 15
0.0
 25
0.0
 35
0.0
146
0.0
 13
0.0
 23
0.0
 33
0.0
 16
1.0
 26
0.0
 36
0.0
 17
0.0
 27
1.0
 37
0.0
 76
     0
330
1F
331
7BF
  0
MATERIAL
  5
7D8
102
{ACAD_XDICTIONARY
360
7D9
102
}
102
{ACAD_REACTORS
330
6A
102
}
330
6A
100
AcDbMaterial
  1
ByBlock
 72
     0
 43
0.0008202099737533
 43
0.0
 43
0.0
 43
0.0
 43
0.0
 43
0.0008202099737533
 43
0.0
 43
0.0
 43
0.0
 43
0.0
 43
1.0
 43
0.0
 43
0.0
 43
0.0
 43
0.0
 43
1.0
 77
     0
 47
0.0008202099737533
 47
0.0
 47
0.0
 47
0.0
 47
0.0
 47
0.0008202099737533
 47
0.0
 47
0.0
 47
0.0
 47
0.0
 47
1.0
 47
0.0
 47
0.0
 47
0.0
 47
0.0
 47
1.0
171
     0
 49
0.0008202099737533
 49
0.0
 49
0.0
 49
0.0
 49
0.0
 49
0.0008202099737533
 49
0.0
 49
0.0
 49
0.0
 49
0.0
 49
1.0
 49
0.0
 49
0.0
 49
0.0
 49
0.0
 49
1.0
175
     0
142
0.0008202099737533
142
0.0
142
0.0
142
0.0
142
0.0
142
0.0008202099737533
142
0.0
142
0.0
142
0.0
142
0.0
142
1.0
142
0.0
142
0.0
142
0.0
142
0.0
142
1.0
179
     0
144
0.0008202099737533
144
0.0
144
0.0
144
0.0
144
0.0
144
0.0008202099737533
144
0.0
144
0.0
144
0.0
144
0.0
144
1.0
144
0.0
144
0.0
144
0.0
144
0.0
144
1.0
147
0.0008202099737533
147
0.0
147
0.0
147
0.0
147
0.0
147
0.0008202099737533
147
0.0
147
0.0
147
0.0
147
0.0
147
1.0
147
0.0
147
0.0
147
0.0
147
0.0
147
1.0
  0
MATERIAL
  5
7D0
102
{ACAD_XDICTIONARY
360
7D1
102
}
102
{ACAD_REACTORS
330
6A
102
}
330
6A
100
AcDbMaterial
  1
ByLayer
 72
     0
 43
0.0008202099737533
 43
0.0
 43
0.0
 43
0.0
 43
0.0
 43
0.0008202099737533
 43
0.0
 43
0.0
 43
0.0
 43
0.0
 43
1.0
 43
0.0
 43
0.0
 43
0.0
 43
0.0
 43
1.0
 77
     0
 47
0.0008202099737533
 47
0.0
 47
0.0
 47
0.0
 47
0.0
 47
0.0008202099737533
 47
0.0
 47
0.0
 47
0.0
 47
0.0
 47
1.0
 47
0.0
 47
0.0
 47
0.0
 47
0.0
 47
1.0
171
     0
 49
0.0008202099737533
 49
0.0
 49
0.0
 49
0.0
 49
0.0
 49
0.0008202099737533
 49
0.0
 49
0.0
 49
0.0
 49
0.0
 49
1.0
 49
0.0
 49
0.0
 49
0.0
 49
0.0
 49
1.0
175
     0
142
0.0008202099737533
142
0.0
142
0.0
142
0.0
142
0.0
142
0.0008202099737533
142
0.0
142
0.0
142
0.0
142
0.0
142
1.0
142
0.0
142
0.0
142
0.0
142
0.0
142
1.0
179
     0
144
0.0008202099737533
144
0.0
144
0.0
144
0.0
144
0.0
144
0.0008202099737533
144
0.0
144
0.0
144
0.0
144
0.0
144
1.0
144
0.0
144
0.0
144
0.0
144
0.0
144
1.0
147
0.0008202099737533
147
0.0
147
0.0
147
0.0
147
0.0
147
0.0008202099737533
147
0.0
147
0.0
147
0.0
147
0.0
147
1.0
147
0.0
147
0.0
147
0.0
147
0.0
147
1.0
  0
MATERIAL
  5
7E0
102
{ACAD_XDICTIONARY
360
7E1
102
}
102
{ACAD_REACTORS
330
6A
102
}
330
6A
100
AcDbMaterial
  1
Global
 72
     0
 43
0.0008202099737533
 43
0.0
 43
0.0
 43
0.0
 43
0.0
 43
0.0008202099737533
 43
0.0
 43
0.0
 43
0.0
 43
0.0
 43
1.0
 43
0.0
 43
0.0
 43
0.0
 43
0.0
 43
1.0
 77
     0
 47
0.0008202099737533
 47
0.0
 47
0.0
 47
0.0
 47
0.0
 47
0.0008202099737533
 47
0.0
 47
0.0
 47
0.0
 47
0.0
 47
1.0
 47
0.0
 47
0.0
 47
0.0
 47
0.0
 47
1.0
171
     0
 49
0.0008202099737533
 49
0.0
 49
0.0
 49
0.0
 49
0.0
 49
0.0008202099737533
 49
0.0
 49
0.0
 49
0.0
 49
0.0
 49
1.0
 49
0.0
 49
0.0
 49
0.0
 49
0.0
 49
1.0
175
     0
142
0.0008202099737533
142
0.0
142
0.0
142
0.0
142
0.0
142
0.0008202099737533
142
0.0
142
0.0
142
0.0
142
0.0
142
1.0
142
0.0
142
0.0
142
0.0
142
0.0
142
1.0
179
     0
144
0.0008202099737533
144
0.0
144
0.0
144
0.0
144
0.0
144
0.0008202099737533
144
0.0
144
0.0
144
0.0
144
0.0
144
1.0
144
0.0
144
0.0
144
0.0
144
0.0
144
1.0
147
0.0008202099737533
147
0.0
147
0.0
147
0.0
147
0.0
147
0.0008202099737533
147
0.0
147
0.0
147
0.0
147
0.0
147
1.0
147
0.0
147
0.0
147
0.0
147
0.0
147
1.0
  0
MLEADERSTYLE
  5
80E
102
{ACAD_REACTORS
330
80D
102
}
330
80D
100
AcDbMLeaderStyle
170
     2
171
     1
172
     0
 90
        2
 40
0.0
 41
0.0
173
     1
 91
-1056964608
340
14
 92
       -2
290
     1
 42
2.0
291
     1
 43
0.36
  3
Standard
 44
4.0
300

342
11
174
     1
178
     6
175
     1
176
     0
 93
-1056964608
 45
4.0
292
     0
297
     0
 46
4.0
 94
-1056964608
 47
1.0
 49
1.0
140
1.0
293
     1
141
0.0
294
     1
177
     0
142
1.0
295
     0
296
     0
143
0.125
1001
ACAD_MLEADERVER
1070
     2
  0
MLINESTYLE
  5
18
102
{ACAD_REACTORS
330
17
102
}
330
17
100
AcDbMlineStyle
  2
STANDARD
 70
     0
  3

 62
   256
 51
90.0
 52
90.0
 71
     2
 49
0.5
 62
   256
  6
BYLAYER
 49
-0.5
 62
   256
  6
BYLAYER
  0
ACDBPLACEHOLDER
  5
F
102
{ACAD_REACTORS
330
E
102
}
330
E
  0
SCALE
  5
7FC
102
{ACAD_REACTORS
330
7FB
102
}
330
7FB
100
AcDbScale
 70
     0
300
1:1
140
1.0
141
1.0
290
     1
  0
SCALE
  5
7FD
102
{ACAD_REACTORS
330
7FB
102
}
330
7FB
100
AcDbScale
 70
     0
300
1:2
140
1.0
141
2.0
290
     0
  0
SCALE
  5
7FE
102
{ACAD_REACTORS
330
7FB
102
}
330
7FB
100
AcDbScale
 70
     0
300
1:4
140
1.0
141
4.0
290
     0
  0
SCALE
  5
7FF
102
{ACAD_REACTORS
330
7FB
102
}
330
7FB
100
AcDbScale
 70
     0
300
1:5
140
1.0
141
5.0
290
     0
  0
SCALE
  5
800
102
{ACAD_REACTORS
330
7FB
102
}
330
7FB
100
AcDbScale
 70
     0
300
1:8
140
1.0
141
8.0
290
     0
  0
SCALE
  5
801
102
{ACAD_REACTORS
330
7FB
102
}
330
7FB
100
AcDbScale
 70
     0
300
1:10
140
1.0
141
10.0
290
     0
  0
SCALE
  5
802
102
{ACAD_REACTORS
330
7FB
102
}
330
7FB
100
AcDbScale
 70
     0
300
1:16
140
1.0
141
16.0
290
     0
  0
SCALE
  5
803
102
{ACAD_REACTORS
330
7FB
102
}
330
7FB
100
AcDbScale
 70
     0
300
1:20
140
1.0
141
20.0
290
     0
  0
SCALE
  5
804
102
{ACAD_REACTORS
330
7FB
102
}
330
7FB
100
AcDbScale
 70
     0
300
1:30
140
1.0
141
30.0
290
     0
  0
SCALE
  5
805
102
{ACAD_REACTORS
330
7FB
102
}
330
7FB
100
AcDbScale
 70
     0
300
1:40
140
1.0
141
40.0
290
     0
  0
SCALE
  5
806
102
{ACAD_REACTORS
330
7FB
102
}
330
7FB
100
AcDbScale
 70
     0
300
1:50
140
1.0
141
50.0
290
     0
  0
SCALE
  5
807
102
{ACAD_REACTORS
330
7FB
102
}
330
7FB
100
AcDbScale
 70
     0
300
1:100
140
1.0
141
100.0
290
     0
  0
SCALE
  5
808
102
{ACAD_REACTORS
330
7FB
102
}
330
7FB
100
AcDbScale
 70
     0
300
2:1
140
2.0
141
1.0
290
     0
  0
SCALE
  5
809
102
{ACAD_REACTORS
330
7FB
102
}
330
7FB
100
AcDbScale
 70
     0
300
4:1
140
4.0
141
1.0
290
     0
  0
SCALE
  5
80A
102
{ACAD_REACTORS
330
7FB
102
}
330
7FB
100
AcDbScale
 70
     0
300
8:1
140
8.0
141
1.0
290
     0
  0
SCALE
  5
80B
102
{ACAD_REACTORS
330
7FB
102
}
330
7FB
100
AcDbScale
 70
     0
300
10:1
140
10.0
141
1.0
290
     0
  0
SCALE
  5
80C
102
{ACAD_REACTORS
330
7FB
102
}
330
7FB
100
AcDbScale
 70
     0
300
100:1
140
100.0
141
1.0
290
     0
  0
TABLESTYLE
  5
7FA
102
{ACAD_XDICTIONARY
360
AC7
102
}
102
{ACAD_REACTORS
330
7F9
102
}
330
7F9
100
AcDbTableStyle
  3
Standard
 70
     0
 71
     0
 40
1.5
 41
1.5
280
     0
281
     0
  7
Standard
140
4.5
170
     2
 62
     0
 63
     7
283
     0
274
    -2
284
     1
 64
     0
275
    -2
285
     1
 65
     0
276
    -2
286
     1
 66
     0
277
    -2
287
     1
 67
     0
278
    -2
288
     1
 68
     0
279
    -2
289
     1
 69
     0
  7
Standard
140
6.0
170
     5
 62
     0
 63
     7
283
     0
274
    -2
284
     1
 64
     0
275
    -2
285
     1
 65
     0
276
    -2
286
     1
 66
     0
277
    -2
287
     1
 67
     0
278
    -2
288
     1
 68
     0
279
    -2
289
     1
 69
     0
  7
Standard
140
4.5
170
     5
 62
     0
 63
     7
283
     0
274
    -2
284
     1
 64
     0
275
    -2
285
     1
 65
     0
276
    -2
286
     1
 66
     0
277
    -2
287
     1
 67
     0
278
    -2
288
     1
 68
     0
279
    -2
289
     1
 69
     0
  0
VISUALSTYLE
  5
7EE
102
{ACAD_REACTORS
330
7E8
102
}
330
7E8
100
AcDbVisualStyle
  2
2dWireframe
 70
     4
 71
     0
 72
     2
 73
     0
 90
        0
 40
-0.6
 41
-30.0
 62
     5
 63
     7
 74
     1
 91
        4
 64
     7
 65
   257
 75
     1
175
     1
 42
1.0
 92
        0
 66
   257
 43
1.0
 76
     1
 77
     6
 78
     2
 67
     7
 79
     5
170
     0
171
     0
290
     0
174
     0
 93
        1
 44
0.0
173
     0
291
     0
 45
0.0
1001
ACAD
1000
AcDbSavedByObjectVersion
1070
     0
  0
VISUALSTYLE
  5
7F0
102
{ACAD_REACTORS
330
7E8
102
}
330
7E8
100
AcDbVisualStyle
  2
3D Hidden
 70
     6
 71
     1
 72
     2
 73
     2
 90
        0
 40
-0.6
 41
-30.0
 62
     5
 63
     7
 74
     2
 91
        2
 64
     7
 65
   257
 75
     2
175
     1
 42
40.0
 92
        0
 66
   257
 43
1.0
 76
     1
 77
     6
 78
     2
 67
     7
 79
     3
170
     0
171
     0
290
     0
174
     0
 93
        1
 44
0.0
173
     0
291
     0
 45
0.0
1001
ACAD
1000
AcDbSavedByObjectVersion
1070
     0
  0
VISUALSTYLE
  5
7EF
102
{ACAD_REACTORS
330
7E8
102
}
330
7E8
100
AcDbVisualStyle
  2
3dWireframe
 70
     5
 71
     0
 72
     2
 73
     0
 90
        0
 40
-0.6
 41
-30.0
 62
     5
 63
     7
 74
     1
 91
        4
 64
     7
 65
   257
 75
     1
175
     1
 42
1.0
 92
        0
 66
   257
 43
1.0
 76
     1
 77
     6
 78
     2
 67
     7
 79
     5
170
     0
171
     0
290
     0
174
     0
 93
        1
 44
0.0
173
     0
291
     0
 45
0.0
1001
ACAD
1000
AcDbSavedByObjectVersion
1070
     0
  0
VISUALSTYLE
  5
7ED
102
{ACAD_REACTORS
330
7E8
102
}
330
7E8
100
AcDbVisualStyle
  2
Basic
 70
     7
 71
     1
 72
     0
 73
     1
 90
        0
 40
-0.6
 41
-30.0
 62
     5
 63
     7
 74
     0
 91
        4
 64
     7
 65
   257
 75
     1
175
     1
 42
1.0
 92
        8
 66
     7
 43
1.0
 76
     1
 77
     6
 78
     2
 67
     7
 79
     5
170
     0
171
     0
290
     0
174
     0
 93
        1
 44
0.0
173
     0
291
     1
 45
0.0
1001
ACAD
1000
AcDbSavedByObjectVersion
1070
     0
  0
VISUALSTYLE
  5
7F4
102
{ACAD_REACTORS
330
7E8
102
}
330
7E8
100
AcDbVisualStyle
  2
Brighten
 70
    12
 71
     2
 72
     2
 73
     0
 90
        0
 40
-0.6
 41
-30.0
 62
     5
 63
     7
 74
     1
 91
        4
 64
     7
 65
   257
 75
     1
175
     1
 42
1.0
 92
        8
 66
     7
 43
1.0
 76
     1
 77
     6
 78
     2
 67
     7
 79
     5
170
     0
171
     0
290
     0
174
     0
 93
        1
 44
50.0
173
     0
291
     1
 45
0.0
1001
ACAD
1000
AcDbSavedByObjectVersion
1070
     0
  0
VISUALSTYLE
  5
7F8
102
{ACAD_REACTORS
330
7E8
102
}
330
7E8
100
AcDbVisualStyle
  2
ColorChange
 70
    16
 71
     2
 72
     2
 73
     3
 90
        0
 40
-0.6
 41
-30.0
 62
     5
 63
     8
 74
     1
 91
        4
 64
     7
 65
   257
 75
     1
175
     1
 42
1.0
 92
        8
 66
     8
 43
1.0
 76
     1
 77
     6
 78
     2
 67
     7
 79
     5
170
     0
171
     0
290
     0
174
     0
 93
        1
 44
0.0
173
     0
291
     1
 45
0.0
1001
ACAD
1000
AcDbSavedByObjectVersion
1070
     0
  0
VISUALSTYLE
  5
7F1
102
{ACAD_REACTORS
330
7E8
102
}
330
7E8
100
AcDbVisualStyle
  2
Conceptual
 70
     9
 71
     3
 72
     2
 73
     0
 90
        0
 40
-0.6
 41
-30.0
 62
     5
 63
     7
 74
     2
 91
        2
 64
     7
 65
   257
 75
     1
175
     1
 42
40.0
 92
        8
 66
     7
 43
1.0
 76
     1
 77
     6
 78
     2
 67
     7
 79
     3
170
     0
171
     0
290
     0
174
     0
 93
        1
 44
0.0
173
     0
291
     0
 45
0.0
1001
ACAD
1000
AcDbSavedByObjectVersion
1070
     0
  0
VISUALSTYLE
  5
7F3
102
{ACAD_REACTORS
330
7E8
102
}
330
7E8
100
AcDbVisualStyle
  2
Dim
 70
    11
 71
     2
 72
     2
 73
     0
 90
        0
 40
-0.6
 41
-30.0
 62
     5
 63
     7
 74
     1
 91
        4
 64
     7
 65
   257
 75
     1
175
     1
 42
1.0
 92
        8
 66
     7
 43
1.0
 76
     1
 77
     6
 78
     2
 67
     7
 79
     5
170
     0
171
     0
290
     0
174
     0
 93
        1
 44
-50.0
173
     0
291
     1
 45
0.0
1001
ACAD
1000
AcDbSavedByObjectVersion
1070
     0
  0
VISUALSTYLE
  5
7F7
102
{ACAD_REACTORS
330
7E8
102
}
330
7E8
100
AcDbVisualStyle
  2
Facepattern
 70
    15
 71
     2
 72
     2
 73
     0
 90
        0
 40
-0.6
 41
-30.0
 62
     5
 63
     7
 74
     1
 91
        4
 64
     7
 65
   257
 75
     1
175
     1
 42
1.0
 92
        8
 66
     7
 43
1.0
 76
     1
 77
     6
 78
     2
 67
     7
 79
     5
170
     0
171
     0
290
     0
174
     0
 93
        1
 44
0.0
173
     0
291
     1
 45
0.0
1001
ACAD
1000
AcDbSavedByObjectVersion
1070
     0
  0
VISUALSTYLE
  5
7E9
102
{ACAD_REACTORS
330
7E8
102
}
330
7E8
100
AcDbVisualStyle
  2
Flat
 70
     0
 71
     2
 72
     1
 73
     1
 90
        2
 40
-0.6
 41
30.0
 62
     5
 63
     7
 74
     0
 91
        4
 64
     7
 65
   257
 75
     1
175
     1
 42
1.0
 92
        8
 66
     7
 43
1.0
 76
     1
 77
     6
 78
     2
 67
     7
 79
     5
170
     0
171
     0
290
     0
174
     0
 93
       13
 44
0.0
173
     0
291
     1
 45
0.0
1001
ACAD
1000
AcDbSavedByObjectVersion
1070
     0
  0
VISUALSTYLE
  5
7EA
102
{ACAD_REACTORS
330
7E8
102
}
330
7E8
100
AcDbVisualStyle
  2
FlatWithEdges
 70
     1
 71
     2
 72
     1
 73
     1
 90
        2
 40
-0.6
 41
30.0
 62
     5
 63
     7
 74
     1
 91
        4
 64
     7
 65
   257
 75
     1
175
     1
 42
1.0
 92
        0
 66
   257
 43
1.0
 76
     1
 77
     6
 78
     2
 67
     7
 79
     5
170
     0
171
     0
290
     0
174
     0
 93
       13
 44
0.0
173
     0
291
     1
 45
0.0
1001
ACAD
1000
AcDbSavedByObjectVersion
1070
     0
  0
VISUALSTYLE
  5
7EB
102
{ACAD_REACTORS
330
7E8
102
}
330
7E8
100
AcDbVisualStyle
  2
Gouraud
 70
     2
 71
     2
 72
     2
 73
     1
 90
        2
 40
-0.6
 41
30.0
 62
     5
 63
     7
 74
     0
 91
        4
 64
     7
 65
   257
 75
     1
175
     1
 42
1.0
 92
        0
 66
     7
 43
1.0
 76
     1
 77
     6
 78
     2
 67
     7
 79
     5
170
     0
171
     0
290
     0
174
     0
 93
       13
 44
0.0
173
     0
291
     1
 45
0.0
1001
ACAD
1000
AcDbSavedByObjectVersion
1070
     0
  0
VISUALSTYLE
  5
7EC
102
{ACAD_REACTORS
330
7E8
102
}
330
7E8
100
AcDbVisualStyle
  2
GouraudWithEdges
 70
     3
 71
     2
 72
     2
 73
     1
 90
        2
 40
-0.6
 41
30.0
 62
     5
 63
     7
 74
     1
 91
        4
 64
     7
 65
   257
 75
     1
175
     1
 42
1.0
 92
        0
 66
   257
 43
1.0
 76
     1
 77
     6
 78
     2
 67
     7
 79
     5
170
     0
171
     0
290
     0
174
     0
 93
       13
 44
0.0
173
     0
291
     1
 45
0.0
1001
ACAD
1000
AcDbSavedByObjectVersion
1070
     0
  0
VISUALSTYLE
  5
7F6
102
{ACAD_REACTORS
330
7E8
102
}
330
7E8
100
AcDbVisualStyle
  2
Linepattern
 70
    14
 71
     2
 72
     2
 73
     0
 90
        0
 40
-0.6
 41
-30.0
 62
     5
 63
     7
 74
     1
 91
        4
 64
     7
 65
   257
 75
     7
175
     7
 42
1.0
 92
        8
 66
     7
 43
1.0
 76
     1
 77
     6
 78
     2
 67
     7
 79
     5
170
     0
171
     0
290
     0
174
     0
 93
        1
 44
0.0
173
     0
291
     1
 45
0.0
1001
ACAD
1000
AcDbSavedByObjectVersion
1070
     0
  0
VISUALSTYLE
  5
7F2
102
{ACAD_REACTORS
330
7E8
102
}
330
7E8
100
AcDbVisualStyle
  2
Realistic
 70
     8
 71
     2
 72
     2
 73
     0
 90
        0
 40
-0.6
 41
-30.0
 62
     5
 63
     7
 74
     1
 91
        0
 64
     7
 65
   257
 75
     1
175
     1
 42
1.0
 92
        8
 66
     8
 43
1.0
 76
     1
 77
     6
 78
     2
 67
     7
 79
     5
170
     0
171
     0
290
     0
174
     0
 93
       13
 44
0.0
173
     0
291
     0
 45
0.0
1001
ACAD
1000
AcDbSavedByObjectVersion
1070
     0
  0
VISUALSTYLE
  5
7F5
102
{ACAD_REACTORS
330
7E8
102
}
330
7E8
100
AcDbVisualStyle
  2
Thicken
 70
    13
 71
     2
 72
     2
 73
     0
 90
        0
 40
-0.6
 41
-30.0
 62
     5
 63
     7
 74
     1
 91
        4
 64
     7
 65
   257
 75
     1
175
     1
 42
1.0
 92
       12
 66
     7
 43
1.0
 76
     1
 77
     6
 78
     2
 67
     7
 79
     5
170
     0
171
     0
290
     0
174
     0
 93
        1
 44
0.0
173
     0
291
     1
 45
0.0
1001
ACAD
1000
AcDbSavedByObjectVersion
1070
     0
  0
DICTIONARYVAR
  5
84C
102
{ACAD_REACTORS
330
5E
102
}
330
5E
100
DictionaryVariables
280
     0
  1
1:1
  0
DICTIONARYVAR
  5
84B
102
{ACAD_REACTORS
330
5E
102
}
330
5E
100
DictionaryVariables
280
     0
  1
STANDARD
  0
DICTIONARYVAR
  5
84A
102
{ACAD_REACTORS
330
5E
102
}
330
5E
100
DictionaryVariables
280
     0
  1
STANDARD
  0
DICTIONARYVAR
  5
5F
102
{ACAD_REACTORS
330
5E
102
}
330
5E
100
DictionaryVariables
280
     0
  1
2
  0
DICTIONARYVAR
  5
63
102
{ACAD_REACTORS
330
5E
102
}
330
5E
100
DictionaryVariables
280
     0
  1
1
  0
DICTIONARYVAR
  5
84E
102
{ACAD_REACTORS
330
5E
102
}
330
5E
100
DictionaryVariables
280
     0
  1
0
  0
DICTIONARYVAR
  5
7BE
102
{ACAD_REACTORS
330
5E
102
}
330
5E
100
DictionaryVariables
280
     0
  1

  0
DICTIONARYVAR
  5
84D
102
{ACAD_REACTORS
330
5E
102
}
330
5E
100
DictionaryVariables
280
     0
  1
127
  0
DICTIONARY
  5
ACD
330
51
100
AcDbDictionary
280
     1
281
     1
  3
ACAD_XREC_ROUNDTRIP
360
ACE
  0
DICTIONARY
  5
ACF
330
56
100
AcDbDictionary
280
     1
281
     1
  3
ACAD_XREC_ROUNDTRIP
360
AD0
  0
DICTIONARY
  5
ACB
330
22
100
AcDbDictionary
280
     1
281
     1
  3
ACAD_XREC_ROUNDTRIP
360
ACC
  0
DICTIONARY
  5
7D9
330
7D8
100
AcDbDictionary
280
     1
281
     1
  3
ACAD_XREC_ROUNDTRIP
360
AF0
  3
BUMPTILE
360
7DB
  3
DIFFUSETILE
360
7DA
  3
OPACITYTILE
360
7DE
  3
REFLECTIONTILE
360
7DD
  3
REFRACTIONTILE
360
7DF
  3
SPECULARTILE
360
7DC
  0
DICTIONARY
  5
7D1
330
7D0
100
AcDbDictionary
280
     1
281
     1
  3
ACAD_XREC_ROUNDTRIP
360
AEF
  3
BUMPTILE
360
7D3
  3
DIFFUSETILE
360
7D2
  3
OPACITYTILE
360
7D6
  3
REFLECTIONTILE
360
7D5
  3
REFRACTIONTILE
360
7D7
  3
SPECULARTILE
360
7D4
  0
DICTIONARY
  5
7E1
330
7E0
100
AcDbDictionary
280
     1
281
     1
  3
ACAD_XREC_ROUNDTRIP
360
AF1
  3
BUMPTILE
360
7E3
  3
DIFFUSETILE
360
7E2
  3
OPACITYTILE
360
7E6
  3
REFLECTIONTILE
360
7E5
  3
REFRACTIONTILE
360
7E7
  3
SPECULARTILE
360
7E4
  0
DICTIONARY
  5
AC7
330
7FA
100
AcDbDictionary
280
     1
281
     1
  3
ACAD_ROUNDTRIP_2008_TABLESTYLE_CELLSTYLEMAP
360
AC8
  3
ACAD_XREC_ROUNDTRIP
360
AF2
  0
XRECORD
  5
ACE
102
{ACAD_REACTORS
330
ACD
102
}
330
ACD
100
AcDbXrecord
280
     1
102
SHADEPLOT
 70
     0
102
SHADEPLOTRESLEVEL
 70
     2
102
SHADEPLOTCUSTOMDPI
 70
   300
  0
XRECORD
  5
AD0
102
{ACAD_REACTORS
330
ACF
102
}
330
ACF
100
AcDbXrecord
280
     1
102
SHADEPLOT
 70
     0
102
SHADEPLOTRESLEVEL
 70
     2
102
SHADEPLOTCUSTOMDPI
 70
   300
  0
XRECORD
  5
ACC
102
{ACAD_REACTORS
330
ACB
102
}
330
ACB
100
AcDbXrecord
280
     1
102
SHADEPLOT
 70
     0
102
SHADEPLOTRESLEVEL
 70
     2
102
SHADEPLOTCUSTOMDPI
 70
   300
  0
XRECORD
  5
AF0
102
{ACAD_REACTORS
330
7D9
102
}
330
7D9
100
AcDbXrecord
280
     1
102
MATERIAL
148
0.0
149
0.0
149
0.0
 93
        0
 94
      127
282
     0
 72
     0
 77
     0
171
     0
175
     0
179
     0
273
     0
  0
XRECORD
  5
7DB
102
{ACAD_REACTORS
330
7D9
102
}
330
7D9
100
AcDbXrecord
280
     1
270
     1
271
     1
  0
XRECORD
  5
7DA
102
{ACAD_REACTORS
330
7D9
102
}
330
7D9
100
AcDbXrecord
280
     1
270
     1
271
     1
  0
XRECORD
  5
7DE
102
{ACAD_REACTORS
330
7D9
102
}
330
7D9
100
AcDbXrecord
280
     1
270
     1
271
     1
  0
XRECORD
  5
7DD
102
{ACAD_REACTORS
330
7D9
102
}
330
7D9
100
AcDbXrecord
280
     1
270
     1
271
     1
  0
XRECORD
  5
7DF
102
{ACAD_REACTORS
330
7D9
102
}
330
7D9
100
AcDbXrecord
280
     1
270
     1
271
     1
  0
XRECORD
  5
7DC
102
{ACAD_REACTORS
330
7D9
102
}
330
7D9
100
AcDbXrecord
280
     1
270
     1
271
     1
  0
XRECORD
  5
AEF
102
{ACAD_REACTORS
330
7D1
102
}
330
7D1
100
AcDbXrecord
280
     1
102
MATERIAL
148
0.0
149
0.0
149
0.0
 93
        0
 94
      127
282
     0
 72
     0
 77
     0
171
     0
175
     0
179
     0
273
     0
  0
XRECORD
  5
7D3
102
{ACAD_REACTORS
330
7D1
102
}
330
7D1
100
AcDbXrecord
280
     1
270
     1
271
     1
  0
XRECORD
  5
7D2
102
{ACAD_REACTORS
330
7D1
102
}
330
7D1
100
AcDbXrecord
280
     1
270
     1
271
     1
  0
XRECORD
  5
7D6
102
{ACAD_REACTORS
330
7D1
102
}
330
7D1
100
AcDbXrecord
280
     1
270
     1
271
     1
  0
XRECORD
  5
7D5
102
{ACAD_REACTORS
330
7D1
102
}
330
7D1
100
AcDbXrecord
280
     1
270
     1
271
     1
  0
XRECORD
  5
7D7
102
{ACAD_REACTORS
330
7D1
102
}
330
7D1
100
AcDbXrecord
280
     1
270
     1
271
     1
  0
XRECORD
  5
7D4
102
{ACAD_REACTORS
330
7D1
102
}
330
7D1
100
AcDbXrecord
280
     1
270
     1
271
     1
  0
XRECORD
  5
AF1
102
{ACAD_REACTORS
330
7E1
102
}
330
7E1
100
AcDbXrecord
280
     1
102
MATERIAL
148
0.0
149
0.0
149
0.0
 93
        0
 94
      127
282
     0
 72
     0
 77
     0
171
     0
175
     0
179
     0
273
     0
  0
XRECORD
  5
7E3
102
{ACAD_REACTORS
330
7E1
102
}
330
7E1
100
AcDbXrecord
280
     1
270
     1
271
     1
  0
XRECORD
  5
7E2
102
{ACAD_REACTORS
330
7E1
102
}
330
7E1
100
AcDbXrecord
280
     1
270
     1
271
     1
  0
XRECORD
  5
7E6
102
{ACAD_REACTORS
330
7E1
102
}
330
7E1
100
AcDbXrecord
280
     1
270
     1
271
     1
  0
XRECORD
  5
7E5
102
{ACAD_REACTORS
330
7E1
102
}
330
7E1
100
AcDbXrecord
280
     1
270
     1
271
     1
  0
XRECORD
  5
7E7
102
{ACAD_REACTORS
330
7E1
102
}
330
7E1
100
AcDbXrecord
280
     1
270
     1
271
     1
  0
XRECORD
  5
7E4
102
{ACAD_REACTORS
330
7E1
102
}
330
7E1
100
AcDbXrecord
280
     1
270
     1
271
     1
  0
CELLSTYLEMAP
  5
AC8
102
{ACAD_REACTORS
330
AC7
102
}
330
AC7
100
AcDbCellStyleMap
 90
        3
300
CELLSTYLE
  1
TABLEFORMAT_BEGIN
 90
        5
170
     1
 91
        0
 92
    32768
 62
   257
 93
        1
300
CONTENTFORMAT
  1
CONTENTFORMAT_BEGIN
 90
        0
 91
        0
 92
      512
 93
        0
300

 40
0.0
140
1.0
 94
        5
 62
     0
340
11
144
6.0
309
CONTENTFORMAT_END
171
     1
301
MARGIN
  1
CELLMARGIN_BEGIN
 40
1.5
 40
1.5
 40
1.5
 40
1.5
 40
4.5
 40
4.5
309
CELLMARGIN_END
 94
        6
 95
        1
302
GRIDFORMAT
  1
GRIDFORMAT_BEGIN
 90
        0
 91
        1
 62
     0
 92
       -2
340
0
 93
        0
 40
1.125
309
GRIDFORMAT_END
 95
        2
302
GRIDFORMAT
  1
GRIDFORMAT_BEGIN
 90
        0
 91
        1
 62
     0
 92
       -2
340
0
 93
        0
 40
1.125
309
GRIDFORMAT_END
 95
        4
302
GRIDFORMAT
  1
GRIDFORMAT_BEGIN
 90
        0
 91
        1
 62
     0
 92
       -2
340
0
 93
        0
 40
1.125
309
GRIDFORMAT_END
 95
        8
302
GRIDFORMAT
  1
GRIDFORMAT_BEGIN
 90
        0
 91
        1
 62
     0
 92
       -2
340
0
 93
        0
 40
1.125
309
GRIDFORMAT_END
 95
       16
302
GRIDFORMAT
  1
GRIDFORMAT_BEGIN
 90
        0
 91
        1
 62
     0
 92
       -2
340
0
 93
        0
 40
1.125
309
GRIDFORMAT_END
 95
       32
302
GRIDFORMAT
  1
GRIDFORMAT_BEGIN
 90
        0
 91
        1
 62
     0
 92
       -2
340
0
 93
        0
 40
1.125
309
GRIDFORMAT_END
309
TABLEFORMAT_END
  1
CELLSTYLE_BEGIN
 90
        1
 91
        1
300
_TITLE
309
CELLSTYLE_END
300
CELLSTYLE
  1
TABLEFORMAT_BEGIN
 90
        5
170
     1
 91
        0
 92
        0
 62
   257
 93
        1
300
CONTENTFORMAT
  1
CONTENTFORMAT_BEGIN
 90
        0
 91
        0
 92
      512
 93
        0
300

 40
0.0
140
1.0
 94
        5
 62
     0
340
11
144
4.5
309
CONTENTFORMAT_END
171
     1
301
MARGIN
  1
CELLMARGIN_BEGIN
 40
1.5
 40
1.5
 40
1.5
 40
1.5
 40
4.5
 40
4.5
309
CELLMARGIN_END
 94
        6
 95
        1
302
GRIDFORMAT
  1
GRIDFORMAT_BEGIN
 90
        0
 91
        1
 62
     0
 92
       -2
340
0
 93
        0
 40
1.125
309
GRIDFORMAT_END
 95
        2
302
GRIDFORMAT
  1
GRIDFORMAT_BEGIN
 90
        0
 91
        1
 62
     0
 92
       -2
340
0
 93
        0
 40
1.125
309
GRIDFORMAT_END
 95
        4
302
GRIDFORMAT
  1
GRIDFORMAT_BEGIN
 90
        0
 91
        1
 62
     0
 92
       -2
340
0
 93
        0
 40
1.125
309
GRIDFORMAT_END
 95
        8
302
GRIDFORMAT
  1
GRIDFORMAT_BEGIN
 90
        0
 91
        1
 62
     0
 92
       -2
340
0
 93
        0
 40
1.125
309
GRIDFORMAT_END
 95
       16
302
GRIDFORMAT
  1
GRIDFORMAT_BEGIN
 90
        0
 91
        1
 62
     0
 92
       -2
340
0
 93
        0
 40
1.125
309
GRIDFORMAT_END
 95
       32
302
GRIDFORMAT
  1
GRIDFORMAT_BEGIN
 90
        0
 91
        1
 62
     0
 92
       -2
340
0
 93
        0
 40
1.125
309
GRIDFORMAT_END
309
TABLEFORMAT_END
  1
CELLSTYLE_BEGIN
 90
        2
 91
        1
300
_HEADER
309
CELLSTYLE_END
300
CELLSTYLE
  1
TABLEFORMAT_BEGIN
 90
        5
170
     1
 91
        0
 92
        0
 62
   257
 93
        1
300
CONTENTFORMAT
  1
CONTENTFORMAT_BEGIN
 90
        0
 91
        0
 92
      512
 93
        0
300

 40
0.0
140
1.0
 94
        2
 62
     0
340
11
144
4.5
309
CONTENTFORMAT_END
171
     1
301
MARGIN
  1
CELLMARGIN_BEGIN
 40
1.5
 40
1.5
 40
1.5
 40
1.5
 40
4.5
 40
4.5
309
CELLMARGIN_END
 94
        6
 95
        1
302
GRIDFORMAT
  1
GRIDFORMAT_BEGIN
 90
        0
 91
        1
 62
     0
 92
       -2
340
0
 93
        0
 40
1.125
309
GRIDFORMAT_END
 95
        2
302
GRIDFORMAT
  1
GRIDFORMAT_BEGIN
 90
        0
 91
        1
 62
     0
 92
       -2
340
0
 93
        0
 40
1.125
309
GRIDFORMAT_END
 95
        4
302
GRIDFORMAT
  1
GRIDFORMAT_BEGIN
 90
        0
 91
        1
 62
     0
 92
       -2
340
0
 93
        0
 40
1.125
309
GRIDFORMAT_END
 95
        8
302
GRIDFORMAT
  1
GRIDFORMAT_BEGIN
 90
        0
 91
        1
 62
     0
 92
       -2
340
0
 93
        0
 40
1.125
309
GRIDFORMAT_END
 95
       16
302
GRIDFORMAT
  1
GRIDFORMAT_BEGIN
 90
        0
 91
        1
 62
     0
 92
       -2
340
0
 93
        0
 40
1.125
309
GRIDFORMAT_END
 95
       32
302
GRIDFORMAT
  1
GRIDFORMAT_BEGIN
 90
        0
 91
        1
 62
     0
 92
       -2
340
0
 93
        0
 40
1.125
309
GRIDFORMAT_END
309
TABLEFORMAT_END
  1
CELLSTYLE_BEGIN
 90
        3
 91
        2
300
_DATA
309
CELLSTYLE_END
  0
XRECORD
  5
AF2
102
{ACAD_REACTORS
330
AC7
102
}
330
AC7
100
AcDbXrecord
280
     1
102
ACAD_ROUNDTRIP_PRE2007_TABLESTYLE
 90
      512
 91
        0
  1

 92
      512
 93
        0
  2

 94
      512
 95
        0
  3

  0
ENDSEC
  0
EOF
