  0
SECTION
  2
HEADER
  9
$ACADVER
  1
AC1015
  9
$ACADMAINTVER
 70
    20
  9
$DWGCODEPAGE
  3
ANSI_1250
  9
$INSBASE
 10
0.0
 20
0.0
 30
0.0
  9
$EXTMIN
 10
-1723.686057590853
 20
1963.958642828419
 30
0.0
  9
$EXTMAX
 10
3283.878602663023
 20
4849.480727594198
 30
0.0
  9
$LIMMIN
 10
0.0
 20
0.0
  9
$LIMMAX
 10
420.0
 20
297.0
  9
$ORTHOMODE
 70
     1
  9
$REGENMODE
 70
     1
  9
$FILLMODE
 70
     1
  9
$QTEXTMODE
 70
     0
  9
$MIRRTEXT
 70
     0
  9
$LTSCALE
 40
1.0
  9
$ATTMODE
 70
     1
  9
$TEXTSIZE
 40
2.5
  9
$TRACEWID
 40
1.0
  9
$TEXTSTYLE
  7
Standard
  9
$CLAYER
  8
wymiary
  9
$CELTYPE
  6
ByLayer
  9
$CECOLOR
 62
   256
  9
$CELTSCALE
 40
1.0
  9
$DISPSILH
 70
     0
  9
$DIMSCALE
 40
1.0
  9
$DIMASZ
 40
20.0
  9
$DIMEXO
 40
0.0
  9
$DIMDLI
 40
3.75
  9
$DIMRND
 40
0.0
  9
$DIMDLE
 40
0.0
  9
$DIMEXE
 40
0.0
  9
$DIMTP
 40
0.0
  9
$DIMTM
 40
0.0
  9
$DIMTXT
 40
15.0
  9
$DIMCEN
 40
2.5
  9
$DIMTSZ
 40
0.0
  9
$DIMTOL
 70
     0
  9
$DIMLIM
 70
     0
  9
$DIMTIH
 70
     0
  9
$DIMTOH
 70
     0
  9
$DIMSE1
 70
     0
  9
$DIMSE2
 70
     0
  9
$DIMTAD
 70
     1
  9
$DIMZIN
 70
     8
  9
$DIMBLK
  1

  9
$DIMASO
 70
     1
  9
$DIMSHO
 70
     1
  9
$DIMPOST
  1

  9
$DIMAPOST
  1

  9
$DIMALT
 70
     0
  9
$DIMALTD
 70
     3
  9
$DIMALTF
 40
0.03937007874016
  9
$DIMLFAC
 40
1.0
  9
$DIMTOFL
 70
     1
  9
$DIMTVP
 40
0.0
  9
$DIMTIX
 70
     0
  9
$DIMSOXD
 70
     0
  9
$DIMSAH
 70
     0
  9
$DIMBLK1
  1

  9
$DIMBLK2
  1

  9
$DIMSTYLE
  2
Kopia ISO-25
  9
$DIMCLRD
 70
     0
  9
$DIMCLRE
 70
     0
  9
$DIMCLRT
 70
     0
  9
$DIMTFAC
 40
1.0
  9
$DIMGAP
 40
6.0
  9
$DIMJUST
 70
     0
  9
$DIMSD1
 70
     0
  9
$DIMSD2
 70
     0
  9
$DIMTOLJ
 70
     0
  9
$DIMTZIN
 70
     8
  9
$DIMALTZ
 70
     0
  9
$DIMALTTZ
 70
     0
  9
$DIMUPT
 70
     0
  9
$DIMDEC
 70
     2
  9
$DIMTDEC
 70
     2
  9
$DIMALTU
 70
     2
  9
$DIMALTTD
 70
     3
  9
$DIMTXSTY
  7
Standard
  9
$DIMAUNIT
 70
     0
  9
$DIMADEC
 70
     0
  9
$DIMALTRND
 40
0.0
  9
$DIMAZIN
 70
     0
  9
$DIMDSEP
 70
    44
  9
$DIMATFIT
 70
     3
  9
$DIMFRAC
 70
     0
  9
$DIMLDRBLK
  1

  9
$DIMLUNIT
 70
     2
  9
$DIMLWD
 70
    -2
  9
$DIMLWE
 70
    -1
  9
$DIMTMOVE
 70
     0
  9
$LUNITS
 70
     2
  9
$LUPREC
 70
     4
  9
$SKETCHINC
 40
1.0
  9
$FILLETRAD
 40
0.0
  9
$AUNITS
 70
     0
  9
$AUPREC
 70
     0
  9
$MENU
  1
.
  9
$ELEVATION
 40
0.0
  9
$PELEVATION
 40
0.0
  9
$THICKNESS
 40
0.0
  9
$LIMCHECK
 70
     0
  9
$CHAMFERA
 40
0.0
  9
$CHAMFERB
 40
0.0
  9
$CHAMFERC
 40
0.0
  9
$CHAMFERD
 40
0.0
  9
$SKPOLY
 70
     0
  9
$TDCREATE
 40
2453959.416956308
  9
$TDUCREATE
 40
2453959.375289641
  9
$TDUPDATE
 40
2456666.956518009
  9
$TDUUPDATE
 40
2456666.914851343
  9
$TDINDWG
 40
0.1680932176
  9
$TDUSRTIMER
 40
0.1680919444
  9
$USRTIMER
 70
     1
  9
$ANGBASE
 50
0.0
  9
$ANGDIR
 70
     0
  9
$PDMODE
 70
     0
  9
$PDSIZE
 40
0.0
  9
$PLINEWID
 40
0.0
  9
$SPLFRAME
 70
     0
  9
$SPLINETYPE
 70
     6
  9
$SPLINESEGS
 70
     8
  9
$HANDSEED
  5
C3B
  9
$SURFTAB1
 70
     6
  9
$SURFTAB2
 70
     6
  9
$SURFTYPE
 70
     6
  9
$SURFU
 70
     6
  9
$SURFV
 70
     6
  9
$UCSBASE
  2

  9
$UCSNAME
  2

  9
$UCSORG
 10
0.0
 20
0.0
 30
0.0
  9
$UCSXDIR
 10
1.0
 20
0.0
 30
0.0
  9
$UCSYDIR
 10
0.0
 20
1.0
 30
0.0
  9
$UCSORTHOREF
  2

  9
$UCSORTHOVIEW
 70
     0
  9
$UCSORGTOP
 10
0.0
 20
0.0
 30
0.0
  9
$UCSORGBOTTOM
 10
0.0
 20
0.0
 30
0.0
  9
$UCSORGLEFT
 10
0.0
 20
0.0
 30
0.0
  9
$UCSORGRIGHT
 10
0.0
 20
0.0
 30
0.0
  9
$UCSORGFRONT
 10
0.0
 20
0.0
 30
0.0
  9
$UCSORGBACK
 10
0.0
 20
0.0
 30
0.0
  9
$PUCSBASE
  2

  9
$PUCSNAME
  2

  9
$PUCSORG
 10
0.0
 20
0.0
 30
0.0
  9
$PUCSXDIR
 10
1.0
 20
0.0
 30
0.0
  9
$PUCSYDIR
 10
0.0
 20
1.0
 30
0.0
  9
$PUCSORTHOREF
  2

  9
$PUCSORTHOVIEW
 70
     0
  9
$PUCSORGTOP
 10
0.0
 20
0.0
 30
0.0
  9
$PUCSORGBOTTOM
 10
0.0
 20
0.0
 30
0.0
  9
$PUCSORGLEFT
 10
0.0
 20
0.0
 30
0.0
  9
$PUCSORGRIGHT
 10
0.0
 20
0.0
 30
0.0
  9
$PUCSORGFRONT
 10
0.0
 20
0.0
 30
0.0
  9
$PUCSORGBACK
 10
0.0
 20
0.0
 30
0.0
  9
$USERI1
 70
     0
  9
$USERI2
 70
     0
  9
$USERI3
 70
     0
  9
$USERI4
 70
     0
  9
$USERI5
 70
     0
  9
$USERR1
 40
0.0
  9
$USERR2
 40
0.0
  9
$USERR3
 40
0.0
  9
$USERR4
 40
0.0
  9
$USERR5
 40
0.0
  9
$WORLDVIEW
 70
     1
  9
$SHADEDGE
 70
     3
  9
$SHADEDIF
 70
    70
  9
$TILEMODE
 70
     1
  9
$MAXACTVP
 70
    64
  9
$PINSBASE
 10
0.0
 20
0.0
 30
0.0
  9
$PLIMCHECK
 70
     0
  9
$PEXTMIN
 10
0.0
 20
0.0
 30
0.0
  9
$PEXTMAX
 10
0.0
 20
0.0
 30
0.0
  9
$PLIMMIN
 10
0.0
 20
0.0
  9
$PLIMMAX
 10
12.0
 20
9.0
  9
$UNITMODE
 70
     0
  9
$VISRETAIN
 70
     1
  9
$PLINEGEN
 70
     0
  9
$PSLTSCALE
 70
     1
  9
$TREEDEPTH
 70
  3020
  9
$CMLSTYLE
  2
Standard
  9
$CMLJUST
 70
     0
  9
$CMLSCALE
 40
20.0
  9
$PROXYGRAPHICS
 70
     1
  9
$MEASUREMENT
 70
     1
  9
$CELWEIGHT
370
    -1
  9
$ENDCAPS
280
     0
  9
$JOINSTYLE
280
     0
  9
$LWDISPLAY
290
     0
  9
$INSUNITS
 70
     4
  9
$HYPERLINKBASE
  1

  9
$STYLESHEET
  1

  9
$XEDIT
290
     1
  9
$CEPSNTYPE
380
     0
  9
$PSTYLEMODE
290
     1
  9
$FINGERPRINTGUID
  2
{FDEAD578-A652-11D2-9A35-0060089B3A3F}
  9
$VERSIONGUID
  2
{B5DF6208-4F1C-4FAB-811F-9B6696003BAD}
  9
$EXTNAMES
290
     1
  9
$PSVPSCALE
 40
0.0
  9
$OLESTARTUP
290
     0
  0
ENDSEC
  0
SECTION
  2
CLASSES
  0
CLASS
  1
ACDBDICTIONARYWDFLT
  2
AcDbDictionaryWithDefault
  3
ObjectDBX Classes
 90
        0
280
     0
281
     0
  0
CLASS
  1
DICTIONARYVAR
  2
AcDbDictionaryVar
  3
ObjectDBX Classes
 90
        0
280
     0
281
     0
  0
CLASS
  1
DIMASSOC
  2
AcDbDimAssoc
  3
"AcDbDimAssoc|Product Desc:     AcDim ARX App For Dimension|Company:          Autodesk, Inc.|WEB Address:      www.autodesk.com"
 90
        0
280
     0
281
     0
  0
CLASS
  1
ACDBPLACEHOLDER
  2
AcDbPlaceHolder
  3
ObjectDBX Classes
 90
        0
280
     0
281
     0
  0
CLASS
  1
LAYOUT
  2
AcDbLayout
  3
ObjectDBX Classes
 90
        0
280
     0
281
     0
  0
CLASS
  1
MATERIAL
  2
AcDbMaterial
  3
ObjectDBX Classes
 90
     1153
280
     0
281
     0
  0
CLASS
  1
VISUALSTYLE
  2
AcDbVisualStyle
  3
ObjectDBX Classes
 90
     4095
280
     0
281
     0
  0
CLASS
  1
TABLESTYLE
  2
AcDbTableStyle
  3
ObjectDBX Classes
 90
     4095
280
     0
281
     0
  0
CLASS
  1
SCALE
  2
AcDbScale
  3
ObjectDBX Classes
 90
     1153
280
     0
281
     0
  0
CLASS
  1
MLEADERSTYLE
  2
AcDbMLeaderStyle
  3
ACDB_MLEADERSTYLE_CLASS
 90
     4095
280
     0
281
     0
  0
CLASS
  1
ACAD_EVALUATION_GRAPH
  2
AcDbEvalGraph
  3
ObjectDBX Classes
 90
     1153
280
     0
281
     0
  0
CLASS
  1
ACAECUSTOBJ
  2
AcAeEditorObj
  3
AcAeEditorObj
 90
     1024
280
     0
281
     0
  0
CLASS
  1
ACDB_DYNAMICBLOCKPURGEPREVENTER_VERSION
  2
AcDbDynamicBlockPurgePreventer
  3
ObjectDBX Classes
 90
     1153
280
     0
281
     0
  0
CLASS
  1
CELLSTYLEMAP
  2
AcDbCellStyleMap
  3
ObjectDBX Classes
 90
     1152
280
     0
281
     0
  0
ENDSEC
  0
SECTION
  2
TABLES
  0
TABLE
  2
VPORT
  5
8
330
0
100
AcDbSymbolTable
 70
     1
  0
VPORT
  5
7E0
330
8
100
AcDbSymbolTableRecord
100
AcDbViewportTableRecord
  2
*Active
 70
     0
 10
0.0
 20
0.0
 11
1.0
 21
1.0
 12
660.1063692790562
 22
3786.530286399292
 13
0.0
 23
0.0
 14
10.0
 24
10.0
 15
10.0
 25
10.0
 16
0.0
 26
0.0
 36
1.0
 17
0.0
 27
0.0
 37
0.0
 40
2793.137553352388
 41
1.797650130548302
 42
50.0
 43
0.0
 44
0.0
 50
0.0
 51
0.0
 71
     0
 72
  1000
 73
     1
 74
     3
 75
     0
 76
     0
 77
     0
 78
     0
281
     0
 65
     1
110
0.0
120
0.0
130
0.0
111
1.0
121
0.0
131
0.0
112
0.0
122
1.0
132
0.0
 79
     0
146
0.0
  0
ENDTAB
  0
TABLE
  2
LTYPE
  5
5
330
0
100
AcDbSymbolTable
 70
     2
  0
LTYPE
  5
14
330
5
100
AcDbSymbolTableRecord
100
AcDbLinetypeTableRecord
  2
ByBlock
 70
     0
  3

 72
    65
 73
     0
 40
0.0
  0
LTYPE
  5
15
330
5
100
AcDbSymbolTableRecord
100
AcDbLinetypeTableRecord
  2
ByLayer
 70
     0
  3

 72
    65
 73
     0
 40
0.0
  0
LTYPE
  5
16
330
5
100
AcDbSymbolTableRecord
100
AcDbLinetypeTableRecord
  2
Continuous
 70
     0
  3
Solid line
 72
    65
 73
     0
 40
0.0
  0
ENDTAB
  0
TABLE
  2
LAYER
  5
2
330
0
100
AcDbSymbolTable
 70
     4
  0
LAYER
  5
10
102
{ACAD_XDICTIONARY
360
8D9
102
}
330
2
100
AcDbSymbolTableRecord
100
AcDbLayerTableRecord
  2
0
 70
     0
 62
     7
  6
Continuous
370
    -3
390
F
  0
LAYER
  5
3CE
102
{ACAD_XDICTIONARY
360
8DB
102
}
330
2
100
AcDbSymbolTableRecord
100
AcDbLayerTableRecord
  2
wymiary
 70
     0
 62
     1
  6
Continuous
370
    -3
390
F
  0
LAYER
  5
3CF
102
{ACAD_XDICTIONARY
360
8DD
102
}
330
2
100
AcDbSymbolTableRecord
100
AcDbLayerTableRecord
  2
Cenrala
 70
     0
 62
     7
  6
Continuous
370
    -3
390
F
  0
LAYER
  5
4D3
330
2
100
AcDbSymbolTableRecord
100
AcDbLayerTableRecord
  2
Defpoints
 70
     0
 62
     7
  6
Continuous
290
     0
370
    -3
390
F
  0
ENDTAB
  0
TABLE
  2
STYLE
  5
3
330
0
100
AcDbSymbolTable
 70
     1
  0
STYLE
  5
11
330
3
100
AcDbSymbolTableRecord
100
AcDbTextStyleTableRecord
  2
Standard
 70
     0
 40
0.0
 41
1.0
 50
0.0
 71
     0
 42
2.5
  3
txt
  4

  0
ENDTAB
  0
TABLE
  2
VIEW
  5
6
330
0
100
AcDbSymbolTable
 70
     0
  0
ENDTAB
  0
TABLE
  2
UCS
  5
7
330
0
100
AcDbSymbolTable
 70
     0
  0
ENDTAB
  0
TABLE
  2
APPID
  5
9
330
0
100
AcDbSymbolTable
 70
     7
  0
APPID
  5
12
330
9
100
AcDbSymbolTableRecord
100
AcDbRegAppTableRecord
  2
ACAD
 70
     0
  0
APPID
  5
830
330
9
100
AcDbSymbolTableRecord
100
AcDbRegAppTableRecord
  2
ACAD_MLEADERVER
 70
     0
  0
APPID
  5
84F
330
9
100
AcDbSymbolTableRecord
100
AcDbRegAppTableRecord
  2
ACAUTHENVIRON
 70
     0
  0
APPID
  5
854
330
9
100
AcDbSymbolTableRecord
100
AcDbRegAppTableRecord
  2
ACAD_EXEMPT_FROM_CAD_STANDARDS
 70
     0
  0
APPID
  5
85A
330
9
100
AcDbSymbolTableRecord
100
AcDbRegAppTableRecord
  2
AcDbDynamicBlockTrueName
 70
     0
  0
APPID
  5
85B
330
9
100
AcDbSymbolTableRecord
100
AcDbRegAppTableRecord
  2
AcDbDynamicBlockGUID
 70
     0
  0
APPID
  5
85D
330
9
100
AcDbSymbolTableRecord
100
AcDbRegAppTableRecord
  2
AcDbBlockRepETag
 70
     0
  0
ENDTAB
  0
TABLE
  2
DIMSTYLE
  5
A
330
0
100
AcDbSymbolTable
 70
     3
100
AcDbDimStyleTable
 71
     2
340
3D0
340
27
  0
DIMSTYLE
105
27
330
A
100
AcDbSymbolTableRecord
100
AcDbDimStyleTableRecord
  2
ISO-25
 70
     0
 41
2.5
 42
0.625
 43
3.75
 44
1.25
 73
     0
 74
     0
 77
     1
 78
     8
140
2.5
141
2.5
143
0.03937007874016
147
0.625
171
     3
172
     1
271
     2
272
     2
274
     3
278
    44
283
     0
284
     8
340
11
  0
DIMSTYLE
105
3D0
102
{ACAD_REACTORS
330
500
330
501
330
502
330
6B6
330
6CA
330
6DE
330
6F2
330
709
330
706
330
72E
330
742
330
756
330
766
330
776
330
786
102
}
330
A
100
AcDbSymbolTableRecord
100
AcDbDimStyleTableRecord
  2
Kopia ISO-25
 70
     0
 41
20.0
 42
0.0
 43
3.75
 44
0.0
 73
     0
 74
     0
 77
     1
 78
     8
140
15.0
141
2.5
143
0.03937007874016
147
6.0
171
     3
172
     1
271
     2
272
     2
274
     3
278
    44
283
     0
284
     8
340
11
372
    -1
  0
ENDTAB
  0
TABLE
  2
BLOCK_RECORD
  5
1
330
0
100
AcDbSymbolTable
 70
    57
  0
BLOCK_RECORD
  5
1F
330
1
100
AcDbSymbolTableRecord
100
AcDbBlockTableRecord
  2
*Model_Space
340
22
  0
BLOCK_RECORD
  5
50
330
1
100
AcDbSymbolTableRecord
100
AcDbBlockTableRecord
  2
*Paper_Space
340
51
  0
BLOCK_RECORD
  5
55
330
1
100
AcDbSymbolTableRecord
100
AcDbBlockTableRecord
  2
*Paper_Space0
340
56
  0
BLOCK_RECORD
  5
E2
330
1
100
AcDbSymbolTableRecord
100
AcDbBlockTableRecord
  2
A$C012D247B
340
0
  0
BLOCK_RECORD
  5
214
330
1
100
AcDbSymbolTableRecord
100
AcDbBlockTableRecord
  2
A$C7187238A
340
0
  0
BLOCK_RECORD
  5
34A
330
1
100
AcDbSymbolTableRecord
100
AcDbBlockTableRecord
  2
A$C0F214DF5
340
0
  0
BLOCK_RECORD
  5
3DB
102
{ACAD_XDICTIONARY
360
850
102
}
330
1
100
AcDbSymbolTableRecord
100
AcDbBlockTableRecord
  2
2000BSR_f
340
0
310
2800000020000000200000000100080000000000000400000000000000000000000000000000000000000000000080000080000000808000800000008000800080800000C0C0C000C0DCC000F0CAA6000020400000206000002080000020A0000020C0000020E00000400000004020000040400000406000004080000040A0
310
000040C0000040E00000600000006020000060400000606000006080000060A0000060C0000060E00000800000008020000080400000806000008080000080A0000080C0000080E00000A0000000A0200000A0400000A0600000A0800000A0A00000A0C00000A0E00000C0000000C0200000C0400000C0600000C0800000C0
310
A00000C0C00000C0E00000E0000000E0200000E0400000E0600000E0800000E0A00000E0C00000E0E00040000000400020004000400040006000400080004000A0004000C0004000E00040200000402020004020400040206000402080004020A0004020C0004020E000404000004040200040404000404060004040800040
310
40A0004040C0004040E00040600000406020004060400040606000406080004060A0004060C0004060E00040800000408020004080400040806000408080004080A0004080C0004080E00040A0000040A0200040A0400040A0600040A0800040A0A00040A0C00040A0E00040C0000040C0200040C0400040C0600040C08000
310
40C0A00040C0C00040C0E00040E0000040E0200040E0400040E0600040E0800040E0A00040E0C00040E0E00080000000800020008000400080006000800080008000A0008000C0008000E00080200000802020008020400080206000802080008020A0008020C0008020E00080400000804020008040400080406000804080
310
008040A0008040C0008040E00080600000806020008060400080606000806080008060A0008060C0008060E00080800000808020008080400080806000808080008080A0008080C0008080E00080A0000080A0200080A0400080A0600080A0800080A0A00080A0C00080A0E00080C0000080C0200080C0400080C0600080C0
310
800080C0A00080C0C00080C0E00080E0000080E0200080E0400080E0600080E0800080E0A00080E0C00080E0E000C0000000C0002000C0004000C0006000C0008000C000A000C000C000C000E000C0200000C0202000C0204000C0206000C0208000C020A000C020C000C020E000C0400000C0402000C0404000C0406000C0
310
408000C040A000C040C000C040E000C0600000C0602000C0604000C0606000C0608000C060A000C060C000C060E000C0800000C0802000C0804000C0806000C0808000C080A000C080C000C080E000C0A00000C0A02000C0A04000C0A06000C0A08000C0A0A000C0A0C000C0A0E000C0C00000C0C02000C0C04000C0C06000
310
C0C08000C0C0A000F0FBFF00A4A0A000808080000000FF0000FF000000FFFF00FF000000FF00FF00FFFF0000FFFFFF0000000000000000000000000000000000000000000000000000000000000000000000000000000000000000000000000000000000000000000000000000000000000000000000000000000000000000
310
0000000000000000000000000000000000000000000000000000000000000000000000000000000000000000000000000000000000000000000000000000000000000000000000000000000000000000000000FFFFFFFFFFFFFFFFFFFFFFFFFFFFFFFFFFFFFFFFFFFFFFFFFFFFFFFF00000000FF0000000000000000000000
310
000000000000000000FFFFFFFFFFFFFFFF0000FFFF0000000000000000000000000000000000000000FFFFFFFFFFFFFFFF0000FFFF0000000000000000FFFFFFFFFFFFFFFFFFFFFFFFFFFFFF000000FFFF0000FFFF0000000000000000FFFF0000000000000000000000FFFF000000FFFF0000FFFF0000000000000000FF00
310
000000000000000000000000FF000000FFFF0000FFFF0000000000000000FF00000000000000000000000000FF000000FFFF0000FFFF0000000000000000FF00000000000000000000000000FF000000FFFF0000FFFF0000000000000000FF00000000000000000000000000FF000000FFFF0000FFFF0000000000000000FF
310
00000000000000000000000000FF000000FFFF0000FFFF0000000000000000FF00000000FFFFFFFFFF000000FFFF000000FFFF0000FFFF00FFFFFF00000000FF00000000FFFFFFFFFF00000000FFFFFF00FFFF0000FFFF00FFFFFF00000000FFFF000000000000000000000000FFFFFF00FFFF0000FFFF00FF00FF00000000
310
FF00000000000000000000000000FF00FF00FFFF0000FFFF00FF00FF00000000FF00000000000000000000000000FF00FF00FFFF0000FFFF00FF00FF00000000FF00000000000000000000000000FF00FF00FFFF0000FFFF00FF00FF00000000FF00000000000000000000000000FF00FF00FFFF0000FFFF00FF00FF000000
310
00FF00000000000000000000000000FF00FF00FFFF0000FFFF00FF00FF00000000FFFF0000000000000000000000FFFF00FF00FFFF0000FFFF00FFFFFF00000000FFFFFFFFFFFFFFFFFFFFFFFFFFFFFFFFFF00FFFF0000FFFF00FFFFFF000000000000000000000000000000000000FFFFFF00FFFF000000FFFFFFFFFFFFFF
310
FFFFFFFFFFFFFFFFFFFFFFFFFFFFFFFFFFFFFFFFFF00000000000000000000000000000000000000000000000000000000000000000000000000000000000000000000000000000000000000000000000000000000000000000000000000000000000000000000000000000000000000000000000000000000000000000000
310
0000000000000000000000000000000000000000000000000000000000000000000000000000000000000000000000000000000000000000
102
{BLKREFS
331
3F7
102
}
1001
AcDbDynamicBlockGUID
1000
{0138E93E-1BE6-4ACF-B144-4DBD35B1F6BB}
1001
AcDbBlockRepETag
1070
     1
1071
       23
1001
ACAD
1000
DesignCenter Data
1002
{
1070
     1
1070
     4
1002
}
  0
BLOCK_RECORD
  5
3F8
102
{ACAD_XDICTIONARY
360
BC3
102
}
330
1
100
AcDbSymbolTableRecord
100
AcDbBlockTableRecord
  2
2000BSR_g
340
0
310
2800000020000000200000000100080000000000000400000000000000000000000000000000000000000000000080000080000000808000800000008000800080800000C0C0C000C0DCC000F0CAA6000020400000206000002080000020A0000020C0000020E00000400000004020000040400000406000004080000040A0
310
000040C0000040E00000600000006020000060400000606000006080000060A0000060C0000060E00000800000008020000080400000806000008080000080A0000080C0000080E00000A0000000A0200000A0400000A0600000A0800000A0A00000A0C00000A0E00000C0000000C0200000C0400000C0600000C0800000C0
310
A00000C0C00000C0E00000E0000000E0200000E0400000E0600000E0800000E0A00000E0C00000E0E00040000000400020004000400040006000400080004000A0004000C0004000E00040200000402020004020400040206000402080004020A0004020C0004020E000404000004040200040404000404060004040800040
310
40A0004040C0004040E00040600000406020004060400040606000406080004060A0004060C0004060E00040800000408020004080400040806000408080004080A0004080C0004080E00040A0000040A0200040A0400040A0600040A0800040A0A00040A0C00040A0E00040C0000040C0200040C0400040C0600040C08000
310
40C0A00040C0C00040C0E00040E0000040E0200040E0400040E0600040E0800040E0A00040E0C00040E0E00080000000800020008000400080006000800080008000A0008000C0008000E00080200000802020008020400080206000802080008020A0008020C0008020E00080400000804020008040400080406000804080
310
008040A0008040C0008040E00080600000806020008060400080606000806080008060A0008060C0008060E00080800000808020008080400080806000808080008080A0008080C0008080E00080A0000080A0200080A0400080A0600080A0800080A0A00080A0C00080A0E00080C0000080C0200080C0400080C0600080C0
310
800080C0A00080C0C00080C0E00080E0000080E0200080E0400080E0600080E0800080E0A00080E0C00080E0E000C0000000C0002000C0004000C0006000C0008000C000A000C000C000C000E000C0200000C0202000C0204000C0206000C0208000C020A000C020C000C020E000C0400000C0402000C0404000C0406000C0
310
408000C040A000C040C000C040E000C0600000C0602000C0604000C0606000C0608000C060A000C060C000C060E000C0800000C0802000C0804000C0806000C0808000C080A000C080C000C080E000C0A00000C0A02000C0A04000C0A06000C0A08000C0A0A000C0A0C000C0A0E000C0C00000C0C02000C0C04000C0C06000
310
C0C08000C0C0A000F0FBFF00A4A0A000808080000000FF0000FF000000FFFF00FF000000FF00FF00FFFF0000FFFFFF0000000000000000000000000000000000000000000000000000000000000000000000000000000000000000000000000000000000000000000000000000000000000000000000000000000000000000
310
00000000000000000000000000000000000000000000000000000000000000000000000000000000000000000000000000000000000000000000000000000000000000000000000000000000000000000000000000000000000000000000000000000000000000000000000000000000000000000000000000000000000000
310
00000000000000000000000000000000000000000000FFFFFF00000000FFFFFFFFFFFFFFFFFFFFFFFFFFFFFFFFFF000000000000FFFFFFFFFFFFFFFFFFFFFFFFFFFFFFFFFFFFFFFFFFFFFFFFFFFFFFFF00000000FF0000000000000000000000000000000000000000000000000000FF000000FFFF00000000000000000000
310
00000000000000000000000000000000FFFF0000FFFF0000000000000000000000000000000000000000000000000000FFFF0000FFFF0000000000000000000000000000000000000000000000000000FFFF0000FFFF0000000000000000000000000000000000000000000000000000FFFF0000FFFF000000000000000000
310
0000000000000000000000000000000000FFFF0000FFFF0000000000000000000000000000000000000000000000000000FFFF0000FFFF0000000000000000000000000000000000000000000000000000FFFF0000FFFF0000000000000000000000000000000000000000000000000000FFFF0000FFFF0000000000000000
310
000000000000000000000000000000000000FFFF0000FFFF0000000000000000000000000000000000000000000000000000FFFF0000FFFF0000000000000000000000000000000000000000000000000000FFFF0000FFFF0000000000000000000000000000000000000000000000000000FFFF0000FFFF00000000000000
310
00000000000000000000000000000000000000FFFF000000FF0000000000000000000000000000000000000000000000000000FF00000000FFFFFFFFFFFFFFFFFFFFFFFFFFFFFFFFFFFFFFFFFFFFFFFFFFFFFFFF00000000000000000000000000000000000000000000000000000000000000000000000000000000000000
310
00000000000000000000000000000000000000000000000000000000000000000000000000000000000000000000000000000000000000000000000000000000000000000000000000000000000000000000000000000000000000000000000000000000000000000000000000000000000000000000000000000000000000
310
0000000000000000000000000000000000000000000000000000000000000000000000000000000000000000000000000000000000000000
102
{BLKREFS
331
40A
102
}
1001
AcDbDynamicBlockGUID
1000
{CE86ED5A-6990-43D6-943A-3B2C4EEA912E}
1001
AcDbBlockRepETag
1070
     1
1071
       14
1001
ACAD
1000
DesignCenter Data
1002
{
1070
     1
1070
     4
1002
}
  0
BLOCK_RECORD
  5
40B
102
{ACAD_XDICTIONARY
360
BDC
102
}
330
1
100
AcDbSymbolTableRecord
100
AcDbBlockTableRecord
  2
2000BSR_l
340
0
310
2800000020000000200000000100080000000000000400000000000000000000000000000000000000000000000080000080000000808000800000008000800080800000C0C0C000C0DCC000F0CAA6000020400000206000002080000020A0000020C0000020E00000400000004020000040400000406000004080000040A0
310
000040C0000040E00000600000006020000060400000606000006080000060A0000060C0000060E00000800000008020000080400000806000008080000080A0000080C0000080E00000A0000000A0200000A0400000A0600000A0800000A0A00000A0C00000A0E00000C0000000C0200000C0400000C0600000C0800000C0
310
A00000C0C00000C0E00000E0000000E0200000E0400000E0600000E0800000E0A00000E0C00000E0E00040000000400020004000400040006000400080004000A0004000C0004000E00040200000402020004020400040206000402080004020A0004020C0004020E000404000004040200040404000404060004040800040
310
40A0004040C0004040E00040600000406020004060400040606000406080004060A0004060C0004060E00040800000408020004080400040806000408080004080A0004080C0004080E00040A0000040A0200040A0400040A0600040A0800040A0A00040A0C00040A0E00040C0000040C0200040C0400040C0600040C08000
310
40C0A00040C0C00040C0E00040E0000040E0200040E0400040E0600040E0800040E0A00040E0C00040E0E00080000000800020008000400080006000800080008000A0008000C0008000E00080200000802020008020400080206000802080008020A0008020C0008020E00080400000804020008040400080406000804080
310
008040A0008040C0008040E00080600000806020008060400080606000806080008060A0008060C0008060E00080800000808020008080400080806000808080008080A0008080C0008080E00080A0000080A0200080A0400080A0600080A0800080A0A00080A0C00080A0E00080C0000080C0200080C0400080C0600080C0
310
800080C0A00080C0C00080C0E00080E0000080E0200080E0400080E0600080E0800080E0A00080E0C00080E0E000C0000000C0002000C0004000C0006000C0008000C000A000C000C000C000E000C0200000C0202000C0204000C0206000C0208000C020A000C020C000C020E000C0400000C0402000C0404000C0406000C0
310
408000C040A000C040C000C040E000C0600000C0602000C0604000C0606000C0608000C060A000C060C000C060E000C0800000C0802000C0804000C0806000C0808000C080A000C080C000C080E000C0A00000C0A02000C0A04000C0A06000C0A08000C0A0A000C0A0C000C0A0E000C0C00000C0C02000C0C04000C0C06000
310
C0C08000C0C0A000F0FBFF00A4A0A000808080000000FF0000FF000000FFFF00FF000000FF00FF00FFFF0000FFFFFF0000000000000000000000000000000000000000000000000000000000000000000000000000FFFF000000000000000000000000000000000000FFFF000000000000000000FFFFFFFFFFFFFFFFFFFFFF
310
FFFFFFFFFFFFFFFFFFFFFFFF000000000000000000FF00000000000000000000000000000000000000FFFFFF000000000000000000FF0000000000FFFFFFFFFF000000000000000000FFFFFF000000000000000000FF00000000FF0000000000FFFF000000000000000000FF000000000000000000FF000000FF0000000000
310
000000FF0000000000000000FFFF0000000000000000FF0000FF000000000000000000FFFF00000000000000FFFF0000000000000000FF0000FF00000000000000000000FF00000000000000FF000000000000000000FF00FFFFFFFFFFFFFFFFFFFFFFFFFF00000000000000FF000000000000000000FF00FFFF00000000FF
310
00000000FFFF00000000000000FF000000000000000000FF00FFFF000000000000000000FFFF00000000000000FF000000000000000000FF0000FFFFFFFFFFFFFFFFFFFFFFFF00000000000000FF000000000000000000FF0000FF000000000000000000FFFF00000000000000FF000000000000000000FF000000FFFF0000
310
00000000FFFF0000000000000000FF000000000000000000FF00000000FFFF000000FFFFFFFFFF00000000000000FFFF0000000000000000FF000000000000FFFFFFFFFF00FF00FFFF0000000000FF000000000000000000FF00000000000000FFFFFFFFFFFFFFFFFFFFFF000000FFFF0000000000000000FF000000000000
310
FF00FF00000000000000FF00FF0000FFFF0000000000000000FF000000000000FFFFFF0000000000000000FF00FF00FF000000000000000000FF0000000000FF00FF00000000000000000000FFFF00FF000000000000000000FF0000000000FFFF0000000000000000000000FFFF00FF000000000000000000FF0000000000
310
FFFF0000000000000000000000FFFF00FF000000000000000000FF0000000000FFFF0000000000000000000000FFFF00FF000000000000000000FF0000000000FF00FF00000000000000000000FFFF00FF000000000000000000FF0000000000FF00FF000000000000000000FF00FF00FFFF0000000000000000FF00000000
310
0000FF00FF0000000000000000FF00FF00FFFF0000000000000000FF000000000000FFFFFFFF0000000000FFFFFFFF0000FFFF0000000000000000FF0000000000000000FFFFFFFFFFFFFFFFFF00000000FFFF0000000000000000FFFFFFFFFFFFFFFFFFFFFFFFFF0000FFFFFFFFFFFFFFFF00000000000000000000000000
310
0000000000000000FFFFFF000000000000000000000000000000000000000000000000000000000000000000000000000000000000000000
102
{BLKREFS
331
422
102
}
1001
AcDbDynamicBlockGUID
1000
{7ED4357B-8FA4-45A1-9EF2-33DBC3CE9683}
1001
AcDbBlockRepETag
1070
     1
1071
       18
1001
ACAD
1000
DesignCenter Data
1002
{
1070
     1
1070
     4
1002
}
  0
BLOCK_RECORD
  5
423
102
{ACAD_XDICTIONARY
360
C0D
102
}
330
1
100
AcDbSymbolTableRecord
100
AcDbBlockTableRecord
  2
2000BSR_p
340
0
310
2800000020000000200000000100080000000000000400000000000000000000000000000000000000000000000080000080000000808000800000008000800080800000C0C0C000C0DCC000F0CAA6000020400000206000002080000020A0000020C0000020E00000400000004020000040400000406000004080000040A0
310
000040C0000040E00000600000006020000060400000606000006080000060A0000060C0000060E00000800000008020000080400000806000008080000080A0000080C0000080E00000A0000000A0200000A0400000A0600000A0800000A0A00000A0C00000A0E00000C0000000C0200000C0400000C0600000C0800000C0
310
A00000C0C00000C0E00000E0000000E0200000E0400000E0600000E0800000E0A00000E0C00000E0E00040000000400020004000400040006000400080004000A0004000C0004000E00040200000402020004020400040206000402080004020A0004020C0004020E000404000004040200040404000404060004040800040
310
40A0004040C0004040E00040600000406020004060400040606000406080004060A0004060C0004060E00040800000408020004080400040806000408080004080A0004080C0004080E00040A0000040A0200040A0400040A0600040A0800040A0A00040A0C00040A0E00040C0000040C0200040C0400040C0600040C08000
310
40C0A00040C0C00040C0E00040E0000040E0200040E0400040E0600040E0800040E0A00040E0C00040E0E00080000000800020008000400080006000800080008000A0008000C0008000E00080200000802020008020400080206000802080008020A0008020C0008020E00080400000804020008040400080406000804080
310
008040A0008040C0008040E00080600000806020008060400080606000806080008060A0008060C0008060E00080800000808020008080400080806000808080008080A0008080C0008080E00080A0000080A0200080A0400080A0600080A0800080A0A00080A0C00080A0E00080C0000080C0200080C0400080C0600080C0
310
800080C0A00080C0C00080C0E00080E0000080E0200080E0400080E0600080E0800080E0A00080E0C00080E0E000C0000000C0002000C0004000C0006000C0008000C000A000C000C000C000E000C0200000C0202000C0204000C0206000C0208000C020A000C020C000C020E000C0400000C0402000C0404000C0406000C0
310
408000C040A000C040C000C040E000C0600000C0602000C0604000C0606000C0608000C060A000C060C000C060E000C0800000C0802000C0804000C0806000C0808000C080A000C080C000C080E000C0A00000C0A02000C0A04000C0A06000C0A08000C0A0A000C0A0C000C0A0E000C0C00000C0C02000C0C04000C0C06000
310
C0C08000C0C0A000F0FBFF00A4A0A000808080000000FF0000FF000000FFFF00FF000000FF00FF00FFFF0000FFFFFF0000000000000000000000000000000000000000000000000000000000000000000000000000FFFF000000000000000000000000000000000000FFFF00000000000000000000FFFFFFFFFFFFFFFFFFFF
310
FFFFFFFFFFFFFFFFFFFFFFFFFF000000000000000000FF0000000000000000000000FFFFFFFF0000000000FFFF000000000000000000FF00000000000000000000FFFF000000FFFF00000000FF000000000000000000FF0000000000000000FFFF000000000000FFFF000000FF0000000000000000FFFF00000000000000FF
310
00000000000000000000FF0000FF0000000000000000FFFF00000000000000FF00000000000000000000FF0000FF000000000000000000FF00000000000000FF00000000000000000000FF0000FF000000000000000000FF00000000000000FFFFFFFFFFFFFFFFFFFFFFFFFF00FF000000000000000000FF00000000000000
310
FFFF00000000FF00000000FF0000FF000000000000000000FF00000000000000FFFF000000000000000000FF0000FF000000000000000000FF00000000000000FFFFFFFFFFFFFFFFFFFFFFFF0000FF000000000000000000FF0000000000000000FF0000000000000000FF000000FF000000000000000000FF000000000000
310
000000FFFF00000000FFFF00000000FF0000000000000000FFFF00000000000000000000FFFFFFFFFFFF0000000000FF000000000000000000FF000000000000000000000000000000000000000000FF0000000000000000FFFF0000000000FFFFFFFFFFFFFF000000000000000000FF0000000000000000FFFF00000000FF
310
00FFFFFFFFFF00FF0000000000000000FF000000000000000000FF000000FFFFFF00000000FFFFFF0000000000000000FF000000000000000000FF0000FFFFFF00000000000000FFFF00000000000000FF000000000000000000FF0000FFFF0000000000000000FF00FF000000000000FF000000000000000000FF0000FFFF
310
0000000000000000FF00FF000000000000FF000000000000000000FF0000FFFF0000000000000000FFFFFF000000000000FF000000000000000000FF0000FFFF0000000000000000FF00FF000000000000FF000000000000000000FF0000FFFFFF00000000000000FFFF00000000000000FF0000000000000000FFFF000000
310
FFFFFF00000000FFFFFFFF00000000000000FF0000000000000000FFFF00000000FF00FFFFFFFFFF00FF0000000000000000FF0000000000000000FFFF0000000000FFFFFFFFFFFFFF000000000000000000FF000000000000000000FF000000000000000000000000000000000000000000FF000000000000000000FFFFFF
310
FFFFFFFFFFFFFFFFFFFFFFFFFFFFFFFFFFFFFFFF000000000000000000000000000000000000000000000000000000000000000000000000
102
{BLKREFS
331
43A
102
}
1001
AcDbDynamicBlockGUID
1000
{0101AA92-3E20-440A-A62F-8DC0CB2E56A7}
1001
AcDbBlockRepETag
1070
     1
1071
       18
1001
ACAD
1000
DesignCenter Data
1002
{
1070
     1
1070
     4
1002
}
  0
BLOCK_RECORD
  5
43B
330
1
100
AcDbSymbolTableRecord
100
AcDbBlockTableRecord
  2
*D8
340
0
  0
BLOCK_RECORD
  5
445
330
1
100
AcDbSymbolTableRecord
100
AcDbBlockTableRecord
  2
*D9
340
0
  0
BLOCK_RECORD
  5
44F
330
1
100
AcDbSymbolTableRecord
100
AcDbBlockTableRecord
  2
*D10
340
0
  0
BLOCK_RECORD
  5
459
330
1
100
AcDbSymbolTableRecord
100
AcDbBlockTableRecord
  2
*D11
340
0
  0
BLOCK_RECORD
  5
463
330
1
100
AcDbSymbolTableRecord
100
AcDbBlockTableRecord
  2
*D12
340
0
  0
BLOCK_RECORD
  5
46F
330
1
100
AcDbSymbolTableRecord
100
AcDbBlockTableRecord
  2
*D13
340
0
  0
BLOCK_RECORD
  5
47B
330
1
100
AcDbSymbolTableRecord
100
AcDbBlockTableRecord
  2
*D14
340
0
  0
BLOCK_RECORD
  5
487
330
1
100
AcDbSymbolTableRecord
100
AcDbBlockTableRecord
  2
*D15
340
0
  0
BLOCK_RECORD
  5
491
330
1
100
AcDbSymbolTableRecord
100
AcDbBlockTableRecord
  2
*D16
340
0
  0
BLOCK_RECORD
  5
49B
330
1
100
AcDbSymbolTableRecord
100
AcDbBlockTableRecord
  2
*D17
340
0
  0
BLOCK_RECORD
  5
4A5
330
1
100
AcDbSymbolTableRecord
100
AcDbBlockTableRecord
  2
*D18
340
0
  0
BLOCK_RECORD
  5
4AF
330
1
100
AcDbSymbolTableRecord
100
AcDbBlockTableRecord
  2
*D19
340
0
  0
BLOCK_RECORD
  5
4B8
330
1
100
AcDbSymbolTableRecord
100
AcDbBlockTableRecord
  2
*D20
340
0
  0
BLOCK_RECORD
  5
4C1
330
1
100
AcDbSymbolTableRecord
100
AcDbBlockTableRecord
  2
*D21
340
0
  0
BLOCK_RECORD
  5
4CA
330
1
100
AcDbSymbolTableRecord
100
AcDbBlockTableRecord
  2
*D22
340
0
  0
BLOCK_RECORD
  5
510
330
1
100
AcDbSymbolTableRecord
100
AcDbBlockTableRecord
  2
*D23
340
0
  0
BLOCK_RECORD
  5
519
330
1
100
AcDbSymbolTableRecord
100
AcDbBlockTableRecord
  2
*D24
340
0
  0
BLOCK_RECORD
  5
522
330
1
100
AcDbSymbolTableRecord
100
AcDbBlockTableRecord
  2
*D25
340
0
  0
BLOCK_RECORD
  5
52B
330
1
100
AcDbSymbolTableRecord
100
AcDbBlockTableRecord
  2
*D26
340
0
  0
BLOCK_RECORD
  5
534
330
1
100
AcDbSymbolTableRecord
100
AcDbBlockTableRecord
  2
*D27
340
0
  0
BLOCK_RECORD
  5
53E
330
1
100
AcDbSymbolTableRecord
100
AcDbBlockTableRecord
  2
*D28
340
0
  0
BLOCK_RECORD
  5
548
330
1
100
AcDbSymbolTableRecord
100
AcDbBlockTableRecord
  2
*D29
340
0
  0
BLOCK_RECORD
  5
552
330
1
100
AcDbSymbolTableRecord
100
AcDbBlockTableRecord
  2
*D30
340
0
  0
BLOCK_RECORD
  5
55C
330
1
100
AcDbSymbolTableRecord
100
AcDbBlockTableRecord
  2
*D31
340
0
  0
BLOCK_RECORD
  5
566
330
1
100
AcDbSymbolTableRecord
100
AcDbBlockTableRecord
  2
*D32
340
0
  0
BLOCK_RECORD
  5
570
330
1
100
AcDbSymbolTableRecord
100
AcDbBlockTableRecord
  2
*D33
340
0
  0
BLOCK_RECORD
  5
57A
330
1
100
AcDbSymbolTableRecord
100
AcDbBlockTableRecord
  2
*D34
340
0
  0
BLOCK_RECORD
  5
584
330
1
100
AcDbSymbolTableRecord
100
AcDbBlockTableRecord
  2
*D35
340
0
  0
BLOCK_RECORD
  5
590
330
1
100
AcDbSymbolTableRecord
100
AcDbBlockTableRecord
  2
*D36
340
0
  0
BLOCK_RECORD
  5
59C
330
1
100
AcDbSymbolTableRecord
100
AcDbBlockTableRecord
  2
*D37
340
0
  0
BLOCK_RECORD
  5
67F
330
1
100
AcDbSymbolTableRecord
100
AcDbBlockTableRecord
  2
*D38
340
0
  0
BLOCK_RECORD
  5
6B7
330
1
100
AcDbSymbolTableRecord
100
AcDbBlockTableRecord
  2
*D39
340
0
  0
BLOCK_RECORD
  5
6CB
330
1
100
AcDbSymbolTableRecord
100
AcDbBlockTableRecord
  2
*D40
340
0
  0
BLOCK_RECORD
  5
6DF
330
1
100
AcDbSymbolTableRecord
100
AcDbBlockTableRecord
  2
*D41
340
0
  0
BLOCK_RECORD
  5
6F3
330
1
100
AcDbSymbolTableRecord
100
AcDbBlockTableRecord
  2
*D42
340
0
  0
BLOCK_RECORD
  5
70C
330
1
100
AcDbSymbolTableRecord
100
AcDbBlockTableRecord
  2
*D43
340
0
  0
BLOCK_RECORD
  5
716
330
1
100
AcDbSymbolTableRecord
100
AcDbBlockTableRecord
  2
*D44
340
0
  0
BLOCK_RECORD
  5
72F
330
1
100
AcDbSymbolTableRecord
100
AcDbBlockTableRecord
  2
*D45
340
0
  0
BLOCK_RECORD
  5
743
330
1
100
AcDbSymbolTableRecord
100
AcDbBlockTableRecord
  2
*D46
340
0
  0
BLOCK_RECORD
  5
757
330
1
100
AcDbSymbolTableRecord
100
AcDbBlockTableRecord
  2
*D47
340
0
  0
BLOCK_RECORD
  5
767
330
1
100
AcDbSymbolTableRecord
100
AcDbBlockTableRecord
  2
*D48
340
0
  0
BLOCK_RECORD
  5
777
330
1
100
AcDbSymbolTableRecord
100
AcDbBlockTableRecord
  2
*D49
340
0
  0
BLOCK_RECORD
  5
787
330
1
100
AcDbSymbolTableRecord
100
AcDbBlockTableRecord
  2
*D50
340
0
  0
ENDTAB
  0
ENDSEC
  0
SECTION
  2
BLOCKS
  0
BLOCK
  5
20
330
1F
100
AcDbEntity
  8
0
100
AcDbBlockBegin
  2
*Model_Space
 70
     0
 10
0.0
 20
0.0
 30
0.0
  3
*Model_Space
  1

  0
ENDBLK
  5
21
330
1F
100
AcDbEntity
  8
0
100
AcDbBlockEnd
  0
BLOCK
  5
52
330
50
100
AcDbEntity
 67
     1
  8
0
100
AcDbBlockBegin
  2
*Paper_Space
 70
     0
 10
0.0
 20
0.0
 30
0.0
  3
*Paper_Space
  1

  0
ENDBLK
  5
53
330
50
100
AcDbEntity
 67
     1
  8
0
100
AcDbBlockEnd
  0
BLOCK
  5
57
330
55
100
AcDbEntity
 67
     1
  8
0
100
AcDbBlockBegin
  2
*Paper_Space0
 70
     0
 10
0.0
 20
0.0
 30
0.0
  3
*Paper_Space0
  1

  0
ENDBLK
  5
58
330
55
100
AcDbEntity
 67
     1
  8
0
100
AcDbBlockEnd
  0
BLOCK
  5
E4
330
E2
100
AcDbEntity
  8
0
100
AcDbBlockBegin
  2
A$C012D247B
 70
     0
 10
0.0
 20
0.0
 30
0.0
  3
A$C012D247B
  1

  0
LWPOLYLINE
  5
E3
330
E2
100
AcDbEntity
  8
0
100
AcDbPolyline
 90
        4
 70
     1
 43
0.0
 10
-0.0000015100049495
 20
166.0000007704744
 10
29.99999848999505
 20
166.0000007704744
 10
29.99999848999505
 20
0.0000007704744576
 10
-0.0000015100049495
 20
0.0000007704744576
  0
ENDBLK
  5
E5
330
E2
100
AcDbEntity
  8
0
100
AcDbBlockEnd
  0
BLOCK
  5
216
330
214
100
AcDbEntity
  8
0
100
AcDbBlockBegin
  2
A$C7187238A
 70
     0
 10
0.0
 20
0.0
 30
0.0
  3
A$C7187238A
  1

  0
LWPOLYLINE
  5
215
330
214
100
AcDbEntity
  8
0
100
AcDbPolyline
 90
        4
 70
     1
 43
0.0
 10
0.0
 20
0.0
 10
256.0
 20
0.0
 10
256.0
 20
30.0
 10
0.0
 20
30.0
  0
ENDBLK
  5
217
330
214
100
AcDbEntity
  8
0
100
AcDbBlockEnd
  0
BLOCK
  5
34C
330
34A
100
AcDbEntity
  8
0
100
AcDbBlockBegin
  2
A$C0F214DF5
 70
     0
 10
0.0
 20
0.0
 30
0.0
  3
A$C0F214DF5
  1

  0
LWPOLYLINE
  5
34B
330
34A
100
AcDbEntity
  8
0
100
AcDbPolyline
 90
        4
 70
     1
 43
0.0
 10
0.0000018057962734
 20
-0.000001983456059
 10
45.00000180579627
 20
-0.000001983456059
 10
45.00000180579627
 20
14.99999801654394
 10
0.0000018057962734
 20
14.99999801654394
  0
ENDBLK
  5
34D
330
34A
100
AcDbEntity
  8
0
100
AcDbBlockEnd
  0
BLOCK
  5
3DC
330
3DB
100
AcDbEntity
  8
0
100
AcDbBlockBegin
  2
2000BSR_f
 70
     0
 10
0.0
 20
0.0
 30
0.0
  3
2000BSR_f
  1

  4
2000BSR_front
  0
MTEXT
  5
836
330
3DB
100
AcDbEntity
  8
Cenrala
100
AcDbMText
 10
1119.4214941395
 20
3753.837102594131
 30
0.0
 40
18.0
 41
273.857804750156
 71
     1
 72
     5
  1
{\Ftxt.shx|c238;MISTRAL 2000BSR}
 73
     1
 44
1.0
1001
AcDbBlockRepETag
1070
     1
1071
        0
1005
836
1001
ACAD
1000
MTEXTBEGIN
1070
    73
1070
     1
1070
    44
1040
1.0
1070
    74
1070
     0
1000
MTEXTEND
  0
MTEXT
  5
837
330
3DB
100
AcDbEntity
  8
Cenrala
100
AcDbMText
 10
801.7426218276886
 20
4169.404840141361
 30
0.0
 40
25.0
 41
260.8191601825456
 71
     1
 72
     5
  1
{\Ftxt.shx|c238;\H1.2x;P\H0.8333x;RO-\H1.2x;V\H0.8333x;ENT}
 73
     1
 44
1.0
1001
AcDbBlockRepETag
1070
     1
1071
        1
1005
837
1001
ACAD
1000
MTEXTBEGIN
1070
    73
1070
     1
1070
    44
1040
1.0
1070
    74
1070
     0
1000
MTEXTEND
  0
CIRCLE
  5
838
330
3DB
100
AcDbEntity
  8
Cenrala
100
AcDbCircle
 10
613.9789436505289
 20
3855.205471650028
 30
0.0
 40
8.0
1001
AcDbBlockRepETag
1070
     1
1071
        2
1005
838
  0
CIRCLE
  5
839
330
3DB
100
AcDbEntity
  8
Cenrala
100
AcDbCircle
 10
1201.978943650529
 20
3855.205471650028
 30
0.0
 40
8.0
1001
AcDbBlockRepETag
1070
     1
1071
        3
1005
839
  0
CIRCLE
  5
83A
330
3DB
100
AcDbEntity
  8
Cenrala
100
AcDbCircle
 10
1201.978943650529
 20
4503.205471650026
 30
0.0
 40
8.0
1001
AcDbBlockRepETag
1070
     1
1071
        4
1005
83A
  0
LWPOLYLINE
  5
83C
330
3DB
100
AcDbEntity
  8
Cenrala
100
AcDbPolyline
 90
        4
 70
     1
 43
0.0
 10
593.9789436505289
 20
4523.205471650028
 10
1221.978943650529
 20
4523.205471650028
 10
1221.978943650529
 20
3835.205471650028
 10
593.9789436505289
 20
3835.205471650028
1001
AcDbBlockRepETag
1070
     1
1071
        5
1005
83C
  0
CIRCLE
  5
83E
330
3DB
100
AcDbEntity
  8
Cenrala
100
AcDbCircle
 10
1271.978943650529
 20
4567.205471650026
 30
0.0
 40
8.0
1001
AcDbBlockRepETag
1070
     1
1071
        6
1005
83E
  0
LWPOLYLINE
  5
83F
330
3DB
100
AcDbEntity
  8
Cenrala
100
AcDbPolyline
 90
        4
 70
     1
 43
0.0
 10
1314.478943650529
 20
4603.205471650027
 10
1229.478943650529
 20
4603.205471650027
 10
1229.478943650529
 20
4203.205471650028
 10
1314.478943650529
 20
4203.205471650028
1001
AcDbBlockRepETag
1070
     1
1071
        7
1005
83F
  0
CIRCLE
  5
840
330
3DB
100
AcDbEntity
  8
Cenrala
100
AcDbCircle
 10
1271.978943650529
 20
4239.205471650028
 30
0.0
 40
8.0
1001
AcDbBlockRepETag
1070
     1
1071
        8
1005
840
  0
CIRCLE
  5
841
330
3DB
100
AcDbEntity
  8
Cenrala
100
AcDbCircle
 10
311.9789436505289
 20
4239.205471650028
 30
0.0
 40
8.0
1001
AcDbBlockRepETag
1070
     1
1071
        9
1005
841
  0
LWPOLYLINE
  5
842
330
3DB
100
AcDbEntity
  8
Cenrala
100
AcDbPolyline
 90
        4
 70
     1
 43
0.0
 10
269.4789436505289
 20
4603.205471650027
 10
354.4789436505289
 20
4603.205471650027
 10
354.4789436505289
 20
4203.205471650028
 10
269.4789436505289
 20
4203.205471650028
1001
AcDbBlockRepETag
1070
     1
1071
       10
1005
842
  0
LWPOLYLINE
  5
843
330
3DB
100
AcDbEntity
  8
Cenrala
100
AcDbPolyline
 90
        4
 70
     1
 43
0.0
 10
1401.978943650528
 20
4190.205471650028
 10
1431.978943650529
 20
4190.205471650028
 10
1431.978943650529
 20
4596.205471650028
 10
1401.978943650528
 20
4596.205471650028
1001
AcDbBlockRepETag
1070
     1
1071
       11
1005
843
  0
LWPOLYLINE
  5
844
330
3DB
100
AcDbEntity
  8
Cenrala
100
AcDbPolyline
 90
        4
 70
     1
 43
0.0
 10
1401.978943650529
 20
3740.205471650028
 10
1431.978943650529
 20
3740.205471650028
 10
1431.978943650529
 20
4146.205471650028
 10
1401.978943650529
 20
4146.205471650028
1001
AcDbBlockRepETag
1070
     1
1071
       12
1005
844
  0
LWPOLYLINE
  5
845
330
3DB
100
AcDbEntity
  8
Cenrala
100
AcDbPolyline
 90
        5
 70
     0
 43
0.0
 10
181.9789436505289
 20
4148.205471650028
 10
181.9789436505289
 20
3760.205471650028
 10
151.9789436505289
 20
3760.205471650028
 10
151.9789436505289
 20
4166.205471650028
 10
181.9789436505289
 20
4166.205471650028
1001
AcDbBlockRepETag
1070
     1
1071
       13
1005
845
  0
LWPOLYLINE
  5
846
330
3DB
100
AcDbEntity
  8
Cenrala
100
AcDbPolyline
 90
        4
 70
     0
 43
0.0
 10
181.9789436505289
 20
4190.205471650028
 10
151.9789436505289
 20
4190.205471650028
 10
151.9789436505289
 20
4596.205471650028
 10
181.9789436505289
 20
4596.205471650028
1001
AcDbBlockRepETag
1070
     1
1071
       14
1005
846
  0
CIRCLE
  5
847
330
3DB
100
AcDbEntity
  8
Cenrala
100
AcDbCircle
 10
613.9789436505289
 20
4223.205471650028
 30
0.0
 40
8.0
1001
AcDbBlockRepETag
1070
     1
1071
       15
1005
847
  0
CIRCLE
  5
848
330
3DB
100
AcDbEntity
  8
Cenrala
100
AcDbCircle
 10
1201.978943650529
 20
4134.205471650028
 30
0.0
 40
8.0
1001
AcDbBlockRepETag
1070
     1
1071
       16
1005
848
  0
CIRCLE
  5
849
330
3DB
100
AcDbEntity
  8
Cenrala
100
AcDbCircle
 10
613.9789436505289
 20
4503.205471650026
 30
0.0
 40
8.0
1001
AcDbBlockRepETag
1070
     1
1071
       17
1005
849
  0
CIRCLE
  5
84A
330
3DB
100
AcDbEntity
  8
Cenrala
100
AcDbCircle
 10
311.9789436505289
 20
4567.205471650026
 30
0.0
 40
8.0
1001
AcDbBlockRepETag
1070
     1
1071
       18
1005
84A
  0
LWPOLYLINE
  5
84B
330
3DB
100
AcDbEntity
  8
Cenrala
100
AcDbPolyline
 90
        4
 70
     1
 43
0.0
 10
1401.978943650529
 20
3713.205471650028
 10
1421.978943650529
 20
3713.205471650028
 10
1421.978943650529
 20
3733.205471650028
 10
1401.978943650529
 20
3733.205471650028
1001
AcDbBlockRepETag
1070
     1
1071
       19
1005
84B
  0
LWPOLYLINE
  5
84C
330
3DB
100
AcDbEntity
  8
Cenrala
100
AcDbPolyline
 90
        4
 70
     1
 43
0.0
 10
1376.978943650529
 20
3703.205471650028
 10
1356.978943650529
 20
3703.205471650028
 10
1356.978943650529
 20
3688.205471650028
 10
1376.978943650529
 20
3688.205471650028
1001
AcDbBlockRepETag
1070
     1
1071
       20
1005
84C
  0
LWPOLYLINE
  5
84D
330
3DB
100
AcDbEntity
  8
Cenrala
100
AcDbPolyline
 90
        4
 70
     1
 43
0.0
 10
206.9789436505289
 20
3703.205471650028
 10
226.9789436505289
 20
3703.205471650028
 10
226.9789436505289
 20
3688.205471650028
 10
206.9789436505289
 20
3688.205471650028
1001
AcDbBlockRepETag
1070
     1
1071
       21
1005
84D
  0
LWPOLYLINE
  5
84E
330
3DB
100
AcDbEntity
  8
Cenrala
100
AcDbPolyline
 90
        4
 70
     1
 43
0.0
 10
181.9789436505289
 20
3703.205471650028
 10
1401.978943650529
 20
3703.205471650028
 10
1401.978943650529
 20
4633.205471650028
 10
181.9789436505289
 20
4633.205471650028
1001
AcDbBlockRepETag
1070
     1
1071
       22
1005
84E
  0
ENDBLK
  5
3DD
330
3DB
100
AcDbEntity
  8
0
100
AcDbBlockEnd
  0
BLOCK
  5
3F9
330
3F8
100
AcDbEntity
  8
0
100
AcDbBlockBegin
  2
2000BSR_g
 70
     0
 10
0.0
 20
0.0
 30
0.0
  3
2000BSR_g
  1

  4
2000BSR_gora
  0
LWPOLYLINE
  5
BB4
330
3F8
100
AcDbEntity
  8
Cenrala
100
AcDbPolyline
 90
        4
 70
     1
 43
0.0
 10
593.9789436505289
 20
2454.922837373823
 10
1221.978943650529
 20
2454.922837373823
 10
1221.978943650529
 20
2444.922837373824
 10
593.9789436505289
 20
2444.922837373824
1001
AcDbBlockRepETag
1070
     1
1071
        0
1005
BB4
  0
LWPOLYLINE
  5
BB5
330
3F8
100
AcDbEntity
  8
Cenrala
100
AcDbPolyline
 90
        4
 70
     1
 43
0.0
 10
1279.978943650529
 20
2444.922837373824
 10
1263.978943650529
 20
2444.922837373824
 10
1263.978943650529
 20
2434.922837373824
 10
1279.978943650529
 20
2434.922837373824
1001
AcDbBlockRepETag
1070
     1
1071
        1
1005
BB5
  0
LWPOLYLINE
  5
BB6
330
3F8
100
AcDbEntity
  8
Cenrala
100
AcDbPolyline
 90
        4
 70
     1
 43
0.0
 10
1314.478943650528
 20
2454.922837373823
 10
1229.478943650528
 20
2454.922837373823
 10
1229.478943650528
 20
2444.922837373824
 10
1314.478943650528
 20
2444.922837373824
1001
AcDbBlockRepETag
1070
     1
1071
        2
1005
BB6
  0
LWPOLYLINE
  5
BB7
330
3F8
100
AcDbEntity
  8
Cenrala
100
AcDbPolyline
 90
        4
 70
     1
 43
0.0
 10
269.4789436505289
 20
2454.922837373823
 10
354.4789436505289
 20
2454.922837373823
 10
354.4789436505289
 20
2444.922837373824
 10
269.4789436505289
 20
2444.922837373824
1001
AcDbBlockRepETag
1070
     1
1071
        3
1005
BB7
  0
LWPOLYLINE
  5
BB8
330
3F8
100
AcDbEntity
  8
Cenrala
100
AcDbPolyline
 90
        2
 70
     0
 43
0.0
 10
181.9789436505289
 20
2962.922837373823
 10
181.9789436505289
 20
2556.922837373824
1001
AcDbBlockRepETag
1070
     1
1071
        4
1005
BB8
  0
LWPOLYLINE
  5
BBA
330
3F8
100
AcDbEntity
  8
Cenrala
100
AcDbPolyline
 90
        4
 70
     0
 43
0.0
 10
1401.978943650529
 20
2716.922837373824
 10
1401.978943650529
 20
3122.922837373824
 10
1431.978943650529
 20
3122.922837373824
 10
1431.978943650529
 20
2716.922837373824
1001
AcDbBlockRepETag
1070
     1
1071
        5
1005
BBA
  0
LWPOLYLINE
  5
BBB
330
3F8
100
AcDbEntity
  8
Cenrala
100
AcDbPolyline
 90
        4
 70
     0
 43
0.0
 10
151.9789436505289
 20
2721.922837373823
 10
151.9789436505289
 20
3127.922837373823
 10
181.9789436505289
 20
3127.922837373823
 10
181.9789436505289
 20
2721.922837373823
1001
AcDbBlockRepETag
1070
     1
1071
        6
1005
BBB
  0
LWPOLYLINE
  5
BBC
330
3F8
100
AcDbEntity
  8
Cenrala
100
AcDbPolyline
 90
        4
 70
     1
 43
0.0
 10
1401.978943650529
 20
2556.922837373824
 10
1431.978943650529
 20
2556.922837373824
 10
1431.978943650529
 20
2962.922837373823
 10
1401.978943650529
 20
2962.922837373823
1001
AcDbBlockRepETag
1070
     1
1071
        7
1005
BBC
  0
LWPOLYLINE
  5
BBD
330
3F8
100
AcDbEntity
  8
Cenrala
100
AcDbPolyline
 90
        4
 70
     0
 43
0.0
 10
181.9789436505289
 20
2556.922837373824
 10
151.9789436505289
 20
2556.922837373824
 10
151.9789436505289
 20
2962.922837373823
 10
181.9789436505289
 20
2962.922837373823
1001
AcDbBlockRepETag
1070
     1
1071
        8
1005
BBD
  0
LWPOLYLINE
  5
BBE
330
3F8
100
AcDbEntity
  8
Cenrala
100
AcDbPolyline
 90
        4
 70
     1
 43
0.0
 10
1401.978943650529
 20
3189.922837373823
 10
1421.978943650529
 20
3189.922837373823
 10
1421.978943650529
 20
3169.922837373823
 10
1401.978943650529
 20
3169.922837373823
1001
AcDbBlockRepETag
1070
     1
1071
        9
1005
BBE
  0
LWPOLYLINE
  5
BBF
330
3F8
100
AcDbEntity
  8
Cenrala
100
AcDbPolyline
 90
        4
 70
     1
 43
0.0
 10
621.9789436505289
 20
2444.922837373824
 10
605.9789436505289
 20
2444.922837373824
 10
605.9789436505289
 20
2434.922837373824
 10
621.9789436505289
 20
2434.922837373824
1001
AcDbBlockRepETag
1070
     1
1071
       10
1005
BBF
  0
LWPOLYLINE
  5
BC0
330
3F8
100
AcDbEntity
  8
Cenrala
100
AcDbPolyline
 90
        4
 70
     1
 43
0.0
 10
1209.978943650529
 20
2444.922837373824
 10
1193.978943650529
 20
2444.922837373824
 10
1193.978943650529
 20
2434.922837373824
 10
1209.978943650529
 20
2434.922837373824
1001
AcDbBlockRepETag
1070
     1
1071
       11
1005
BC0
  0
LWPOLYLINE
  5
BC1
330
3F8
100
AcDbEntity
  8
Cenrala
100
AcDbPolyline
 90
        4
 70
     1
 43
0.0
 10
303.9789436505289
 20
2444.922837373824
 10
319.9789436505289
 20
2444.922837373824
 10
319.9789436505289
 20
2434.922837373824
 10
303.9789436505289
 20
2434.922837373824
1001
AcDbBlockRepETag
1070
     1
1071
       12
1005
BC1
  0
LWPOLYLINE
  5
BC2
330
3F8
100
AcDbEntity
  8
Cenrala
100
AcDbPolyline
 90
        4
 70
     1
 43
0.0
 10
181.9789436505289
 20
3199.922837373823
 10
1401.978943650529
 20
3199.922837373823
 10
1401.978943650529
 20
2454.922837373823
 10
181.9789436505289
 20
2454.922837373823
1001
AcDbBlockRepETag
1070
     1
1071
       13
1005
BC2
  0
ENDBLK
  5
3FA
330
3F8
100
AcDbEntity
  8
0
100
AcDbBlockEnd
  0
BLOCK
  5
40C
330
40B
100
AcDbEntity
  8
0
100
AcDbBlockBegin
  2
2000BSR_l
 70
     0
 10
0.0
 20
0.0
 30
0.0
  3
2000BSR_l
  1

  4
2000BSR_lewa
  0
LWPOLYLINE
  5
BCA
330
40B
100
AcDbEntity
  8
Cenrala
100
AcDbPolyline
 90
        4
 70
     1
 43
0.0
 10
2752.220091378175
 20
4126.205471650028
 10
2762.220091378174
 20
4126.205471650028
 10
2762.220091378174
 20
4142.205471650028
 10
2752.220091378175
 20
4142.205471650028
1001
AcDbBlockRepETag
1070
     1
1071
        0
1005
BCA
  0
LWPOLYLINE
  5
BCB
330
40B
100
AcDbEntity
  8
Cenrala
100
AcDbPolyline
 90
        4
 70
     1
 43
0.0
 10
2742.220091378174
 20
3835.205471650028
 10
2752.220091378175
 20
3835.205471650028
 10
2752.220091378175
 20
4203.205471650028
 10
2742.220091378174
 20
4203.205471650028
1001
AcDbBlockRepETag
1070
     1
1071
        1
1005
BCB
  0
LWPOLYLINE
  5
BCC
330
40B
100
AcDbEntity
  8
Cenrala
100
AcDbPolyline
 90
        4
 70
     1
 43
0.0
 10
2752.220091378175
 20
4215.205471650028
 10
2762.220091378174
 20
4215.205471650028
 10
2762.220091378174
 20
4231.205471650027
 10
2752.220091378175
 20
4231.205471650027
1001
AcDbBlockRepETag
1070
     1
1071
        2
1005
BCC
  0
LWPOLYLINE
  5
BCD
330
40B
100
AcDbEntity
  8
Cenrala
100
AcDbPolyline
 90
        4
 70
     1
 43
0.0
 10
2752.220091378175
 20
4511.205472155721
 10
2762.220091378174
 20
4511.205472155721
 10
2762.220091378174
 20
4495.20547215572
 10
2752.220091378175
 20
4495.20547215572
1001
AcDbBlockRepETag
1070
     1
1071
        3
1005
BCD
  0
LWPOLYLINE
  5
BCE
330
40B
100
AcDbEntity
  8
Cenrala
100
AcDbPolyline
 90
        4
 70
     1
 43
0.0
 10
2752.220091378175
 20
4231.205471650027
 10
2762.220091378174
 20
4231.205471650027
 10
2762.220091378174
 20
4247.205471650028
 10
2752.220091378175
 20
4247.205471650028
1001
AcDbBlockRepETag
1070
     1
1071
        4
1005
BCE
  0
LWPOLYLINE
  5
BCF
330
40B
100
AcDbEntity
  8
Cenrala
100
AcDbPolyline
 90
        4
 70
     1
 43
0.0
 10
2742.220091378174
 20
4603.205471650027
 10
2752.220091378175
 20
4603.205471650027
 10
2752.220091378175
 20
4203.205471650028
 10
2742.220091378174
 20
4203.205471650028
1001
AcDbBlockRepETag
1070
     1
1071
        5
1005
BCF
  0
LWPOLYLINE
  5
BD0
330
40B
100
AcDbEntity
  8
Cenrala
100
AcDbPolyline
 90
        4
 70
     1
 43
0.0
 10
2732.220091378175
 20
3688.205471650028
 10
2687.220091378174
 20
3688.205471650028
 10
2687.220091378174
 20
3703.205471650028
 10
2732.220091378175
 20
3703.205471650028
1001
AcDbBlockRepETag
1070
     1
1071
        6
1005
BD0
  0
LWPOLYLINE
  5
BD1
330
40B
100
AcDbEntity
  8
Cenrala
100
AcDbPolyline
 90
        4
 70
     1
 43
0.0
 10
2007.220091378175
 20
3688.205471650028
 10
2052.220091378174
 20
3688.205471650028
 10
2052.220091378174
 20
3703.205471650028
 10
2007.220091378175
 20
3703.205471650028
1001
AcDbBlockRepETag
1070
     1
1071
        7
1005
BD1
  0
LWPOLYLINE
  5
BD2
330
40B
100
AcDbEntity
  8
Cenrala
100
AcDbPolyline
 90
        4
 70
     1
 43
0.0
 10
2272.220091378175
 20
3953.205471650028
 10
2272.220091378175
 20
3953.205471650028
 10
2272.220091378175
 20
3953.205471650028
 10
2272.220091378175
 20
3953.205471650028
1001
AcDbBlockRepETag
1070
     1
1071
        8
1005
BD2
  0
CIRCLE
  5
BD3
330
40B
100
AcDbEntity
  8
Cenrala
100
AcDbCircle
 10
2277.220091378175
 20
3953.205471650028
 30
0.0
 40
200.0
1001
AcDbBlockRepETag
1070
     1
1071
        9
1005
BD3
  0
CIRCLE
  5
BD4
330
40B
100
AcDbEntity
  8
Cenrala
100
AcDbCircle
 10
2277.220091378175
 20
3953.205471650028
 30
0.0
 40
203.0
1001
AcDbBlockRepETag
1070
     1
1071
       10
1005
BD4
  0
CIRCLE
  5
BD5
330
40B
100
AcDbEntity
  8
Cenrala
100
AcDbCircle
 10
2437.220091378174
 20
4393.205471650028
 30
0.0
 40
203.0
1001
AcDbBlockRepETag
1070
     1
1071
       11
1005
BD5
  0
CIRCLE
  5
BD6
330
40B
100
AcDbEntity
  8
Cenrala
100
AcDbCircle
 10
2437.220091378174
 20
4393.205471650028
 30
0.0
 40
200.0
1001
AcDbBlockRepETag
1070
     1
1071
       12
1005
BD6
  0
LWPOLYLINE
  5
BD7
330
40B
100
AcDbEntity
  8
Cenrala
100
AcDbPolyline
 90
        4
 70
     1
 43
0.0
 10
2752.220091378175
 20
3847.205471650028
 10
2762.220091378174
 20
3847.205471650028
 10
2762.220091378174
 20
3863.205471650028
 10
2752.220091378175
 20
3863.205471650028
1001
AcDbBlockRepETag
1070
     1
1071
       13
1005
BD7
  0
LWPOLYLINE
  5
BD8
330
40B
100
AcDbEntity
  8
Cenrala
100
AcDbPolyline
 90
        4
 70
     1
 43
0.0
 10
2752.220091378175
 20
4575.205471650028
 10
2762.220091378174
 20
4575.205471650028
 10
2762.220091378174
 20
4559.205471650026
 10
2752.220091378175
 20
4559.205471650026
1001
AcDbBlockRepETag
1070
     1
1071
       14
1005
BD8
  0
LWPOLYLINE
  5
BD9
330
40B
100
AcDbEntity
  8
Cenrala
100
AcDbPolyline
 90
        6
 70
     1
 43
0.0
 10
2486.464380387155
 20
4633.205471650028
 10
1997.220091378174
 20
4633.205471650028
 10
1997.220091378174
 20
3703.205471650028
 10
2742.220091378174
 20
3703.205471650028
 10
2742.220091378174
 20
4633.205471650028
 10
2486.464380387155
 20
4633.205471650028
1001
AcDbBlockRepETag
1070
     1
1071
       15
1005
BD9
  0
CIRCLE
  5
BDA
330
40B
100
AcDbEntity
  8
Cenrala
100
AcDbCircle
 10
2688.531549962549
 20
3775.190991769366
 30
0.0
 40
5.0
1001
AcDbBlockRepETag
1070
     1
1071
       16
1005
BDA
  0
CIRCLE
  5
BDB
330
40B
100
AcDbEntity
  8
Cenrala
100
AcDbCircle
 10
2688.531549962549
 20
3749.258668865402
 30
0.0
 40
5.0
1001
AcDbBlockRepETag
1070
     1
1071
       17
1005
BDB
  0
ENDBLK
  5
40D
330
40B
100
AcDbEntity
  8
0
100
AcDbBlockEnd
  0
BLOCK
  5
424
330
423
100
AcDbEntity
  8
0
100
AcDbBlockBegin
  2
2000BSR_p
 70
     0
 10
0.0
 20
0.0
 30
0.0
  3
2000BSR_p
  1

  4
2000BSR_prawa
  0
LWPOLYLINE
  5
BF9
330
423
100
AcDbEntity
  8
Cenrala
100
AcDbPolyline
 90
        4
 70
     1
 43
0.0
 10
-1168.262204077116
 20
4575.205471650028
 10
-1178.262204077116
 20
4575.205471650028
 10
-1178.262204077116
 20
4559.205471650026
 10
-1168.262204077116
 20
4559.205471650026
1001
AcDbBlockRepETag
1070
     1
1071
        0
1005
BF9
  0
LWPOLYLINE
  5
BFA
330
423
100
AcDbEntity
  8
Cenrala
100
AcDbPolyline
 90
        4
 70
     1
 43
0.0
 10
-1168.262204077116
 20
3847.205471650028
 10
-1178.262204077116
 20
3847.205471650028
 10
-1178.262204077116
 20
3863.205471650028
 10
-1168.262204077116
 20
3863.205471650028
1001
AcDbBlockRepETag
1070
     1
1071
        1
1005
BFA
  0
LWPOLYLINE
  5
BFB
330
423
100
AcDbEntity
  8
Cenrala
100
AcDbPolyline
 90
        4
 70
     1
 43
0.0
 10
-1158.262204077116
 20
4603.205471650027
 10
-1168.262204077116
 20
4603.205471650027
 10
-1168.262204077116
 20
4203.205471650028
 10
-1158.262204077116
 20
4203.205471650028
1001
AcDbBlockRepETag
1070
     1
1071
        2
1005
BFB
  0
LWPOLYLINE
  5
BFC
330
423
100
AcDbEntity
  8
Cenrala
100
AcDbPolyline
 90
        4
 70
     1
 43
0.0
 10
-1168.262204077116
 20
4231.205471650027
 10
-1178.262204077116
 20
4231.205471650027
 10
-1178.262204077116
 20
4247.205471650028
 10
-1168.262204077116
 20
4247.205471650028
1001
AcDbBlockRepETag
1070
     1
1071
        3
1005
BFC
  0
LWPOLYLINE
  5
BFD
330
423
100
AcDbEntity
  8
Cenrala
100
AcDbPolyline
 90
        4
 70
     1
 43
0.0
 10
-1168.262204077116
 20
4511.205472155721
 10
-1178.262204077116
 20
4511.205472155721
 10
-1178.262204077116
 20
4495.20547215572
 10
-1168.262204077116
 20
4495.20547215572
1001
AcDbBlockRepETag
1070
     1
1071
        4
1005
BFD
  0
LWPOLYLINE
  5
BFE
330
423
100
AcDbEntity
  8
Cenrala
100
AcDbPolyline
 90
        4
 70
     1
 43
0.0
 10
-1168.262204077116
 20
4215.205471650028
 10
-1178.262204077116
 20
4215.205471650028
 10
-1178.262204077116
 20
4231.205471650027
 10
-1168.262204077116
 20
4231.205471650027
1001
AcDbBlockRepETag
1070
     1
1071
        5
1005
BFE
  0
LWPOLYLINE
  5
BFF
330
423
100
AcDbEntity
  8
Cenrala
100
AcDbPolyline
 90
        4
 70
     1
 43
0.0
 10
-1158.262204077116
 20
3835.205471650028
 10
-1168.262204077116
 20
3835.205471650028
 10
-1168.262204077116
 20
4203.205471650028
 10
-1158.262204077116
 20
4203.205471650028
1001
AcDbBlockRepETag
1070
     1
1071
        6
1005
BFF
  0
LWPOLYLINE
  5
C00
330
423
100
AcDbEntity
  8
Cenrala
100
AcDbPolyline
 90
        4
 70
     1
 43
0.0
 10
-1168.262204077116
 20
4126.205471650028
 10
-1178.262204077116
 20
4126.205471650028
 10
-1178.262204077116
 20
4142.205471650028
 10
-1168.262204077116
 20
4142.205471650028
1001
AcDbBlockRepETag
1070
     1
1071
        7
1005
C00
  0
CIRCLE
  5
C01
330
423
100
AcDbEntity
  8
Cenrala
100
AcDbCircle
 10
-853.2622040771165
 20
4393.205471650028
 30
0.0
 40
200.0
1001
AcDbBlockRepETag
1070
     1
1071
        8
1005
C01
  0
CIRCLE
  5
C02
330
423
100
AcDbEntity
  8
Cenrala
100
AcDbCircle
 10
-853.2622040771165
 20
4393.205471650028
 30
0.0
 40
203.0
1001
AcDbBlockRepETag
1070
     1
1071
        9
1005
C02
  0
LWPOLYLINE
  5
C04
330
423
100
AcDbEntity
  8
Cenrala
100
AcDbPolyline
 90
        4
 70
     1
 43
0.0
 10
-413.2622040771166
 20
3693.205471650028
 10
-1158.262204077116
 20
3693.205471650028
 10
-1158.262204077116
 20
4633.205471650028
 10
-413.2622040771166
 20
4633.205471650028
1001
AcDbBlockRepETag
1070
     1
1071
       10
1005
C04
  0
CIRCLE
  5
C05
102
{ACAD_REACTORS
330
741
102
}
330
423
100
AcDbEntity
  8
Cenrala
100
AcDbCircle
 10
-693.2622040771167
 20
3943.205471650028
 30
0.0
 40
203.0
1001
AcDbBlockRepETag
1070
     1
1071
       11
1005
C05
  0
CIRCLE
  5
C06
330
423
100
AcDbEntity
  8
Cenrala
100
AcDbCircle
 10
-693.2622040771167
 20
3943.205471650028
 30
0.0
 40
200.0
1001
AcDbBlockRepETag
1070
     1
1071
       12
1005
C06
  0
LWPOLYLINE
  5
C07
330
423
100
AcDbEntity
  8
Cenrala
100
AcDbPolyline
 90
        4
 70
     1
 43
0.0
 10
-688.2622040771167
 20
3963.205471650028
 10
-688.2622040771167
 20
3963.205471650028
 10
-688.2622040771167
 20
3963.205471650028
 10
-688.2622040771167
 20
3963.205471650028
1001
AcDbBlockRepETag
1070
     1
1071
       13
1005
C07
  0
LWPOLYLINE
  5
C09
330
423
100
AcDbEntity
  8
Cenrala
100
AcDbPolyline
 90
        4
 70
     1
 43
0.0
 10
-423.2622040771166
 20
3678.205471650028
 10
-468.2622040771166
 20
3678.205471650028
 10
-468.2622040771166
 20
3693.205471650028
 10
-423.2622040771166
 20
3693.205471650028
1001
AcDbBlockRepETag
1070
     1
1071
       14
1005
C09
  0
LWPOLYLINE
  5
C0A
330
423
100
AcDbEntity
  8
Cenrala
100
AcDbPolyline
 90
        4
 70
     1
 43
0.0
 10
-1148.262204077116
 20
3678.205471650028
 10
-1103.262204077116
 20
3678.205471650028
 10
-1103.262204077116
 20
3693.205471650028
 10
-1148.262204077116
 20
3693.205471650028
1001
AcDbBlockRepETag
1070
     1
1071
       15
1005
C0A
  0
CIRCLE
  5
C0B
330
423
100
AcDbEntity
  8
Cenrala
100
AcDbCircle
 10
-433.2622040771166
 20
3713.205471650028
 30
0.0
 40
10.0
1001
AcDbBlockRepETag
1070
     1
1071
       16
1005
C0B
  0
CIRCLE
  5
C0C
330
423
100
AcDbEntity
  8
Cenrala
100
AcDbCircle
 10
-433.2622040771166
 20
3713.205471650028
 30
0.0
 40
8.0
1001
AcDbBlockRepETag
1070
     1
1071
       17
1005
C0C
  0
ENDBLK
  5
425
330
423
100
AcDbEntity
  8
0
100
AcDbBlockEnd
  0
BLOCK
  5
43C
330
43B
100
AcDbEntity
  8
0
100
AcDbBlockBegin
  2
*D8
 70
     1
 10
0.0
 20
0.0
 30
0.0
  3
*D8
  1

  0
LINE
  5
43D
330
43B
100
AcDbEntity
  8
wymiary
 62
     0
370
    -2
100
AcDbLine
 10
-863.2622040771165
 20
4413.205471650027
 30
0.0
 11
-433.2622040771168
 21
4413.205471650027
 31
0.0
  0
SOLID
  5
43E
330
43B
100
AcDbEntity
  8
wymiary
 62
     0
100
AcDbTrace
 10
-863.2622040771165
 20
4416.53880498336
 30
0.0
 11
-863.2622040771165
 21
4409.872138316695
 31
0.0
 12
-883.2622040771168
 22
4413.205471650027
 32
0.0
 13
-883.2622040771168
 23
4413.205471650027
 33
0.0
  0
SOLID
  5
43F
330
43B
100
AcDbEntity
  8
wymiary
 62
     0
100
AcDbTrace
 10
-433.2622040771168
 20
4416.53880498336
 30
0.0
 11
-433.2622040771168
 21
4409.872138316695
 31
0.0
 12
-413.2622040771168
 22
4413.205471650027
 32
0.0
 13
-413.2622040771168
 23
4413.205471650027
 33
0.0
  0
MTEXT
  5
440
330
43B
100
AcDbEntity
  8
wymiary
 62
     0
100
AcDbMText
 10
-648.2622040771167
 20
4426.705471650028
 30
0.0
 40
15.0
 41
0.0
 71
     5
 72
     1
  1
470
 73
     1
 44
1.0
1001
ACAD
1000
MTEXTBEGIN
1070
    73
1070
     1
1070
    44
1040
1.0
1070
    74
1070
     0
1000
MTEXTEND
  0
POINT
  5
441
330
43B
100
AcDbEntity
  8
Defpoints
 62
     0
100
AcDbPoint
 10
-883.2622040771168
 20
4413.205471650027
 30
0.0
  0
POINT
  5
442
330
43B
100
AcDbEntity
  8
Defpoints
 62
     0
100
AcDbPoint
 10
-413.2622040771168
 20
4413.205471650029
 30
0.0
  0
POINT
  5
443
330
43B
100
AcDbEntity
  8
Defpoints
 62
     0
100
AcDbPoint
 10
-413.2622040771168
 20
4413.205471650027
 30
0.0
  0
ENDBLK
  5
444
330
43B
100
AcDbEntity
  8
0
100
AcDbBlockEnd
  0
BLOCK
  5
446
330
445
100
AcDbEntity
  8
0
100
AcDbBlockBegin
  2
*D9
 70
     1
 10
0.0
 20
0.0
 30
0.0
  3
*D9
  1

  0
LINE
  5
447
330
445
100
AcDbEntity
  8
wymiary
 62
     0
370
    -2
100
AcDbLine
 10
-883.2622040771168
 20
4433.205471650028
 30
0.0
 11
-883.2622040771168
 21
4613.205471650028
 31
0.0
  0
SOLID
  5
448
330
445
100
AcDbEntity
  8
wymiary
 62
     0
100
AcDbTrace
 10
-886.5955374104499
 20
4433.205471650028
 30
0.0
 11
-879.9288707437833
 21
4433.205471650028
 31
0.0
 12
-883.2622040771168
 22
4413.205471650027
 32
0.0
 13
-883.2622040771168
 23
4413.205471650027
 33
0.0
  0
SOLID
  5
449
330
445
100
AcDbEntity
  8
wymiary
 62
     0
100
AcDbTrace
 10
-886.5955374104499
 20
4613.205471650028
 30
0.0
 11
-879.9288707437833
 21
4613.205471650028
 31
0.0
 12
-883.2622040771168
 22
4633.205471650028
 32
0.0
 13
-883.2622040771168
 23
4633.205471650028
 33
0.0
  0
MTEXT
  5
44A
330
445
100
AcDbEntity
  8
wymiary
 62
     0
100
AcDbMText
 10
-896.7622040771173
 20
4523.205471650028
 30
0.0
 40
15.0
 41
0.0
 71
     5
 72
     1
  1
220
 11
0.0000000000000001
 21
1.0
 31
0.0
 73
     1
 44
1.0
1001
ACAD
1000
MTEXTBEGIN
1070
    73
1070
     1
1070
    44
1040
1.0
1070
    74
1070
     0
1000
MTEXTEND
  0
POINT
  5
44B
330
445
100
AcDbEntity
  8
Defpoints
 62
     0
100
AcDbPoint
 10
-883.2622040771168
 20
4413.205471650027
 30
0.0
  0
POINT
  5
44C
330
445
100
AcDbEntity
  8
Defpoints
 62
     0
100
AcDbPoint
 10
-883.2622040771198
 20
4633.205471650028
 30
0.0
  0
POINT
  5
44D
330
445
100
AcDbEntity
  8
Defpoints
 62
     0
100
AcDbPoint
 10
-883.2622040771168
 20
4633.205471650028
 30
0.0
  0
ENDBLK
  5
44E
330
445
100
AcDbEntity
  8
0
100
AcDbBlockEnd
  0
BLOCK
  5
450
330
44F
100
AcDbEntity
  8
0
100
AcDbBlockBegin
  2
*D10
 70
     1
 10
0.0
 20
0.0
 30
0.0
  3
*D10
  1

  0
LINE
  5
451
330
44F
100
AcDbEntity
  8
wymiary
 62
     0
370
    -2
100
AcDbLine
 10
-668.2622040771166
 20
3963.205471650028
 30
0.0
 11
-433.2622040771166
 21
3963.205471650028
 31
0.0
  0
SOLID
  5
452
330
44F
100
AcDbEntity
  8
wymiary
 62
     0
100
AcDbTrace
 10
-668.2622040771166
 20
3966.538804983361
 30
0.0
 11
-668.2622040771166
 21
3959.872138316695
 31
0.0
 12
-688.2622040771167
 22
3963.205471650028
 32
0.0
 13
-688.2622040771167
 23
3963.205471650028
 33
0.0
  0
SOLID
  5
453
330
44F
100
AcDbEntity
  8
wymiary
 62
     0
100
AcDbTrace
 10
-433.2622040771166
 20
3966.538804983361
 30
0.0
 11
-433.2622040771166
 21
3959.872138316695
 31
0.0
 12
-413.2622040771166
 22
3963.205471650028
 32
0.0
 13
-413.2622040771166
 23
3963.205471650028
 33
0.0
  0
MTEXT
  5
454
330
44F
100
AcDbEntity
  8
wymiary
 62
     0
100
AcDbMText
 10
-550.7622040771166
 20
3976.705471650028
 30
0.0
 40
15.0
 41
0.0
 71
     5
 72
     1
  1
275
 73
     1
 44
1.0
1001
ACAD
1000
MTEXTBEGIN
1070
    73
1070
     1
1070
    44
1040
1.0
1070
    74
1070
     0
1000
MTEXTEND
  0
POINT
  5
455
330
44F
100
AcDbEntity
  8
Defpoints
 62
     0
100
AcDbPoint
 10
-688.2622040771167
 20
3963.205471650028
 30
0.0
  0
POINT
  5
456
330
44F
100
AcDbEntity
  8
Defpoints
 62
     0
100
AcDbPoint
 10
-413.2622040771166
 20
3963.205471650026
 30
0.0
  0
POINT
  5
457
330
44F
100
AcDbEntity
  8
Defpoints
 62
     0
100
AcDbPoint
 10
-413.2622040771166
 20
3963.205471650028
 30
0.0
  0
ENDBLK
  5
458
330
44F
100
AcDbEntity
  8
0
100
AcDbBlockEnd
  0
BLOCK
  5
45A
330
459
100
AcDbEntity
  8
0
100
AcDbBlockBegin
  2
*D11
 70
     1
 10
0.0
 20
0.0
 30
0.0
  3
*D11
  1

  0
LINE
  5
45B
330
459
100
AcDbEntity
  8
wymiary
 62
     0
370
    -2
100
AcDbLine
 10
-688.2622040771165
 20
3943.205471650028
 30
0.0
 11
-688.2622040771167
 21
3713.205471650028
 31
0.0
  0
SOLID
  5
45C
330
459
100
AcDbEntity
  8
wymiary
 62
     0
100
AcDbTrace
 10
-691.5955374104497
 20
3943.205471650028
 30
0.0
 11
-684.9288707437831
 21
3943.205471650028
 31
0.0
 12
-688.2622040771165
 22
3963.205471650028
 32
0.0
 13
-688.2622040771165
 23
3963.205471650028
 33
0.0
  0
SOLID
  5
45D
330
459
100
AcDbEntity
  8
wymiary
 62
     0
100
AcDbTrace
 10
-691.5955374104498
 20
3713.205471650028
 30
0.0
 11
-684.9288707437832
 21
3713.205471650028
 31
0.0
 12
-688.2622040771167
 22
3693.205471650028
 32
0.0
 13
-688.2622040771167
 23
3693.205471650028
 33
0.0
  0
MTEXT
  5
45E
330
459
100
AcDbEntity
  8
wymiary
 62
     0
100
AcDbMText
 10
-701.7622040771173
 20
3828.205471650028
 30
0.0
 40
15.0
 41
0.0
 71
     5
 72
     1
  1
270
 11
0.0000000000000001
 21
1.0
 31
0.0
 73
     1
 44
1.0
1001
ACAD
1000
MTEXTBEGIN
1070
    73
1070
     1
1070
    44
1040
1.0
1070
    74
1070
     0
1000
MTEXTEND
  0
POINT
  5
45F
330
459
100
AcDbEntity
  8
Defpoints
 62
     0
100
AcDbPoint
 10
-688.2622040771167
 20
3963.205471650028
 30
0.0
  0
POINT
  5
460
330
459
100
AcDbEntity
  8
Defpoints
 62
     0
100
AcDbPoint
 10
-688.2622040771162
 20
3693.205471650028
 30
0.0
  0
POINT
  5
461
330
459
100
AcDbEntity
  8
Defpoints
 62
     0
100
AcDbPoint
 10
-688.2622040771167
 20
3693.205471650028
 30
0.0
  0
ENDBLK
  5
462
330
459
100
AcDbEntity
  8
0
100
AcDbBlockEnd
  0
BLOCK
  5
464
330
463
100
AcDbEntity
  8
0
100
AcDbBlockBegin
  2
*D12
 70
     1
 10
0.0
 20
0.0
 30
0.0
  3
*D12
  1

  0
LINE
  5
465
330
463
100
AcDbEntity
  8
wymiary
 62
     0
100
AcDbLine
 10
181.9789436505289
 20
4633.205471650028
 30
0.0
 11
181.9789436505289
 21
4677.099755013752
 31
0.0
  0
LINE
  5
466
330
463
100
AcDbEntity
  8
wymiary
 62
     0
100
AcDbLine
 10
1401.978943650529
 20
4633.205471650028
 30
0.0
 11
1401.978943650529
 21
4677.099755013752
 31
0.0
  0
LINE
  5
467
330
463
100
AcDbEntity
  8
wymiary
 62
     0
370
    -2
100
AcDbLine
 10
201.9789436505289
 20
4677.099755013752
 30
0.0
 11
1381.978943650529
 21
4677.099755013752
 31
0.0
  0
SOLID
  5
468
330
463
100
AcDbEntity
  8
wymiary
 62
     0
100
AcDbTrace
 10
201.9789436505289
 20
4680.433088347085
 30
0.0
 11
201.9789436505289
 21
4673.766421680419
 31
0.0
 12
181.9789436505289
 22
4677.099755013752
 32
0.0
 13
181.9789436505289
 23
4677.099755013752
 33
0.0
  0
SOLID
  5
469
330
463
100
AcDbEntity
  8
wymiary
 62
     0
100
AcDbTrace
 10
1381.978943650529
 20
4680.433088347085
 30
0.0
 11
1381.978943650529
 21
4673.766421680419
 31
0.0
 12
1401.978943650529
 22
4677.099755013752
 32
0.0
 13
1401.978943650529
 23
4677.099755013752
 33
0.0
  0
MTEXT
  5
46A
330
463
100
AcDbEntity
  8
wymiary
 62
     0
100
AcDbMText
 10
791.9789436505289
 20
4690.599755013752
 30
0.0
 40
15.0
 41
0.0
 71
     5
 72
     1
  1
1220
 73
     1
 44
1.0
1001
ACAD
1000
MTEXTBEGIN
1070
    73
1070
     1
1070
    44
1040
1.0
1070
    74
1070
     0
1000
MTEXTEND
  0
POINT
  5
46B
330
463
100
AcDbEntity
  8
Defpoints
 62
     0
100
AcDbPoint
 10
181.9789436505289
 20
4633.205471650028
 30
0.0
  0
POINT
  5
46C
330
463
100
AcDbEntity
  8
Defpoints
 62
     0
100
AcDbPoint
 10
1401.978943650529
 20
4633.205471650028
 30
0.0
  0
POINT
  5
46D
330
463
100
AcDbEntity
  8
Defpoints
 62
     0
100
AcDbPoint
 10
1401.978943650529
 20
4677.099755013752
 30
0.0
  0
ENDBLK
  5
46E
330
463
100
AcDbEntity
  8
0
100
AcDbBlockEnd
  0
BLOCK
  5
470
330
46F
100
AcDbEntity
  8
0
100
AcDbBlockBegin
  2
*D13
 70
     1
 10
0.0
 20
0.0
 30
0.0
  3
*D13
  1

  0
LINE
  5
471
330
46F
100
AcDbEntity
  8
wymiary
 62
     0
100
AcDbLine
 10
181.9789436505289
 20
4633.205471650028
 30
0.0
 11
97.12508567547613
 21
4633.205471650028
 31
0.0
  0
LINE
  5
472
330
46F
100
AcDbEntity
  8
wymiary
 62
     0
100
AcDbLine
 10
181.9789436505289
 20
3693.205471650028
 30
0.0
 11
97.12508567547594
 21
3693.205471650028
 31
0.0
  0
LINE
  5
473
330
46F
100
AcDbEntity
  8
wymiary
 62
     0
370
    -2
100
AcDbLine
 10
97.12508567547613
 20
4613.205471650028
 30
0.0
 11
97.12508567547594
 21
3713.205471650028
 31
0.0
  0
SOLID
  5
474
330
46F
100
AcDbEntity
  8
wymiary
 62
     0
100
AcDbTrace
 10
93.79175234214278
 20
4613.205471650028
 30
0.0
 11
100.4584190088094
 21
4613.205471650028
 31
0.0
 12
97.12508567547613
 22
4633.205471650028
 32
0.0
 13
97.12508567547613
 23
4633.205471650028
 33
0.0
  0
SOLID
  5
475
330
46F
100
AcDbEntity
  8
wymiary
 62
     0
100
AcDbTrace
 10
93.7917523421426
 20
3713.205471650028
 30
0.0
 11
100.4584190088092
 21
3713.205471650028
 31
0.0
 12
97.12508567547594
 22
3693.205471650028
 32
0.0
 13
97.12508567547594
 23
3693.205471650028
 33
0.0
  0
MTEXT
  5
476
330
46F
100
AcDbEntity
  8
wymiary
 62
     0
100
AcDbMText
 10
83.62508567547536
 20
4163.205471650027
 30
0.0
 40
15.0
 41
0.0
 71
     5
 72
     1
  1
940
 11
0.0000000000000001
 21
1.0
 31
0.0
 73
     1
 44
1.0
1001
ACAD
1000
MTEXTBEGIN
1070
    73
1070
     1
1070
    44
1040
1.0
1070
    74
1070
     0
1000
MTEXTEND
  0
POINT
  5
477
330
46F
100
AcDbEntity
  8
Defpoints
 62
     0
100
AcDbPoint
 10
181.9789436505289
 20
4633.205471650028
 30
0.0
  0
POINT
  5
478
330
46F
100
AcDbEntity
  8
Defpoints
 62
     0
100
AcDbPoint
 10
181.9789436505289
 20
3693.205471650028
 30
0.0
  0
POINT
  5
479
330
46F
100
AcDbEntity
  8
Defpoints
 62
     0
100
AcDbPoint
 10
97.12508567547594
 20
3693.205471650028
 30
0.0
  0
ENDBLK
  5
47A
330
46F
100
AcDbEntity
  8
0
100
AcDbBlockEnd
  0
BLOCK
  5
47C
330
47B
100
AcDbEntity
  8
0
100
AcDbBlockBegin
  2
*D14
 70
     1
 10
0.0
 20
0.0
 30
0.0
  3
*D14
  1

  0
LINE
  5
47D
330
47B
100
AcDbEntity
  8
wymiary
 62
     0
100
AcDbLine
 10
1997.220091378174
 20
4633.205471650028
 30
0.0
 11
1997.220091378174
 21
4677.099755013752
 31
0.0
  0
LINE
  5
47E
330
47B
100
AcDbEntity
  8
wymiary
 62
     0
100
AcDbLine
 10
2742.220091378174
 20
4633.205471650028
 30
0.0
 11
2742.220091378174
 21
4677.099755013752
 31
0.0
  0
LINE
  5
47F
330
47B
100
AcDbEntity
  8
wymiary
 62
     0
370
    -2
100
AcDbLine
 10
2017.220091378174
 20
4677.099755013752
 30
0.0
 11
2722.220091378174
 21
4677.099755013752
 31
0.0
  0
SOLID
  5
480
330
47B
100
AcDbEntity
  8
wymiary
 62
     0
100
AcDbTrace
 10
2017.220091378174
 20
4680.433088347085
 30
0.0
 11
2017.220091378174
 21
4673.766421680419
 31
0.0
 12
1997.220091378174
 22
4677.099755013752
 32
0.0
 13
1997.220091378174
 23
4677.099755013752
 33
0.0
  0
SOLID
  5
481
330
47B
100
AcDbEntity
  8
wymiary
 62
     0
100
AcDbTrace
 10
2722.220091378174
 20
4680.433088347085
 30
0.0
 11
2722.220091378174
 21
4673.766421680419
 31
0.0
 12
2742.220091378174
 22
4677.099755013752
 32
0.0
 13
2742.220091378174
 23
4677.099755013752
 33
0.0
  0
MTEXT
  5
482
330
47B
100
AcDbEntity
  8
wymiary
 62
     0
100
AcDbMText
 10
2369.720091378175
 20
4690.599755013752
 30
0.0
 40
15.0
 41
0.0
 71
     5
 72
     1
  1
745
 73
     1
 44
1.0
1001
ACAD
1000
MTEXTBEGIN
1070
    73
1070
     1
1070
    44
1040
1.0
1070
    74
1070
     0
1000
MTEXTEND
  0
POINT
  5
483
330
47B
100
AcDbEntity
  8
Defpoints
 62
     0
100
AcDbPoint
 10
1997.220091378174
 20
4633.205471650028
 30
0.0
  0
POINT
  5
484
330
47B
100
AcDbEntity
  8
Defpoints
 62
     0
100
AcDbPoint
 10
2742.220091378174
 20
4633.205471650028
 30
0.0
  0
POINT
  5
485
330
47B
100
AcDbEntity
  8
Defpoints
 62
     0
100
AcDbPoint
 10
2742.220091378174
 20
4677.099755013752
 30
0.0
  0
ENDBLK
  5
486
330
47B
100
AcDbEntity
  8
0
100
AcDbBlockEnd
  0
BLOCK
  5
488
330
487
100
AcDbEntity
  8
0
100
AcDbBlockBegin
  2
*D15
 70
     1
 10
0.0
 20
0.0
 30
0.0
  3
*D15
  1

  0
LINE
  5
489
330
487
100
AcDbEntity
  8
wymiary
 62
     0
370
    -2
100
AcDbLine
 10
2447.220091378174
 20
4413.205471650027
 30
0.0
 11
2017.220091378175
 21
4413.205471650027
 31
0.0
  0
SOLID
  5
48A
330
487
100
AcDbEntity
  8
wymiary
 62
     0
100
AcDbTrace
 10
2447.220091378174
 20
4416.53880498336
 30
0.0
 11
2447.220091378174
 21
4409.872138316695
 31
0.0
 12
2467.220091378174
 22
4413.205471650027
 32
0.0
 13
2467.220091378174
 23
4413.205471650027
 33
0.0
  0
SOLID
  5
48B
330
487
100
AcDbEntity
  8
wymiary
 62
     0
100
AcDbTrace
 10
2017.220091378175
 20
4416.53880498336
 30
0.0
 11
2017.220091378175
 21
4409.872138316695
 31
0.0
 12
1997.220091378174
 22
4413.205471650027
 32
0.0
 13
1997.220091378174
 23
4413.205471650027
 33
0.0
  0
MTEXT
  5
48C
330
487
100
AcDbEntity
  8
wymiary
 62
     0
100
AcDbMText
 10
2232.220091378175
 20
4426.705471650028
 30
0.0
 40
15.0
 41
0.0
 71
     5
 72
     1
  1
470
 73
     1
 44
1.0
1001
ACAD
1000
MTEXTBEGIN
1070
    73
1070
     1
1070
    44
1040
1.0
1070
    74
1070
     0
1000
MTEXTEND
  0
POINT
  5
48D
330
487
100
AcDbEntity
  8
Defpoints
 62
     0
100
AcDbPoint
 10
2467.220091378174
 20
4413.205471650027
 30
0.0
  0
POINT
  5
48E
330
487
100
AcDbEntity
  8
Defpoints
 62
     0
100
AcDbPoint
 10
1997.220091378174
 20
4413.205471650029
 30
0.0
  0
POINT
  5
48F
330
487
100
AcDbEntity
  8
Defpoints
 62
     0
100
AcDbPoint
 10
1997.220091378174
 20
4413.205471650027
 30
0.0
  0
ENDBLK
  5
490
330
487
100
AcDbEntity
  8
0
100
AcDbBlockEnd
  0
BLOCK
  5
492
330
491
100
AcDbEntity
  8
0
100
AcDbBlockBegin
  2
*D16
 70
     1
 10
0.0
 20
0.0
 30
0.0
  3
*D16
  1

  0
LINE
  5
493
330
491
100
AcDbEntity
  8
wymiary
 62
     0
370
    -2
100
AcDbLine
 10
2467.220091378174
 20
4433.205471650028
 30
0.0
 11
2467.220091378174
 21
4613.205471650028
 31
0.0
  0
SOLID
  5
494
330
491
100
AcDbEntity
  8
wymiary
 62
     0
100
AcDbTrace
 10
2463.886758044841
 20
4433.205471650028
 30
0.0
 11
2470.553424711508
 21
4433.205471650028
 31
0.0
 12
2467.220091378174
 22
4413.205471650027
 32
0.0
 13
2467.220091378174
 23
4413.205471650027
 33
0.0
  0
SOLID
  5
495
330
491
100
AcDbEntity
  8
wymiary
 62
     0
100
AcDbTrace
 10
2463.886758044841
 20
4613.205471650028
 30
0.0
 11
2470.553424711508
 21
4613.205471650028
 31
0.0
 12
2467.220091378174
 22
4633.205471650028
 32
0.0
 13
2467.220091378174
 23
4633.205471650028
 33
0.0
  0
MTEXT
  5
496
330
491
100
AcDbEntity
  8
wymiary
 62
     0
100
AcDbMText
 10
2453.720091378174
 20
4523.20547165003
 30
0.0
 40
15.0
 41
0.0
 71
     5
 72
     1
  1
220
 11
0.0000000000000001
 21
1.0
 31
0.0
 73
     1
 44
1.0
1001
ACAD
1000
MTEXTBEGIN
1070
    73
1070
     1
1070
    44
1040
1.0
1070
    74
1070
     0
1000
MTEXTEND
  0
POINT
  5
497
330
491
100
AcDbEntity
  8
Defpoints
 62
     0
100
AcDbPoint
 10
2467.220091378174
 20
4413.205471650027
 30
0.0
  0
POINT
  5
498
330
491
100
AcDbEntity
  8
Defpoints
 62
     0
100
AcDbPoint
 10
2467.220091378178
 20
4633.205471650028
 30
0.0
  0
POINT
  5
499
330
491
100
AcDbEntity
  8
Defpoints
 62
     0
100
AcDbPoint
 10
2467.220091378174
 20
4633.205471650028
 30
0.0
  0
ENDBLK
  5
49A
330
491
100
AcDbEntity
  8
0
100
AcDbBlockEnd
  0
BLOCK
  5
49C
330
49B
100
AcDbEntity
  8
0
100
AcDbBlockBegin
  2
*D17
 70
     1
 10
0.0
 20
0.0
 30
0.0
  3
*D17
  1

  0
LINE
  5
49D
330
49B
100
AcDbEntity
  8
wymiary
 62
     0
370
    -2
100
AcDbLine
 10
2252.220091378175
 20
3963.205471650028
 30
0.0
 11
2017.220091378174
 21
3963.205471650028
 31
0.0
  0
SOLID
  5
49E
330
49B
100
AcDbEntity
  8
wymiary
 62
     0
100
AcDbTrace
 10
2252.220091378175
 20
3966.538804983361
 30
0.0
 11
2252.220091378175
 21
3959.872138316695
 31
0.0
 12
2272.220091378175
 22
3963.205471650028
 32
0.0
 13
2272.220091378175
 23
3963.205471650028
 33
0.0
  0
SOLID
  5
49F
330
49B
100
AcDbEntity
  8
wymiary
 62
     0
100
AcDbTrace
 10
2017.220091378174
 20
3966.538804983361
 30
0.0
 11
2017.220091378174
 21
3959.872138316695
 31
0.0
 12
1997.220091378174
 22
3963.205471650028
 32
0.0
 13
1997.220091378174
 23
3963.205471650028
 33
0.0
  0
MTEXT
  5
4A0
330
49B
100
AcDbEntity
  8
wymiary
 62
     0
100
AcDbMText
 10
2134.720091378174
 20
3976.705471650028
 30
0.0
 40
15.0
 41
0.0
 71
     5
 72
     1
  1
275
 73
     1
 44
1.0
1001
ACAD
1000
MTEXTBEGIN
1070
    73
1070
     1
1070
    44
1040
1.0
1070
    74
1070
     0
1000
MTEXTEND
  0
POINT
  5
4A1
330
49B
100
AcDbEntity
  8
Defpoints
 62
     0
100
AcDbPoint
 10
2272.220091378175
 20
3963.205471650028
 30
0.0
  0
POINT
  5
4A2
330
49B
100
AcDbEntity
  8
Defpoints
 62
     0
100
AcDbPoint
 10
1997.220091378174
 20
3963.205471650026
 30
0.0
  0
POINT
  5
4A3
330
49B
100
AcDbEntity
  8
Defpoints
 62
     0
100
AcDbPoint
 10
1997.220091378174
 20
3963.205471650028
 30
0.0
  0
ENDBLK
  5
4A4
330
49B
100
AcDbEntity
  8
0
100
AcDbBlockEnd
  0
BLOCK
  5
4A6
330
4A5
100
AcDbEntity
  8
0
100
AcDbBlockBegin
  2
*D18
 70
     1
 10
0.0
 20
0.0
 30
0.0
  3
*D18
  1

  0
LINE
  5
4A7
330
4A5
100
AcDbEntity
  8
wymiary
 62
     0
370
    -2
100
AcDbLine
 10
2272.220091378175
 20
3943.205471650028
 30
0.0
 11
2272.220091378175
 21
3713.205471650028
 31
0.0
  0
SOLID
  5
4A8
330
4A5
100
AcDbEntity
  8
wymiary
 62
     0
100
AcDbTrace
 10
2268.886758044841
 20
3943.205471650028
 30
0.0
 11
2275.553424711508
 21
3943.205471650028
 31
0.0
 12
2272.220091378175
 22
3963.205471650028
 32
0.0
 13
2272.220091378175
 23
3963.205471650028
 33
0.0
  0
SOLID
  5
4A9
330
4A5
100
AcDbEntity
  8
wymiary
 62
     0
100
AcDbTrace
 10
2268.886758044841
 20
3713.205471650028
 30
0.0
 11
2275.553424711508
 21
3713.205471650028
 31
0.0
 12
2272.220091378175
 22
3693.205471650028
 32
0.0
 13
2272.220091378175
 23
3693.205471650028
 33
0.0
  0
MTEXT
  5
4AA
330
4A5
100
AcDbEntity
  8
wymiary
 62
     0
100
AcDbMText
 10
2258.720091378174
 20
3828.205471650028
 30
0.0
 40
15.0
 41
0.0
 71
     5
 72
     1
  1
270
 11
0.0000000000000001
 21
1.0
 31
0.0
 73
     1
 44
1.0
1001
ACAD
1000
MTEXTBEGIN
1070
    73
1070
     1
1070
    44
1040
1.0
1070
    74
1070
     0
1000
MTEXTEND
  0
POINT
  5
4AB
330
4A5
100
AcDbEntity
  8
Defpoints
 62
     0
100
AcDbPoint
 10
2272.220091378175
 20
3963.205471650028
 30
0.0
  0
POINT
  5
4AC
330
4A5
100
AcDbEntity
  8
Defpoints
 62
     0
100
AcDbPoint
 10
2272.220091378174
 20
3693.205471650028
 30
0.0
  0
POINT
  5
4AD
330
4A5
100
AcDbEntity
  8
Defpoints
 62
     0
100
AcDbPoint
 10
2272.220091378175
 20
3693.205471650028
 30
0.0
  0
ENDBLK
  5
4AE
330
4A5
100
AcDbEntity
  8
0
100
AcDbBlockEnd
  0
BLOCK
  5
4B0
330
4AF
100
AcDbEntity
  8
0
100
AcDbBlockBegin
  2
*D19
 70
     1
 10
0.0
 20
0.0
 30
0.0
  3
*D19
  1

  0
LINE
  5
4B1
330
4AF
100
AcDbEntity
  8
wymiary
 62
     0
370
    -2
100
AcDbLine
 10
-723.1592907837685
 20
4330.943346981483
 30
0.0
 11
-1043.365117370464
 21
4495.467596318571
 31
0.0
  0
MTEXT
  5
4B2
102
{ACAD_XDICTIONARY
360
C1B
102
}
330
4AF
100
AcDbEntity
  8
wymiary
 62
     0
100
AcDbMText
 10
-979.0064494952714
 20
4483.028011127572
 30
0.0
 40
15.0
 41
0.0
 71
     5
 72
     1
  1
\U+2205400
 11
0.8894606294074867
 21
-0.4570118037141246
 31
0.0
 73
     1
 44
1.0
1001
ACAD
1000
MTEXTBEGIN
1070
    73
1070
     1
1070
    44
1040
1.0
1070
    74
1070
     0
1000
MTEXTEND
  0
SOLID
  5
4B3
330
4AF
100
AcDbEntity
  8
wymiary
 62
     0
100
AcDbTrace
 10
-721.6359181047216
 20
4333.908215746177
 30
0.0
 11
-724.682663462816
 21
4327.978478216794
 31
0.0
 12
-705.3700781956191
 22
4321.803110907203
 32
0.0
 13
-705.3700781956191
 23
4321.803110907203
 33
0.0
  0
SOLID
  5
4B4
330
4AF
100
AcDbEntity
  8
wymiary
 62
     0
100
AcDbTrace
 10
-1041.841744691417
 20
4498.432465083261
 30
0.0
 11
-1044.888490049511
 21
4492.502727553878
 31
0.0
 12
-1061.154329958614
 22
4504.607832392852
 32
0.0
 13
-1061.154329958614
 23
4504.607832392852
 33
0.0
  0
POINT
  5
4B5
330
4AF
100
AcDbEntity
  8
Defpoints
 62
     0
100
AcDbPoint
 10
-1061.154329958614
 20
4504.607832392852
 30
0.0
  0
POINT
  5
4B6
330
4AF
100
AcDbEntity
  8
Defpoints
 62
     0
100
AcDbPoint
 10
-705.3700781956191
 20
4321.803110907203
 30
0.0
  0
ENDBLK
  5
4B7
330
4AF
100
AcDbEntity
  8
0
100
AcDbBlockEnd
  0
BLOCK
  5
4B9
330
4B8
100
AcDbEntity
  8
0
100
AcDbBlockBegin
  2
*D20
 70
     1
 10
0.0
 20
0.0
 30
0.0
  3
*D20
  1

  0
LINE
  5
4BA
330
4B8
100
AcDbEntity
  8
wymiary
 62
     0
370
    -2
100
AcDbLine
 10
-522.5978179134697
 20
3892.811500622517
 30
0.0
 11
-853.9265902407635
 21
4033.59944267754
 31
0.0
  0
MTEXT
  5
4BB
102
{ACAD_XDICTIONARY
360
C1D
102
}
330
4B8
100
AcDbEntity
  8
wymiary
 62
     0
100
AcDbMText
 10
-752.7231284507197
 20
4013.06648474896
 30
0.0
 40
15.0
 41
0.0
 71
     5
 72
     1
  1
\U+2205400
 11
0.9203577009091491
 21
-0.3910776168195071
 31
0.0
 73
     1
 44
1.0
1001
ACAD
1000
MTEXTBEGIN
1070
    73
1070
     1
1070
    44
1040
1.0
1070
    74
1070
     0
1000
MTEXTEND
  0
SOLID
  5
4BC
330
4B8
100
AcDbEntity
  8
wymiary
 62
     0
100
AcDbTrace
 10
-521.2942258574046
 20
3895.879359625548
 30
0.0
 11
-523.9014099695348
 21
3889.743641619487
 31
0.0
 12
-504.1906638952866
 22
3884.989948286128
 32
0.0
 13
-504.1906638952866
 23
3884.989948286128
 33
0.0
  0
SOLID
  5
4BD
330
4B8
100
AcDbEntity
  8
wymiary
 62
     0
100
AcDbTrace
 10
-852.6229981846986
 20
4036.667301680568
 30
0.0
 11
-855.2301822968289
 21
4030.531583674508
 31
0.0
 12
-872.3337442589466
 22
4041.420995013928
 32
0.0
 13
-872.3337442589466
 23
4041.420995013928
 33
0.0
  0
POINT
  5
4BE
330
4B8
100
AcDbEntity
  8
Defpoints
 62
     0
100
AcDbPoint
 10
-872.3337442589466
 20
4041.420995013928
 30
0.0
  0
POINT
  5
4BF
330
4B8
100
AcDbEntity
  8
Defpoints
 62
     0
100
AcDbPoint
 10
-504.1906638952866
 20
3884.989948286128
 30
0.0
  0
ENDBLK
  5
4C0
330
4B8
100
AcDbEntity
  8
0
100
AcDbBlockEnd
  0
BLOCK
  5
4C2
330
4C1
100
AcDbEntity
  8
0
100
AcDbBlockBegin
  2
*D21
 70
     1
 10
0.0
 20
0.0
 30
0.0
  3
*D21
  1

  0
LINE
  5
4C3
330
4C1
100
AcDbEntity
  8
wymiary
 62
     0
370
    -2
100
AcDbLine
 10
2627.67481301087
 20
4331.631687222832
 30
0.0
 11
2306.765369745481
 21
4494.779256077225
 31
0.0
  0
MTEXT
  5
4C4
102
{ACAD_XDICTIONARY
360
C1F
102
}
330
4C1
100
AcDbEntity
  8
wymiary
 62
     0
100
AcDbMText
 10
2378.596565776033
 20
4476.160516418826
 30
0.0
 40
15.0
 41
0.0
 71
     5
 72
     1
  1
\U+2205400
 11
0.8914151201816324
 21
-0.4531876912622031
 31
0.0
 73
     1
 44
1.0
1001
ACAD
1000
MTEXTBEGIN
1070
    73
1070
     1
1070
    44
1040
1.0
1070
    74
1070
     0
1000
MTEXTEND
  0
SOLID
  5
4C5
330
4C1
100
AcDbEntity
  8
wymiary
 62
     0
100
AcDbTrace
 10
2629.18543864841
 20
4334.60307095677
 30
0.0
 11
2626.164187373329
 21
4328.660303488893
 31
0.0
 12
2645.503115414503
 22
4322.567933397587
 32
0.0
 13
2645.503115414503
 23
4322.567933397587
 33
0.0
  0
SOLID
  5
4C6
330
4C1
100
AcDbEntity
  8
wymiary
 62
     0
100
AcDbTrace
 10
2308.275995383022
 20
4497.750639811163
 30
0.0
 11
2305.254744107941
 21
4491.807872343286
 31
0.0
 12
2288.937067341849
 22
4503.843009902469
 32
0.0
 13
2288.937067341849
 23
4503.843009902469
 33
0.0
  0
POINT
  5
4C7
330
4C1
100
AcDbEntity
  8
Defpoints
 62
     0
100
AcDbPoint
 10
2288.937067341849
 20
4503.843009902469
 30
0.0
  0
POINT
  5
4C8
330
4C1
100
AcDbEntity
  8
Defpoints
 62
     0
100
AcDbPoint
 10
2645.503115414503
 20
4322.567933397587
 30
0.0
  0
ENDBLK
  5
4C9
330
4C1
100
AcDbEntity
  8
0
100
AcDbBlockEnd
  0
BLOCK
  5
4CB
330
4CA
100
AcDbEntity
  8
0
100
AcDbBlockBegin
  2
*D22
 70
     1
 10
0.0
 20
0.0
 30
0.0
  3
*D22
  1

  0
LINE
  5
4CC
330
4CA
100
AcDbEntity
  8
wymiary
 62
     0
370
    -2
100
AcDbLine
 10
2433.18529530772
 20
3882.643674724191
 30
0.0
 11
2111.254887448629
 21
4043.767268575865
 31
0.0
  0
MTEXT
  5
4CD
102
{ACAD_XDICTIONARY
360
C21
102
}
330
4CA
100
AcDbEntity
  8
wymiary
 62
     0
100
AcDbMText
 10
2217.915854733263
 20
4012.204540227182
 30
0.0
 40
15.0
 41
0.0
 71
     5
 72
     1
  1
\U+2205400
 11
0.8942511329419197
 21
-0.4475655384768728
 31
0.0
 73
     1
 44
1.0
1001
ACAD
1000
MTEXTBEGIN
1070
    73
1070
     1
1070
    44
1040
1.0
1070
    74
1070
     0
1000
MTEXTEND
  0
SOLID
  5
4CE
330
4CA
100
AcDbEntity
  8
wymiary
 62
     0
100
AcDbTrace
 10
2434.677180435976
 20
3885.624511833998
 30
0.0
 11
2431.693410179464
 21
3879.662837614385
 31
0.0
 12
2451.070317966558
 22
3873.692363954654
 32
0.0
 13
2451.070317966558
 23
3873.692363954654
 33
0.0
  0
SOLID
  5
4CF
330
4CA
100
AcDbEntity
  8
wymiary
 62
     0
100
AcDbTrace
 10
2112.746772576885
 20
4046.748105685671
 30
0.0
 11
2109.763002320373
 21
4040.786431466059
 31
0.0
 12
2093.36986478979
 22
4052.718579345403
 32
0.0
 13
2093.36986478979
 23
4052.718579345403
 33
0.0
  0
POINT
  5
4D0
330
4CA
100
AcDbEntity
  8
Defpoints
 62
     0
100
AcDbPoint
 10
2093.36986478979
 20
4052.718579345403
 30
0.0
  0
POINT
  5
4D1
330
4CA
100
AcDbEntity
  8
Defpoints
 62
     0
100
AcDbPoint
 10
2451.070317966558
 20
3873.692363954654
 30
0.0
  0
ENDBLK
  5
4D2
330
4CA
100
AcDbEntity
  8
0
100
AcDbBlockEnd
  0
BLOCK
  5
517
330
510
100
AcDbEntity
  8
0
100
AcDbBlockBegin
  2
*D23
 70
     1
 10
0.0
 20
0.0
 30
0.0
  3
*D23
  1

  0
LINE
  5
678
330
510
100
AcDbEntity
  8
wymiary
 62
     0
370
    -2
100
AcDbLine
 10
2433.185295307719
 20
3882.643674724191
 30
0.0
 11
2111.254887448629
 21
4043.767268575865
 31
0.0
  0
MTEXT
  5
679
102
{ACAD_XDICTIONARY
360
C2D
102
}
330
510
100
AcDbEntity
  8
wymiary
 62
     0
100
AcDbMText
 10
2217.915854733262
 20
4012.204540227182
 30
0.0
 40
15.0
 41
0.0
 71
     5
 72
     1
  1
\U+2205400
 11
0.894251132941919
 21
-0.4475655384768743
 31
0.0
 73
     1
 44
1.0
1001
ACAD
1000
MTEXTBEGIN
1070
    73
1070
     1
1070
    44
1040
1.0
1070
    74
1070
     0
1000
MTEXTEND
  0
SOLID
  5
67A
330
510
100
AcDbEntity
  8
wymiary
 62
     0
100
AcDbTrace
 10
2434.677180435976
 20
3885.624511833997
 30
0.0
 11
2431.693410179464
 21
3879.662837614385
 31
0.0
 12
2451.070317966558
 22
3873.692363954654
 32
0.0
 13
2451.070317966558
 23
3873.692363954654
 33
0.0
  0
SOLID
  5
67B
330
510
100
AcDbEntity
  8
wymiary
 62
     0
100
AcDbTrace
 10
2112.746772576885
 20
4046.748105685671
 30
0.0
 11
2109.763002320372
 21
4040.786431466059
 31
0.0
 12
2093.36986478979
 22
4052.718579345403
 32
0.0
 13
2093.36986478979
 23
4052.718579345403
 33
0.0
  0
POINT
  5
67C
330
510
100
AcDbEntity
  8
Defpoints
 62
     0
100
AcDbPoint
 10
2093.36986478979
 20
4052.718579345403
 30
0.0
  0
POINT
  5
67D
330
510
100
AcDbEntity
  8
Defpoints
 62
     0
100
AcDbPoint
 10
2451.070317966558
 20
3873.692363954654
 30
0.0
  0
ENDBLK
  5
518
330
510
100
AcDbEntity
  8
0
100
AcDbBlockEnd
  0
BLOCK
  5
520
330
519
100
AcDbEntity
  8
0
100
AcDbBlockBegin
  2
*D24
 70
     1
 10
0.0
 20
0.0
 30
0.0
  3
*D24
  1

  0
LINE
  5
672
330
519
100
AcDbEntity
  8
wymiary
 62
     0
370
    -2
100
AcDbLine
 10
2627.674813010869
 20
4331.631687222832
 30
0.0
 11
2306.765369745481
 21
4494.779256077225
 31
0.0
  0
MTEXT
  5
673
102
{ACAD_XDICTIONARY
360
C2B
102
}
330
519
100
AcDbEntity
  8
wymiary
 62
     0
100
AcDbMText
 10
2378.596565776032
 20
4476.160516418826
 30
0.0
 40
15.0
 41
0.0
 71
     5
 72
     1
  1
\U+2205400
 11
0.8914151201816324
 21
-0.4531876912622031
 31
0.0
 73
     1
 44
1.0
1001
ACAD
1000
MTEXTBEGIN
1070
    73
1070
     1
1070
    44
1040
1.0
1070
    74
1070
     0
1000
MTEXTEND
  0
SOLID
  5
674
330
519
100
AcDbEntity
  8
wymiary
 62
     0
100
AcDbTrace
 10
2629.18543864841
 20
4334.60307095677
 30
0.0
 11
2626.164187373329
 21
4328.660303488893
 31
0.0
 12
2645.503115414502
 22
4322.567933397587
 32
0.0
 13
2645.503115414502
 23
4322.567933397587
 33
0.0
  0
SOLID
  5
675
330
519
100
AcDbEntity
  8
wymiary
 62
     0
100
AcDbTrace
 10
2308.275995383022
 20
4497.750639811163
 30
0.0
 11
2305.254744107941
 21
4491.807872343286
 31
0.0
 12
2288.937067341849
 22
4503.843009902469
 32
0.0
 13
2288.937067341849
 23
4503.843009902469
 33
0.0
  0
POINT
  5
676
330
519
100
AcDbEntity
  8
Defpoints
 62
     0
100
AcDbPoint
 10
2288.937067341849
 20
4503.843009902469
 30
0.0
  0
POINT
  5
677
330
519
100
AcDbEntity
  8
Defpoints
 62
     0
100
AcDbPoint
 10
2645.503115414502
 20
4322.567933397587
 30
0.0
  0
ENDBLK
  5
521
330
519
100
AcDbEntity
  8
0
100
AcDbBlockEnd
  0
BLOCK
  5
529
330
522
100
AcDbEntity
  8
0
100
AcDbBlockBegin
  2
*D25
 70
     1
 10
0.0
 20
0.0
 30
0.0
  3
*D25
  1

  0
LINE
  5
66C
330
522
100
AcDbEntity
  8
wymiary
 62
     0
370
    -2
100
AcDbLine
 10
-522.5978179134698
 20
3892.811500622519
 30
0.0
 11
-853.9265902407644
 21
4033.599442677537
 31
0.0
  0
MTEXT
  5
66D
102
{ACAD_XDICTIONARY
360
C29
102
}
330
522
100
AcDbEntity
  8
wymiary
 62
     0
100
AcDbMText
 10
-752.7231284507206
 20
4013.06648474896
 30
0.0
 40
15.0
 41
0.0
 71
     5
 72
     1
  1
\U+2205400
 11
0.9203577009091512
 21
-0.3910776168195026
 31
0.0
 73
     1
 44
1.0
1001
ACAD
1000
MTEXTBEGIN
1070
    73
1070
     1
1070
    44
1040
1.0
1070
    74
1070
     0
1000
MTEXTEND
  0
SOLID
  5
66E
330
522
100
AcDbEntity
  8
wymiary
 62
     0
100
AcDbTrace
 10
-521.2942258574047
 20
3895.879359625548
 30
0.0
 11
-523.9014099695349
 21
3889.743641619487
 31
0.0
 12
-504.1906638952869
 22
3884.989948286128
 32
0.0
 13
-504.1906638952869
 23
3884.989948286128
 33
0.0
  0
SOLID
  5
66F
330
522
100
AcDbEntity
  8
wymiary
 62
     0
100
AcDbTrace
 10
-852.6229981846991
 20
4036.667301680568
 30
0.0
 11
-855.2301822968292
 21
4030.531583674508
 31
0.0
 12
-872.3337442589473
 22
4041.420995013928
 32
0.0
 13
-872.3337442589473
 23
4041.420995013928
 33
0.0
  0
POINT
  5
670
330
522
100
AcDbEntity
  8
Defpoints
 62
     0
100
AcDbPoint
 10
-872.3337442589473
 20
4041.420995013928
 30
0.0
  0
POINT
  5
671
330
522
100
AcDbEntity
  8
Defpoints
 62
     0
100
AcDbPoint
 10
-504.1906638952869
 20
3884.989948286128
 30
0.0
  0
ENDBLK
  5
52A
330
522
100
AcDbEntity
  8
0
100
AcDbBlockEnd
  0
BLOCK
  5
532
330
52B
100
AcDbEntity
  8
0
100
AcDbBlockBegin
  2
*D26
 70
     1
 10
0.0
 20
0.0
 30
0.0
  3
*D26
  1

  0
LINE
  5
666
330
52B
100
AcDbEntity
  8
wymiary
 62
     0
370
    -2
100
AcDbLine
 10
-723.1592907837693
 20
4330.943346981483
 30
0.0
 11
-1043.365117370465
 21
4495.467596318569
 31
0.0
  0
MTEXT
  5
667
102
{ACAD_XDICTIONARY
360
C27
102
}
330
52B
100
AcDbEntity
  8
wymiary
 62
     0
100
AcDbMText
 10
-979.006449495271
 20
4483.02801112757
 30
0.0
 40
15.0
 41
0.0
 71
     5
 72
     1
  1
\U+2205400
 11
0.8894606294074872
 21
-0.4570118037141239
 31
0.0
 73
     1
 44
1.0
1001
ACAD
1000
MTEXTBEGIN
1070
    73
1070
     1
1070
    44
1040
1.0
1070
    74
1070
     0
1000
MTEXTEND
  0
SOLID
  5
668
330
52B
100
AcDbEntity
  8
wymiary
 62
     0
100
AcDbTrace
 10
-721.6359181047224
 20
4333.908215746176
 30
0.0
 11
-724.6826634628166
 21
4327.978478216794
 31
0.0
 12
-705.3700781956194
 22
4321.8031109072
 32
0.0
 13
-705.3700781956194
 23
4321.8031109072
 33
0.0
  0
SOLID
  5
669
330
52B
100
AcDbEntity
  8
wymiary
 62
     0
100
AcDbTrace
 10
-1041.841744691417
 20
4498.432465083261
 30
0.0
 11
-1044.888490049512
 21
4492.502727553875
 31
0.0
 12
-1061.154329958614
 22
4504.607832392851
 32
0.0
 13
-1061.154329958614
 23
4504.607832392851
 33
0.0
  0
POINT
  5
66A
330
52B
100
AcDbEntity
  8
Defpoints
 62
     0
100
AcDbPoint
 10
-1061.154329958614
 20
4504.607832392851
 30
0.0
  0
POINT
  5
66B
330
52B
100
AcDbEntity
  8
Defpoints
 62
     0
100
AcDbPoint
 10
-705.3700781956194
 20
4321.8031109072
 30
0.0
  0
ENDBLK
  5
533
330
52B
100
AcDbEntity
  8
0
100
AcDbBlockEnd
  0
BLOCK
  5
53C
330
534
100
AcDbEntity
  8
0
100
AcDbBlockBegin
  2
*D27
 70
     1
 10
0.0
 20
0.0
 30
0.0
  3
*D27
  1

  0
LINE
  5
65F
330
534
100
AcDbEntity
  8
wymiary
 62
     0
370
    -2
100
AcDbLine
 10
-668.2622040771166
 20
3963.205471650028
 30
0.0
 11
-433.2622040771166
 21
3963.205471650028
 31
0.0
  0
SOLID
  5
660
330
534
100
AcDbEntity
  8
wymiary
 62
     0
100
AcDbTrace
 10
-668.2622040771166
 20
3966.538804983361
 30
0.0
 11
-668.2622040771166
 21
3959.872138316695
 31
0.0
 12
-688.2622040771167
 22
3963.205471650028
 32
0.0
 13
-688.2622040771167
 23
3963.205471650028
 33
0.0
  0
SOLID
  5
661
330
534
100
AcDbEntity
  8
wymiary
 62
     0
100
AcDbTrace
 10
-433.2622040771166
 20
3966.538804983361
 30
0.0
 11
-433.2622040771166
 21
3959.872138316695
 31
0.0
 12
-413.2622040771166
 22
3963.205471650028
 32
0.0
 13
-413.2622040771166
 23
3963.205471650028
 33
0.0
  0
MTEXT
  5
662
330
534
100
AcDbEntity
  8
wymiary
 62
     0
100
AcDbMText
 10
-550.7622040771166
 20
3976.705471650028
 30
0.0
 40
15.0
 41
0.0
 71
     5
 72
     1
  1
275
 73
     1
 44
1.0
1001
ACAD
1000
MTEXTBEGIN
1070
    73
1070
     1
1070
    44
1040
1.0
1070
    74
1070
     0
1000
MTEXTEND
  0
POINT
  5
663
330
534
100
AcDbEntity
  8
Defpoints
 62
     0
100
AcDbPoint
 10
-688.2622040771167
 20
3963.205471650028
 30
0.0
  0
POINT
  5
664
330
534
100
AcDbEntity
  8
Defpoints
 62
     0
100
AcDbPoint
 10
-413.2622040771166
 20
3963.205471650026
 30
0.0
  0
POINT
  5
665
330
534
100
AcDbEntity
  8
Defpoints
 62
     0
100
AcDbPoint
 10
-413.2622040771166
 20
3963.205471650028
 30
0.0
  0
ENDBLK
  5
53D
330
534
100
AcDbEntity
  8
0
100
AcDbBlockEnd
  0
BLOCK
  5
546
330
53E
100
AcDbEntity
  8
0
100
AcDbBlockBegin
  2
*D28
 70
     1
 10
0.0
 20
0.0
 30
0.0
  3
*D28
  1

  0
LINE
  5
658
330
53E
100
AcDbEntity
  8
wymiary
 62
     0
370
    -2
100
AcDbLine
 10
-688.2622040771165
 20
3943.205471650028
 30
0.0
 11
-688.2622040771167
 21
3713.205471650028
 31
0.0
  0
SOLID
  5
659
330
53E
100
AcDbEntity
  8
wymiary
 62
     0
100
AcDbTrace
 10
-691.5955374104497
 20
3943.205471650028
 30
0.0
 11
-684.9288707437831
 21
3943.205471650028
 31
0.0
 12
-688.2622040771165
 22
3963.205471650028
 32
0.0
 13
-688.2622040771165
 23
3963.205471650028
 33
0.0
  0
SOLID
  5
65A
330
53E
100
AcDbEntity
  8
wymiary
 62
     0
100
AcDbTrace
 10
-691.5955374104498
 20
3713.205471650028
 30
0.0
 11
-684.9288707437832
 21
3713.205471650028
 31
0.0
 12
-688.2622040771167
 22
3693.205471650028
 32
0.0
 13
-688.2622040771167
 23
3693.205471650028
 33
0.0
  0
MTEXT
  5
65B
330
53E
100
AcDbEntity
  8
wymiary
 62
     0
100
AcDbMText
 10
-701.7622040771173
 20
3828.205471650028
 30
0.0
 40
15.0
 41
0.0
 71
     5
 72
     1
  1
270
 11
0.0000000000000001
 21
1.0
 31
0.0
 73
     1
 44
1.0
1001
ACAD
1000
MTEXTBEGIN
1070
    73
1070
     1
1070
    44
1040
1.0
1070
    74
1070
     0
1000
MTEXTEND
  0
POINT
  5
65C
330
53E
100
AcDbEntity
  8
Defpoints
 62
     0
100
AcDbPoint
 10
-688.2622040771167
 20
3963.205471650028
 30
0.0
  0
POINT
  5
65D
330
53E
100
AcDbEntity
  8
Defpoints
 62
     0
100
AcDbPoint
 10
-688.2622040771167
 20
3693.205471650028
 30
0.0
  0
POINT
  5
65E
330
53E
100
AcDbEntity
  8
Defpoints
 62
     0
100
AcDbPoint
 10
-688.2622040771167
 20
3693.205471650028
 30
0.0
  0
ENDBLK
  5
547
330
53E
100
AcDbEntity
  8
0
100
AcDbBlockEnd
  0
BLOCK
  5
550
330
548
100
AcDbEntity
  8
0
100
AcDbBlockBegin
  2
*D29
 70
     1
 10
0.0
 20
0.0
 30
0.0
  3
*D29
  1

  0
LINE
  5
651
330
548
100
AcDbEntity
  8
wymiary
 62
     0
370
    -2
100
AcDbLine
 10
-863.2622040771165
 20
4413.205471650027
 30
0.0
 11
-433.2622040771166
 21
4413.205471650027
 31
0.0
  0
SOLID
  5
652
330
548
100
AcDbEntity
  8
wymiary
 62
     0
100
AcDbTrace
 10
-863.2622040771165
 20
4416.53880498336
 30
0.0
 11
-863.2622040771165
 21
4409.872138316695
 31
0.0
 12
-883.2622040771168
 22
4413.205471650027
 32
0.0
 13
-883.2622040771168
 23
4413.205471650027
 33
0.0
  0
SOLID
  5
653
330
548
100
AcDbEntity
  8
wymiary
 62
     0
100
AcDbTrace
 10
-433.2622040771166
 20
4416.53880498336
 30
0.0
 11
-433.2622040771166
 21
4409.872138316695
 31
0.0
 12
-413.2622040771166
 22
4413.205471650027
 32
0.0
 13
-413.2622040771166
 23
4413.205471650027
 33
0.0
  0
MTEXT
  5
654
330
548
100
AcDbEntity
  8
wymiary
 62
     0
100
AcDbMText
 10
-648.2622040771166
 20
4426.705471650028
 30
0.0
 40
15.0
 41
0.0
 71
     5
 72
     1
  1
470
 73
     1
 44
1.0
1001
ACAD
1000
MTEXTBEGIN
1070
    73
1070
     1
1070
    44
1040
1.0
1070
    74
1070
     0
1000
MTEXTEND
  0
POINT
  5
655
330
548
100
AcDbEntity
  8
Defpoints
 62
     0
100
AcDbPoint
 10
-883.2622040771168
 20
4413.205471650027
 30
0.0
  0
POINT
  5
656
330
548
100
AcDbEntity
  8
Defpoints
 62
     0
100
AcDbPoint
 10
-413.2622040771166
 20
4413.205471650029
 30
0.0
  0
POINT
  5
657
330
548
100
AcDbEntity
  8
Defpoints
 62
     0
100
AcDbPoint
 10
-413.2622040771166
 20
4413.205471650027
 30
0.0
  0
ENDBLK
  5
551
330
548
100
AcDbEntity
  8
0
100
AcDbBlockEnd
  0
BLOCK
  5
55A
330
552
100
AcDbEntity
  8
0
100
AcDbBlockBegin
  2
*D30
 70
     1
 10
0.0
 20
0.0
 30
0.0
  3
*D30
  1

  0
LINE
  5
64A
330
552
100
AcDbEntity
  8
wymiary
 62
     0
370
    -2
100
AcDbLine
 10
-883.2622040771168
 20
4433.205471650028
 30
0.0
 11
-883.2622040771168
 21
4613.205471650028
 31
0.0
  0
SOLID
  5
64B
330
552
100
AcDbEntity
  8
wymiary
 62
     0
100
AcDbTrace
 10
-886.5955374104499
 20
4433.205471650028
 30
0.0
 11
-879.9288707437833
 21
4433.205471650028
 31
0.0
 12
-883.2622040771168
 22
4413.205471650027
 32
0.0
 13
-883.2622040771168
 23
4413.205471650027
 33
0.0
  0
SOLID
  5
64C
330
552
100
AcDbEntity
  8
wymiary
 62
     0
100
AcDbTrace
 10
-886.5955374104499
 20
4613.205471650028
 30
0.0
 11
-879.9288707437833
 21
4613.205471650028
 31
0.0
 12
-883.2622040771168
 22
4633.205471650028
 32
0.0
 13
-883.2622040771168
 23
4633.205471650028
 33
0.0
  0
MTEXT
  5
64D
330
552
100
AcDbEntity
  8
wymiary
 62
     0
100
AcDbMText
 10
-896.7622040771173
 20
4523.205471650028
 30
0.0
 40
15.0
 41
0.0
 71
     5
 72
     1
  1
220
 11
0.0000000000000001
 21
1.0
 31
0.0
 73
     1
 44
1.0
1001
ACAD
1000
MTEXTBEGIN
1070
    73
1070
     1
1070
    44
1040
1.0
1070
    74
1070
     0
1000
MTEXTEND
  0
POINT
  5
64E
330
552
100
AcDbEntity
  8
Defpoints
 62
     0
100
AcDbPoint
 10
-883.2622040771168
 20
4413.205471650027
 30
0.0
  0
POINT
  5
64F
330
552
100
AcDbEntity
  8
Defpoints
 62
     0
100
AcDbPoint
 10
-883.2622040771202
 20
4633.205471650028
 30
0.0
  0
POINT
  5
650
330
552
100
AcDbEntity
  8
Defpoints
 62
     0
100
AcDbPoint
 10
-883.2622040771168
 20
4633.205471650028
 30
0.0
  0
ENDBLK
  5
55B
330
552
100
AcDbEntity
  8
0
100
AcDbBlockEnd
  0
BLOCK
  5
564
330
55C
100
AcDbEntity
  8
0
100
AcDbBlockBegin
  2
*D31
 70
     1
 10
0.0
 20
0.0
 30
0.0
  3
*D31
  1

  0
LINE
  5
643
330
55C
100
AcDbEntity
  8
wymiary
 62
     0
370
    -2
100
AcDbLine
 10
2272.220091378175
 20
3943.205471650028
 30
0.0
 11
2272.220091378175
 21
3713.205471650028
 31
0.0
  0
SOLID
  5
644
330
55C
100
AcDbEntity
  8
wymiary
 62
     0
100
AcDbTrace
 10
2268.886758044841
 20
3943.205471650028
 30
0.0
 11
2275.553424711508
 21
3943.205471650028
 31
0.0
 12
2272.220091378175
 22
3963.205471650028
 32
0.0
 13
2272.220091378175
 23
3963.205471650028
 33
0.0
  0
SOLID
  5
645
330
55C
100
AcDbEntity
  8
wymiary
 62
     0
100
AcDbTrace
 10
2268.886758044841
 20
3713.205471650028
 30
0.0
 11
2275.553424711508
 21
3713.205471650028
 31
0.0
 12
2272.220091378175
 22
3693.205471650028
 32
0.0
 13
2272.220091378175
 23
3693.205471650028
 33
0.0
  0
MTEXT
  5
646
330
55C
100
AcDbEntity
  8
wymiary
 62
     0
100
AcDbMText
 10
2258.720091378174
 20
3828.205471650028
 30
0.0
 40
15.0
 41
0.0
 71
     5
 72
     1
  1
270
 11
0.0000000000000001
 21
1.0
 31
0.0
 73
     1
 44
1.0
1001
ACAD
1000
MTEXTBEGIN
1070
    73
1070
     1
1070
    44
1040
1.0
1070
    74
1070
     0
1000
MTEXTEND
  0
POINT
  5
647
330
55C
100
AcDbEntity
  8
Defpoints
 62
     0
100
AcDbPoint
 10
2272.220091378175
 20
3963.205471650028
 30
0.0
  0
POINT
  5
648
330
55C
100
AcDbEntity
  8
Defpoints
 62
     0
100
AcDbPoint
 10
2272.220091378175
 20
3693.205471650028
 30
0.0
  0
POINT
  5
649
330
55C
100
AcDbEntity
  8
Defpoints
 62
     0
100
AcDbPoint
 10
2272.220091378175
 20
3693.205471650028
 30
0.0
  0
ENDBLK
  5
565
330
55C
100
AcDbEntity
  8
0
100
AcDbBlockEnd
  0
BLOCK
  5
56E
330
566
100
AcDbEntity
  8
0
100
AcDbBlockBegin
  2
*D32
 70
     1
 10
0.0
 20
0.0
 30
0.0
  3
*D32
  1

  0
LINE
  5
63C
330
566
100
AcDbEntity
  8
wymiary
 62
     0
370
    -2
100
AcDbLine
 10
2252.220091378175
 20
3963.205471650028
 30
0.0
 11
2017.220091378174
 21
3963.205471650028
 31
0.0
  0
SOLID
  5
63D
330
566
100
AcDbEntity
  8
wymiary
 62
     0
100
AcDbTrace
 10
2252.220091378175
 20
3966.538804983361
 30
0.0
 11
2252.220091378175
 21
3959.872138316695
 31
0.0
 12
2272.220091378175
 22
3963.205471650028
 32
0.0
 13
2272.220091378175
 23
3963.205471650028
 33
0.0
  0
SOLID
  5
63E
330
566
100
AcDbEntity
  8
wymiary
 62
     0
100
AcDbTrace
 10
2017.220091378174
 20
3966.538804983361
 30
0.0
 11
2017.220091378174
 21
3959.872138316695
 31
0.0
 12
1997.220091378174
 22
3963.205471650028
 32
0.0
 13
1997.220091378174
 23
3963.205471650028
 33
0.0
  0
MTEXT
  5
63F
330
566
100
AcDbEntity
  8
wymiary
 62
     0
100
AcDbMText
 10
2134.720091378174
 20
3976.705471650028
 30
0.0
 40
15.0
 41
0.0
 71
     5
 72
     1
  1
275
 73
     1
 44
1.0
1001
ACAD
1000
MTEXTBEGIN
1070
    73
1070
     1
1070
    44
1040
1.0
1070
    74
1070
     0
1000
MTEXTEND
  0
POINT
  5
640
330
566
100
AcDbEntity
  8
Defpoints
 62
     0
100
AcDbPoint
 10
2272.220091378175
 20
3963.205471650028
 30
0.0
  0
POINT
  5
641
330
566
100
AcDbEntity
  8
Defpoints
 62
     0
100
AcDbPoint
 10
1997.220091378174
 20
3963.205471650026
 30
0.0
  0
POINT
  5
642
330
566
100
AcDbEntity
  8
Defpoints
 62
     0
100
AcDbPoint
 10
1997.220091378174
 20
3963.205471650028
 30
0.0
  0
ENDBLK
  5
56F
330
566
100
AcDbEntity
  8
0
100
AcDbBlockEnd
  0
BLOCK
  5
578
330
570
100
AcDbEntity
  8
0
100
AcDbBlockBegin
  2
*D33
 70
     1
 10
0.0
 20
0.0
 30
0.0
  3
*D33
  1

  0
LINE
  5
635
330
570
100
AcDbEntity
  8
wymiary
 62
     0
370
    -2
100
AcDbLine
 10
2467.220091378174
 20
4433.205471650028
 30
0.0
 11
2467.220091378174
 21
4613.205471650028
 31
0.0
  0
SOLID
  5
636
330
570
100
AcDbEntity
  8
wymiary
 62
     0
100
AcDbTrace
 10
2463.886758044841
 20
4433.205471650028
 30
0.0
 11
2470.553424711508
 21
4433.205471650028
 31
0.0
 12
2467.220091378174
 22
4413.205471650027
 32
0.0
 13
2467.220091378174
 23
4413.205471650027
 33
0.0
  0
SOLID
  5
637
330
570
100
AcDbEntity
  8
wymiary
 62
     0
100
AcDbTrace
 10
2463.886758044841
 20
4613.205471650028
 30
0.0
 11
2470.553424711508
 21
4613.205471650028
 31
0.0
 12
2467.220091378174
 22
4633.205471650028
 32
0.0
 13
2467.220091378174
 23
4633.205471650028
 33
0.0
  0
MTEXT
  5
638
330
570
100
AcDbEntity
  8
wymiary
 62
     0
100
AcDbMText
 10
2453.720091378174
 20
4523.20547165003
 30
0.0
 40
15.0
 41
0.0
 71
     5
 72
     1
  1
220
 11
0.0000000000000001
 21
1.0
 31
0.0
 73
     1
 44
1.0
1001
ACAD
1000
MTEXTBEGIN
1070
    73
1070
     1
1070
    44
1040
1.0
1070
    74
1070
     0
1000
MTEXTEND
  0
POINT
  5
639
330
570
100
AcDbEntity
  8
Defpoints
 62
     0
100
AcDbPoint
 10
2467.220091378174
 20
4413.205471650027
 30
0.0
  0
POINT
  5
63A
330
570
100
AcDbEntity
  8
Defpoints
 62
     0
100
AcDbPoint
 10
2467.220091378178
 20
4633.205471650028
 30
0.0
  0
POINT
  5
63B
330
570
100
AcDbEntity
  8
Defpoints
 62
     0
100
AcDbPoint
 10
2467.220091378174
 20
4633.205471650028
 30
0.0
  0
ENDBLK
  5
579
330
570
100
AcDbEntity
  8
0
100
AcDbBlockEnd
  0
BLOCK
  5
582
330
57A
100
AcDbEntity
  8
0
100
AcDbBlockBegin
  2
*D34
 70
     1
 10
0.0
 20
0.0
 30
0.0
  3
*D34
  1

  0
LINE
  5
62E
330
57A
100
AcDbEntity
  8
wymiary
 62
     0
370
    -2
100
AcDbLine
 10
2447.220091378174
 20
4413.205471650027
 30
0.0
 11
2017.220091378174
 21
4413.205471650027
 31
0.0
  0
SOLID
  5
62F
330
57A
100
AcDbEntity
  8
wymiary
 62
     0
100
AcDbTrace
 10
2447.220091378174
 20
4416.53880498336
 30
0.0
 11
2447.220091378174
 21
4409.872138316695
 31
0.0
 12
2467.220091378174
 22
4413.205471650027
 32
0.0
 13
2467.220091378174
 23
4413.205471650027
 33
0.0
  0
SOLID
  5
630
330
57A
100
AcDbEntity
  8
wymiary
 62
     0
100
AcDbTrace
 10
2017.220091378174
 20
4416.53880498336
 30
0.0
 11
2017.220091378174
 21
4409.872138316695
 31
0.0
 12
1997.220091378174
 22
4413.205471650027
 32
0.0
 13
1997.220091378174
 23
4413.205471650027
 33
0.0
  0
MTEXT
  5
631
330
57A
100
AcDbEntity
  8
wymiary
 62
     0
100
AcDbMText
 10
2232.220091378175
 20
4426.705471650028
 30
0.0
 40
15.0
 41
0.0
 71
     5
 72
     1
  1
470
 73
     1
 44
1.0
1001
ACAD
1000
MTEXTBEGIN
1070
    73
1070
     1
1070
    44
1040
1.0
1070
    74
1070
     0
1000
MTEXTEND
  0
POINT
  5
632
330
57A
100
AcDbEntity
  8
Defpoints
 62
     0
100
AcDbPoint
 10
2467.220091378174
 20
4413.205471650027
 30
0.0
  0
POINT
  5
633
330
57A
100
AcDbEntity
  8
Defpoints
 62
     0
100
AcDbPoint
 10
1997.220091378174
 20
4413.205471650029
 30
0.0
  0
POINT
  5
634
330
57A
100
AcDbEntity
  8
Defpoints
 62
     0
100
AcDbPoint
 10
1997.220091378174
 20
4413.205471650027
 30
0.0
  0
ENDBLK
  5
583
330
57A
100
AcDbEntity
  8
0
100
AcDbBlockEnd
  0
BLOCK
  5
58E
330
584
100
AcDbEntity
  8
0
100
AcDbBlockBegin
  2
*D35
 70
     1
 10
0.0
 20
0.0
 30
0.0
  3
*D35
  1

  0
LINE
  5
625
330
584
100
AcDbEntity
  8
wymiary
 62
     0
100
AcDbLine
 10
1997.220091378174
 20
4633.205471650028
 30
0.0
 11
1997.220091378174
 21
4677.099755013752
 31
0.0
  0
LINE
  5
626
330
584
100
AcDbEntity
  8
wymiary
 62
     0
100
AcDbLine
 10
2742.220091378174
 20
4633.205471650028
 30
0.0
 11
2742.220091378174
 21
4677.099755013752
 31
0.0
  0
LINE
  5
627
330
584
100
AcDbEntity
  8
wymiary
 62
     0
370
    -2
100
AcDbLine
 10
2017.220091378174
 20
4677.099755013752
 30
0.0
 11
2722.220091378174
 21
4677.099755013752
 31
0.0
  0
SOLID
  5
628
330
584
100
AcDbEntity
  8
wymiary
 62
     0
100
AcDbTrace
 10
2017.220091378174
 20
4680.433088347085
 30
0.0
 11
2017.220091378174
 21
4673.766421680419
 31
0.0
 12
1997.220091378174
 22
4677.099755013752
 32
0.0
 13
1997.220091378174
 23
4677.099755013752
 33
0.0
  0
SOLID
  5
629
330
584
100
AcDbEntity
  8
wymiary
 62
     0
100
AcDbTrace
 10
2722.220091378174
 20
4680.433088347085
 30
0.0
 11
2722.220091378174
 21
4673.766421680419
 31
0.0
 12
2742.220091378174
 22
4677.099755013752
 32
0.0
 13
2742.220091378174
 23
4677.099755013752
 33
0.0
  0
MTEXT
  5
62A
330
584
100
AcDbEntity
  8
wymiary
 62
     0
100
AcDbMText
 10
2369.720091378175
 20
4690.599755013752
 30
0.0
 40
15.0
 41
0.0
 71
     5
 72
     1
  1
745
 73
     1
 44
1.0
1001
ACAD
1000
MTEXTBEGIN
1070
    73
1070
     1
1070
    44
1040
1.0
1070
    74
1070
     0
1000
MTEXTEND
  0
POINT
  5
62B
330
584
100
AcDbEntity
  8
Defpoints
 62
     0
100
AcDbPoint
 10
1997.220091378174
 20
4633.205471650028
 30
0.0
  0
POINT
  5
62C
330
584
100
AcDbEntity
  8
Defpoints
 62
     0
100
AcDbPoint
 10
2742.220091378174
 20
4633.205471650028
 30
0.0
  0
POINT
  5
62D
330
584
100
AcDbEntity
  8
Defpoints
 62
     0
100
AcDbPoint
 10
2742.220091378174
 20
4677.099755013752
 30
0.0
  0
ENDBLK
  5
58F
330
584
100
AcDbEntity
  8
0
100
AcDbBlockEnd
  0
BLOCK
  5
59A
330
590
100
AcDbEntity
  8
0
100
AcDbBlockBegin
  2
*D36
 70
     1
 10
0.0
 20
0.0
 30
0.0
  3
*D36
  1

  0
LINE
  5
85E
330
590
100
AcDbEntity
  8
wymiary
 62
     0
100
AcDbLine
 10
181.9789436505289
 20
4633.205471650028
 30
0.0
 11
97.12508567547615
 21
4633.205471650028
 31
0.0
  0
LINE
  5
85F
330
590
100
AcDbEntity
  8
wymiary
 62
     0
100
AcDbLine
 10
181.9789436505289
 20
3703.205471650028
 30
0.0
 11
97.12508567547594
 21
3703.205471650028
 31
0.0
  0
LINE
  5
860
330
590
100
AcDbEntity
  8
wymiary
 62
     0
370
    -2
100
AcDbLine
 10
97.12508567547615
 20
4613.205471650028
 30
0.0
 11
97.12508567547594
 21
3723.205471650028
 31
0.0
  0
SOLID
  5
861
330
590
100
AcDbEntity
  8
wymiary
 62
     0
100
AcDbTrace
 10
93.79175234214281
 20
4613.205471650028
 30
0.0
 11
100.4584190088094
 21
4613.205471650028
 31
0.0
 12
97.12508567547615
 22
4633.205471650028
 32
0.0
 13
97.12508567547615
 23
4633.205471650028
 33
0.0
  0
SOLID
  5
862
330
590
100
AcDbEntity
  8
wymiary
 62
     0
100
AcDbTrace
 10
93.79175234214262
 20
3723.205471650028
 30
0.0
 11
100.4584190088092
 21
3723.205471650028
 31
0.0
 12
97.12508567547594
 22
3703.205471650028
 32
0.0
 13
97.12508567547594
 23
3703.205471650028
 33
0.0
  0
MTEXT
  5
863
330
590
100
AcDbEntity
  8
wymiary
 62
     0
100
AcDbMText
 10
83.62508567547537
 20
4168.205471650028
 30
0.0
 40
15.0
 41
0.0
 71
     5
 72
     1
  1
930
 11
0.0000000000000001
 21
1.0
 31
0.0
 73
     1
 44
1.0
1001
ACAD
1000
MTEXTBEGIN
1070
    73
1070
     1
1070
    44
1040
1.0
1070
    74
1070
     0
1000
MTEXTEND
  0
POINT
  5
864
330
590
100
AcDbEntity
  8
Defpoints
 62
     0
100
AcDbPoint
 10
181.9789436505289
 20
4633.205471650028
 30
0.0
  0
POINT
  5
865
330
590
100
AcDbEntity
  8
Defpoints
 62
     0
100
AcDbPoint
 10
181.9789436505289
 20
3703.205471650028
 30
0.0
  0
POINT
  5
866
330
590
100
AcDbEntity
  8
Defpoints
 62
     0
100
AcDbPoint
 10
97.12508567547594
 20
3703.205471650028
 30
0.0
  0
ENDBLK
  5
59B
330
590
100
AcDbEntity
  8
0
100
AcDbBlockEnd
  0
BLOCK
  5
5A6
330
59C
100
AcDbEntity
  8
0
100
AcDbBlockBegin
  2
*D37
 70
     1
 10
0.0
 20
0.0
 30
0.0
  3
*D37
  1

  0
LINE
  5
613
330
59C
100
AcDbEntity
  8
wymiary
 62
     0
100
AcDbLine
 10
181.9789436505289
 20
4633.205471650028
 30
0.0
 11
181.9789436505289
 21
4677.099755013752
 31
0.0
  0
LINE
  5
614
330
59C
100
AcDbEntity
  8
wymiary
 62
     0
100
AcDbLine
 10
1401.978943650529
 20
4633.205471650028
 30
0.0
 11
1401.978943650529
 21
4677.099755013752
 31
0.0
  0
LINE
  5
615
330
59C
100
AcDbEntity
  8
wymiary
 62
     0
370
    -2
100
AcDbLine
 10
201.9789436505289
 20
4677.099755013752
 30
0.0
 11
1381.978943650529
 21
4677.099755013752
 31
0.0
  0
SOLID
  5
616
330
59C
100
AcDbEntity
  8
wymiary
 62
     0
100
AcDbTrace
 10
201.9789436505289
 20
4680.433088347085
 30
0.0
 11
201.9789436505289
 21
4673.766421680419
 31
0.0
 12
181.9789436505289
 22
4677.099755013752
 32
0.0
 13
181.9789436505289
 23
4677.099755013752
 33
0.0
  0
SOLID
  5
617
330
59C
100
AcDbEntity
  8
wymiary
 62
     0
100
AcDbTrace
 10
1381.978943650529
 20
4680.433088347085
 30
0.0
 11
1381.978943650529
 21
4673.766421680419
 31
0.0
 12
1401.978943650529
 22
4677.099755013752
 32
0.0
 13
1401.978943650529
 23
4677.099755013752
 33
0.0
  0
MTEXT
  5
618
330
59C
100
AcDbEntity
  8
wymiary
 62
     0
100
AcDbMText
 10
791.9789436505289
 20
4690.599755013752
 30
0.0
 40
15.0
 41
0.0
 71
     5
 72
     1
  1
1220
 73
     1
 44
1.0
1001
ACAD
1000
MTEXTBEGIN
1070
    73
1070
     1
1070
    44
1040
1.0
1070
    74
1070
     0
1000
MTEXTEND
  0
POINT
  5
619
330
59C
100
AcDbEntity
  8
Defpoints
 62
     0
100
AcDbPoint
 10
181.9789436505289
 20
4633.205471650028
 30
0.0
  0
POINT
  5
61A
330
59C
100
AcDbEntity
  8
Defpoints
 62
     0
100
AcDbPoint
 10
1401.978943650529
 20
4633.205471650028
 30
0.0
  0
POINT
  5
61B
330
59C
100
AcDbEntity
  8
Defpoints
 62
     0
100
AcDbPoint
 10
1401.978943650529
 20
4677.099755013752
 30
0.0
  0
ENDBLK
  5
5A7
330
59C
100
AcDbEntity
  8
0
100
AcDbBlockEnd
  0
BLOCK
  5
689
330
67F
100
AcDbEntity
  8
0
100
AcDbBlockBegin
  2
*D38
 70
     1
 10
0.0
 20
0.0
 30
0.0
  3
*D38
  1

  0
LINE
  5
6AE
330
67F
100
AcDbEntity
  8
wymiary
 62
     0
370
    -2
100
AcDbLine
 10
2437.220091378174
 20
4373.205471650027
 30
0.0
 11
2437.220091378174
 21
4353.205471650027
 31
0.0
  0
LINE
  5
6AF
330
67F
100
AcDbEntity
  8
wymiary
 62
     0
370
    -2
100
AcDbLine
 10
2437.220091378174
 20
4413.205471650027
 30
0.0
 11
2437.220091378174
 21
4452.705471650028
 31
0.0
  0
SOLID
  5
6B0
330
67F
100
AcDbEntity
  8
wymiary
 62
     0
100
AcDbTrace
 10
2433.886758044841
 20
4373.205471650027
 30
0.0
 11
2440.553424711508
 21
4373.205471650027
 31
0.0
 12
2437.220091378174
 22
4393.205471650028
 32
0.0
 13
2437.220091378174
 23
4393.205471650028
 33
0.0
  0
SOLID
  5
6B1
330
67F
100
AcDbEntity
  8
wymiary
 62
     0
100
AcDbTrace
 10
2433.886758044841
 20
4413.205471650027
 30
0.0
 11
2440.553424711508
 21
4413.205471650027
 31
0.0
 12
2437.220091378174
 22
4393.205471650028
 32
0.0
 13
2437.220091378174
 23
4393.205471650028
 33
0.0
  0
MTEXT
  5
6B2
330
67F
100
AcDbEntity
  8
wymiary
 62
     0
100
AcDbMText
 10
2423.720091378174
 20
4442.955471650029
 30
0.0
 40
15.0
 41
0.0
 71
     5
 72
     1
  1
0
 11
0.0000000000000001
 21
1.0
 31
0.0
 73
     1
 44
1.0
1001
ACAD
1000
MTEXTBEGIN
1070
    73
1070
     1
1070
    44
1040
1.0
1070
    74
1070
     0
1000
MTEXTEND
  0
POINT
  5
6B3
330
67F
100
AcDbEntity
  8
Defpoints
 62
     0
100
AcDbPoint
 10
2437.220091378174
 20
4393.205471650028
 30
0.0
  0
POINT
  5
6B4
330
67F
100
AcDbEntity
  8
Defpoints
 62
     0
100
AcDbPoint
 10
2437.220091378174
 20
4393.205471650028
 30
0.0
  0
POINT
  5
6B5
330
67F
100
AcDbEntity
  8
Defpoints
 62
     0
100
AcDbPoint
 10
2437.220091378174
 20
4393.205471650028
 30
0.0
  0
ENDBLK
  5
68A
330
67F
100
AcDbEntity
  8
0
100
AcDbBlockEnd
  0
BLOCK
  5
6BF
330
6B7
100
AcDbEntity
  8
0
100
AcDbBlockBegin
  2
*D39
 70
     1
 10
0.0
 20
0.0
 30
0.0
  3
*D39
  1

  0
LINE
  5
6C2
330
6B7
100
AcDbEntity
  8
wymiary
 62
     0
370
    -2
100
AcDbLine
 10
2437.220091378174
 20
4413.205471650027
 30
0.0
 11
2437.220091378174
 21
4613.205471650028
 31
0.0
  0
SOLID
  5
6C3
330
6B7
100
AcDbEntity
  8
wymiary
 62
     0
100
AcDbTrace
 10
2433.886758044841
 20
4413.205471650027
 30
0.0
 11
2440.553424711508
 21
4413.205471650027
 31
0.0
 12
2437.220091378174
 22
4393.205471650028
 32
0.0
 13
2437.220091378174
 23
4393.205471650028
 33
0.0
  0
SOLID
  5
6C4
330
6B7
100
AcDbEntity
  8
wymiary
 62
     0
100
AcDbTrace
 10
2433.886758044841
 20
4613.205471650028
 30
0.0
 11
2440.553424711508
 21
4613.205471650028
 31
0.0
 12
2437.220091378174
 22
4633.205471650028
 32
0.0
 13
2437.220091378174
 23
4633.205471650028
 33
0.0
  0
MTEXT
  5
6C5
330
6B7
100
AcDbEntity
  8
wymiary
 62
     0
100
AcDbMText
 10
2423.720091378174
 20
4513.20547165003
 30
0.0
 40
15.0
 41
0.0
 71
     5
 72
     1
  1
240
 11
0.0000000000000001
 21
1.0
 31
0.0
 73
     1
 44
1.0
1001
ACAD
1000
MTEXTBEGIN
1070
    73
1070
     1
1070
    44
1040
1.0
1070
    74
1070
     0
1000
MTEXTEND
  0
POINT
  5
6C6
330
6B7
100
AcDbEntity
  8
Defpoints
 62
     0
100
AcDbPoint
 10
2437.220091378174
 20
4393.205471650028
 30
0.0
  0
POINT
  5
6C7
330
6B7
100
AcDbEntity
  8
Defpoints
 62
     0
100
AcDbPoint
 10
2437.22009137818
 20
4633.205471650028
 30
0.0
  0
POINT
  5
6C8
330
6B7
100
AcDbEntity
  8
Defpoints
 62
     0
100
AcDbPoint
 10
2437.220091378174
 20
4633.205471650028
 30
0.0
  0
ENDBLK
  5
6C0
330
6B7
100
AcDbEntity
  8
0
100
AcDbBlockEnd
  0
BLOCK
  5
6D3
330
6CB
100
AcDbEntity
  8
0
100
AcDbBlockBegin
  2
*D40
 70
     1
 10
0.0
 20
0.0
 30
0.0
  3
*D40
  1

  0
LINE
  5
7B3
330
6CB
100
AcDbEntity
  8
wymiary
 62
     0
370
    -2
100
AcDbLine
 10
2417.220091378175
 20
4393.205471650028
 30
0.0
 11
2017.220091378174
 21
4393.205471650028
 31
0.0
  0
MTEXT
  5
7B4
330
6CB
100
AcDbEntity
  8
wymiary
 62
     0
100
AcDbMText
 10
2280.273915504841
 20
4412.587909184607
 30
0.0
 40
15.0
 41
0.0
 71
     5
 72
     1
  1
440
 73
     1
 44
1.0
1001
ACAD
1000
MTEXTBEGIN
1070
    73
1070
     1
1070
    44
1040
1.0
1070
    74
1070
     0
1000
MTEXTEND
  0
SOLID
  5
7B5
330
6CB
100
AcDbEntity
  8
wymiary
 62
     0
100
AcDbTrace
 10
2417.220091378175
 20
4396.538804983361
 30
0.0
 11
2417.220091378175
 21
4389.872138316695
 31
0.0
 12
2437.220091378174
 22
4393.205471650028
 32
0.0
 13
2437.220091378174
 23
4393.205471650028
 33
0.0
  0
SOLID
  5
7B6
330
6CB
100
AcDbEntity
  8
wymiary
 62
     0
100
AcDbTrace
 10
2017.220091378174
 20
4396.538804983361
 30
0.0
 11
2017.220091378174
 21
4389.872138316695
 31
0.0
 12
1997.220091378174
 22
4393.205471650028
 32
0.0
 13
1997.220091378174
 23
4393.205471650028
 33
0.0
  0
POINT
  5
7B7
330
6CB
100
AcDbEntity
  8
Defpoints
 62
     0
100
AcDbPoint
 10
2437.220091378174
 20
4393.205471650028
 30
0.0
  0
POINT
  5
7B8
330
6CB
100
AcDbEntity
  8
Defpoints
 62
     0
100
AcDbPoint
 10
1997.220091378174
 20
4393.205471650023
 30
0.0
  0
POINT
  5
7B9
330
6CB
100
AcDbEntity
  8
Defpoints
 62
     0
100
AcDbPoint
 10
1997.220091378174
 20
4393.205471650028
 30
0.0
  0
ENDBLK
  5
6D4
330
6CB
100
AcDbEntity
  8
0
100
AcDbBlockEnd
  0
BLOCK
  5
6E7
330
6DF
100
AcDbEntity
  8
0
100
AcDbBlockBegin
  2
*D41
 70
     1
 10
0.0
 20
0.0
 30
0.0
  3
*D41
  1

  0
LINE
  5
BEE
330
6DF
100
AcDbEntity
  8
wymiary
 62
     0
100
AcDbLine
 10
1997.220091378174
 20
3963.205471650026
 30
0.0
 11
1997.220091378174
 21
3953.205471650028
 31
0.0
  0
LINE
  5
BEF
330
6DF
100
AcDbEntity
  8
wymiary
 62
     0
370
    -2
100
AcDbLine
 10
2257.220091378175
 20
3953.205471650028
 30
0.0
 11
2017.220091378174
 21
3953.205471650028
 31
0.0
  0
SOLID
  5
BF0
330
6DF
100
AcDbEntity
  8
wymiary
 62
     0
100
AcDbTrace
 10
2257.220091378175
 20
3956.538804983362
 30
0.0
 11
2257.220091378175
 21
3949.872138316695
 31
0.0
 12
2277.220091378175
 22
3953.205471650028
 32
0.0
 13
2277.220091378175
 23
3953.205471650028
 33
0.0
  0
SOLID
  5
BF1
330
6DF
100
AcDbEntity
  8
wymiary
 62
     0
100
AcDbTrace
 10
2017.220091378174
 20
3956.538804983362
 30
0.0
 11
2017.220091378174
 21
3949.872138316695
 31
0.0
 12
1997.220091378174
 22
3953.205471650028
 32
0.0
 13
1997.220091378174
 23
3953.205471650028
 33
0.0
  0
MTEXT
  5
BF2
330
6DF
100
AcDbEntity
  8
wymiary
 62
     0
100
AcDbMText
 10
2137.220091378174
 20
3966.705471650028
 30
0.0
 40
15.0
 41
0.0
 71
     5
 72
     1
  1
280
 73
     1
 44
1.0
1001
ACAD
1000
MTEXTBEGIN
1070
    73
1070
     1
1070
    44
1040
1.0
1070
    74
1070
     0
1000
MTEXTEND
  0
POINT
  5
BF3
330
6DF
100
AcDbEntity
  8
Defpoints
 62
     0
100
AcDbPoint
 10
2277.220091378175
 20
3953.205471650028
 30
0.0
  0
POINT
  5
BF4
330
6DF
100
AcDbEntity
  8
Defpoints
 62
     0
100
AcDbPoint
 10
1997.220091378174
 20
3963.205471650026
 30
0.0
  0
POINT
  5
BF5
330
6DF
100
AcDbEntity
  8
Defpoints
 62
     0
100
AcDbPoint
 10
1997.220091378174
 20
3953.205471650028
 30
0.0
  0
ENDBLK
  5
6E8
330
6DF
100
AcDbEntity
  8
0
100
AcDbBlockEnd
  0
BLOCK
  5
6FB
330
6F3
100
AcDbEntity
  8
0
100
AcDbBlockBegin
  2
*D42
 70
     1
 10
0.0
 20
0.0
 30
0.0
  3
*D42
  1

  0
LINE
  5
BE0
330
6F3
100
AcDbEntity
  8
wymiary
 62
     0
370
    -2
100
AcDbLine
 10
2277.220091378175
 20
3933.205471650028
 30
0.0
 11
2277.220091378175
 21
3723.205471650028
 31
0.0
  0
SOLID
  5
BE1
330
6F3
100
AcDbEntity
  8
wymiary
 62
     0
100
AcDbTrace
 10
2273.886758044842
 20
3933.205471650028
 30
0.0
 11
2280.553424711508
 21
3933.205471650028
 31
0.0
 12
2277.220091378175
 22
3953.205471650028
 32
0.0
 13
2277.220091378175
 23
3953.205471650028
 33
0.0
  0
SOLID
  5
BE2
330
6F3
100
AcDbEntity
  8
wymiary
 62
     0
100
AcDbTrace
 10
2273.886758044842
 20
3723.205471650028
 30
0.0
 11
2280.553424711508
 21
3723.205471650028
 31
0.0
 12
2277.220091378175
 22
3703.205471650028
 32
0.0
 13
2277.220091378175
 23
3703.205471650028
 33
0.0
  0
MTEXT
  5
BE3
330
6F3
100
AcDbEntity
  8
wymiary
 62
     0
100
AcDbMText
 10
2263.720091378174
 20
3828.205471650028
 30
0.0
 40
15.0
 41
0.0
 71
     5
 72
     1
  1
250
 11
0.0000000000000001
 21
1.0
 31
0.0
 73
     1
 44
1.0
1001
ACAD
1000
MTEXTBEGIN
1070
    73
1070
     1
1070
    44
1040
1.0
1070
    74
1070
     0
1000
MTEXTEND
  0
POINT
  5
BE4
330
6F3
100
AcDbEntity
  8
Defpoints
 62
     0
100
AcDbPoint
 10
2277.220091378175
 20
3953.205471650028
 30
0.0
  0
POINT
  5
BE5
330
6F3
100
AcDbEntity
  8
Defpoints
 62
     0
100
AcDbPoint
 10
2277.220091378175
 20
3703.205471650028
 30
0.0
  0
POINT
  5
BE6
330
6F3
100
AcDbEntity
  8
Defpoints
 62
     0
100
AcDbPoint
 10
2277.220091378175
 20
3703.205471650028
 30
0.0
  0
ENDBLK
  5
6FC
330
6F3
100
AcDbEntity
  8
0
100
AcDbBlockEnd
  0
BLOCK
  5
714
330
70C
100
AcDbEntity
  8
0
100
AcDbBlockBegin
  2
*D43
 70
     1
 10
0.0
 20
0.0
 30
0.0
  3
*D43
  1

  0
LINE
  5
720
330
70C
100
AcDbEntity
  8
wymiary
 62
     0
370
    -2
100
AcDbLine
 10
-853.2622040771164
 20
4413.205471650027
 30
0.0
 11
-853.2622040771164
 21
4613.205471650028
 31
0.0
  0
SOLID
  5
721
330
70C
100
AcDbEntity
  8
wymiary
 62
     0
100
AcDbTrace
 10
-856.5955374104497
 20
4413.205471650027
 30
0.0
 11
-849.9288707437829
 21
4413.205471650027
 31
0.0
 12
-853.2622040771164
 22
4393.205471650028
 32
0.0
 13
-853.2622040771164
 23
4393.205471650028
 33
0.0
  0
SOLID
  5
722
330
70C
100
AcDbEntity
  8
wymiary
 62
     0
100
AcDbTrace
 10
-856.5955374104497
 20
4613.205471650028
 30
0.0
 11
-849.9288707437829
 21
4613.205471650028
 31
0.0
 12
-853.2622040771164
 22
4633.205471650028
 32
0.0
 13
-853.2622040771164
 23
4633.205471650028
 33
0.0
  0
MTEXT
  5
723
330
70C
100
AcDbEntity
  8
wymiary
 62
     0
100
AcDbMText
 10
-866.7622040771172
 20
4513.205471650027
 30
0.0
 40
15.0
 41
0.0
 71
     5
 72
     1
  1
240
 11
0.0000000000000001
 21
1.0
 31
0.0
 73
     1
 44
1.0
1001
ACAD
1000
MTEXTBEGIN
1070
    73
1070
     1
1070
    44
1040
1.0
1070
    74
1070
     0
1000
MTEXTEND
  0
POINT
  5
724
330
70C
100
AcDbEntity
  8
Defpoints
 62
     0
100
AcDbPoint
 10
-853.2622040771164
 20
4393.205471650028
 30
0.0
  0
POINT
  5
725
330
70C
100
AcDbEntity
  8
Defpoints
 62
     0
100
AcDbPoint
 10
-853.2622040771212
 20
4633.205471650028
 30
0.0
  0
POINT
  5
726
330
70C
100
AcDbEntity
  8
Defpoints
 62
     0
100
AcDbPoint
 10
-853.2622040771164
 20
4633.205471650028
 30
0.0
  0
ENDBLK
  5
715
330
70C
100
AcDbEntity
  8
0
100
AcDbBlockEnd
  0
BLOCK
  5
71E
330
716
100
AcDbEntity
  8
0
100
AcDbBlockBegin
  2
*D44
 70
     1
 10
0.0
 20
0.0
 30
0.0
  3
*D44
  1

  0
LINE
  5
7CC
330
716
100
AcDbEntity
  8
wymiary
 62
     0
370
    -2
100
AcDbLine
 10
-833.2622040771164
 20
4393.205471650028
 30
0.0
 11
-433.2622040771163
 21
4393.205471650028
 31
0.0
  0
MTEXT
  5
7CD
330
716
100
AcDbEntity
  8
wymiary
 62
     0
100
AcDbMText
 10
-598.7303369779636
 20
4409.774887041032
 30
0.0
 40
15.0
 41
0.0
 71
     5
 72
     1
  1
440
 73
     1
 44
1.0
1001
ACAD
1000
MTEXTBEGIN
1070
    73
1070
     1
1070
    44
1040
1.0
1070
    74
1070
     0
1000
MTEXTEND
  0
SOLID
  5
7CE
330
716
100
AcDbEntity
  8
wymiary
 62
     0
100
AcDbTrace
 10
-833.2622040771164
 20
4396.538804983361
 30
0.0
 11
-833.2622040771164
 21
4389.872138316695
 31
0.0
 12
-853.2622040771164
 22
4393.205471650028
 32
0.0
 13
-853.2622040771164
 23
4393.205471650028
 33
0.0
  0
SOLID
  5
7CF
330
716
100
AcDbEntity
  8
wymiary
 62
     0
100
AcDbTrace
 10
-433.2622040771163
 20
4396.538804983361
 30
0.0
 11
-433.2622040771163
 21
4389.872138316695
 31
0.0
 12
-413.2622040771163
 22
4393.205471650028
 32
0.0
 13
-413.2622040771163
 23
4393.205471650028
 33
0.0
  0
POINT
  5
7D0
330
716
100
AcDbEntity
  8
Defpoints
 62
     0
100
AcDbPoint
 10
-853.2622040771164
 20
4393.205471650028
 30
0.0
  0
POINT
  5
7D1
330
716
100
AcDbEntity
  8
Defpoints
 62
     0
100
AcDbPoint
 10
-413.2622040771163
 20
4393.205471650023
 30
0.0
  0
POINT
  5
7D2
330
716
100
AcDbEntity
  8
Defpoints
 62
     0
100
AcDbPoint
 10
-413.2622040771163
 20
4393.205471650028
 30
0.0
  0
ENDBLK
  5
71F
330
716
100
AcDbEntity
  8
0
100
AcDbBlockEnd
  0
BLOCK
  5
737
330
72F
100
AcDbEntity
  8
0
100
AcDbBlockBegin
  2
*D45
 70
     1
 10
0.0
 20
0.0
 30
0.0
  3
*D45
  1

  0
LINE
  5
73A
330
72F
100
AcDbEntity
  8
wymiary
 62
     0
370
    -2
100
AcDbLine
 10
-673.2622040771166
 20
3943.205471650028
 30
0.0
 11
-433.2622040771166
 21
3943.205471650028
 31
0.0
  0
SOLID
  5
73B
330
72F
100
AcDbEntity
  8
wymiary
 62
     0
100
AcDbTrace
 10
-673.2622040771166
 20
3946.538804983362
 30
0.0
 11
-673.2622040771166
 21
3939.872138316694
 31
0.0
 12
-693.2622040771167
 22
3943.205471650028
 32
0.0
 13
-693.2622040771167
 23
3943.205471650028
 33
0.0
  0
SOLID
  5
73C
330
72F
100
AcDbEntity
  8
wymiary
 62
     0
100
AcDbTrace
 10
-433.2622040771166
 20
3946.538804983362
 30
0.0
 11
-433.2622040771166
 21
3939.872138316694
 31
0.0
 12
-413.2622040771166
 22
3943.205471650028
 32
0.0
 13
-413.2622040771166
 23
3943.205471650028
 33
0.0
  0
MTEXT
  5
73D
330
72F
100
AcDbEntity
  8
wymiary
 62
     0
100
AcDbMText
 10
-553.2622040771165
 20
3956.705471650028
 30
0.0
 40
15.0
 41
0.0
 71
     5
 72
     1
  1
280
 73
     1
 44
1.0
1001
ACAD
1000
MTEXTBEGIN
1070
    73
1070
     1
1070
    44
1040
1.0
1070
    74
1070
     0
1000
MTEXTEND
  0
POINT
  5
73E
330
72F
100
AcDbEntity
  8
Defpoints
 62
     0
100
AcDbPoint
 10
-693.2622040771167
 20
3943.205471650028
 30
0.0
  0
POINT
  5
73F
330
72F
100
AcDbEntity
  8
Defpoints
 62
     0
100
AcDbPoint
 10
-413.2622040771166
 20
3943.205471650028
 30
0.0
  0
POINT
  5
740
330
72F
100
AcDbEntity
  8
Defpoints
 62
     0
100
AcDbPoint
 10
-413.2622040771166
 20
3943.205471650028
 30
0.0
  0
ENDBLK
  5
738
330
72F
100
AcDbEntity
  8
0
100
AcDbBlockEnd
  0
BLOCK
  5
74B
330
743
100
AcDbEntity
  8
0
100
AcDbBlockBegin
  2
*D46
 70
     1
 10
0.0
 20
0.0
 30
0.0
  3
*D46
  1

  0
LINE
  5
74E
330
743
100
AcDbEntity
  8
wymiary
 62
     0
370
    -2
100
AcDbLine
 10
-693.2622040771167
 20
3923.205471650028
 30
0.0
 11
-693.2622040771167
 21
3713.205471650028
 31
0.0
  0
SOLID
  5
74F
330
743
100
AcDbEntity
  8
wymiary
 62
     0
100
AcDbTrace
 10
-696.59553741045
 20
3923.205471650028
 30
0.0
 11
-689.9288707437833
 21
3923.205471650028
 31
0.0
 12
-693.2622040771167
 22
3943.205471650028
 32
0.0
 13
-693.2622040771167
 23
3943.205471650028
 33
0.0
  0
SOLID
  5
750
330
743
100
AcDbEntity
  8
wymiary
 62
     0
100
AcDbTrace
 10
-696.5955374104501
 20
3713.205471650028
 30
0.0
 11
-689.9288707437833
 21
3713.205471650028
 31
0.0
 12
-693.2622040771167
 22
3693.205471650028
 32
0.0
 13
-693.2622040771167
 23
3693.205471650028
 33
0.0
  0
MTEXT
  5
751
330
743
100
AcDbEntity
  8
wymiary
 62
     0
100
AcDbMText
 10
-706.7622040771173
 20
3818.205471650028
 30
0.0
 40
15.0
 41
0.0
 71
     5
 72
     1
  1
250
 11
0.0000000000000001
 21
1.0
 31
0.0
 73
     1
 44
1.0
1001
ACAD
1000
MTEXTBEGIN
1070
    73
1070
     1
1070
    44
1040
1.0
1070
    74
1070
     0
1000
MTEXTEND
  0
POINT
  5
752
330
743
100
AcDbEntity
  8
Defpoints
 62
     0
100
AcDbPoint
 10
-693.2622040771167
 20
3943.205471650028
 30
0.0
  0
POINT
  5
753
330
743
100
AcDbEntity
  8
Defpoints
 62
     0
100
AcDbPoint
 10
-693.2622040771169
 20
3693.205471650028
 30
0.0
  0
POINT
  5
754
330
743
100
AcDbEntity
  8
Defpoints
 62
     0
100
AcDbPoint
 10
-693.2622040771167
 20
3693.205471650028
 30
0.0
  0
ENDBLK
  5
74C
330
743
100
AcDbEntity
  8
0
100
AcDbBlockEnd
  0
BLOCK
  5
75D
330
757
100
AcDbEntity
  8
0
100
AcDbBlockBegin
  2
*D47
 70
     1
 10
0.0
 20
0.0
 30
0.0
  3
*D47
  1

  0
LINE
  5
7BF
330
757
100
AcDbEntity
  8
wymiary
 62
     0
370
    -2
100
AcDbLine
 10
-697.6974774656959
 20
4302.653741493648
 30
0.0
 11
-1008.826930688538
 21
4483.757201806406
 31
0.0
  0
MTEXT
  5
7C0
102
{ACAD_XDICTIONARY
360
C31
102
}
330
757
100
AcDbEntity
  8
wymiary
 62
     0
100
AcDbMText
 10
-901.541419572033
 20
4443.974620508607
 30
0.0
 40
15.0
 41
0.0
 71
     5
 72
     1
  1
\U+2205400
 11
0.8642484811745621
 21
-0.5030651675354423
 31
0.0
 73
     1
 44
1.0
1001
ACAD
1000
MTEXTBEGIN
1070
    73
1070
     1
1070
    44
1040
1.0
1070
    74
1070
     0
1000
MTEXTEND
  0
SOLID
  5
7C1
330
757
100
AcDbEntity
  8
wymiary
 62
     0
100
AcDbTrace
 10
-696.0205935739111
 20
4305.534569764231
 30
0.0
 11
-699.3743613574809
 21
4299.772913223065
 31
0.0
 12
-680.4125078422043
 22
4292.592438142938
 32
0.0
 13
-680.4125078422043
 23
4292.592438142938
 33
0.0
  0
SOLID
  5
7C2
330
757
100
AcDbEntity
  8
wymiary
 62
     0
100
AcDbTrace
 10
-1007.150046796753
 20
4486.638030076989
 30
0.0
 11
-1010.503814580322
 21
4480.876373535825
 31
0.0
 12
-1026.111900312029
 22
4493.818505157116
 32
0.0
 13
-1026.111900312029
 23
4493.818505157116
 33
0.0
  0
POINT
  5
7C3
330
757
100
AcDbEntity
  8
Defpoints
 62
     0
100
AcDbPoint
 10
-1026.111900312029
 20
4493.818505157116
 30
0.0
  0
POINT
  5
7C4
330
757
100
AcDbEntity
  8
Defpoints
 62
     0
100
AcDbPoint
 10
-680.4125078422043
 20
4292.592438142938
 30
0.0
  0
ENDBLK
  5
75E
330
757
100
AcDbEntity
  8
0
100
AcDbBlockEnd
  0
BLOCK
  5
76D
330
767
100
AcDbEntity
  8
0
100
AcDbBlockBegin
  2
*D48
 70
     1
 10
0.0
 20
0.0
 30
0.0
  3
*D48
  1

  0
LINE
  5
7D8
330
767
100
AcDbEntity
  8
wymiary
 62
     0
370
    -2
100
AcDbLine
 10
-528.5437859278772
 20
3870.625565874311
 30
0.0
 11
-857.9806222263568
 21
4015.785377425745
 31
0.0
  0
MTEXT
  5
7D9
102
{ACAD_XDICTIONARY
360
C33
102
}
330
767
100
AcDbEntity
  8
wymiary
 62
     0
100
AcDbMText
 10
-746.1931132399934
 20
3987.656874783812
 30
0.0
 40
15.0
 41
0.0
 71
     5
 72
     1
  1
\U+2205400
 11
0.915102323051335
 21
-0.4032216987539858
 31
0.0
 73
     1
 44
1.0
1001
ACAD
1000
MTEXTBEGIN
1070
    73
1070
     1
1070
    44
1040
1.0
1070
    74
1070
     0
1000
MTEXTEND
  0
SOLID
  5
7DA
330
767
100
AcDbEntity
  8
wymiary
 62
     0
100
AcDbTrace
 10
-527.1997135986972
 20
3873.675906951149
 30
0.0
 11
-529.8878582570573
 21
3867.575224797473
 31
0.0
 12
-510.2417394668503
 22
3862.561131899231
 32
0.0
 13
-510.2417394668503
 23
3862.561131899231
 33
0.0
  0
SOLID
  5
7DB
330
767
100
AcDbEntity
  8
wymiary
 62
     0
100
AcDbTrace
 10
-856.6365498971768
 20
4018.835718502582
 30
0.0
 11
-859.3246945555373
 21
4012.735036348907
 31
0.0
 12
-876.2826686873838
 22
4023.849811400824
 32
0.0
 13
-876.2826686873838
 23
4023.849811400824
 33
0.0
  0
POINT
  5
7DC
330
767
100
AcDbEntity
  8
Defpoints
 62
     0
100
AcDbPoint
 10
-876.2826686873838
 20
4023.849811400824
 30
0.0
  0
POINT
  5
7DD
330
767
100
AcDbEntity
  8
Defpoints
 62
     0
100
AcDbPoint
 10
-510.2417394668503
 20
3862.561131899231
 30
0.0
  0
ENDBLK
  5
76E
330
767
100
AcDbEntity
  8
0
100
AcDbBlockEnd
  0
BLOCK
  5
77D
330
777
100
AcDbEntity
  8
0
100
AcDbBlockBegin
  2
*D49
 70
     1
 10
0.0
 20
0.0
 30
0.0
  3
*D49
  1

  0
LINE
  5
7A6
330
777
100
AcDbEntity
  8
wymiary
 62
     0
370
    -2
100
AcDbLine
 10
2597.524911721405
 20
4311.337501266462
 30
0.0
 11
2276.915271034943
 21
4475.073442033592
 31
0.0
  0
MTEXT
  5
7A7
102
{ACAD_XDICTIONARY
360
C2F
102
}
330
777
100
AcDbEntity
  8
wymiary
 62
     0
100
AcDbMText
 10
2360.319206362652
 20
4457.965438151848
 30
0.0
 40
15.0
 41
0.0
 71
     5
 72
     1
  1
\U+2205400
 11
0.890582335240173
 21
-0.4548220576864763
 31
0.0
 73
     1
 44
1.0
1001
ACAD
1000
MTEXTBEGIN
1070
    73
1070
     1
1070
    44
1040
1.0
1070
    74
1070
     0
1000
MTEXTEND
  0
SOLID
  5
7A8
330
777
100
AcDbEntity
  8
wymiary
 62
     0
100
AcDbTrace
 10
2599.040985247027
 20
4314.306109050595
 30
0.0
 11
2596.008838195784
 21
4308.368893482329
 31
0.0
 12
2615.336558426208
 22
4302.241060112733
 32
0.0
 13
2615.336558426208
 23
4302.241060112733
 33
0.0
  0
SOLID
  5
7A9
330
777
100
AcDbEntity
  8
wymiary
 62
     0
100
AcDbTrace
 10
2278.431344560565
 20
4478.042049817727
 30
0.0
 11
2275.399197509322
 21
4472.10483424946
 31
0.0
 12
2259.10362433014
 22
4484.169883187322
 32
0.0
 13
2259.10362433014
 23
4484.169883187322
 33
0.0
  0
POINT
  5
7AA
330
777
100
AcDbEntity
  8
Defpoints
 62
     0
100
AcDbPoint
 10
2259.10362433014
 20
4484.169883187322
 30
0.0
  0
POINT
  5
7AB
330
777
100
AcDbEntity
  8
Defpoints
 62
     0
100
AcDbPoint
 10
2615.336558426208
 20
4302.241060112733
 30
0.0
  0
ENDBLK
  5
77E
330
777
100
AcDbEntity
  8
0
100
AcDbBlockEnd
  0
BLOCK
  5
78D
330
787
100
AcDbEntity
  8
0
100
AcDbBlockBegin
  2
*D50
 70
     1
 10
0.0
 20
0.0
 30
0.0
  3
*D50
  1

  0
LINE
  5
BE7
330
787
100
AcDbEntity
  8
wymiary
 62
     0
370
    -2
100
AcDbLine
 10
2444.675293277575
 20
3885.748175091907
 30
0.0
 11
2257.351678948715
 21
3962.973774287672
 31
0.0
  0
LINE
  5
BE8
330
787
100
AcDbEntity
  8
wymiary
 62
     0
370
    -2
100
AcDbLine
 10
2111.848973694384
 20
4022.958382411577
 30
0.0
 11
2200.031590576054
 21
3986.604421103837
 31
0.0
  0
MTEXT
  5
BE9
102
{ACAD_XDICTIONARY
360
C39
102
}
330
787
100
AcDbEntity
  8
wymiary
 62
     0
100
AcDbMText
 10
2228.691634762385
 20
3974.789097695754
 30
0.0
 40
15.0
 41
0.0
 71
     5
 72
     1
  1
\U+2205400
 11
0.9245175543977548
 21
-0.3811394647768638
 31
0.0
 73
     1
 44
1.0
1001
ACAD
1000
MTEXTBEGIN
1070
    73
1070
     1
1070
    44
1040
1.0
1070
    74
1070
     0
1000
MTEXTEND
  0
SOLID
  5
BEA
330
787
100
AcDbEntity
  8
wymiary
 62
     0
100
AcDbTrace
 10
2445.945758160164
 20
3888.829900273233
 30
0.0
 11
2443.404828394986
 21
3882.666449910582
 31
0.0
 12
2463.16564436553
 22
3878.125385796371
 32
0.0
 13
2463.16564436553
 23
3878.125385796371
 33
0.0
  0
SOLID
  5
BEB
330
787
100
AcDbEntity
  8
wymiary
 62
     0
100
AcDbTrace
 10
2113.119438576974
 20
4026.040107592902
 30
0.0
 11
2110.578508811795
 21
4019.876657230251
 31
0.0
 12
2093.35862260643
 22
4030.581171707114
 32
0.0
 13
2093.35862260643
 23
4030.581171707114
 33
0.0
  0
POINT
  5
BEC
330
787
100
AcDbEntity
  8
Defpoints
 62
     0
100
AcDbPoint
 10
2093.35862260643
 20
4030.581171707114
 30
0.0
  0
POINT
  5
BED
330
787
100
AcDbEntity
  8
Defpoints
 62
     0
100
AcDbPoint
 10
2463.16564436553
 20
3878.125385796371
 30
0.0
  0
ENDBLK
  5
78E
330
787
100
AcDbEntity
  8
0
100
AcDbBlockEnd
  0
ENDSEC
  0
SECTION
  2
ENTITIES
  0
INSERT
  5
3F7
330
1F
100
AcDbEntity
  8
Cenrala
100
AcDbBlockReference
  2
2000BSR_f
 10
0.0
 20
0.0
 30
0.0
  0
INSERT
  5
40A
330
1F
100
AcDbEntity
  8
Cenrala
100
AcDbBlockReference
  2
2000BSR_g
 10
0.0
 20
0.0
 30
0.0
  0
INSERT
  5
422
102
{ACAD_REACTORS
330
6C9
330
6DD
330
785
102
}
330
1F
100
AcDbEntity
  8
Cenrala
100
AcDbBlockReference
  2
2000BSR_l
 10
0.0
 20
0.0
 30
0.0
  0
INSERT
  5
43A
102
{ACAD_REACTORS
330
741
330
755
330
765
330
775
102
}
330
1F
100
AcDbEntity
  8
Cenrala
100
AcDbBlockReference
  2
2000BSR_p
 10
0.0
 20
0.0
 30
0.0
  0
DIMENSION
  5
500
330
1F
100
AcDbEntity
  8
wymiary
100
AcDbDimension
  2
*D35
 10
2742.220091378174
 20
4677.099755013752
 30
0.0
 11
2369.720091378175
 21
4690.599755013752
 31
0.0
 70
    32
 71
     5
 42
745.0
  3
Kopia ISO-25
100
AcDbAlignedDimension
 13
1997.220091378174
 23
4633.205471650028
 33
0.0
 14
2742.220091378174
 24
4633.205471650028
 34
0.0
100
AcDbRotatedDimension
  0
DIMENSION
  5
501
330
1F
100
AcDbEntity
  8
wymiary
100
AcDbDimension
  2
*D36
 10
97.12508567547594
 20
3703.205471650028
 30
0.0
 11
83.62508567547537
 21
4168.205471650028
 31
0.0
 70
    32
 71
     5
 42
930.0
  3
Kopia ISO-25
100
AcDbAlignedDimension
 13
181.9789436505289
 23
4633.205471650028
 33
0.0
 14
181.9789436505289
 24
3703.205471650028
 34
0.0
 50
90.0
100
AcDbRotatedDimension
  0
DIMENSION
  5
502
330
1F
100
AcDbEntity
  8
wymiary
100
AcDbDimension
  2
*D37
 10
1401.978943650529
 20
4677.099755013752
 30
0.0
 11
791.9789436505289
 21
4690.599755013752
 31
0.0
 70
    32
 71
     5
 42
1220.0
  3
Kopia ISO-25
100
AcDbAlignedDimension
 13
181.9789436505289
 23
4633.205471650028
 33
0.0
 14
1401.978943650529
 24
4633.205471650028
 34
0.0
100
AcDbRotatedDimension
  0
LWPOLYLINE
  5
503
330
1F
100
AcDbEntity
  8
wymiary
100
AcDbPolyline
 90
        4
 70
     1
 43
0.0
 10
-1723.686057590853
 20
4849.480727594198
 10
3283.878602663023
 20
4849.480727594198
 10
3283.878602663023
 20
1963.95864282842
 10
-1723.686057590853
 20
1963.958642828419
  0
LWPOLYLINE
  5
504
330
1F
100
AcDbEntity
  8
wymiary
100
AcDbPolyline
 90
        4
 70
     1
 43
0.0
 10
-199.8108835654857
 20
3417.970320727051
 10
1760.003428637654
 20
3417.970320727051
 10
1760.003428637654
 20
1963.958642828419
 10
-199.8108835654857
 20
1963.958642828419
  0
LWPOLYLINE
  5
505
330
1F
100
AcDbEntity
  8
wymiary
100
AcDbPolyline
 90
        4
 70
     1
 43
0.0
 10
-199.8108835654857
 20
4849.480727594198
 10
-1723.686057590853
 20
4849.480727594198
 10
-1723.686057590853
 20
3417.970320727051
 10
-199.8108835654857
 20
3417.970320727051
  0
LWPOLYLINE
  5
506
330
1F
100
AcDbEntity
  8
wymiary
100
AcDbPolyline
 90
        4
 70
     1
 43
0.0
 10
1760.003428637654
 20
4849.480727594198
 10
3283.878602663023
 20
4849.480727594198
 10
3283.878602663023
 20
3417.970320727051
 10
1760.003428637654
 20
3417.970320727051
  0
LWPOLYLINE
  5
507
330
1F
100
AcDbEntity
  8
wymiary
100
AcDbPolyline
 90
        4
 70
     1
 43
0.0
 10
-199.8108835654857
 20
4849.480727594198
 10
1760.003428637654
 20
4849.480727594198
 10
1760.003428637654
 20
3417.970320727051
 10
-199.8108835654857
 20
3417.970320727051
  0
LWPOLYLINE
  5
508
330
1F
100
AcDbEntity
  8
wymiary
100
AcDbPolyline
 90
       12
 70
     0
 43
0.0
 10
2702.521737954867
 20
3822.258759393091
 10
2709.197863155274
 20
3822.369929753943
 10
2706.440434272316
 20
3800.336527950032
 10
2717.470144187974
 20
3806.596016252012
 10
2710.701913741567
 20
3779.805407171232
 10
2713.960692819956
 20
3779.805407171232
 10
2709.949885640333
 20
3772.544400847397
 10
2706.189756366514
 20
3779.805407171232
 10
2708.565369691591
 20
3779.817783387517
 10
2711.528855981604
 20
3797.250660812709
 10
2703.302049106029
 20
3793.351016200674
 10
2702.521737954867
 20
3822.258759393091
  0
MTEXT
  5
509
102
{ACAD_XDICTIONARY
360
C23
102
}
330
1F
100
AcDbEntity
  8
wymiary
100
AcDbMText
 10
-381.3586246795603
 20
3737.185880057579
 30
0.0
 40
2.5
 41
58.26734917771681
 71
     1
 72
     5
  1
{\H6x;odp\U+0142yw\Pskroplin}
 73
     1
 44
1.0
1001
ACAD
1000
MTEXTBEGIN
1070
    73
1070
     1
1070
    44
1040
1.0
1070
    74
1070
     0
1000
MTEXTEND
  0
LWPOLYLINE
  5
50A
330
1F
100
AcDbEntity
  8
wymiary
100
AcDbPolyline
 90
        2
 70
     0
 43
0.0
 10
-433.2622040771166
 20
3723.205471650028
 10
-388.1527512657358
 20
3718.442091676101
  0
MTEXT
  5
50B
330
1F
100
AcDbEntity
  8
wymiary
100
AcDbMText
 10
-1630.582846114624
 20
4780.330789494704
 30
0.0
 40
30.0
 41
902.3463737508771
 71
     1
 72
     5
  1
{\Ftxt.shx|c238;Rzut od prawej strony\Ftxt.shx|c0;\H0.125x;}
 73
     1
 44
1.0
1001
ACAD
1000
MTEXTBEGIN
1070
    73
1070
     1
1070
    44
1040
1.0
1070
    74
1070
     0
1000
MTEXTEND
  0
MTEXT
  5
50C
330
1F
100
AcDbEntity
  8
wymiary
100
AcDbMText
 10
1813.209094436852
 20
4774.151459674235
 30
0.0
 40
30.0
 41
902.3463737508771
 71
     1
 72
     5
  1
{\Ftxt.shx|c238;Rzut od lewej strony\Ftxt.shx|c0;\H0.1667x;}
 73
     1
 44
1.0
1001
ACAD
1000
MTEXTBEGIN
1070
    73
1070
     1
1070
    44
1040
1.0
1070
    74
1070
     0
1000
MTEXTEND
  0
MTEXT
  5
50D
330
1F
100
AcDbEntity
  8
wymiary
100
AcDbMText
 10
0.203530989758292
 20
4765.550124810297
 30
0.0
 40
30.0
 41
902.3463737508771
 71
     1
 72
     5
  1
{\Ftxt.shx|c238;Rzut od przodu\Ftxt.shx|c0;\H0.25x;}
 73
     1
 44
1.0
1001
ACAD
1000
MTEXTBEGIN
1070
    73
1070
     1
1070
    44
1040
1.0
1070
    74
1070
     0
1000
MTEXTEND
  0
MTEXT
  5
50E
102
{ACAD_XDICTIONARY
360
C25
102
}
330
1F
100
AcDbEntity
  8
wymiary
100
AcDbMText
 10
-111.4267525056821
 20
3363.70174362803
 30
0.0
 40
30.0
 41
902.3463737508771
 71
     1
 72
     5
  1
{\Ftxt.shx|c238;Rzut z g\U+00F3ry\Ftxt.shx|c0;\H0.25x;}
 73
     1
 44
1.0
1001
ACAD
1000
MTEXTBEGIN
1070
    73
1070
     1
1070
    44
1040
1.0
1070
    74
1070
     0
1000
MTEXTEND
  0
MTEXT
  5
50F
330
1F
100
AcDbEntity
  8
wymiary
100
AcDbMText
 10
2289.815608183435
 20
2737.644733343613
 30
0.0
 40
30.0
 41
566.4293908612997
 71
     1
 72
     5
  1
{\Ftxt.shx|c238;Mistral 2000BSR \Pwykonanie prawe\Ftxt.shx|c0;\H0.125x;}
 73
     1
 44
1.0
1001
ACAD
1000
MTEXTBEGIN
1070
    73
1070
     1
1070
    44
1040
1.0
1070
    74
1070
     0
1000
MTEXTEND
  0
DIMENSION
  5
6B6
102
{ACAD_XDICTIONARY
360
6C1
102
}
102
{ACAD_REACTORS
330
6C9
102
}
330
1F
100
AcDbEntity
  8
wymiary
100
AcDbDimension
  2
*D39
 10
2437.220091378174
 20
4393.205471650028
 30
0.0
 11
2423.720091378174
 21
4513.20547165003
 31
0.0
 70
    32
 71
     5
 42
240.0
  3
Kopia ISO-25
100
AcDbAlignedDimension
 13
2437.220091378174
 23
4393.205471650028
 33
0.0
 14
2437.220091378174
 24
4393.205471650028
 34
0.0
 50
90.0
100
AcDbRotatedDimension
  0
DIMENSION
  5
6CA
102
{ACAD_XDICTIONARY
360
6D5
102
}
102
{ACAD_REACTORS
330
6DD
102
}
330
1F
100
AcDbEntity
  8
wymiary
100
AcDbDimension
  2
*D40
 10
1997.220091378174
 20
4393.205471650028
 30
0.0
 11
2280.273915504841
 21
4412.587909184607
 31
0.0
 70
   160
 71
     5
 42
440.0
  3
Kopia ISO-25
100
AcDbAlignedDimension
 13
2437.220091378174
 23
4393.205471650028
 33
0.0
 14
1997.220091378174
 24
4393.205471650023
 34
0.0
100
AcDbRotatedDimension
1001
ACAD
1000
DSTYLE
1002
{
1070
   279
1070
     2
1002
}
  0
DIMENSION
  5
6DE
330
1F
100
AcDbEntity
  8
wymiary
100
AcDbDimension
  2
*D41
 10
1997.220091378174
 20
3953.205471650028
 30
0.0
 11
2137.220091378174
 21
3966.705471650028
 31
0.0
 70
    32
 71
     5
 42
280.0000000000007
  3
Kopia ISO-25
100
AcDbAlignedDimension
 13
2277.220091378175
 23
3953.205471650028
 33
0.0
 14
1997.220091378174
 24
3963.205471650026
 34
0.0
100
AcDbRotatedDimension
  0
DIMENSION
  5
6F2
330
1F
100
AcDbEntity
  8
wymiary
100
AcDbDimension
  2
*D42
 10
2277.220091378175
 20
3703.205471650028
 30
0.0
 11
2263.720091378174
 21
3828.205471650028
 31
0.0
 70
    32
 71
     5
 42
250.0
  3
Kopia ISO-25
100
AcDbAlignedDimension
 13
2277.220091378175
 23
3953.205471650028
 33
0.0
 14
2277.220091378175
 24
3703.205471650028
 34
0.0
 50
90.0
100
AcDbRotatedDimension
  0
DIMENSION
  5
706
330
1F
100
AcDbEntity
  8
wymiary
100
AcDbDimension
  2
*D44
 10
-413.2622040771163
 20
4393.205471650028
 30
0.0
 11
-598.7303369779636
 21
4409.774887041032
 31
0.0
 70
   160
 71
     5
 42
440.0
  3
Kopia ISO-25
100
AcDbAlignedDimension
 13
-853.2622040771164
 23
4393.205471650028
 33
0.0
 14
-413.2622040771163
 24
4393.205471650023
 34
0.0
 50
180.0
100
AcDbRotatedDimension
1001
ACAD
1000
DSTYLE
1002
{
1070
   279
1070
     2
1002
}
  0
DIMENSION
  5
709
330
1F
100
AcDbEntity
  8
wymiary
100
AcDbDimension
  2
*D43
 10
-853.2622040771164
 20
4633.205471650028
 30
0.0
 11
-866.7622040771172
 21
4513.205471650027
 31
0.0
 70
    32
 71
     5
 42
240.0
  3
Kopia ISO-25
100
AcDbAlignedDimension
 13
-853.2622040771164
 23
4393.205471650028
 33
0.0
 14
-853.2622040771212
 24
4633.205471650028
 34
0.0
 50
90.0
100
AcDbRotatedDimension
  0
DIMENSION
  5
72E
102
{ACAD_XDICTIONARY
360
739
102
}
102
{ACAD_REACTORS
330
741
102
}
330
1F
100
AcDbEntity
  8
wymiary
100
AcDbDimension
  2
*D45
 10
-413.2622040771166
 20
3943.205471650028
 30
0.0
 11
-553.2622040771165
 21
3956.705471650028
 31
0.0
 70
    32
 71
     5
 42
280.0
  3
Kopia ISO-25
100
AcDbAlignedDimension
 13
-693.2622040771167
 23
3943.205471650028
 33
0.0
 14
-413.2622040771166
 24
4163.205471650027
 34
0.0
100
AcDbRotatedDimension
  0
DIMENSION
  5
742
102
{ACAD_XDICTIONARY
360
74D
102
}
102
{ACAD_REACTORS
330
755
102
}
330
1F
100
AcDbEntity
  8
wymiary
100
AcDbDimension
  2
*D46
 10
-693.2622040771167
 20
3693.205471650028
 30
0.0
 11
-706.7622040771173
 21
3818.205471650028
 31
0.0
 70
    32
 71
     5
 42
250.0000000000004
  3
Kopia ISO-25
100
AcDbAlignedDimension
 13
-693.2622040771167
 23
3943.205471650028
 33
0.0
 14
-693.2622040771169
 24
3693.205471650028
 34
0.0
 50
90.0
100
AcDbRotatedDimension
  0
DIMENSION
  5
756
102
{ACAD_XDICTIONARY
360
75F
102
}
102
{ACAD_REACTORS
330
765
102
}
330
1F
100
AcDbEntity
  8
wymiary
100
AcDbDimension
  2
*D47
 10
-680.4125078422043
 20
4292.592438142938
 30
0.0
 11
-901.541419572033
 21
4443.974620508607
 31
0.0
 70
   163
 71
     5
 42
399.9999999999996
  3
Kopia ISO-25
100
AcDbDiametricDimension
 15
-1026.111900312029
 25
4493.818505157116
 35
0.0
 40
0.0
1001
ACAD
1000
DSTYLE
1002
{
1070
   279
1070
     2
1070
   288
1070
     1
1002
}
  0
DIMENSION
  5
766
102
{ACAD_XDICTIONARY
360
76F
102
}
102
{ACAD_REACTORS
330
775
102
}
330
1F
100
AcDbEntity
  8
wymiary
100
AcDbDimension
  2
*D48
 10
-510.2417394668503
 20
3862.561131899231
 30
0.0
 11
-746.1931132399934
 21
3987.656874783812
 31
0.0
 70
   163
 71
     5
 42
399.9999999999992
  3
Kopia ISO-25
100
AcDbDiametricDimension
 15
-876.2826686873838
 25
4023.849811400824
 35
0.0
 40
0.0
1001
ACAD
1000
DSTYLE
1002
{
1070
   279
1070
     2
1070
   288
1070
     1
1002
}
  0
DIMENSION
  5
776
102
{ACAD_XDICTIONARY
360
77F
102
}
102
{ACAD_REACTORS
330
785
102
}
330
1F
100
AcDbEntity
  8
wymiary
100
AcDbDimension
  2
*D49
 10
2615.336558426208
 20
4302.241060112733
 30
0.0
 11
2360.319206362652
 21
4457.965438151848
 31
0.0
 70
   163
 71
     5
 42
399.9999999999998
  3
Kopia ISO-25
100
AcDbDiametricDimension
 15
2259.10362433014
 25
4484.169883187322
 35
0.0
 40
0.0
1001
ACAD
1000
DSTYLE
1002
{
1070
   279
1070
     2
1070
   288
1070
     1
1002
}
  0
DIMENSION
  5
786
330
1F
100
AcDbEntity
  8
wymiary
100
AcDbDimension
  2
*D50
 10
2463.16564436553
 20
3878.125385796371
 30
0.0
 11
2228.691634762385
 21
3974.789097695754
 31
0.0
 70
   163
 71
     5
 42
399.9999999999982
  3
Kopia ISO-25
100
AcDbDiametricDimension
 15
2093.35862260643
 25
4030.581171707114
 35
0.0
 40
0.0
1001
ACAD
1000
DSTYLE
1002
{
1070
   279
1070
     2
1070
   288
1070
     1
1002
}
  0
ENDSEC
  0
SECTION
  2
OBJECTS
  0
DICTIONARY
  5
C
330
0
100
AcDbDictionary
281
     1
  3
ACAD_COLOR
350
6B
  3
ACAD_GROUP
350
D
  3
ACAD_LAYOUT
350
1A
  3
ACAD_MATERIAL
350
6A
  3
ACAD_MLEADERSTYLE
350
82E
  3
ACAD_MLINESTYLE
350
17
  3
ACAD_PLOTSETTINGS
350
19
  3
ACAD_PLOTSTYLENAME
350
E
  3
ACAD_SCALELIST
350
81C
  3
ACAD_TABLESTYLE
350
81A
  3
ACAD_VISUALSTYLE
350
809
  3
ACDB_RECOMPOSE_DATA
350
C13
  3
AcDbVariableDictionary
350
5E
  3
DWGPROPS
350
C14
  0
DICTIONARY
  5
8D9
330
10
100
AcDbDictionary
280
     1
281
     1
  3
ADSK_XREC_LAYER_RECONCILED
360
8DA
  0
DICTIONARY
  5
8DB
330
3CE
100
AcDbDictionary
280
     1
281
     1
  3
ADSK_XREC_LAYER_RECONCILED
360
8DC
  0
DICTIONARY
  5
8DD
330
3CF
100
AcDbDictionary
280
     1
281
     1
  3
ADSK_XREC_LAYER_RECONCILED
360
8DE
  0
DICTIONARY
  5
850
330
3DB
100
AcDbDictionary
280
     1
281
     1
  0
DICTIONARY
  5
BC3
330
3F8
100
AcDbDictionary
280
     1
281
     1
  0
DICTIONARY
  5
BDC
330
40B
100
AcDbDictionary
280
     1
281
     1
  0
DICTIONARY
  5
C0D
330
423
100
AcDbDictionary
280
     1
281
     1
  0
DICTIONARY
  5
C1B
330
4B2
100
AcDbDictionary
280
     1
281
     1
  3
ACAD_MTEXT_RT
360
C1C
  0
DICTIONARY
  5
C1D
330
4BB
100
AcDbDictionary
280
     1
281
     1
  3
ACAD_MTEXT_RT
360
C1E
  0
DICTIONARY
  5
C1F
330
4C4
100
AcDbDictionary
280
     1
281
     1
  3
ACAD_MTEXT_RT
360
C20
  0
DICTIONARY
  5
C21
330
4CD
100
AcDbDictionary
280
     1
281
     1
  3
ACAD_MTEXT_RT
360
C22
  0
DICTIONARY
  5
C2D
330
679
100
AcDbDictionary
280
     1
281
     1
  3
ACAD_MTEXT_RT
360
C2E
  0
DICTIONARY
  5
C2B
330
673
100
AcDbDictionary
280
     1
281
     1
  3
ACAD_MTEXT_RT
360
C2C
  0
DICTIONARY
  5
C29
330
66D
100
AcDbDictionary
280
     1
281
     1
  3
ACAD_MTEXT_RT
360
C2A
  0
DICTIONARY
  5
C27
330
667
100
AcDbDictionary
280
     1
281
     1
  3
ACAD_MTEXT_RT
360
C28
  0
DICTIONARY
  5
C31
330
7C0
100
AcDbDictionary
280
     1
281
     1
  3
ACAD_MTEXT_RT
360
C32
  0
DICTIONARY
  5
C33
330
7D9
100
AcDbDictionary
280
     1
281
     1
  3
ACAD_MTEXT_RT
360
C34
  0
DICTIONARY
  5
C2F
330
7A7
100
AcDbDictionary
280
     1
281
     1
  3
ACAD_MTEXT_RT
360
C30
  0
DICTIONARY
  5
C39
330
BE9
100
AcDbDictionary
280
     1
281
     1
  3
ACAD_MTEXT_RT
360
C3A
  0
DICTIONARY
  5
C23
330
509
100
AcDbDictionary
280
     1
281
     1
  3
ACAD_MTEXT_RT
360
C24
  0
DICTIONARY
  5
C25
330
50E
100
AcDbDictionary
280
     1
281
     1
  3
ACAD_MTEXT_RT
360
C26
  0
DICTIONARY
  5
6C1
330
6B6
100
AcDbDictionary
280
     1
281
     1
  3
ACAD_DIMASSOC
360
6C9
  0
DICTIONARY
  5
6D5
330
6CA
100
AcDbDictionary
280
     1
281
     1
  3
ACAD_DIMASSOC
360
6DD
  0
DICTIONARY
  5
739
330
72E
100
AcDbDictionary
280
     1
281
     1
  3
ACAD_DIMASSOC
360
741
  0
DICTIONARY
  5
74D
330
742
100
AcDbDictionary
280
     1
281
     1
  3
ACAD_DIMASSOC
360
755
  0
DICTIONARY
  5
75F
330
756
100
AcDbDictionary
280
     1
281
     1
  3
ACAD_DIMASSOC
360
765
  0
DICTIONARY
  5
76F
330
766
100
AcDbDictionary
280
     1
281
     1
  3
ACAD_DIMASSOC
360
775
  0
DICTIONARY
  5
77F
330
776
100
AcDbDictionary
280
     1
281
     1
  3
ACAD_DIMASSOC
360
785
  0
DICTIONARY
  5
6B
102
{ACAD_REACTORS
330
C
102
}
330
C
100
AcDbDictionary
281
     1
  0
DICTIONARY
  5
D
102
{ACAD_REACTORS
330
C
102
}
330
C
100
AcDbDictionary
281
     1
  0
DICTIONARY
  5
1A
102
{ACAD_REACTORS
330
C
102
}
330
C
100
AcDbDictionary
281
     1
  3
Arkusz1
350
51
  3
Arkusz2
350
56
  3
Model
350
22
  0
DICTIONARY
  5
6A
102
{ACAD_REACTORS
330
C
102
}
330
C
100
AcDbDictionary
281
     1
  3
ByBlock
350
7F9
  3
ByLayer
350
7F1
  3
Global
350
801
  0
DICTIONARY
  5
82E
102
{ACAD_REACTORS
330
C
102
}
330
C
100
AcDbDictionary
281
     1
  3
Standard
350
82F
  0
DICTIONARY
  5
17
102
{ACAD_REACTORS
330
C
102
}
330
C
100
AcDbDictionary
281
     1
  3
Standard
350
18
  0
DICTIONARY
  5
19
102
{ACAD_REACTORS
330
C
102
}
330
C
100
AcDbDictionary
281
     1
  0
ACDBDICTIONARYWDFLT
  5
E
102
{ACAD_REACTORS
330
C
102
}
330
C
100
AcDbDictionary
281
     1
  3
Normal
350
F
100
AcDbDictionaryWithDefault
340
F
  0
DICTIONARY
  5
81C
102
{ACAD_REACTORS
330
C
102
}
330
C
100
AcDbDictionary
281
     1
  3
A0
350
81D
  3
A1
350
81E
  3
A2
350
81F
  3
A3
350
820
  3
A4
350
821
  3
A5
350
822
  3
A6
350
823
  3
A7
350
824
  3
A8
350
825
  3
A9
350
826
  3
B0
350
827
  3
B1
350
828
  3
B2
350
829
  3
B3
350
82A
  3
B4
350
82B
  3
B5
350
82C
  3
B6
350
82D
  0
DICTIONARY
  5
81A
102
{ACAD_REACTORS
330
C
102
}
330
C
100
AcDbDictionary
281
     1
  3
Standard
350
81B
  0
DICTIONARY
  5
809
102
{ACAD_REACTORS
330
C
102
}
330
C
100
AcDbDictionary
281
     1
  3
2dWireframe
350
80F
  3
3D Hidden
350
811
  3
3dWireframe
350
810
  3
Basic
350
80E
  3
Brighten
350
815
  3
ColorChange
350
819
  3
Conceptual
350
812
  3
Dim
350
814
  3
Facepattern
350
818
  3
Flat
350
80A
  3
FlatWithEdges
350
80B
  3
Gouraud
350
80C
  3
GouraudWithEdges
350
80D
  3
Linepattern
350
817
  3
Realistic
350
813
  3
Thicken
350
816
  0
XRECORD
  5
C13
102
{ACAD_REACTORS
330
C
102
}
330
C
100
AcDbXrecord
280
     1
 90
        1
330
81B
  0
DICTIONARY
  5
5E
102
{ACAD_REACTORS
330
C
102
}
330
C
100
AcDbDictionary
281
     1
  3
CANNOSCALE
350
8E1
  3
CMLEADERSTYLE
350
8E0
  3
CTABLESTYLE
350
8DF
  3
DIMASSOC
350
5F
  3
HIDETEXT
350
63
  3
INDEXCTL
350
8E3
  3
PROJECTNAME
350
7DF
  3
SORTENTS
350
8E2
  0
XRECORD
  5
C14
102
{ACAD_REACTORS
330
C
102
}
330
C
100
AcDbXrecord
280
     1
  1
DWGPROPS COOKIE
  2

  3

  4

  6

  7

  8
darek
  9

300
=
301
=
302
=
303
=
304
=
305
=
306
=
307
=
308
=
309
=
 40
0.1680932175925926
 41
2453959.416956308
 42
2456666.956518009
  1

 90
        0
  0
XRECORD
  5
8DA
102
{ACAD_REACTORS
330
8D9
102
}
330
8D9
100
AcDbXrecord
280
     1
290
     1
  0
XRECORD
  5
8DC
102
{ACAD_REACTORS
330
8DB
102
}
330
8DB
100
AcDbXrecord
280
     1
290
     1
  0
XRECORD
  5
8DE
102
{ACAD_REACTORS
330
8DD
102
}
330
8DD
100
AcDbXrecord
280
     1
290
     1
  0
XRECORD
  5
C1C
102
{ACAD_REACTORS
330
C1B
102
}
330
C1B
100
AcDbXrecord
280
     1
 40
2828.0
  1
\U+2205400
  0
XRECORD
  5
C1E
102
{ACAD_REACTORS
330
C1D
102
}
330
C1D
100
AcDbXrecord
280
     1
 40
2828.0
  1
\U+2205400
  0
XRECORD
  5
C20
102
{ACAD_REACTORS
330
C1F
102
}
330
C1F
100
AcDbXrecord
280
     1
 40
2828.0
  1
\U+2205400
  0
XRECORD
  5
C22
102
{ACAD_REACTORS
330
C21
102
}
330
C21
100
AcDbXrecord
280
     1
 40
2828.0
  1
\U+2205400
  0
XRECORD
  5
C2E
102
{ACAD_REACTORS
330
C2D
102
}
330
C2D
100
AcDbXrecord
280
     1
 40
2828.0
  1
\U+2205400
  0
XRECORD
  5
C2C
102
{ACAD_REACTORS
330
C2B
102
}
330
C2B
100
AcDbXrecord
280
     1
 40
2828.0
  1
\U+2205400
  0
XRECORD
  5
C2A
102
{ACAD_REACTORS
330
C29
102
}
330
C29
100
AcDbXrecord
280
     1
 40
2828.0
  1
\U+2205400
  0
XRECORD
  5
C28
102
{ACAD_REACTORS
330
C27
102
}
330
C27
100
AcDbXrecord
280
     1
 40
2828.0
  1
\U+2205400
  0
XRECORD
  5
C32
102
{ACAD_REACTORS
330
C31
102
}
330
C31
100
AcDbXrecord
280
     1
 40
2828.0
  1
\U+2205400
  0
XRECORD
  5
C34
102
{ACAD_REACTORS
330
C33
102
}
330
C33
100
AcDbXrecord
280
     1
 40
2828.0
  1
\U+2205400
  0
XRECORD
  5
C30
102
{ACAD_REACTORS
330
C2F
102
}
330
C2F
100
AcDbXrecord
280
     1
 40
2828.0
  1
\U+2205400
  0
XRECORD
  5
C3A
102
{ACAD_REACTORS
330
C39
102
}
330
C39
100
AcDbXrecord
280
     1
 40
2828.0
  1
\U+2205400
  0
XRECORD
  5
C24
102
{ACAD_REACTORS
330
C23
102
}
330
C23
100
AcDbXrecord
280
     1
 40
42289.0
  1
{\Ftxt.shx|c238;\H6x;odpływ^Jskroplin}
  0
XRECORD
  5
C26
102
{ACAD_REACTORS
330
C25
102
}
330
C25
100
AcDbXrecord
280
     1
 40
128802.0
  1
{\Ftxt.shx|c238;Rzut z góry\Ftxt.shx|c0;\H0.25x;}
  0
DIMASSOC
  5
6C9
102
{ACAD_REACTORS
330
6C1
102
}
330
6C1
100
AcDbDimAssoc
330
6B6
 90
        3
 70
     0
 71
     0
  1
AcDbOsnapPointRef
 72
     3
331
414
 73
     2
 91
        0
 40
0.0
 10
0.0
 20
0.0
 30
0.0
 75
     0
  1
AcDbOsnapPointRef
 72
     3
331
422
331
414
 73
     2
 91
        0
 40
0.0
 10
0.0
 20
0.0
 30
0.0
 75
     0
  0
DIMASSOC
  5
6DD
102
{ACAD_REACTORS
330
6D5
102
}
330
6D5
100
AcDbDimAssoc
330
6CA
 90
        2
 70
     0
 71
     0
  1
AcDbOsnapPointRef
 72
     2
331
422
331
41F
 73
     2
 91
        2
 40
0.2553191489361751
 10
0.0
 20
0.0
 30
0.0
 75
     0
  0
DIMASSOC
  5
741
102
{ACAD_REACTORS
330
739
102
}
330
739
100
AcDbDimAssoc
330
72E
 90
        3
 70
     0
 71
     0
  1
AcDbOsnapPointRef
 72
     3
331
C05
 73
     2
 91
        0
 40
0.0
 10
0.0
 20
0.0
 30
0.0
 75
     0
  1
AcDbOsnapPointRef
 72
     2
331
43A
331
C04
 73
     2
 91
        4
 40
0.7340425531914889
 10
0.0
 20
0.0
 30
0.0
 75
     0
  0
DIMASSOC
  5
755
102
{ACAD_REACTORS
330
74D
102
}
330
74D
100
AcDbDimAssoc
330
742
 90
        2
 70
     0
 71
     0
  1
AcDbOsnapPointRef
 72
     2
331
43A
331
431
 73
     2
 91
        1
 40
0.3758389261744973
 10
0.0
 20
0.0
 30
0.0
 75
     0
  0
DIMASSOC
  5
765
102
{ACAD_REACTORS
330
75F
102
}
330
75F
100
AcDbDimAssoc
330
756
 90
        2
 70
     0
 71
     0
  1
AcDbOsnapPointRef
 72
     3
331
43A
331
42E
 73
     2
 91
        0
 40
0.0
 10
0.0
 20
0.0
 30
0.0
 75
     0
  0
DIMASSOC
  5
775
102
{ACAD_REACTORS
330
76F
102
}
330
76F
100
AcDbDimAssoc
330
766
 90
        2
 70
     0
 71
     0
  1
AcDbOsnapPointRef
 72
     3
331
43A
331
433
 73
     2
 91
        0
 40
0.0
 10
0.0
 20
0.0
 30
0.0
 75
     0
  0
DIMASSOC
  5
785
102
{ACAD_REACTORS
330
77F
102
}
330
77F
100
AcDbDimAssoc
330
776
 90
        2
 70
     0
 71
     0
  1
AcDbOsnapPointRef
 72
     3
331
422
331
41C
 73
     2
 91
        0
 40
0.0
 10
0.0
 20
0.0
 30
0.0
 75
     0
  0
LAYOUT
  5
51
102
{ACAD_XDICTIONARY
360
C17
102
}
102
{ACAD_REACTORS
330
1A
102
}
330
1A
100
AcDbPlotSettings
  1

  2
None
  4

  6

 40
0.0
 41
0.0
 42
0.0
 43
0.0
 44
0.0
 45
0.0
 46
0.0
 47
0.0
 48
0.0
 49
0.0
140
0.0
141
0.0
142
1.0
143
1.0
 70
   688
 72
     0
 73
     0
 74
     5
  7

 75
    16
147
1.0
148
0.0
149
0.0
100
AcDbLayout
  1
Arkusz1
 70
     1
 71
     1
 10
0.0
 20
0.0
 11
12.0
 21
9.0
 12
0.0
 22
0.0
 32
0.0
 14
0.0
 24
0.0
 34
0.0
 15
0.0
 25
0.0
 35
0.0
146
0.0
 13
0.0
 23
0.0
 33
0.0
 16
1.0
 26
0.0
 36
0.0
 17
0.0
 27
1.0
 37
0.0
 76
     0
330
50
  0
LAYOUT
  5
56
102
{ACAD_XDICTIONARY
360
C19
102
}
102
{ACAD_REACTORS
330
1A
102
}
330
1A
100
AcDbPlotSettings
  1

  2
None
  4

  6

 40
0.0
 41
0.0
 42
0.0
 43
0.0
 44
0.0
 45
0.0
 46
0.0
 47
0.0
 48
0.0
 49
0.0
140
0.0
141
0.0
142
1.0
143
1.0
 70
   688
 72
     0
 73
     0
 74
     5
  7

 75
    16
147
1.0
148
0.0
149
0.0
100
AcDbLayout
  1
Arkusz2
 70
     1
 71
     2
 10
0.0
 20
0.0
 11
12.0
 21
9.0
 12
0.0
 22
0.0
 32
0.0
 14
0.0
 24
0.0
 34
0.0
 15
0.0
 25
0.0
 35
0.0
146
0.0
 13
0.0
 23
0.0
 33
0.0
 16
1.0
 26
0.0
 36
0.0
 17
0.0
 27
1.0
 37
0.0
 76
     0
330
55
  0
LAYOUT
  5
22
102
{ACAD_XDICTIONARY
360
C15
102
}
102
{ACAD_REACTORS
330
1A
102
}
330
1A
100
AcDbPlotSettings
  1

  2
none_device
  4
ANSI_A_(8.50_x_11.00_Inches)
  6

 40
6.349999904632567
 41
19.04999923706055
 42
6.350006103515625
 43
19.04998779296875
 44
215.8999938964844
 45
279.3999938964844
 46
0.0
 47
0.0
 48
0.0
 49
0.0
140
0.0
141
0.0
142
1.0
143
78.436453180766
 70
 11952
 72
     0
 73
     1
 74
     0
  7

 75
     0
147
0.0127491741332998
148
0.0
149
0.0
100
AcDbLayout
  1
Model
 70
     1
 71
     0
 10
0.0
 20
0.0
 11
12.0
 21
9.0
 12
0.0
 22
0.0
 32
0.0
 14
0.0
 24
0.0
 34
0.0
 15
0.0
 25
0.0
 35
0.0
146
0.0
 13
0.0
 23
0.0
 33
0.0
 16
1.0
 26
0.0
 36
0.0
 17
0.0
 27
1.0
 37
0.0
 76
     0
330
1F
331
7E0
  0
MATERIAL
  5
7F9
102
{ACAD_XDICTIONARY
360
7FA
102
}
102
{ACAD_REACTORS
330
6A
102
}
330
6A
100
AcDbMaterial
  1
ByBlock
 72
     0
 43
0.0008202099737533
 43
0.0
 43
0.0
 43
0.0
 43
0.0
 43
0.0008202099737533
 43
0.0
 43
0.0
 43
0.0
 43
0.0
 43
1.0
 43
0.0
 43
0.0
 43
0.0
 43
0.0
 43
1.0
 77
     0
 47
0.0008202099737533
 47
0.0
 47
0.0
 47
0.0
 47
0.0
 47
0.0008202099737533
 47
0.0
 47
0.0
 47
0.0
 47
0.0
 47
1.0
 47
0.0
 47
0.0
 47
0.0
 47
0.0
 47
1.0
171
     0
 49
0.0008202099737533
 49
0.0
 49
0.0
 49
0.0
 49
0.0
 49
0.0008202099737533
 49
0.0
 49
0.0
 49
0.0
 49
0.0
 49
1.0
 49
0.0
 49
0.0
 49
0.0
 49
0.0
 49
1.0
175
     0
142
0.0008202099737533
142
0.0
142
0.0
142
0.0
142
0.0
142
0.0008202099737533
142
0.0
142
0.0
142
0.0
142
0.0
142
1.0
142
0.0
142
0.0
142
0.0
142
0.0
142
1.0
179
     0
144
0.0008202099737533
144
0.0
144
0.0
144
0.0
144
0.0
144
0.0008202099737533
144
0.0
144
0.0
144
0.0
144
0.0
144
1.0
144
0.0
144
0.0
144
0.0
144
0.0
144
1.0
147
0.0008202099737533
147
0.0
147
0.0
147
0.0
147
0.0
147
0.0008202099737533
147
0.0
147
0.0
147
0.0
147
0.0
147
1.0
147
0.0
147
0.0
147
0.0
147
0.0
147
1.0
  0
MATERIAL
  5
7F1
102
{ACAD_XDICTIONARY
360
7F2
102
}
102
{ACAD_REACTORS
330
6A
102
}
330
6A
100
AcDbMaterial
  1
ByLayer
 72
     0
 43
0.0008202099737533
 43
0.0
 43
0.0
 43
0.0
 43
0.0
 43
0.0008202099737533
 43
0.0
 43
0.0
 43
0.0
 43
0.0
 43
1.0
 43
0.0
 43
0.0
 43
0.0
 43
0.0
 43
1.0
 77
     0
 47
0.0008202099737533
 47
0.0
 47
0.0
 47
0.0
 47
0.0
 47
0.0008202099737533
 47
0.0
 47
0.0
 47
0.0
 47
0.0
 47
1.0
 47
0.0
 47
0.0
 47
0.0
 47
0.0
 47
1.0
171
     0
 49
0.0008202099737533
 49
0.0
 49
0.0
 49
0.0
 49
0.0
 49
0.0008202099737533
 49
0.0
 49
0.0
 49
0.0
 49
0.0
 49
1.0
 49
0.0
 49
0.0
 49
0.0
 49
0.0
 49
1.0
175
     0
142
0.0008202099737533
142
0.0
142
0.0
142
0.0
142
0.0
142
0.0008202099737533
142
0.0
142
0.0
142
0.0
142
0.0
142
1.0
142
0.0
142
0.0
142
0.0
142
0.0
142
1.0
179
     0
144
0.0008202099737533
144
0.0
144
0.0
144
0.0
144
0.0
144
0.0008202099737533
144
0.0
144
0.0
144
0.0
144
0.0
144
1.0
144
0.0
144
0.0
144
0.0
144
0.0
144
1.0
147
0.0008202099737533
147
0.0
147
0.0
147
0.0
147
0.0
147
0.0008202099737533
147
0.0
147
0.0
147
0.0
147
0.0
147
1.0
147
0.0
147
0.0
147
0.0
147
0.0
147
1.0
  0
MATERIAL
  5
801
102
{ACAD_XDICTIONARY
360
802
102
}
102
{ACAD_REACTORS
330
6A
102
}
330
6A
100
AcDbMaterial
  1
Global
 72
     0
 43
0.0008202099737533
 43
0.0
 43
0.0
 43
0.0
 43
0.0
 43
0.0008202099737533
 43
0.0
 43
0.0
 43
0.0
 43
0.0
 43
1.0
 43
0.0
 43
0.0
 43
0.0
 43
0.0
 43
1.0
 77
     0
 47
0.0008202099737533
 47
0.0
 47
0.0
 47
0.0
 47
0.0
 47
0.0008202099737533
 47
0.0
 47
0.0
 47
0.0
 47
0.0
 47
1.0
 47
0.0
 47
0.0
 47
0.0
 47
0.0
 47
1.0
171
     0
 49
0.0008202099737533
 49
0.0
 49
0.0
 49
0.0
 49
0.0
 49
0.0008202099737533
 49
0.0
 49
0.0
 49
0.0
 49
0.0
 49
1.0
 49
0.0
 49
0.0
 49
0.0
 49
0.0
 49
1.0
175
     0
142
0.0008202099737533
142
0.0
142
0.0
142
0.0
142
0.0
142
0.0008202099737533
142
0.0
142
0.0
142
0.0
142
0.0
142
1.0
142
0.0
142
0.0
142
0.0
142
0.0
142
1.0
179
     0
144
0.0008202099737533
144
0.0
144
0.0
144
0.0
144
0.0
144
0.0008202099737533
144
0.0
144
0.0
144
0.0
144
0.0
144
1.0
144
0.0
144
0.0
144
0.0
144
0.0
144
1.0
147
0.0008202099737533
147
0.0
147
0.0
147
0.0
147
0.0
147
0.0008202099737533
147
0.0
147
0.0
147
0.0
147
0.0
147
1.0
147
0.0
147
0.0
147
0.0
147
0.0
147
1.0
  0
MLEADERSTYLE
  5
82F
102
{ACAD_REACTORS
330
82E
102
}
330
82E
100
AcDbMLeaderStyle
170
     2
171
     1
172
     0
 90
        2
 40
0.0
 41
0.0
173
     1
 91
-1056964608
340
14
 92
       -2
290
     1
 42
2.0
291
     1
 43
0.36
  3
Standard
 44
4.0
300

342
11
174
     1
178
     6
175
     1
176
     0
 93
-1056964608
 45
4.0
292
     0
297
     0
 46
4.0
 94
-1056964608
 47
1.0
 49
1.0
140
1.0
293
     1
141
0.0
294
     1
177
     0
142
1.0
295
     0
296
     0
143
0.125
1001
ACAD_MLEADERVER
1070
     2
  0
MLINESTYLE
  5
18
102
{ACAD_REACTORS
330
17
102
}
330
17
100
AcDbMlineStyle
  2
STANDARD
 70
     0
  3

 62
   256
 51
90.0
 52
90.0
 71
     2
 49
0.5
 62
   256
  6
BYLAYER
 49
-0.5
 62
   256
  6
BYLAYER
  0
ACDBPLACEHOLDER
  5
F
102
{ACAD_REACTORS
330
E
102
}
330
E
  0
SCALE
  5
81D
102
{ACAD_REACTORS
330
81C
102
}
330
81C
100
AcDbScale
 70
     0
300
1:1
140
1.0
141
1.0
290
     1
  0
SCALE
  5
81E
102
{ACAD_REACTORS
330
81C
102
}
330
81C
100
AcDbScale
 70
     0
300
1:2
140
1.0
141
2.0
290
     0
  0
SCALE
  5
81F
102
{ACAD_REACTORS
330
81C
102
}
330
81C
100
AcDbScale
 70
     0
300
1:4
140
1.0
141
4.0
290
     0
  0
SCALE
  5
820
102
{ACAD_REACTORS
330
81C
102
}
330
81C
100
AcDbScale
 70
     0
300
1:5
140
1.0
141
5.0
290
     0
  0
SCALE
  5
821
102
{ACAD_REACTORS
330
81C
102
}
330
81C
100
AcDbScale
 70
     0
300
1:8
140
1.0
141
8.0
290
     0
  0
SCALE
  5
822
102
{ACAD_REACTORS
330
81C
102
}
330
81C
100
AcDbScale
 70
     0
300
1:10
140
1.0
141
10.0
290
     0
  0
SCALE
  5
823
102
{ACAD_REACTORS
330
81C
102
}
330
81C
100
AcDbScale
 70
     0
300
1:16
140
1.0
141
16.0
290
     0
  0
SCALE
  5
824
102
{ACAD_REACTORS
330
81C
102
}
330
81C
100
AcDbScale
 70
     0
300
1:20
140
1.0
141
20.0
290
     0
  0
SCALE
  5
825
102
{ACAD_REACTORS
330
81C
102
}
330
81C
100
AcDbScale
 70
     0
300
1:30
140
1.0
141
30.0
290
     0
  0
SCALE
  5
826
102
{ACAD_REACTORS
330
81C
102
}
330
81C
100
AcDbScale
 70
     0
300
1:40
140
1.0
141
40.0
290
     0
  0
SCALE
  5
827
102
{ACAD_REACTORS
330
81C
102
}
330
81C
100
AcDbScale
 70
     0
300
1:50
140
1.0
141
50.0
290
     0
  0
SCALE
  5
828
102
{ACAD_REACTORS
330
81C
102
}
330
81C
100
AcDbScale
 70
     0
300
1:100
140
1.0
141
100.0
290
     0
  0
SCALE
  5
829
102
{ACAD_REACTORS
330
81C
102
}
330
81C
100
AcDbScale
 70
     0
300
2:1
140
2.0
141
1.0
290
     0
  0
SCALE
  5
82A
102
{ACAD_REACTORS
330
81C
102
}
330
81C
100
AcDbScale
 70
     0
300
4:1
140
4.0
141
1.0
290
     0
  0
SCALE
  5
82B
102
{ACAD_REACTORS
330
81C
102
}
330
81C
100
AcDbScale
 70
     0
300
8:1
140
8.0
141
1.0
290
     0
  0
SCALE
  5
82C
102
{ACAD_REACTORS
330
81C
102
}
330
81C
100
AcDbScale
 70
     0
300
10:1
140
10.0
141
1.0
290
     0
  0
SCALE
  5
82D
102
{ACAD_REACTORS
330
81C
102
}
330
81C
100
AcDbScale
 70
     0
300
100:1
140
100.0
141
1.0
290
     0
  0
TABLESTYLE
  5
81B
102
{ACAD_XDICTIONARY
360
C11
102
}
102
{ACAD_REACTORS
330
81A
102
}
330
81A
100
AcDbTableStyle
  3
Standard
 70
     0
 71
     0
 40
1.5
 41
1.5
280
     0
281
     0
  7
Standard
140
4.5
170
     2
 62
     0
 63
     7
283
     0
274
    -2
284
     1
 64
     0
275
    -2
285
     1
 65
     0
276
    -2
286
     1
 66
     0
277
    -2
287
     1
 67
     0
278
    -2
288
     1
 68
     0
279
    -2
289
     1
 69
     0
  7
Standard
140
6.0
170
     5
 62
     0
 63
     7
283
     0
274
    -2
284
     1
 64
     0
275
    -2
285
     1
 65
     0
276
    -2
286
     1
 66
     0
277
    -2
287
     1
 67
     0
278
    -2
288
     1
 68
     0
279
    -2
289
     1
 69
     0
  7
Standard
140
4.5
170
     5
 62
     0
 63
     7
283
     0
274
    -2
284
     1
 64
     0
275
    -2
285
     1
 65
     0
276
    -2
286
     1
 66
     0
277
    -2
287
     1
 67
     0
278
    -2
288
     1
 68
     0
279
    -2
289
     1
 69
     0
  0
VISUALSTYLE
  5
80F
102
{ACAD_REACTORS
330
809
102
}
330
809
100
AcDbVisualStyle
  2
2dWireframe
 70
     4
 71
     0
 72
     2
 73
     0
 90
        0
 40
-0.6
 41
-30.0
 62
     5
 63
     7
 74
     1
 91
        4
 64
     7
 65
   257
 75
     1
175
     1
 42
1.0
 92
        0
 66
   257
 43
1.0
 76
     1
 77
     6
 78
     2
 67
     7
 79
     5
170
     0
171
     0
290
     0
174
     0
 93
        1
 44
0.0
173
     0
291
     0
 45
0.0
1001
ACAD
1000
AcDbSavedByObjectVersion
1070
     0
  0
VISUALSTYLE
  5
811
102
{ACAD_REACTORS
330
809
102
}
330
809
100
AcDbVisualStyle
  2
3D Hidden
 70
     6
 71
     1
 72
     2
 73
     2
 90
        0
 40
-0.6
 41
-30.0
 62
     5
 63
     7
 74
     2
 91
        2
 64
     7
 65
   257
 75
     2
175
     1
 42
40.0
 92
        0
 66
   257
 43
1.0
 76
     1
 77
     6
 78
     2
 67
     7
 79
     3
170
     0
171
     0
290
     0
174
     0
 93
        1
 44
0.0
173
     0
291
     0
 45
0.0
1001
ACAD
1000
AcDbSavedByObjectVersion
1070
     0
  0
VISUALSTYLE
  5
810
102
{ACAD_REACTORS
330
809
102
}
330
809
100
AcDbVisualStyle
  2
3dWireframe
 70
     5
 71
     0
 72
     2
 73
     0
 90
        0
 40
-0.6
 41
-30.0
 62
     5
 63
     7
 74
     1
 91
        4
 64
     7
 65
   257
 75
     1
175
     1
 42
1.0
 92
        0
 66
   257
 43
1.0
 76
     1
 77
     6
 78
     2
 67
     7
 79
     5
170
     0
171
     0
290
     0
174
     0
 93
        1
 44
0.0
173
     0
291
     0
 45
0.0
1001
ACAD
1000
AcDbSavedByObjectVersion
1070
     0
  0
VISUALSTYLE
  5
80E
102
{ACAD_REACTORS
330
809
102
}
330
809
100
AcDbVisualStyle
  2
Basic
 70
     7
 71
     1
 72
     0
 73
     1
 90
        0
 40
-0.6
 41
-30.0
 62
     5
 63
     7
 74
     0
 91
        4
 64
     7
 65
   257
 75
     1
175
     1
 42
1.0
 92
        8
 66
     7
 43
1.0
 76
     1
 77
     6
 78
     2
 67
     7
 79
     5
170
     0
171
     0
290
     0
174
     0
 93
        1
 44
0.0
173
     0
291
     1
 45
0.0
1001
ACAD
1000
AcDbSavedByObjectVersion
1070
     0
  0
VISUALSTYLE
  5
815
102
{ACAD_REACTORS
330
809
102
}
330
809
100
AcDbVisualStyle
  2
Brighten
 70
    12
 71
     2
 72
     2
 73
     0
 90
        0
 40
-0.6
 41
-30.0
 62
     5
 63
     7
 74
     1
 91
        4
 64
     7
 65
   257
 75
     1
175
     1
 42
1.0
 92
        8
 66
     7
 43
1.0
 76
     1
 77
     6
 78
     2
 67
     7
 79
     5
170
     0
171
     0
290
     0
174
     0
 93
        1
 44
50.0
173
     0
291
     1
 45
0.0
1001
ACAD
1000
AcDbSavedByObjectVersion
1070
     0
  0
VISUALSTYLE
  5
819
102
{ACAD_REACTORS
330
809
102
}
330
809
100
AcDbVisualStyle
  2
ColorChange
 70
    16
 71
     2
 72
     2
 73
     3
 90
        0
 40
-0.6
 41
-30.0
 62
     5
 63
     8
 74
     1
 91
        4
 64
     7
 65
   257
 75
     1
175
     1
 42
1.0
 92
        8
 66
     8
 43
1.0
 76
     1
 77
     6
 78
     2
 67
     7
 79
     5
170
     0
171
     0
290
     0
174
     0
 93
        1
 44
0.0
173
     0
291
     1
 45
0.0
1001
ACAD
1000
AcDbSavedByObjectVersion
1070
     0
  0
VISUALSTYLE
  5
812
102
{ACAD_REACTORS
330
809
102
}
330
809
100
AcDbVisualStyle
  2
Conceptual
 70
     9
 71
     3
 72
     2
 73
     0
 90
        0
 40
-0.6
 41
-30.0
 62
     5
 63
     7
 74
     2
 91
        2
 64
     7
 65
   257
 75
     1
175
     1
 42
40.0
 92
        8
 66
     7
 43
1.0
 76
     1
 77
     6
 78
     2
 67
     7
 79
     3
170
     0
171
     0
290
     0
174
     0
 93
        1
 44
0.0
173
     0
291
     0
 45
0.0
1001
ACAD
1000
AcDbSavedByObjectVersion
1070
     0
  0
VISUALSTYLE
  5
814
102
{ACAD_REACTORS
330
809
102
}
330
809
100
AcDbVisualStyle
  2
Dim
 70
    11
 71
     2
 72
     2
 73
     0
 90
        0
 40
-0.6
 41
-30.0
 62
     5
 63
     7
 74
     1
 91
        4
 64
     7
 65
   257
 75
     1
175
     1
 42
1.0
 92
        8
 66
     7
 43
1.0
 76
     1
 77
     6
 78
     2
 67
     7
 79
     5
170
     0
171
     0
290
     0
174
     0
 93
        1
 44
-50.0
173
     0
291
     1
 45
0.0
1001
ACAD
1000
AcDbSavedByObjectVersion
1070
     0
  0
VISUALSTYLE
  5
818
102
{ACAD_REACTORS
330
809
102
}
330
809
100
AcDbVisualStyle
  2
Facepattern
 70
    15
 71
     2
 72
     2
 73
     0
 90
        0
 40
-0.6
 41
-30.0
 62
     5
 63
     7
 74
     1
 91
        4
 64
     7
 65
   257
 75
     1
175
     1
 42
1.0
 92
        8
 66
     7
 43
1.0
 76
     1
 77
     6
 78
     2
 67
     7
 79
     5
170
     0
171
     0
290
     0
174
     0
 93
        1
 44
0.0
173
     0
291
     1
 45
0.0
1001
ACAD
1000
AcDbSavedByObjectVersion
1070
     0
  0
VISUALSTYLE
  5
80A
102
{ACAD_REACTORS
330
809
102
}
330
809
100
AcDbVisualStyle
  2
Flat
 70
     0
 71
     2
 72
     1
 73
     1
 90
        2
 40
-0.6
 41
30.0
 62
     5
 63
     7
 74
     0
 91
        4
 64
     7
 65
   257
 75
     1
175
     1
 42
1.0
 92
        8
 66
     7
 43
1.0
 76
     1
 77
     6
 78
     2
 67
     7
 79
     5
170
     0
171
     0
290
     0
174
     0
 93
       13
 44
0.0
173
     0
291
     1
 45
0.0
1001
ACAD
1000
AcDbSavedByObjectVersion
1070
     0
  0
VISUALSTYLE
  5
80B
102
{ACAD_REACTORS
330
809
102
}
330
809
100
AcDbVisualStyle
  2
FlatWithEdges
 70
     1
 71
     2
 72
     1
 73
     1
 90
        2
 40
-0.6
 41
30.0
 62
     5
 63
     7
 74
     1
 91
        4
 64
     7
 65
   257
 75
     1
175
     1
 42
1.0
 92
        0
 66
   257
 43
1.0
 76
     1
 77
     6
 78
     2
 67
     7
 79
     5
170
     0
171
     0
290
     0
174
     0
 93
       13
 44
0.0
173
     0
291
     1
 45
0.0
1001
ACAD
1000
AcDbSavedByObjectVersion
1070
     0
  0
VISUALSTYLE
  5
80C
102
{ACAD_REACTORS
330
809
102
}
330
809
100
AcDbVisualStyle
  2
Gouraud
 70
     2
 71
     2
 72
     2
 73
     1
 90
        2
 40
-0.6
 41
30.0
 62
     5
 63
     7
 74
     0
 91
        4
 64
     7
 65
   257
 75
     1
175
     1
 42
1.0
 92
        0
 66
     7
 43
1.0
 76
     1
 77
     6
 78
     2
 67
     7
 79
     5
170
     0
171
     0
290
     0
174
     0
 93
       13
 44
0.0
173
     0
291
     1
 45
0.0
1001
ACAD
1000
AcDbSavedByObjectVersion
1070
     0
  0
VISUALSTYLE
  5
80D
102
{ACAD_REACTORS
330
809
102
}
330
809
100
AcDbVisualStyle
  2
GouraudWithEdges
 70
     3
 71
     2
 72
     2
 73
     1
 90
        2
 40
-0.6
 41
30.0
 62
     5
 63
     7
 74
     1
 91
        4
 64
     7
 65
   257
 75
     1
175
     1
 42
1.0
 92
        0
 66
   257
 43
1.0
 76
     1
 77
     6
 78
     2
 67
     7
 79
     5
170
     0
171
     0
290
     0
174
     0
 93
       13
 44
0.0
173
     0
291
     1
 45
0.0
1001
ACAD
1000
AcDbSavedByObjectVersion
1070
     0
  0
VISUALSTYLE
  5
817
102
{ACAD_REACTORS
330
809
102
}
330
809
100
AcDbVisualStyle
  2
Linepattern
 70
    14
 71
     2
 72
     2
 73
     0
 90
        0
 40
-0.6
 41
-30.0
 62
     5
 63
     7
 74
     1
 91
        4
 64
     7
 65
   257
 75
     7
175
     7
 42
1.0
 92
        8
 66
     7
 43
1.0
 76
     1
 77
     6
 78
     2
 67
     7
 79
     5
170
     0
171
     0
290
     0
174
     0
 93
        1
 44
0.0
173
     0
291
     1
 45
0.0
1001
ACAD
1000
AcDbSavedByObjectVersion
1070
     0
  0
VISUALSTYLE
  5
813
102
{ACAD_REACTORS
330
809
102
}
330
809
100
AcDbVisualStyle
  2
Realistic
 70
     8
 71
     2
 72
     2
 73
     0
 90
        0
 40
-0.6
 41
-30.0
 62
     5
 63
     7
 74
     1
 91
        0
 64
     7
 65
   257
 75
     1
175
     1
 42
1.0
 92
        8
 66
     8
 43
1.0
 76
     1
 77
     6
 78
     2
 67
     7
 79
     5
170
     0
171
     0
290
     0
174
     0
 93
       13
 44
0.0
173
     0
291
     0
 45
0.0
1001
ACAD
1000
AcDbSavedByObjectVersion
1070
     0
  0
VISUALSTYLE
  5
816
102
{ACAD_REACTORS
330
809
102
}
330
809
100
AcDbVisualStyle
  2
Thicken
 70
    13
 71
     2
 72
     2
 73
     0
 90
        0
 40
-0.6
 41
-30.0
 62
     5
 63
     7
 74
     1
 91
        4
 64
     7
 65
   257
 75
     1
175
     1
 42
1.0
 92
       12
 66
     7
 43
1.0
 76
     1
 77
     6
 78
     2
 67
     7
 79
     5
170
     0
171
     0
290
     0
174
     0
 93
        1
 44
0.0
173
     0
291
     1
 45
0.0
1001
ACAD
1000
AcDbSavedByObjectVersion
1070
     0
  0
DICTIONARYVAR
  5
8E1
102
{ACAD_REACTORS
330
5E
102
}
330
5E
100
DictionaryVariables
280
     0
  1
1:1
  0
DICTIONARYVAR
  5
8E0
102
{ACAD_REACTORS
330
5E
102
}
330
5E
100
DictionaryVariables
280
     0
  1
STANDARD
  0
DICTIONARYVAR
  5
8DF
102
{ACAD_REACTORS
330
5E
102
}
330
5E
100
DictionaryVariables
280
     0
  1
STANDARD
  0
DICTIONARYVAR
  5
5F
102
{ACAD_REACTORS
330
5E
102
}
330
5E
100
DictionaryVariables
280
     0
  1
2
  0
DICTIONARYVAR
  5
63
102
{ACAD_REACTORS
330
5E
102
}
330
5E
100
DictionaryVariables
280
     0
  1
1
  0
DICTIONARYVAR
  5
8E3
102
{ACAD_REACTORS
330
5E
102
}
330
5E
100
DictionaryVariables
280
     0
  1
0
  0
DICTIONARYVAR
  5
7DF
102
{ACAD_REACTORS
330
5E
102
}
330
5E
100
DictionaryVariables
280
     0
  1

  0
DICTIONARYVAR
  5
8E2
102
{ACAD_REACTORS
330
5E
102
}
330
5E
100
DictionaryVariables
280
     0
  1
127
  0
DICTIONARY
  5
C17
330
51
100
AcDbDictionary
280
     1
281
     1
  3
ACAD_XREC_ROUNDTRIP
360
C18
  0
DICTIONARY
  5
C19
330
56
100
AcDbDictionary
280
     1
281
     1
  3
ACAD_XREC_ROUNDTRIP
360
C1A
  0
DICTIONARY
  5
C15
330
22
100
AcDbDictionary
280
     1
281
     1
  3
ACAD_XREC_ROUNDTRIP
360
C16
  0
DICTIONARY
  5
7FA
330
7F9
100
AcDbDictionary
280
     1
281
     1
  3
ACAD_XREC_ROUNDTRIP
360
C36
  3
BUMPTILE
360
7FC
  3
DIFFUSETILE
360
7FB
  3
OPACITYTILE
360
7FF
  3
REFLECTIONTILE
360
7FE
  3
REFRACTIONTILE
360
800
  3
SPECULARTILE
360
7FD
  0
DICTIONARY
  5
7F2
330
7F1
100
AcDbDictionary
280
     1
281
     1
  3
ACAD_XREC_ROUNDTRIP
360
C35
  3
BUMPTILE
360
7F4
  3
DIFFUSETILE
360
7F3
  3
OPACITYTILE
360
7F7
  3
REFLECTIONTILE
360
7F6
  3
REFRACTIONTILE
360
7F8
  3
SPECULARTILE
360
7F5
  0
DICTIONARY
  5
802
330
801
100
AcDbDictionary
280
     1
281
     1
  3
ACAD_XREC_ROUNDTRIP
360
C37
  3
BUMPTILE
360
804
  3
DIFFUSETILE
360
803
  3
OPACITYTILE
360
807
  3
REFLECTIONTILE
360
806
  3
REFRACTIONTILE
360
808
  3
SPECULARTILE
360
805
  0
DICTIONARY
  5
C11
330
81B
100
AcDbDictionary
280
     1
281
     1
  3
ACAD_ROUNDTRIP_2008_TABLESTYLE_CELLSTYLEMAP
360
C12
  3
ACAD_XREC_ROUNDTRIP
360
C38
  0
XRECORD
  5
C18
102
{ACAD_REACTORS
330
C17
102
}
330
C17
100
AcDbXrecord
280
     1
102
SHADEPLOT
 70
     0
102
SHADEPLOTRESLEVEL
 70
     2
102
SHADEPLOTCUSTOMDPI
 70
   300
  0
XRECORD
  5
C1A
102
{ACAD_REACTORS
330
C19
102
}
330
C19
100
AcDbXrecord
280
     1
102
SHADEPLOT
 70
     0
102
SHADEPLOTRESLEVEL
 70
     2
102
SHADEPLOTCUSTOMDPI
 70
   300
  0
XRECORD
  5
C16
102
{ACAD_REACTORS
330
C15
102
}
330
C15
100
AcDbXrecord
280
     1
102
SHADEPLOT
 70
     0
102
SHADEPLOTRESLEVEL
 70
     2
102
SHADEPLOTCUSTOMDPI
 70
   300
  0
XRECORD
  5
C36
102
{ACAD_REACTORS
330
7FA
102
}
330
7FA
100
AcDbXrecord
280
     1
102
MATERIAL
148
0.0
149
0.0
149
0.0
 93
        0
 94
      127
282
     0
 72
     0
 77
     0
171
     0
175
     0
179
     0
273
     0
  0
XRECORD
  5
7FC
102
{ACAD_REACTORS
330
7FA
102
}
330
7FA
100
AcDbXrecord
280
     1
270
     1
271
     1
  0
XRECORD
  5
7FB
102
{ACAD_REACTORS
330
7FA
102
}
330
7FA
100
AcDbXrecord
280
     1
270
     1
271
     1
  0
XRECORD
  5
7FF
102
{ACAD_REACTORS
330
7FA
102
}
330
7FA
100
AcDbXrecord
280
     1
270
     1
271
     1
  0
XRECORD
  5
7FE
102
{ACAD_REACTORS
330
7FA
102
}
330
7FA
100
AcDbXrecord
280
     1
270
     1
271
     1
  0
XRECORD
  5
800
102
{ACAD_REACTORS
330
7FA
102
}
330
7FA
100
AcDbXrecord
280
     1
270
     1
271
     1
  0
XRECORD
  5
7FD
102
{ACAD_REACTORS
330
7FA
102
}
330
7FA
100
AcDbXrecord
280
     1
270
     1
271
     1
  0
XRECORD
  5
C35
102
{ACAD_REACTORS
330
7F2
102
}
330
7F2
100
AcDbXrecord
280
     1
102
MATERIAL
148
0.0
149
0.0
149
0.0
 93
        0
 94
      127
282
     0
 72
     0
 77
     0
171
     0
175
     0
179
     0
273
     0
  0
XRECORD
  5
7F4
102
{ACAD_REACTORS
330
7F2
102
}
330
7F2
100
AcDbXrecord
280
     1
270
     1
271
     1
  0
XRECORD
  5
7F3
102
{ACAD_REACTORS
330
7F2
102
}
330
7F2
100
AcDbXrecord
280
     1
270
     1
271
     1
  0
XRECORD
  5
7F7
102
{ACAD_REACTORS
330
7F2
102
}
330
7F2
100
AcDbXrecord
280
     1
270
     1
271
     1
  0
XRECORD
  5
7F6
102
{ACAD_REACTORS
330
7F2
102
}
330
7F2
100
AcDbXrecord
280
     1
270
     1
271
     1
  0
XRECORD
  5
7F8
102
{ACAD_REACTORS
330
7F2
102
}
330
7F2
100
AcDbXrecord
280
     1
270
     1
271
     1
  0
XRECORD
  5
7F5
102
{ACAD_REACTORS
330
7F2
102
}
330
7F2
100
AcDbXrecord
280
     1
270
     1
271
     1
  0
XRECORD
  5
C37
102
{ACAD_REACTORS
330
802
102
}
330
802
100
AcDbXrecord
280
     1
102
MATERIAL
148
0.0
149
0.0
149
0.0
 93
        0
 94
      127
282
     0
 72
     0
 77
     0
171
     0
175
     0
179
     0
273
     0
  0
XRECORD
  5
804
102
{ACAD_REACTORS
330
802
102
}
330
802
100
AcDbXrecord
280
     1
270
     1
271
     1
  0
XRECORD
  5
803
102
{ACAD_REACTORS
330
802
102
}
330
802
100
AcDbXrecord
280
     1
270
     1
271
     1
  0
XRECORD
  5
807
102
{ACAD_REACTORS
330
802
102
}
330
802
100
AcDbXrecord
280
     1
270
     1
271
     1
  0
XRECORD
  5
806
102
{ACAD_REACTORS
330
802
102
}
330
802
100
AcDbXrecord
280
     1
270
     1
271
     1
  0
XRECORD
  5
808
102
{ACAD_REACTORS
330
802
102
}
330
802
100
AcDbXrecord
280
     1
270
     1
271
     1
  0
XRECORD
  5
805
102
{ACAD_REACTORS
330
802
102
}
330
802
100
AcDbXrecord
280
     1
270
     1
271
     1
  0
CELLSTYLEMAP
  5
C12
102
{ACAD_REACTORS
330
C11
102
}
330
C11
100
AcDbCellStyleMap
 90
        3
300
CELLSTYLE
  1
TABLEFORMAT_BEGIN
 90
        5
170
     1
 91
        0
 92
    32768
 62
   257
 93
        1
300
CONTENTFORMAT
  1
CONTENTFORMAT_BEGIN
 90
        0
 91
        0
 92
      512
 93
        0
300

 40
0.0
140
1.0
 94
        5
 62
     0
340
11
144
6.0
309
CONTENTFORMAT_END
171
     1
301
MARGIN
  1
CELLMARGIN_BEGIN
 40
1.5
 40
1.5
 40
1.5
 40
1.5
 40
4.5
 40
4.5
309
CELLMARGIN_END
 94
        6
 95
        1
302
GRIDFORMAT
  1
GRIDFORMAT_BEGIN
 90
        0
 91
        1
 62
     0
 92
       -2
340
0
 93
        0
 40
1.125
309
GRIDFORMAT_END
 95
        2
302
GRIDFORMAT
  1
GRIDFORMAT_BEGIN
 90
        0
 91
        1
 62
     0
 92
       -2
340
0
 93
        0
 40
1.125
309
GRIDFORMAT_END
 95
        4
302
GRIDFORMAT
  1
GRIDFORMAT_BEGIN
 90
        0
 91
        1
 62
     0
 92
       -2
340
0
 93
        0
 40
1.125
309
GRIDFORMAT_END
 95
        8
302
GRIDFORMAT
  1
GRIDFORMAT_BEGIN
 90
        0
 91
        1
 62
     0
 92
       -2
340
0
 93
        0
 40
1.125
309
GRIDFORMAT_END
 95
       16
302
GRIDFORMAT
  1
GRIDFORMAT_BEGIN
 90
        0
 91
        1
 62
     0
 92
       -2
340
0
 93
        0
 40
1.125
309
GRIDFORMAT_END
 95
       32
302
GRIDFORMAT
  1
GRIDFORMAT_BEGIN
 90
        0
 91
        1
 62
     0
 92
       -2
340
0
 93
        0
 40
1.125
309
GRIDFORMAT_END
309
TABLEFORMAT_END
  1
CELLSTYLE_BEGIN
 90
        1
 91
        1
300
_TITLE
309
CELLSTYLE_END
300
CELLSTYLE
  1
TABLEFORMAT_BEGIN
 90
        5
170
     1
 91
        0
 92
        0
 62
   257
 93
        1
300
CONTENTFORMAT
  1
CONTENTFORMAT_BEGIN
 90
        0
 91
        0
 92
      512
 93
        0
300

 40
0.0
140
1.0
 94
        5
 62
     0
340
11
144
4.5
309
CONTENTFORMAT_END
171
     1
301
MARGIN
  1
CELLMARGIN_BEGIN
 40
1.5
 40
1.5
 40
1.5
 40
1.5
 40
4.5
 40
4.5
309
CELLMARGIN_END
 94
        6
 95
        1
302
GRIDFORMAT
  1
GRIDFORMAT_BEGIN
 90
        0
 91
        1
 62
     0
 92
       -2
340
0
 93
        0
 40
1.125
309
GRIDFORMAT_END
 95
        2
302
GRIDFORMAT
  1
GRIDFORMAT_BEGIN
 90
        0
 91
        1
 62
     0
 92
       -2
340
0
 93
        0
 40
1.125
309
GRIDFORMAT_END
 95
        4
302
GRIDFORMAT
  1
GRIDFORMAT_BEGIN
 90
        0
 91
        1
 62
     0
 92
       -2
340
0
 93
        0
 40
1.125
309
GRIDFORMAT_END
 95
        8
302
GRIDFORMAT
  1
GRIDFORMAT_BEGIN
 90
        0
 91
        1
 62
     0
 92
       -2
340
0
 93
        0
 40
1.125
309
GRIDFORMAT_END
 95
       16
302
GRIDFORMAT
  1
GRIDFORMAT_BEGIN
 90
        0
 91
        1
 62
     0
 92
       -2
340
0
 93
        0
 40
1.125
309
GRIDFORMAT_END
 95
       32
302
GRIDFORMAT
  1
GRIDFORMAT_BEGIN
 90
        0
 91
        1
 62
     0
 92
       -2
340
0
 93
        0
 40
1.125
309
GRIDFORMAT_END
309
TABLEFORMAT_END
  1
CELLSTYLE_BEGIN
 90
        2
 91
        1
300
_HEADER
309
CELLSTYLE_END
300
CELLSTYLE
  1
TABLEFORMAT_BEGIN
 90
        5
170
     1
 91
        0
 92
        0
 62
   257
 93
        1
300
CONTENTFORMAT
  1
CONTENTFORMAT_BEGIN
 90
        0
 91
        0
 92
      512
 93
        0
300

 40
0.0
140
1.0
 94
        2
 62
     0
340
11
144
4.5
309
CONTENTFORMAT_END
171
     1
301
MARGIN
  1
CELLMARGIN_BEGIN
 40
1.5
 40
1.5
 40
1.5
 40
1.5
 40
4.5
 40
4.5
309
CELLMARGIN_END
 94
        6
 95
        1
302
GRIDFORMAT
  1
GRIDFORMAT_BEGIN
 90
        0
 91
        1
 62
     0
 92
       -2
340
0
 93
        0
 40
1.125
309
GRIDFORMAT_END
 95
        2
302
GRIDFORMAT
  1
GRIDFORMAT_BEGIN
 90
        0
 91
        1
 62
     0
 92
       -2
340
0
 93
        0
 40
1.125
309
GRIDFORMAT_END
 95
        4
302
GRIDFORMAT
  1
GRIDFORMAT_BEGIN
 90
        0
 91
        1
 62
     0
 92
       -2
340
0
 93
        0
 40
1.125
309
GRIDFORMAT_END
 95
        8
302
GRIDFORMAT
  1
GRIDFORMAT_BEGIN
 90
        0
 91
        1
 62
     0
 92
       -2
340
0
 93
        0
 40
1.125
309
GRIDFORMAT_END
 95
       16
302
GRIDFORMAT
  1
GRIDFORMAT_BEGIN
 90
        0
 91
        1
 62
     0
 92
       -2
340
0
 93
        0
 40
1.125
309
GRIDFORMAT_END
 95
       32
302
GRIDFORMAT
  1
GRIDFORMAT_BEGIN
 90
        0
 91
        1
 62
     0
 92
       -2
340
0
 93
        0
 40
1.125
309
GRIDFORMAT_END
309
TABLEFORMAT_END
  1
CELLSTYLE_BEGIN
 90
        3
 91
        2
300
_DATA
309
CELLSTYLE_END
  0
XRECORD
  5
C38
102
{ACAD_REACTORS
330
C11
102
}
330
C11
100
AcDbXrecord
280
     1
102
ACAD_ROUNDTRIP_PRE2007_TABLESTYLE
 90
      512
 91
        0
  1

 92
      512
 93
        0
  2

 94
      512
 95
        0
  3

  0
ENDSEC
  0
EOF
