  0
SECTION
  2
HEADER
  9
$ACADVER
  1
AC1015
  9
$ACADMAINTVER
 70
    20
  9
$DWGCODEPAGE
  3
ANSI_1250
  9
$INSBASE
 10
0.0
 20
0.0
 30
0.0
  9
$EXTMIN
 10
-1691.961229100017
 20
3141.067392070249
 30
0.0
  9
$EXTMAX
 10
3315.603431153859
 20
6026.589476836027
 30
0.0
  9
$LIMMIN
 10
0.0
 20
0.0
  9
$LIMMAX
 10
420.0
 20
297.0
  9
$ORTHOMODE
 70
     1
  9
$REGENMODE
 70
     1
  9
$FILLMODE
 70
     1
  9
$QTEXTMODE
 70
     0
  9
$MIRRTEXT
 70
     0
  9
$LTSCALE
 40
1.0
  9
$ATTMODE
 70
     1
  9
$TEXTSIZE
 40
2.5
  9
$TRACEWID
 40
1.0
  9
$TEXTSTYLE
  7
Standard
  9
$CLAYER
  8
wymiary
  9
$CELTYPE
  6
ByLayer
  9
$CECOLOR
 62
   256
  9
$CELTSCALE
 40
1.0
  9
$DISPSILH
 70
     0
  9
$DIMSCALE
 40
1.0
  9
$DIMASZ
 40
20.0
  9
$DIMEXO
 40
0.0
  9
$DIMDLI
 40
3.75
  9
$DIMRND
 40
0.0
  9
$DIMDLE
 40
0.0
  9
$DIMEXE
 40
0.0
  9
$DIMTP
 40
0.0
  9
$DIMTM
 40
0.0
  9
$DIMTXT
 40
15.0
  9
$DIMCEN
 40
2.5
  9
$DIMTSZ
 40
0.0
  9
$DIMTOL
 70
     0
  9
$DIMLIM
 70
     0
  9
$DIMTIH
 70
     0
  9
$DIMTOH
 70
     0
  9
$DIMSE1
 70
     0
  9
$DIMSE2
 70
     0
  9
$DIMTAD
 70
     1
  9
$DIMZIN
 70
     8
  9
$DIMBLK
  1

  9
$DIMASO
 70
     1
  9
$DIMSHO
 70
     1
  9
$DIMPOST
  1

  9
$DIMAPOST
  1

  9
$DIMALT
 70
     0
  9
$DIMALTD
 70
     3
  9
$DIMALTF
 40
0.03937007874016
  9
$DIMLFAC
 40
1.0
  9
$DIMTOFL
 70
     1
  9
$DIMTVP
 40
0.0
  9
$DIMTIX
 70
     0
  9
$DIMSOXD
 70
     0
  9
$DIMSAH
 70
     0
  9
$DIMBLK1
  1

  9
$DIMBLK2
  1

  9
$DIMSTYLE
  2
Kopia ISO-25
  9
$DIMCLRD
 70
     0
  9
$DIMCLRE
 70
     0
  9
$DIMCLRT
 70
     0
  9
$DIMTFAC
 40
1.0
  9
$DIMGAP
 40
6.0
  9
$DIMJUST
 70
     0
  9
$DIMSD1
 70
     0
  9
$DIMSD2
 70
     0
  9
$DIMTOLJ
 70
     0
  9
$DIMTZIN
 70
     8
  9
$DIMALTZ
 70
     0
  9
$DIMALTTZ
 70
     0
  9
$DIMUPT
 70
     0
  9
$DIMDEC
 70
     2
  9
$DIMTDEC
 70
     2
  9
$DIMALTU
 70
     2
  9
$DIMALTTD
 70
     3
  9
$DIMTXSTY
  7
Standard
  9
$DIMAUNIT
 70
     0
  9
$DIMADEC
 70
     0
  9
$DIMALTRND
 40
0.0
  9
$DIMAZIN
 70
     0
  9
$DIMDSEP
 70
    44
  9
$DIMATFIT
 70
     3
  9
$DIMFRAC
 70
     0
  9
$DIMLDRBLK
  1

  9
$DIMLUNIT
 70
     2
  9
$DIMLWD
 70
    -2
  9
$DIMLWE
 70
    -1
  9
$DIMTMOVE
 70
     0
  9
$LUNITS
 70
     2
  9
$LUPREC
 70
     4
  9
$SKETCHINC
 40
1.0
  9
$FILLETRAD
 40
0.0
  9
$AUNITS
 70
     0
  9
$AUPREC
 70
     0
  9
$MENU
  1
.
  9
$ELEVATION
 40
0.0
  9
$PELEVATION
 40
0.0
  9
$THICKNESS
 40
0.0
  9
$LIMCHECK
 70
     0
  9
$CHAMFERA
 40
0.0
  9
$CHAMFERB
 40
0.0
  9
$CHAMFERC
 40
0.0
  9
$CHAMFERD
 40
0.0
  9
$SKPOLY
 70
     0
  9
$TDCREATE
 40
2453959.416956308
  9
$TDUCREATE
 40
2453959.375289641
  9
$TDUPDATE
 40
2456666.971739005
  9
$TDUUPDATE
 40
2456666.930072338
  9
$TDINDWG
 40
0.1720515741
  9
$TDUSRTIMER
 40
0.1720503009
  9
$USRTIMER
 70
     1
  9
$ANGBASE
 50
0.0
  9
$ANGDIR
 70
     0
  9
$PDMODE
 70
     0
  9
$PDSIZE
 40
0.0
  9
$PLINEWID
 40
0.0
  9
$SPLFRAME
 70
     0
  9
$SPLINETYPE
 70
     6
  9
$SPLINESEGS
 70
     8
  9
$HANDSEED
  5
91E
  9
$SURFTAB1
 70
     6
  9
$SURFTAB2
 70
     6
  9
$SURFTYPE
 70
     6
  9
$SURFU
 70
     6
  9
$SURFV
 70
     6
  9
$UCSBASE
  2

  9
$UCSNAME
  2

  9
$UCSORG
 10
0.0
 20
0.0
 30
0.0
  9
$UCSXDIR
 10
1.0
 20
0.0
 30
0.0
  9
$UCSYDIR
 10
0.0
 20
1.0
 30
0.0
  9
$UCSORTHOREF
  2

  9
$UCSORTHOVIEW
 70
     0
  9
$UCSORGTOP
 10
0.0
 20
0.0
 30
0.0
  9
$UCSORGBOTTOM
 10
0.0
 20
0.0
 30
0.0
  9
$UCSORGLEFT
 10
0.0
 20
0.0
 30
0.0
  9
$UCSORGRIGHT
 10
0.0
 20
0.0
 30
0.0
  9
$UCSORGFRONT
 10
0.0
 20
0.0
 30
0.0
  9
$UCSORGBACK
 10
0.0
 20
0.0
 30
0.0
  9
$PUCSBASE
  2

  9
$PUCSNAME
  2

  9
$PUCSORG
 10
0.0
 20
0.0
 30
0.0
  9
$PUCSXDIR
 10
1.0
 20
0.0
 30
0.0
  9
$PUCSYDIR
 10
0.0
 20
1.0
 30
0.0
  9
$PUCSORTHOREF
  2

  9
$PUCSORTHOVIEW
 70
     0
  9
$PUCSORGTOP
 10
0.0
 20
0.0
 30
0.0
  9
$PUCSORGBOTTOM
 10
0.0
 20
0.0
 30
0.0
  9
$PUCSORGLEFT
 10
0.0
 20
0.0
 30
0.0
  9
$PUCSORGRIGHT
 10
0.0
 20
0.0
 30
0.0
  9
$PUCSORGFRONT
 10
0.0
 20
0.0
 30
0.0
  9
$PUCSORGBACK
 10
0.0
 20
0.0
 30
0.0
  9
$USERI1
 70
     0
  9
$USERI2
 70
     0
  9
$USERI3
 70
     0
  9
$USERI4
 70
     0
  9
$USERI5
 70
     0
  9
$USERR1
 40
0.0
  9
$USERR2
 40
0.0
  9
$USERR3
 40
0.0
  9
$USERR4
 40
0.0
  9
$USERR5
 40
0.0
  9
$WORLDVIEW
 70
     1
  9
$SHADEDGE
 70
     3
  9
$SHADEDIF
 70
    70
  9
$TILEMODE
 70
     1
  9
$MAXACTVP
 70
    64
  9
$PINSBASE
 10
0.0
 20
0.0
 30
0.0
  9
$PLIMCHECK
 70
     0
  9
$PEXTMIN
 10
0.0
 20
0.0
 30
0.0
  9
$PEXTMAX
 10
0.0
 20
0.0
 30
0.0
  9
$PLIMMIN
 10
0.0
 20
0.0
  9
$PLIMMAX
 10
12.0
 20
9.0
  9
$UNITMODE
 70
     0
  9
$VISRETAIN
 70
     1
  9
$PLINEGEN
 70
     0
  9
$PSLTSCALE
 70
     1
  9
$TREEDEPTH
 70
  3020
  9
$CMLSTYLE
  2
Standard
  9
$CMLJUST
 70
     0
  9
$CMLSCALE
 40
20.0
  9
$PROXYGRAPHICS
 70
     1
  9
$MEASUREMENT
 70
     1
  9
$CELWEIGHT
370
    -1
  9
$ENDCAPS
280
     0
  9
$JOINSTYLE
280
     0
  9
$LWDISPLAY
290
     0
  9
$INSUNITS
 70
     4
  9
$HYPERLINKBASE
  1

  9
$STYLESHEET
  1

  9
$XEDIT
290
     1
  9
$CEPSNTYPE
380
     0
  9
$PSTYLEMODE
290
     1
  9
$FINGERPRINTGUID
  2
{FDEAD578-A652-11D2-9A35-0060089B3A3F}
  9
$VERSIONGUID
  2
{19155239-40BB-473B-BD87-A6848D0BD1D2}
  9
$EXTNAMES
290
     1
  9
$PSVPSCALE
 40
0.0
  9
$OLESTARTUP
290
     0
  0
ENDSEC
  0
SECTION
  2
CLASSES
  0
CLASS
  1
ACDBDICTIONARYWDFLT
  2
AcDbDictionaryWithDefault
  3
ObjectDBX Classes
 90
        0
280
     0
281
     0
  0
CLASS
  1
DICTIONARYVAR
  2
AcDbDictionaryVar
  3
ObjectDBX Classes
 90
        0
280
     0
281
     0
  0
CLASS
  1
DIMASSOC
  2
AcDbDimAssoc
  3
"AcDbDimAssoc|Product Desc:     AcDim ARX App For Dimension|Company:          Autodesk, Inc.|WEB Address:      www.autodesk.com"
 90
        0
280
     0
281
     0
  0
CLASS
  1
ACDBPLACEHOLDER
  2
AcDbPlaceHolder
  3
ObjectDBX Classes
 90
        0
280
     0
281
     0
  0
CLASS
  1
LAYOUT
  2
AcDbLayout
  3
ObjectDBX Classes
 90
        0
280
     0
281
     0
  0
CLASS
  1
MATERIAL
  2
AcDbMaterial
  3
ObjectDBX Classes
 90
     1153
280
     0
281
     0
  0
CLASS
  1
VISUALSTYLE
  2
AcDbVisualStyle
  3
ObjectDBX Classes
 90
     4095
280
     0
281
     0
  0
CLASS
  1
TABLESTYLE
  2
AcDbTableStyle
  3
ObjectDBX Classes
 90
     4095
280
     0
281
     0
  0
CLASS
  1
SCALE
  2
AcDbScale
  3
ObjectDBX Classes
 90
     1153
280
     0
281
     0
  0
CLASS
  1
MLEADERSTYLE
  2
AcDbMLeaderStyle
  3
ACDB_MLEADERSTYLE_CLASS
 90
     4095
280
     0
281
     0
  0
CLASS
  1
ACAD_EVALUATION_GRAPH
  2
AcDbEvalGraph
  3
ObjectDBX Classes
 90
     1153
280
     0
281
     0
  0
CLASS
  1
ACAECUSTOBJ
  2
AcAeEditorObj
  3
AcAeEditorObj
 90
     1024
280
     0
281
     0
  0
CLASS
  1
SORTENTSTABLE
  2
AcDbSortentsTable
  3
ObjectDBX Classes
 90
        0
280
     0
281
     0
  0
CLASS
  1
ACDB_DYNAMICBLOCKPURGEPREVENTER_VERSION
  2
AcDbDynamicBlockPurgePreventer
  3
ObjectDBX Classes
 90
     1153
280
     0
281
     0
  0
CLASS
  1
CELLSTYLEMAP
  2
AcDbCellStyleMap
  3
ObjectDBX Classes
 90
     1152
280
     0
281
     0
  0
ENDSEC
  0
SECTION
  2
TABLES
  0
TABLE
  2
VPORT
  5
8
330
0
100
AcDbSymbolTable
 70
     1
  0
VPORT
  5
73F
330
8
100
AcDbSymbolTableRecord
100
AcDbViewportTableRecord
  2
*Active
 70
     0
 10
0.0
 20
0.0
 11
1.0
 21
1.0
 12
868.5587510739383
 22
4495.350528993473
 13
0.0
 23
0.0
 14
10.0
 24
10.0
 15
10.0
 25
10.0
 16
0.0
 26
0.0
 36
1.0
 17
0.0
 27
0.0
 37
0.0
 40
3916.226204130501
 41
1.797650130548302
 42
50.0
 43
0.0
 44
0.0
 50
0.0
 51
0.0
 71
     0
 72
  1000
 73
     1
 74
     3
 75
     0
 76
     0
 77
     0
 78
     0
281
     0
 65
     1
110
0.0
120
0.0
130
0.0
111
1.0
121
0.0
131
0.0
112
0.0
122
1.0
132
0.0
 79
     0
146
0.0
  0
ENDTAB
  0
TABLE
  2
LTYPE
  5
5
330
0
100
AcDbSymbolTable
 70
     2
  0
LTYPE
  5
14
330
5
100
AcDbSymbolTableRecord
100
AcDbLinetypeTableRecord
  2
ByBlock
 70
     0
  3

 72
    65
 73
     0
 40
0.0
  0
LTYPE
  5
15
330
5
100
AcDbSymbolTableRecord
100
AcDbLinetypeTableRecord
  2
ByLayer
 70
     0
  3

 72
    65
 73
     0
 40
0.0
  0
LTYPE
  5
16
330
5
100
AcDbSymbolTableRecord
100
AcDbLinetypeTableRecord
  2
Continuous
 70
     0
  3
Solid line
 72
    65
 73
     0
 40
0.0
  0
ENDTAB
  0
TABLE
  2
LAYER
  5
2
330
0
100
AcDbSymbolTable
 70
     4
  0
LAYER
  5
10
102
{ACAD_XDICTIONARY
360
882
102
}
330
2
100
AcDbSymbolTableRecord
100
AcDbLayerTableRecord
  2
0
 70
     0
 62
     7
  6
Continuous
370
    -3
390
F
  0
LAYER
  5
411
102
{ACAD_XDICTIONARY
360
884
102
}
330
2
100
AcDbSymbolTableRecord
100
AcDbLayerTableRecord
  2
wymiary
 70
     0
 62
     1
  6
Continuous
370
    -3
390
F
  0
LAYER
  5
412
102
{ACAD_XDICTIONARY
360
886
102
}
330
2
100
AcDbSymbolTableRecord
100
AcDbLayerTableRecord
  2
Cenrala
 70
     0
 62
     7
  6
Continuous
370
    -3
390
F
  0
LAYER
  5
50C
330
2
100
AcDbSymbolTableRecord
100
AcDbLayerTableRecord
  2
Defpoints
 70
     0
 62
     7
  6
Continuous
290
     0
370
    -3
390
F
  0
ENDTAB
  0
TABLE
  2
STYLE
  5
3
330
0
100
AcDbSymbolTable
 70
     1
  0
STYLE
  5
11
330
3
100
AcDbSymbolTableRecord
100
AcDbTextStyleTableRecord
  2
Standard
 70
     0
 40
0.0
 41
1.0
 50
0.0
 71
     0
 42
2.5
  3
txt
  4

  0
ENDTAB
  0
TABLE
  2
VIEW
  5
6
330
0
100
AcDbSymbolTable
 70
     0
  0
ENDTAB
  0
TABLE
  2
UCS
  5
7
330
0
100
AcDbSymbolTable
 70
     0
  0
ENDTAB
  0
TABLE
  2
APPID
  5
9
330
0
100
AcDbSymbolTable
 70
     7
  0
APPID
  5
12
330
9
100
AcDbSymbolTableRecord
100
AcDbRegAppTableRecord
  2
ACAD
 70
     0
  0
APPID
  5
78F
330
9
100
AcDbSymbolTableRecord
100
AcDbRegAppTableRecord
  2
ACAD_MLEADERVER
 70
     0
  0
APPID
  5
7AC
330
9
100
AcDbSymbolTableRecord
100
AcDbRegAppTableRecord
  2
ACAUTHENVIRON
 70
     0
  0
APPID
  5
7B2
330
9
100
AcDbSymbolTableRecord
100
AcDbRegAppTableRecord
  2
ACAD_EXEMPT_FROM_CAD_STANDARDS
 70
     0
  0
APPID
  5
7BB
330
9
100
AcDbSymbolTableRecord
100
AcDbRegAppTableRecord
  2
AcDbDynamicBlockTrueName
 70
     0
  0
APPID
  5
7BC
330
9
100
AcDbSymbolTableRecord
100
AcDbRegAppTableRecord
  2
AcDbDynamicBlockGUID
 70
     0
  0
APPID
  5
7BE
330
9
100
AcDbSymbolTableRecord
100
AcDbRegAppTableRecord
  2
AcDbBlockRepETag
 70
     0
  0
ENDTAB
  0
TABLE
  2
DIMSTYLE
  5
A
330
0
100
AcDbSymbolTable
 70
     3
100
AcDbDimStyleTable
 71
     1
340
413
  0
DIMSTYLE
105
27
330
A
100
AcDbSymbolTableRecord
100
AcDbDimStyleTableRecord
  2
ISO-25
 70
     0
 41
2.5
 42
0.625
 43
3.75
 44
1.25
 73
     0
 74
     0
 77
     1
 78
     8
140
2.5
141
2.5
143
0.03937007874016
147
0.625
171
     3
172
     1
271
     2
272
     2
274
     3
278
    44
283
     0
284
     8
340
11
  0
DIMSTYLE
105
413
102
{ACAD_REACTORS
330
52D
330
52E
330
52F
330
531
330
532
330
533
330
537
330
53A
330
53B
330
6B7
330
6CB
330
6DF
330
6FA
330
6FD
330
722
102
}
330
A
100
AcDbSymbolTableRecord
100
AcDbDimStyleTableRecord
  2
Kopia ISO-25
 70
     0
 41
20.0
 42
0.0
 43
3.75
 44
0.0
 73
     0
 74
     0
 77
     1
 78
     8
140
15.0
141
2.5
143
0.03937007874016
147
6.0
171
     3
172
     1
271
     2
272
     2
274
     3
278
    44
283
     0
284
     8
340
11
372
    -1
  0
ENDTAB
  0
TABLE
  2
BLOCK_RECORD
  5
1
330
0
100
AcDbSymbolTable
 70
    50
  0
BLOCK_RECORD
  5
1F
330
1
100
AcDbSymbolTableRecord
100
AcDbBlockTableRecord
  2
*Model_Space
340
22
  0
BLOCK_RECORD
  5
50
330
1
100
AcDbSymbolTableRecord
100
AcDbBlockTableRecord
  2
*Paper_Space
340
51
  0
BLOCK_RECORD
  5
55
330
1
100
AcDbSymbolTableRecord
100
AcDbBlockTableRecord
  2
*Paper_Space0
340
56
  0
BLOCK_RECORD
  5
E2
330
1
100
AcDbSymbolTableRecord
100
AcDbBlockTableRecord
  2
A$C012D247B
340
0
  0
BLOCK_RECORD
  5
214
330
1
100
AcDbSymbolTableRecord
100
AcDbBlockTableRecord
  2
A$C7187238A
340
0
  0
BLOCK_RECORD
  5
34A
330
1
100
AcDbSymbolTableRecord
100
AcDbBlockTableRecord
  2
A$C0F214DF5
340
0
  0
BLOCK_RECORD
  5
41D
102
{ACAD_XDICTIONARY
360
8CD
102
}
330
1
100
AcDbSymbolTableRecord
100
AcDbBlockTableRecord
  2
3000BSR_f
340
0
310
2800000020000000200000000100080000000000000400000000000000000000000000000000000000000000000080000080000000808000800000008000800080800000C0C0C000C0DCC000F0CAA6000020400000206000002080000020A0000020C0000020E00000400000004020000040400000406000004080000040A0
310
000040C0000040E00000600000006020000060400000606000006080000060A0000060C0000060E00000800000008020000080400000806000008080000080A0000080C0000080E00000A0000000A0200000A0400000A0600000A0800000A0A00000A0C00000A0E00000C0000000C0200000C0400000C0600000C0800000C0
310
A00000C0C00000C0E00000E0000000E0200000E0400000E0600000E0800000E0A00000E0C00000E0E00040000000400020004000400040006000400080004000A0004000C0004000E00040200000402020004020400040206000402080004020A0004020C0004020E000404000004040200040404000404060004040800040
310
40A0004040C0004040E00040600000406020004060400040606000406080004060A0004060C0004060E00040800000408020004080400040806000408080004080A0004080C0004080E00040A0000040A0200040A0400040A0600040A0800040A0A00040A0C00040A0E00040C0000040C0200040C0400040C0600040C08000
310
40C0A00040C0C00040C0E00040E0000040E0200040E0400040E0600040E0800040E0A00040E0C00040E0E00080000000800020008000400080006000800080008000A0008000C0008000E00080200000802020008020400080206000802080008020A0008020C0008020E00080400000804020008040400080406000804080
310
008040A0008040C0008040E00080600000806020008060400080606000806080008060A0008060C0008060E00080800000808020008080400080806000808080008080A0008080C0008080E00080A0000080A0200080A0400080A0600080A0800080A0A00080A0C00080A0E00080C0000080C0200080C0400080C0600080C0
310
800080C0A00080C0C00080C0E00080E0000080E0200080E0400080E0600080E0800080E0A00080E0C00080E0E000C0000000C0002000C0004000C0006000C0008000C000A000C000C000C000E000C0200000C0202000C0204000C0206000C0208000C020A000C020C000C020E000C0400000C0402000C0404000C0406000C0
310
408000C040A000C040C000C040E000C0600000C0602000C0604000C0606000C0608000C060A000C060C000C060E000C0800000C0802000C0804000C0806000C0808000C080A000C080C000C080E000C0A00000C0A02000C0A04000C0A06000C0A08000C0A0A000C0A0C000C0A0E000C0C00000C0C02000C0C04000C0C06000
310
C0C08000C0C0A000F0FBFF00A4A0A000808080000000FF0000FF000000FFFF00FF000000FF00FF00FFFF0000FFFFFF0000000000000000000000000000000000000000000000000000000000000000000000000000000000000000000000000000000000000000000000000000000000000000000000000000000000000000
310
000000000000000000000000000000000000000000000000000000000000000000000000000000000000000000000000000000000000000000000000000000000000000000000000000000000000000000000000000000000000000000000000000000000000000000000000000000000000FFFFFFFFFFFFFFFFFFFFFFFFFF
310
FFFFFFFFFFFFFFFFFFFFFFFFFFFFFFFFFF0000FFFF000000000000000000000000000000000000000000FFFFFFFFFFFFFF0000FFFF0000000000000000000000000000000000000000000000000000FFFF0000FFFF00000000000000FFFFFFFFFFFFFFFFFFFFFFFFFFFFFFFF000000FFFF0000FFFF00000000000000FF0000
310
000000000000000000000000FF000000FFFF0000FFFF00000000000000FF0000000000000000000000000000FF000000FFFF0000FFFF00000000000000FF0000000000000000000000000000FF000000FFFF0000FFFF00000000000000FF0000000000000000000000000000FF000000FFFF0000FFFF00000000000000FF00
310
00000000000000000000000000FF000000FFFF0000FFFF00FFFFFF000000FF0000000000000000000000000000FFFFFF00FFFF0000FFFF00FF00FF000000FFFF000000FFFFFFFFFF00000000FFFF00FF00FFFF0000FFFF00FFFFFF000000FF0000000000000000000000000000FFFFFF00FFFF0000FFFF00FF00FF000000FF
310
0000000000000000000000000000FF00FF00FFFF0000FFFF00FF00FF000000FF0000000000000000000000000000FF00FF00FFFF0000FFFF00FF00FF000000FF0000000000000000000000000000FF00FF00FFFF0000FFFF00FF00FF000000FF0000000000000000000000000000FF00FF00FFFF0000FFFF00FF00FF000000
310
FF0000000000000000000000000000FF00FF00FFFF0000FFFF00FFFFFF000000FFFFFFFFFFFFFFFFFFFFFFFFFFFFFFFFFFFF00FFFF0000FFFF00FF00FF000000000000000000000000000000000000FF00FF00FFFF0000FFFFFFFFFFFFFFFFFFFFFFFFFFFFFFFFFFFFFFFFFFFFFFFFFFFFFFFFFFFF00000000000000000000
310
00000000000000000000000000000000000000000000000000000000000000000000000000000000000000000000000000000000000000000000000000000000000000000000000000000000000000000000000000000000000000000000000000000000000000000000000000000000000000000000000000000000000000
310
0000000000000000000000000000000000000000000000000000000000000000000000000000000000000000000000000000000000000000
102
{BLKREFS
331
437
102
}
1001
AcDbDynamicBlockGUID
1000
{3E4844B7-88FF-4681-94AA-555CDCDF0C5F}
1001
AcDbBlockRepETag
1070
     1
1071
       23
1001
ACAD
1000
DesignCenter Data
1002
{
1070
     1
1070
     4
1002
}
  0
BLOCK_RECORD
  5
438
102
{ACAD_XDICTIONARY
360
7CF
102
}
330
1
100
AcDbSymbolTableRecord
100
AcDbBlockTableRecord
  2
3000BSR_g
340
0
310
2800000020000000200000000100080000000000000400000000000000000000000000000000000000000000000080000080000000808000800000008000800080800000C0C0C000C0DCC000F0CAA6000020400000206000002080000020A0000020C0000020E00000400000004020000040400000406000004080000040A0
310
000040C0000040E00000600000006020000060400000606000006080000060A0000060C0000060E00000800000008020000080400000806000008080000080A0000080C0000080E00000A0000000A0200000A0400000A0600000A0800000A0A00000A0C00000A0E00000C0000000C0200000C0400000C0600000C0800000C0
310
A00000C0C00000C0E00000E0000000E0200000E0400000E0600000E0800000E0A00000E0C00000E0E00040000000400020004000400040006000400080004000A0004000C0004000E00040200000402020004020400040206000402080004020A0004020C0004020E000404000004040200040404000404060004040800040
310
40A0004040C0004040E00040600000406020004060400040606000406080004060A0004060C0004060E00040800000408020004080400040806000408080004080A0004080C0004080E00040A0000040A0200040A0400040A0600040A0800040A0A00040A0C00040A0E00040C0000040C0200040C0400040C0600040C08000
310
40C0A00040C0C00040C0E00040E0000040E0200040E0400040E0600040E0800040E0A00040E0C00040E0E00080000000800020008000400080006000800080008000A0008000C0008000E00080200000802020008020400080206000802080008020A0008020C0008020E00080400000804020008040400080406000804080
310
008040A0008040C0008040E00080600000806020008060400080606000806080008060A0008060C0008060E00080800000808020008080400080806000808080008080A0008080C0008080E00080A0000080A0200080A0400080A0600080A0800080A0A00080A0C00080A0E00080C0000080C0200080C0400080C0600080C0
310
800080C0A00080C0C00080C0E00080E0000080E0200080E0400080E0600080E0800080E0A00080E0C00080E0E000C0000000C0002000C0004000C0006000C0008000C000A000C000C000C000E000C0200000C0202000C0204000C0206000C0208000C020A000C020C000C020E000C0400000C0402000C0404000C0406000C0
310
408000C040A000C040C000C040E000C0600000C0602000C0604000C0606000C0608000C060A000C060C000C060E000C0800000C0802000C0804000C0806000C0808000C080A000C080C000C080E000C0A00000C0A02000C0A04000C0A06000C0A08000C0A0A000C0A0C000C0A0E000C0C00000C0C02000C0C04000C0C06000
310
C0C08000C0C0A000F0FBFF00A4A0A000808080000000FF0000FF000000FFFF00FF000000FF00FF00FFFF0000FFFFFF0000000000000000000000000000000000000000000000000000000000000000000000000000000000000000000000000000000000000000000000000000000000000000000000000000000000000000
310
00000000000000000000000000000000000000000000000000000000000000000000000000000000000000000000000000000000000000000000000000000000000000000000000000000000000000000000000000000000000000000000000000000000000000000000000000000000000000000000000000000000000000
310
0000000000000000000000000000000000000000000000FF00000000FFFF000000000000000000000000FFFFFF00000000000000FFFFFFFFFFFFFFFFFFFFFFFFFFFFFFFFFFFFFFFFFFFFFFFFFFFFFFFF00000000FF0000000000000000000000000000000000000000000000000000FF00000000FF00000000000000000000
310
00000000000000000000000000000000FF000000FFFF0000000000000000000000000000000000000000000000000000FFFF0000FFFF0000000000000000000000000000000000000000000000000000FFFF0000FFFF0000000000000000000000000000000000000000000000000000FFFF0000FFFF000000000000000000
310
0000000000000000000000000000000000FFFF0000FFFF0000000000000000000000000000000000000000000000000000FFFF0000FFFF0000000000000000000000000000000000000000000000000000FFFF0000FFFF0000000000000000000000000000000000000000000000000000FFFF0000FFFF0000000000000000
310
000000000000000000000000000000000000FFFF0000FFFF0000000000000000000000000000000000000000000000000000FFFF0000FFFF0000000000000000000000000000000000000000000000000000FFFF0000FFFF0000000000000000000000000000000000000000000000000000FFFF0000FFFF00000000000000
310
00000000000000000000000000000000000000FFFF0000FFFF0000000000000000000000000000000000000000000000000000FFFF000000FFFFFFFFFFFFFFFFFFFFFFFFFFFFFFFFFFFFFFFFFFFFFFFFFFFFFFFF00000000000000000000000000000000000000000000000000000000000000000000000000000000000000
310
00000000000000000000000000000000000000000000000000000000000000000000000000000000000000000000000000000000000000000000000000000000000000000000000000000000000000000000000000000000000000000000000000000000000000000000000000000000000000000000000000000000000000
310
0000000000000000000000000000000000000000000000000000000000000000000000000000000000000000000000000000000000000000
102
{BLKREFS
331
448
102
}
1001
AcDbDynamicBlockGUID
1000
{07400D7C-164B-4DBD-9D30-11CE5412440C}
1001
AcDbBlockRepETag
1070
     1
1071
       13
1001
ACAD
1000
DesignCenter Data
1002
{
1070
     1
1070
     4
1002
}
  0
BLOCK_RECORD
  5
449
102
{ACAD_XDICTIONARY
360
847
102
}
330
1
100
AcDbSymbolTableRecord
100
AcDbBlockTableRecord
  2
3000BSR_l
340
0
310
2800000020000000200000000100080000000000000400000000000000000000000000000000000000000000000080000080000000808000800000008000800080800000C0C0C000C0DCC000F0CAA6000020400000206000002080000020A0000020C0000020E00000400000004020000040400000406000004080000040A0
310
000040C0000040E00000600000006020000060400000606000006080000060A0000060C0000060E00000800000008020000080400000806000008080000080A0000080C0000080E00000A0000000A0200000A0400000A0600000A0800000A0A00000A0C00000A0E00000C0000000C0200000C0400000C0600000C0800000C0
310
A00000C0C00000C0E00000E0000000E0200000E0400000E0600000E0800000E0A00000E0C00000E0E00040000000400020004000400040006000400080004000A0004000C0004000E00040200000402020004020400040206000402080004020A0004020C0004020E000404000004040200040404000404060004040800040
310
40A0004040C0004040E00040600000406020004060400040606000406080004060A0004060C0004060E00040800000408020004080400040806000408080004080A0004080C0004080E00040A0000040A0200040A0400040A0600040A0800040A0A00040A0C00040A0E00040C0000040C0200040C0400040C0600040C08000
310
40C0A00040C0C00040C0E00040E0000040E0200040E0400040E0600040E0800040E0A00040E0C00040E0E00080000000800020008000400080006000800080008000A0008000C0008000E00080200000802020008020400080206000802080008020A0008020C0008020E00080400000804020008040400080406000804080
310
008040A0008040C0008040E00080600000806020008060400080606000806080008060A0008060C0008060E00080800000808020008080400080806000808080008080A0008080C0008080E00080A0000080A0200080A0400080A0600080A0800080A0A00080A0C00080A0E00080C0000080C0200080C0400080C0600080C0
310
800080C0A00080C0C00080C0E00080E0000080E0200080E0400080E0600080E0800080E0A00080E0C00080E0E000C0000000C0002000C0004000C0006000C0008000C000A000C000C000C000E000C0200000C0202000C0204000C0206000C0208000C020A000C020C000C020E000C0400000C0402000C0404000C0406000C0
310
408000C040A000C040C000C040E000C0600000C0602000C0604000C0606000C0608000C060A000C060C000C060E000C0800000C0802000C0804000C0806000C0808000C080A000C080C000C080E000C0A00000C0A02000C0A04000C0A06000C0A08000C0A0A000C0A0C000C0A0E000C0C00000C0C02000C0C04000C0C06000
310
C0C08000C0C0A000F0FBFF00A4A0A000808080000000FF0000FF000000FFFF00FF000000FF00FF00FFFF0000FFFFFF00000000000000000000000000000000000000000000000000000000000000000000000000FFFF00000000000000000000000000000000000000FFFF000000000000000000FFFFFFFFFFFFFFFFFFFFFF
310
FFFFFFFFFFFFFFFFFFFFFFFF000000000000000000FF000000FFFFFF000000FFFFFF0000000000000000FFFF000000000000000000FF0000FFFF00000000000000FFFF00000000000000FFFF000000000000000000FF0000FF000000000000000000FF0000000000000000FF000000000000000000FF00FF00000000000000
310
00000000FF00000000000000FFFF0000000000000000FF00FF0000000000000000000000FF00000000000000FFFF0000000000000000FF00FF0000000000000000000000FF00000000000000FFFF0000000000000000FF00FFFFFFFFFFFFFFFFFFFFFFFFFF00000000000000FFFF0000000000000000FF00FFFF0000000000
310
00000000FFFF000000000000FFFFFF0000000000000000FF00FFFF000000000000000000FFFF000000000000FFFFFF0000000000000000FF00FFFFFFFFFFFFFFFFFFFFFFFFFF00000000000000FFFF0000000000000000FF0000FF000000000000000000FF0000000000000000FFFF0000000000000000FF000000FFFF0000
310
000000FFFF000000000000000000FFFF0000000000000000FF0000000000FFFFFFFFFF0000000000000000000000FFFF0000000000000000FF00000000000000000000FFFFFF0000000000000000FFFF0000000000000000FF0000000000000000FFFFFF00FFFFFF000000000000FFFF0000000000000000FF000000000000
310
FFFF00000000000000FFFF00000000FFFF0000000000000000FF000000000000FF000000000000000000FF00000000FFFF0000000000000000FF0000000000FF0000000000000000000000FF000000FFFF0000000000000000FF0000000000FF0000000000000000000000FF000000FFFF0000000000000000FF0000000000
310
FF0000000000000000000000FF000000FFFF0000000000000000FF00000000FFFF0000000000000000000000FF000000FFFF0000000000000000FF0000000000FF0000000000000000000000FF000000FFFF0000000000000000FF0000000000FF0000000000000000000000FF000000FFFF0000000000000000FF00000000
310
00FF0000000000000000000000FF000000FFFF0000000000000000FF000000000000FF0000000000000000FFFF00000000FFFF0000000000000000FF00000000000000FF00000000000000FF0000000000FFFF0000000000000000FF0000000000000000FFFFFFFFFFFFFF000000000000FFFF0000000000000000FFFFFFFF
310
FFFFFFFFFFFFFFFFFFFFFFFFFFFFFFFFFFFFFF00000000000000000000000000000000000000000000000000000000000000000000000000
102
{BLKREFS
331
45F
102
}
1001
AcDbDynamicBlockGUID
1000
{ED3C8313-741A-435D-A52A-FC95714DE915}
1001
AcDbBlockRepETag
1070
     1
1071
       18
1001
ACAD
1000
DesignCenter Data
1002
{
1070
     1
1070
     4
1002
}
  0
BLOCK_RECORD
  5
460
102
{ACAD_XDICTIONARY
360
7E9
102
}
330
1
100
AcDbSymbolTableRecord
100
AcDbBlockTableRecord
  2
3000BSR_p
340
0
310
2800000020000000200000000100080000000000000400000000000000000000000000000000000000000000000080000080000000808000800000008000800080800000C0C0C000C0DCC000F0CAA6000020400000206000002080000020A0000020C0000020E00000400000004020000040400000406000004080000040A0
310
000040C0000040E00000600000006020000060400000606000006080000060A0000060C0000060E00000800000008020000080400000806000008080000080A0000080C0000080E00000A0000000A0200000A0400000A0600000A0800000A0A00000A0C00000A0E00000C0000000C0200000C0400000C0600000C0800000C0
310
A00000C0C00000C0E00000E0000000E0200000E0400000E0600000E0800000E0A00000E0C00000E0E00040000000400020004000400040006000400080004000A0004000C0004000E00040200000402020004020400040206000402080004020A0004020C0004020E000404000004040200040404000404060004040800040
310
40A0004040C0004040E00040600000406020004060400040606000406080004060A0004060C0004060E00040800000408020004080400040806000408080004080A0004080C0004080E00040A0000040A0200040A0400040A0600040A0800040A0A00040A0C00040A0E00040C0000040C0200040C0400040C0600040C08000
310
40C0A00040C0C00040C0E00040E0000040E0200040E0400040E0600040E0800040E0A00040E0C00040E0E00080000000800020008000400080006000800080008000A0008000C0008000E00080200000802020008020400080206000802080008020A0008020C0008020E00080400000804020008040400080406000804080
310
008040A0008040C0008040E00080600000806020008060400080606000806080008060A0008060C0008060E00080800000808020008080400080806000808080008080A0008080C0008080E00080A0000080A0200080A0400080A0600080A0800080A0A00080A0C00080A0E00080C0000080C0200080C0400080C0600080C0
310
800080C0A00080C0C00080C0E00080E0000080E0200080E0400080E0600080E0800080E0A00080E0C00080E0E000C0000000C0002000C0004000C0006000C0008000C000A000C000C000C000E000C0200000C0202000C0204000C0206000C0208000C020A000C020C000C020E000C0400000C0402000C0404000C0406000C0
310
408000C040A000C040C000C040E000C0600000C0602000C0604000C0606000C0608000C060A000C060C000C060E000C0800000C0802000C0804000C0806000C0808000C080A000C080C000C080E000C0A00000C0A02000C0A04000C0A06000C0A08000C0A0A000C0A0C000C0A0E000C0C00000C0C02000C0C04000C0C06000
310
C0C08000C0C0A000F0FBFF00A4A0A000808080000000FF0000FF000000FFFF00FF000000FF00FF00FFFF0000FFFFFF0000000000000000000000000000000000000000000000000000000000000000000000000000FFFF00000000000000000000000000000000000000FFFF000000000000000000FFFFFFFFFFFFFFFFFFFF
310
FFFFFFFFFFFFFFFFFFFFFFFFFF000000000000000000FF000000000000000000FFFFFF000000FFFFFF0000FFFF000000000000000000FF0000000000000000FFFF00000000000000FFFF0000FF000000000000000000FF0000000000000000FF000000000000000000FF0000FF0000000000000000FFFF00000000000000FF
310
0000000000000000000000FF00FF0000000000000000FFFF00000000000000FF0000000000000000000000FF00FF0000000000000000FFFF00000000000000FF0000000000000000000000FF00FF0000000000000000FFFF00000000000000FFFFFFFFFFFFFFFFFFFFFFFFFF00FF0000000000000000FFFF00000000000000
310
FFFF000000000000000000FFFF00FF0000000000000000FFFF00000000000000FFFF000000000000000000FFFF00FF0000000000000000FFFF00000000000000FFFFFFFFFFFFFFFFFFFFFFFFFF00FF0000000000000000FFFF0000000000000000FF000000000000000000FF0000FF0000000000000000FFFF000000000000
310
000000FFFF0000000000FFFF000000FF0000000000000000FFFF0000000000000000000000FFFFFFFFFF0000000000FF0000000000000000FFFF0000000000000000FFFFFF00000000000000000000FF0000000000000000FFFF000000000000FFFFFF00FFFFFF0000000000000000FF0000000000000000FFFF00000000FF
310
FF00000000000000FFFF000000000000FF0000000000000000FFFF00000000FF000000000000000000FF000000000000FF0000000000000000FFFF000000FF0000000000000000000000FF0000000000FF0000000000000000FFFF000000FF0000000000000000000000FF0000000000FF0000000000000000FFFF000000FF
310
0000000000000000000000FF0000000000FF0000000000000000FFFF000000FF0000000000000000000000FFFF00000000FF0000000000000000FFFF000000FF0000000000000000000000FF0000000000FF0000000000000000FFFF000000FF0000000000000000000000FF0000000000FF0000000000000000FFFF000000
310
FF0000000000000000000000FF0000000000FF0000000000000000FFFF00000000FFFF0000000000000000FF000000000000FF0000000000000000FFFF0000000000FF00000000000000FF00000000000000FF0000000000000000FFFF000000000000FFFFFFFFFFFFFF0000000000000000FF000000000000000000FFFFFF
310
FFFFFFFFFFFFFFFFFFFFFFFFFFFFFFFFFFFFFFFF000000000000000000000000000000000000000000000000000000000000000000000000
102
{BLKREFS
331
473
102
}
1001
AcDbDynamicBlockGUID
1000
{D29DF9EC-9C51-4B9E-8257-CBD4A8C75297}
1001
AcDbBlockRepETag
1070
     1
1071
       15
1001
ACAD
1000
DesignCenter Data
1002
{
1070
     1
1070
     4
1002
}
  0
BLOCK_RECORD
  5
474
330
1
100
AcDbSymbolTableRecord
100
AcDbBlockTableRecord
  2
*D8
340
0
  0
BLOCK_RECORD
  5
47E
330
1
100
AcDbSymbolTableRecord
100
AcDbBlockTableRecord
  2
*D9
340
0
  0
BLOCK_RECORD
  5
488
330
1
100
AcDbSymbolTableRecord
100
AcDbBlockTableRecord
  2
*D10
340
0
  0
BLOCK_RECORD
  5
492
330
1
100
AcDbSymbolTableRecord
100
AcDbBlockTableRecord
  2
*D11
340
0
  0
BLOCK_RECORD
  5
49C
330
1
100
AcDbSymbolTableRecord
100
AcDbBlockTableRecord
  2
*D12
340
0
  0
BLOCK_RECORD
  5
4A6
330
1
100
AcDbSymbolTableRecord
100
AcDbBlockTableRecord
  2
*D13
340
0
  0
BLOCK_RECORD
  5
4B0
330
1
100
AcDbSymbolTableRecord
100
AcDbBlockTableRecord
  2
*D14
340
0
  0
BLOCK_RECORD
  5
4BA
330
1
100
AcDbSymbolTableRecord
100
AcDbBlockTableRecord
  2
*D15
340
0
  0
BLOCK_RECORD
  5
4C4
330
1
100
AcDbSymbolTableRecord
100
AcDbBlockTableRecord
  2
*D16
340
0
  0
BLOCK_RECORD
  5
4CD
330
1
100
AcDbSymbolTableRecord
100
AcDbBlockTableRecord
  2
*D17
340
0
  0
BLOCK_RECORD
  5
4D6
330
1
100
AcDbSymbolTableRecord
100
AcDbBlockTableRecord
  2
*D18
340
0
  0
BLOCK_RECORD
  5
4DF
330
1
100
AcDbSymbolTableRecord
100
AcDbBlockTableRecord
  2
*D19
340
0
  0
BLOCK_RECORD
  5
4E8
330
1
100
AcDbSymbolTableRecord
100
AcDbBlockTableRecord
  2
*D20
340
0
  0
BLOCK_RECORD
  5
4F4
330
1
100
AcDbSymbolTableRecord
100
AcDbBlockTableRecord
  2
*D21
340
0
  0
BLOCK_RECORD
  5
500
330
1
100
AcDbSymbolTableRecord
100
AcDbBlockTableRecord
  2
*D22
340
0
  0
BLOCK_RECORD
  5
549
330
1
100
AcDbSymbolTableRecord
100
AcDbBlockTableRecord
  2
*D23
340
0
  0
BLOCK_RECORD
  5
555
330
1
100
AcDbSymbolTableRecord
100
AcDbBlockTableRecord
  2
*D24
340
0
  0
BLOCK_RECORD
  5
561
330
1
100
AcDbSymbolTableRecord
100
AcDbBlockTableRecord
  2
*D25
340
0
  0
BLOCK_RECORD
  5
56D
330
1
100
AcDbSymbolTableRecord
100
AcDbBlockTableRecord
  2
*D26
340
0
  0
BLOCK_RECORD
  5
576
330
1
100
AcDbSymbolTableRecord
100
AcDbBlockTableRecord
  2
*D27
340
0
  0
BLOCK_RECORD
  5
57F
330
1
100
AcDbSymbolTableRecord
100
AcDbBlockTableRecord
  2
*D28
340
0
  0
BLOCK_RECORD
  5
589
330
1
100
AcDbSymbolTableRecord
100
AcDbBlockTableRecord
  2
*D29
340
0
  0
BLOCK_RECORD
  5
593
330
1
100
AcDbSymbolTableRecord
100
AcDbBlockTableRecord
  2
*D30
340
0
  0
BLOCK_RECORD
  5
59D
330
1
100
AcDbSymbolTableRecord
100
AcDbBlockTableRecord
  2
*D31
340
0
  0
BLOCK_RECORD
  5
5A7
330
1
100
AcDbSymbolTableRecord
100
AcDbBlockTableRecord
  2
*D32
340
0
  0
BLOCK_RECORD
  5
5B0
330
1
100
AcDbSymbolTableRecord
100
AcDbBlockTableRecord
  2
*D33
340
0
  0
BLOCK_RECORD
  5
5B9
330
1
100
AcDbSymbolTableRecord
100
AcDbBlockTableRecord
  2
*D34
340
0
  0
BLOCK_RECORD
  5
5C3
330
1
100
AcDbSymbolTableRecord
100
AcDbBlockTableRecord
  2
*D35
340
0
  0
BLOCK_RECORD
  5
5CD
330
1
100
AcDbSymbolTableRecord
100
AcDbBlockTableRecord
  2
*D36
340
0
  0
BLOCK_RECORD
  5
5D7
330
1
100
AcDbSymbolTableRecord
100
AcDbBlockTableRecord
  2
*D37
340
0
  0
BLOCK_RECORD
  5
6B8
330
1
100
AcDbSymbolTableRecord
100
AcDbBlockTableRecord
  2
*D38
340
0
  0
BLOCK_RECORD
  5
6CC
330
1
100
AcDbSymbolTableRecord
100
AcDbBlockTableRecord
  2
*D39
340
0
  0
BLOCK_RECORD
  5
6E0
330
1
100
AcDbSymbolTableRecord
100
AcDbBlockTableRecord
  2
*D40
340
0
  0
BLOCK_RECORD
  5
700
330
1
100
AcDbSymbolTableRecord
100
AcDbBlockTableRecord
  2
*D41
340
0
  0
BLOCK_RECORD
  5
70A
330
1
100
AcDbSymbolTableRecord
100
AcDbBlockTableRecord
  2
*D42
340
0
  0
BLOCK_RECORD
  5
723
330
1
100
AcDbSymbolTableRecord
100
AcDbBlockTableRecord
  2
*D43
340
0
  0
ENDTAB
  0
ENDSEC
  0
SECTION
  2
BLOCKS
  0
BLOCK
  5
20
330
1F
100
AcDbEntity
  8
0
100
AcDbBlockBegin
  2
*Model_Space
 70
     0
 10
0.0
 20
0.0
 30
0.0
  3
*Model_Space
  1

  0
ENDBLK
  5
21
330
1F
100
AcDbEntity
  8
0
100
AcDbBlockEnd
  0
BLOCK
  5
52
330
50
100
AcDbEntity
 67
     1
  8
0
100
AcDbBlockBegin
  2
*Paper_Space
 70
     0
 10
0.0
 20
0.0
 30
0.0
  3
*Paper_Space
  1

  0
ENDBLK
  5
53
330
50
100
AcDbEntity
 67
     1
  8
0
100
AcDbBlockEnd
  0
BLOCK
  5
57
330
55
100
AcDbEntity
 67
     1
  8
0
100
AcDbBlockBegin
  2
*Paper_Space0
 70
     0
 10
0.0
 20
0.0
 30
0.0
  3
*Paper_Space0
  1

  0
ENDBLK
  5
58
330
55
100
AcDbEntity
 67
     1
  8
0
100
AcDbBlockEnd
  0
BLOCK
  5
E4
330
E2
100
AcDbEntity
  8
0
100
AcDbBlockBegin
  2
A$C012D247B
 70
     0
 10
0.0
 20
0.0
 30
0.0
  3
A$C012D247B
  1

  0
LWPOLYLINE
  5
E3
330
E2
100
AcDbEntity
  8
0
100
AcDbPolyline
 90
        4
 70
     1
 43
0.0
 10
-0.0000015100049495
 20
166.0000007704744
 10
29.99999848999505
 20
166.0000007704744
 10
29.99999848999505
 20
0.0000007704744576
 10
-0.0000015100049495
 20
0.0000007704744576
  0
ENDBLK
  5
E5
330
E2
100
AcDbEntity
  8
0
100
AcDbBlockEnd
  0
BLOCK
  5
216
330
214
100
AcDbEntity
  8
0
100
AcDbBlockBegin
  2
A$C7187238A
 70
     0
 10
0.0
 20
0.0
 30
0.0
  3
A$C7187238A
  1

  0
LWPOLYLINE
  5
215
330
214
100
AcDbEntity
  8
0
100
AcDbPolyline
 90
        4
 70
     1
 43
0.0
 10
0.0
 20
0.0
 10
256.0
 20
0.0
 10
256.0
 20
30.0
 10
0.0
 20
30.0
  0
ENDBLK
  5
217
330
214
100
AcDbEntity
  8
0
100
AcDbBlockEnd
  0
BLOCK
  5
34C
330
34A
100
AcDbEntity
  8
0
100
AcDbBlockBegin
  2
A$C0F214DF5
 70
     0
 10
0.0
 20
0.0
 30
0.0
  3
A$C0F214DF5
  1

  0
LWPOLYLINE
  5
34B
330
34A
100
AcDbEntity
  8
0
100
AcDbPolyline
 90
        4
 70
     1
 43
0.0
 10
0.0000018057962734
 20
-0.000001983456059
 10
45.00000180579627
 20
-0.000001983456059
 10
45.00000180579627
 20
14.99999801654394
 10
0.0000018057962734
 20
14.99999801654394
  0
ENDBLK
  5
34D
330
34A
100
AcDbEntity
  8
0
100
AcDbBlockEnd
  0
BLOCK
  5
41E
330
41D
100
AcDbEntity
  8
0
100
AcDbBlockBegin
  2
3000BSR_f
 70
     0
 10
0.0
 20
0.0
 30
0.0
  3
3000BSR_f
  1

  4
3000BSR_front
  0
MTEXT
  5
8B6
330
41D
100
AcDbEntity
  8
Cenrala
100
AcDbMText
 10
1411.453469721244
 20
4786.36614740243
 30
0.0
 40
18.0
 41
273.857804750156
 71
     1
 72
     5
  1
{\Ftxt.shx|c238;MISTRAL 3000BSR}
 73
     1
 44
1.0
1001
AcDbBlockRepETag
1070
     1
1071
        0
1005
8B6
1001
ACAD
1000
MTEXTBEGIN
1070
    73
1070
     1
1070
    44
1040
1.0
1070
    74
1070
     0
1000
MTEXTEND
  0
MTEXT
  5
8B7
330
41D
100
AcDbEntity
  8
Cenrala
100
AcDbMText
 10
960.3623074087662
 20
5309.661443712794
 30
0.0
 40
25.0
 41
260.8191601825456
 71
     1
 72
     5
  1
{\Ftxt.shx|c238;\H1.2x;P\H0.8333x;RO-\H1.2x;V\H0.8333x;ENT}
 73
     1
 44
1.0
1001
AcDbBlockRepETag
1070
     1
1071
        1
1005
8B7
1001
ACAD
1000
MTEXTBEGIN
1070
    73
1070
     1
1070
    44
1040
1.0
1070
    74
1070
     0
1000
MTEXTEND
  0
CIRCLE
  5
8B8
330
41D
100
AcDbEntity
  8
Cenrala
100
AcDbCircle
 10
1460.703772141365
 20
5655.314220891857
 30
0.0
 40
8.0
1001
AcDbBlockRepETag
1070
     1
1071
        2
1005
8B8
  0
CIRCLE
  5
8B9
330
41D
100
AcDbEntity
  8
Cenrala
100
AcDbCircle
 10
1460.703772141365
 20
5282.814220891857
 30
0.0
 40
8.0
1001
AcDbBlockRepETag
1070
     1
1071
        3
1005
8B9
  0
CIRCLE
  5
8BA
330
41D
100
AcDbEntity
  8
Cenrala
100
AcDbCircle
 10
1460.703772141365
 20
4910.314220891857
 30
0.0
 40
8.0
1001
AcDbBlockRepETag
1070
     1
1071
        4
1005
8BA
  0
CIRCLE
  5
8BB
330
41D
100
AcDbEntity
  8
Cenrala
100
AcDbCircle
 10
685.7037721413652
 20
4910.314220891857
 30
0.0
 40
8.0
1001
AcDbBlockRepETag
1070
     1
1071
        5
1005
8BB
  0
CIRCLE
  5
8BC
330
41D
100
AcDbEntity
  8
Cenrala
100
AcDbCircle
 10
685.7037721413652
 20
5282.814220891857
 30
0.0
 40
8.0
1001
AcDbBlockRepETag
1070
     1
1071
        6
1005
8BC
  0
LWPOLYLINE
  5
8BD
330
41D
100
AcDbEntity
  8
Cenrala
100
AcDbPolyline
 90
        4
 70
     1
 43
0.0
 10
665.7037721413653
 20
5675.314220891857
 10
1480.703772141365
 20
5675.314220891857
 10
1480.703772141365
 20
4890.314220891857
 10
665.7037721413653
 20
4890.314220891857
1001
AcDbBlockRepETag
1070
     1
1071
        7
1005
8BD
  0
CIRCLE
  5
8BE
330
41D
100
AcDbEntity
  8
Cenrala
100
AcDbCircle
 10
1533.703772141365
 20
5686.314220891858
 30
0.0
 40
8.0
1001
AcDbBlockRepETag
1070
     1
1071
        8
1005
8BE
  0
LWPOLYLINE
  5
8BF
330
41D
100
AcDbEntity
  8
Cenrala
100
AcDbPolyline
 90
        4
 70
     1
 43
0.0
 10
1583.703772141365
 20
5780.314220891857
 10
1483.703772141365
 20
5780.314220891857
 10
1483.703772141365
 20
5230.314220891857
 10
1583.703772141365
 20
5230.314220891857
1001
AcDbBlockRepETag
1070
     1
1071
        9
1005
8BF
  0
CIRCLE
  5
8C0
330
41D
100
AcDbEntity
  8
Cenrala
100
AcDbCircle
 10
1533.703772141365
 20
5324.314220891857
 30
0.0
 40
8.0
1001
AcDbBlockRepETag
1070
     1
1071
       10
1005
8C0
  0
CIRCLE
  5
8C1
330
41D
100
AcDbEntity
  8
Cenrala
100
AcDbCircle
 10
398.7037721413653
 20
5324.314220891857
 30
0.0
 40
8.0
1001
AcDbBlockRepETag
1070
     1
1071
       11
1005
8C1
  0
LWPOLYLINE
  5
8C2
330
41D
100
AcDbEntity
  8
Cenrala
100
AcDbPolyline
 90
        4
 70
     1
 43
0.0
 10
348.7037721413653
 20
5780.314220891857
 10
448.7037721413653
 20
5780.314220891857
 10
448.7037721413653
 20
5230.314220891857
 10
348.7037721413653
 20
5230.314220891857
1001
AcDbBlockRepETag
1070
     1
1071
       12
1005
8C2
  0
LWPOLYLINE
  5
8C3
330
41D
100
AcDbEntity
  8
Cenrala
100
AcDbPolyline
 90
        4
 70
     1
 43
0.0
 10
1713.703772141365
 20
5292.314220891856
 10
1743.703772141365
 20
5292.314220891856
 10
1743.703772141365
 20
5798.314220891857
 10
1713.703772141365
 20
5798.314220891857
1001
AcDbBlockRepETag
1070
     1
1071
       13
1005
8C3
  0
LWPOLYLINE
  5
8C4
330
41D
100
AcDbEntity
  8
Cenrala
100
AcDbPolyline
 90
        4
 70
     1
 43
0.0
 10
1713.703772141365
 20
4737.314220891857
 10
1743.703772141365
 20
4737.314220891857
 10
1743.703772141365
 20
5243.314220891857
 10
1713.703772141365
 20
5243.314220891857
1001
AcDbBlockRepETag
1070
     1
1071
       14
1005
8C4
  0
LWPOLYLINE
  5
8C5
330
41D
100
AcDbEntity
  8
Cenrala
100
AcDbPolyline
 90
        4
 70
     1
 43
0.0
 10
218.7037721413654
 20
4737.314220891857
 10
188.7037721413653
 20
4737.314220891857
 10
188.7037721413653
 20
5243.314220891857
 10
218.7037721413654
 20
5243.314220891857
1001
AcDbBlockRepETag
1070
     1
1071
       15
1005
8C5
  0
LWPOLYLINE
  5
8C6
330
41D
100
AcDbEntity
  8
Cenrala
100
AcDbPolyline
 90
        4
 70
     1
 43
0.0
 10
218.7037721413654
 20
5292.314220891856
 10
188.7037721413653
 20
5292.314220891856
 10
188.7037721413653
 20
5798.314220891857
 10
218.7037721413654
 20
5798.314220891857
1001
AcDbBlockRepETag
1070
     1
1071
       16
1005
8C6
  0
LWPOLYLINE
  5
8C7
330
41D
100
AcDbEntity
  8
Cenrala
100
AcDbPolyline
 90
        4
 70
     0
 43
0.0
 10
1713.703772141365
 20
4750.314220891857
 10
1713.703772141365
 20
4730.314220891857
 10
1733.703772141365
 20
4730.314220891857
 10
1733.703772141365
 20
4737.314220891857
1001
AcDbBlockRepETag
1070
     1
1071
       17
1005
8C7
  0
LWPOLYLINE
  5
8C8
330
41D
100
AcDbEntity
  8
Cenrala
100
AcDbPolyline
 90
        4
 70
     1
 43
0.0
 10
1688.703772141365
 20
4720.314220891856
 10
1668.703772141365
 20
4720.314220891856
 10
1668.703772141365
 20
4705.314220891857
 10
1688.703772141365
 20
4705.314220891857
1001
AcDbBlockRepETag
1070
     1
1071
       18
1005
8C8
  0
CIRCLE
  5
8C9
330
41D
100
AcDbEntity
  8
Cenrala
100
AcDbCircle
 10
685.7037721413652
 20
5655.314220891857
 30
0.0
 40
8.0
1001
AcDbBlockRepETag
1070
     1
1071
       19
1005
8C9
  0
CIRCLE
  5
8CA
330
41D
100
AcDbEntity
  8
Cenrala
100
AcDbCircle
 10
398.7037721413653
 20
5686.314220891858
 30
0.0
 40
8.0
1001
AcDbBlockRepETag
1070
     1
1071
       20
1005
8CA
  0
LWPOLYLINE
  5
8CB
330
41D
100
AcDbEntity
  8
Cenrala
100
AcDbPolyline
 90
        4
 70
     1
 43
0.0
 10
243.7037721413654
 20
4720.314220891856
 10
263.7037721413654
 20
4720.314220891856
 10
263.7037721413654
 20
4705.314220891857
 10
243.7037721413654
 20
4705.314220891857
1001
AcDbBlockRepETag
1070
     1
1071
       21
1005
8CB
  0
LWPOLYLINE
  5
8CC
330
41D
100
AcDbEntity
  8
Cenrala
100
AcDbPolyline
 90
        6
 70
     1
 43
0.0
 10
966.2037721413652
 20
4720.314220891856
 10
1713.703772141365
 20
4720.314220891856
 10
1713.703772141365
 20
5810.314220891857
 10
966.2037721413648
 20
5810.314220891857
 10
218.7037721413654
 20
5810.314220891857
 10
218.7037721413654
 20
4720.314220891856
1001
AcDbBlockRepETag
1070
     1
1071
       22
1005
8CC
  0
ENDBLK
  5
41F
330
41D
100
AcDbEntity
  8
0
100
AcDbBlockEnd
  0
BLOCK
  5
439
330
438
100
AcDbEntity
  8
0
100
AcDbBlockBegin
  2
3000BSR_g
 70
     0
 10
0.0
 20
0.0
 30
0.0
  3
3000BSR_g
  1

  4
3000BSR_gora
  0
LWPOLYLINE
  5
7C2
330
438
100
AcDbEntity
  8
Cenrala
100
AcDbPolyline
 90
        4
 70
     1
 43
0.0
 10
680.7037721413653
 20
3350.786150090881
 10
696.7037721413652
 20
3350.786150090881
 10
696.7037721413652
 20
3340.786150090881
 10
680.7037721413653
 20
3340.786150090881
1001
AcDbBlockRepETag
1070
     1
1071
        0
1005
7C2
  0
LWPOLYLINE
  5
7C3
330
438
100
AcDbEntity
  8
Cenrala
100
AcDbPolyline
 90
        6
 70
     0
 43
0.0
 10
961.2037721413653
 20
3360.786150090881
 10
668.7037721413653
 20
3360.786150090881
 10
668.7037721413653
 20
3350.786150090881
 10
1483.703772141365
 20
3350.786150090881
 10
1483.703772141365
 20
3360.786150090881
 10
966.2037721413652
 20
3360.786150090881
1001
AcDbBlockRepETag
1070
     1
1071
        1
1005
7C3
  0
LWPOLYLINE
  5
7C4
330
438
100
AcDbEntity
  8
Cenrala
100
AcDbPolyline
 90
        4
 70
     1
 43
0.0
 10
1541.703772141365
 20
3350.786150090881
 10
1525.703772141365
 20
3350.786150090881
 10
1525.703772141365
 20
3340.786150090881
 10
1541.703772141365
 20
3340.786150090881
1001
AcDbBlockRepETag
1070
     1
1071
        2
1005
7C4
  0
LWPOLYLINE
  5
7C5
330
438
100
AcDbEntity
  8
Cenrala
100
AcDbPolyline
 90
        4
 70
     1
 43
0.0
 10
1583.703772141365
 20
3360.786150090881
 10
1483.703772141365
 20
3360.786150090881
 10
1483.703772141365
 20
3350.786150090881
 10
1583.703772141365
 20
3350.786150090881
1001
AcDbBlockRepETag
1070
     1
1071
        3
1005
7C5
  0
LWPOLYLINE
  5
7C6
330
438
100
AcDbEntity
  8
Cenrala
100
AcDbPolyline
 90
        4
 70
     1
 43
0.0
 10
348.7037721413653
 20
3360.786150090881
 10
448.7037721413653
 20
3360.786150090881
 10
448.7037721413653
 20
3350.786150090881
 10
348.7037721413653
 20
3350.786150090881
1001
AcDbBlockRepETag
1070
     1
1071
        4
1005
7C6
  0
LWPOLYLINE
  5
7C7
330
438
100
AcDbEntity
  8
Cenrala
100
AcDbPolyline
 90
        4
 70
     1
 43
0.0
 10
1713.703772141365
 20
3517.786150090881
 10
1743.703772141365
 20
3517.786150090881
 10
1743.703772141365
 20
4023.78615009088
 10
1713.703772141365
 20
4023.78615009088
1001
AcDbBlockRepETag
1070
     1
1071
        5
1005
7C7
  0
LWPOLYLINE
  5
7C8
330
438
100
AcDbEntity
  8
Cenrala
100
AcDbPolyline
 90
        4
 70
     0
 43
0.0
 10
1743.703772141365
 20
3672.786150090882
 10
1743.703772141365
 20
4178.786150090881
 10
1713.703772141365
 20
4178.786150090881
 10
1713.703772141365
 20
3672.786150090882
1001
AcDbBlockRepETag
1070
     1
1071
        6
1005
7C8
  0
LWPOLYLINE
  5
7C9
330
438
100
AcDbEntity
  8
Cenrala
100
AcDbPolyline
 90
        4
 70
     0
 43
0.0
 10
188.7037721413653
 20
3672.786150090882
 10
188.7037721413653
 20
4178.786150090881
 10
218.7037721413654
 20
4178.786150090881
 10
218.7037721413654
 20
3672.786150090882
1001
AcDbBlockRepETag
1070
     1
1071
        7
1005
7C9
  0
LWPOLYLINE
  5
7CA
330
438
100
AcDbEntity
  8
Cenrala
100
AcDbPolyline
 90
        4
 70
     1
 43
0.0
 10
218.7037721413654
 20
3517.786150090881
 10
188.7037721413653
 20
3517.786150090881
 10
188.7037721413653
 20
4023.78615009088
 10
218.7037721413654
 20
4023.78615009088
1001
AcDbBlockRepETag
1070
     1
1071
        8
1005
7CA
  0
LWPOLYLINE
  5
7CB
330
438
100
AcDbEntity
  8
Cenrala
100
AcDbPolyline
 90
        4
 70
     1
 43
0.0
 10
1471.703772141365
 20
3350.786150090881
 10
1455.703772141365
 20
3350.786150090881
 10
1455.703772141365
 20
3340.786150090881
 10
1471.703772141365
 20
3340.786150090881
1001
AcDbBlockRepETag
1070
     1
1071
        9
1005
7CB
  0
LWPOLYLINE
  5
7CC
330
438
100
AcDbEntity
  8
Cenrala
100
AcDbPolyline
 90
        6
 70
     1
 43
0.0
 10
966.2037721413652
 20
4235.786150090881
 10
1713.703772141365
 20
4235.786150090881
 10
1713.703772141365
 20
3360.786150090881
 10
966.2037721413648
 20
3360.786150090881
 10
218.7037721413654
 20
3360.786150090881
 10
218.7037721413654
 20
4235.786150090881
1001
AcDbBlockRepETag
1070
     1
1071
       10
1005
7CC
  0
LWPOLYLINE
  5
7CD
330
438
100
AcDbEntity
  8
Cenrala
100
AcDbPolyline
 90
        4
 70
     1
 43
0.0
 10
1713.703772141365
 20
4225.786150090881
 10
1733.703772141365
 20
4225.786150090881
 10
1733.703772141365
 20
4205.786150090881
 10
1713.703772141365
 20
4205.786150090881
1001
AcDbBlockRepETag
1070
     1
1071
       11
1005
7CD
  0
LWPOLYLINE
  5
7CE
330
438
100
AcDbEntity
  8
Cenrala
100
AcDbPolyline
 90
        4
 70
     1
 43
0.0
 10
390.7037721413653
 20
3350.786150090881
 10
406.7037721413653
 20
3350.786150090881
 10
406.7037721413653
 20
3340.786150090881
 10
390.7037721413653
 20
3340.786150090881
1001
AcDbBlockRepETag
1070
     1
1071
       12
1005
7CE
  0
ENDBLK
  5
43A
330
438
100
AcDbEntity
  8
0
100
AcDbBlockEnd
  0
BLOCK
  5
44A
330
449
100
AcDbEntity
  8
0
100
AcDbBlockBegin
  2
3000BSR_l
 70
     0
 10
0.0
 20
0.0
 30
0.0
  3
3000BSR_l
  1

  4
3000BSR_lewa
  0
LWPOLYLINE
  5
834
330
449
100
AcDbEntity
  8
Cenrala
100
AcDbPolyline
 90
        4
 70
     1
 43
0.0
 10
3238.434174947069
 20
5316.314220891857
 10
3248.43417494707
 20
5316.314220891857
 10
3248.43417494707
 20
5332.314220891857
 10
3238.434174947069
 20
5332.314220891857
1001
AcDbBlockRepETag
1070
     1
1071
        0
1005
834
  0
LWPOLYLINE
  5
835
330
449
100
AcDbEntity
  8
Cenrala
100
AcDbPolyline
 90
        4
 70
     1
 43
0.0
 10
3228.43417494707
 20
5780.314220891857
 10
3238.434174947069
 20
5780.314220891857
 10
3238.434174947069
 20
5230.314220891857
 10
3228.43417494707
 20
5230.314220891857
1001
AcDbBlockRepETag
1070
     1
1071
        1
1005
835
  0
LWPOLYLINE
  5
836
330
449
100
AcDbEntity
  8
Cenrala
100
AcDbPolyline
 90
        4
 70
     1
 43
0.0
 10
3238.434174947069
 20
5663.314220891857
 10
3248.43417494707
 20
5663.314220891857
 10
3248.43417494707
 20
5647.314220891857
 10
3238.434174947069
 20
5647.314220891857
1001
AcDbBlockRepETag
1070
     1
1071
        2
1005
836
  0
LWPOLYLINE
  5
837
330
449
100
AcDbEntity
  8
Cenrala
100
AcDbPolyline
 90
        4
 70
     0
 43
0.0
 10
3228.43417494707
 20
5675.314220891857
 10
3228.43417494707
 20
4890.314220891857
 10
3238.434174947069
 20
4890.314220891857
 10
3238.434174947069
 20
5675.314220891857
1001
AcDbBlockRepETag
1070
     1
1071
        3
1005
837
  0
CIRCLE
  5
839
330
449
100
AcDbEntity
  8
Cenrala
100
AcDbCircle
 10
2698.43417494707
 20
4990.314220891857
 30
0.0
 40
250.0
1001
AcDbBlockRepETag
1070
     1
1071
        4
1005
839
  0
CIRCLE
  5
83A
330
449
100
AcDbEntity
  8
Cenrala
100
AcDbCircle
 10
2698.43417494707
 20
4990.314220891857
 30
0.0
 40
253.0
1001
AcDbBlockRepETag
1070
     1
1071
        5
1005
83A
  0
CIRCLE
  5
83B
330
449
100
AcDbEntity
  8
Cenrala
100
AcDbCircle
 10
2853.43417494707
 20
5545.314220891857
 30
0.0
 40
253.0
1001
AcDbBlockRepETag
1070
     1
1071
        6
1005
83B
  0
CIRCLE
  5
83C
330
449
100
AcDbEntity
  8
Cenrala
100
AcDbCircle
 10
2853.43417494707
 20
5545.314220891857
 30
0.0
 40
250.0
1001
AcDbBlockRepETag
1070
     1
1071
        7
1005
83C
  0
LWPOLYLINE
  5
83D
330
449
100
AcDbEntity
  8
Cenrala
100
AcDbPolyline
 90
        4
 70
     1
 43
0.0
 10
3218.43417494707
 20
4705.314220891857
 10
3173.43417494707
 20
4705.314220891857
 10
3173.43417494707
 20
4720.314220891856
 10
3218.43417494707
 20
4720.314220891856
1001
AcDbBlockRepETag
1070
     1
1071
        8
1005
83D
  0
LWPOLYLINE
  5
83E
330
449
100
AcDbEntity
  8
Cenrala
100
AcDbPolyline
 90
        4
 70
     1
 43
0.0
 10
2363.434174947069
 20
4705.314220891857
 10
2408.43417494707
 20
4705.314220891857
 10
2408.43417494707
 20
4720.314220891856
 10
2363.434174947069
 20
4720.314220891856
1001
AcDbBlockRepETag
1070
     1
1071
        9
1005
83E
  0
LWPOLYLINE
  5
83F
330
449
100
AcDbEntity
  8
Cenrala
100
AcDbPolyline
 90
        4
 70
     1
 43
0.0
 10
3238.434174947069
 20
4902.314220891857
 10
3248.43417494707
 20
4902.314220891857
 10
3248.43417494707
 20
4918.314220891858
 10
3238.434174947069
 20
4918.314220891858
1001
AcDbBlockRepETag
1070
     1
1071
       10
1005
83F
  0
LWPOLYLINE
  5
840
330
449
100
AcDbEntity
  8
Cenrala
100
AcDbPolyline
 90
        4
 70
     1
 43
0.0
 10
3238.434174947069
 20
5290.814220891856
 10
3248.43417494707
 20
5290.814220891856
 10
3248.43417494707
 20
5274.814220891857
 10
3238.434174947069
 20
5274.814220891857
1001
AcDbBlockRepETag
1070
     1
1071
       11
1005
840
  0
LWPOLYLINE
  5
841
330
449
100
AcDbEntity
  8
Cenrala
100
AcDbPolyline
 90
        4
 70
     1
 43
0.0
 10
3238.434174947069
 20
5694.314220891858
 10
3248.43417494707
 20
5694.314220891858
 10
3248.43417494707
 20
5678.314220891857
 10
3238.434174947069
 20
5678.314220891857
1001
AcDbBlockRepETag
1070
     1
1071
       12
1005
841
  0
LWPOLYLINE
  5
842
330
449
100
AcDbEntity
  8
Cenrala
100
AcDbPolyline
 90
        4
 70
     1
 43
0.0
 10
2353.43417494707
 20
4720.314220891856
 10
3228.43417494707
 20
4720.314220891856
 10
3228.43417494707
 20
5810.314220891857
 10
2353.43417494707
 20
5810.314220891857
1001
AcDbBlockRepETag
1070
     1
1071
       13
1005
842
  0
LWPOLYLINE
  5
843
330
449
100
AcDbEntity
  8
Cenrala
100
AcDbPolyline
 90
        4
 70
     1
 43
0.0
 10
3170.810638563689
 20
5054.209805181609
 10
3185.810638563689
 20
5054.209805181609
 10
3185.810638563689
 20
5079.209805181609
 10
3170.810638563689
 20
5079.209805181609
1001
AcDbBlockRepETag
1070
     1
1071
       14
1005
843
  0
LWPOLYLINE
  5
844
330
449
100
AcDbEntity
  8
Cenrala
100
AcDbPolyline
 90
        4
 70
     1
 43
0.0
 10
3173.31063856369
 20
5056.709805181609
 10
3183.31063856369
 20
5056.709805181609
 10
3183.31063856369
 20
5076.709805181609
 10
3173.31063856369
 20
5076.709805181609
1001
AcDbBlockRepETag
1070
     1
1071
       15
1005
844
  0
CIRCLE
  5
845
330
449
100
AcDbEntity
  8
Cenrala
100
AcDbCircle
 10
3177.204467968774
 20
4807.573540170739
 30
0.0
 40
5.0
1001
AcDbBlockRepETag
1070
     1
1071
       16
1005
845
  0
CIRCLE
  5
846
330
449
100
AcDbEntity
  8
Cenrala
100
AcDbCircle
 10
3177.204467968774
 20
4781.641217266776
 30
0.0
 40
5.0
1001
AcDbBlockRepETag
1070
     1
1071
       17
1005
846
  0
ENDBLK
  5
44B
330
449
100
AcDbEntity
  8
0
100
AcDbBlockEnd
  0
BLOCK
  5
461
330
460
100
AcDbEntity
  8
0
100
AcDbBlockBegin
  2
3000BSR_p
 70
     0
 10
0.0
 20
0.0
 30
0.0
  3
3000BSR_p
  1

  4
3000BSR_prawa
  0
LWPOLYLINE
  5
7D9
330
460
100
AcDbEntity
  8
Cenrala
100
AcDbPolyline
 90
        4
 70
     1
 43
0.0
 10
-1311.026630664339
 20
5694.314220891858
 10
-1321.026630664339
 20
5694.314220891858
 10
-1321.026630664339
 20
5678.314220891857
 10
-1311.026630664339
 20
5678.314220891857
1001
AcDbBlockRepETag
1070
     1
1071
        0
1005
7D9
  0
LWPOLYLINE
  5
7DA
330
460
100
AcDbEntity
  8
Cenrala
100
AcDbPolyline
 90
        4
 70
     1
 43
0.0
 10
-1311.026630664339
 20
5290.814220891856
 10
-1321.026630664339
 20
5290.814220891856
 10
-1321.026630664339
 20
5274.814220891857
 10
-1311.026630664339
 20
5274.814220891857
1001
AcDbBlockRepETag
1070
     1
1071
        1
1005
7DA
  0
LWPOLYLINE
  5
7DB
330
460
100
AcDbEntity
  8
Cenrala
100
AcDbPolyline
 90
        4
 70
     0
 43
0.0
 10
-1301.026630664339
 20
5675.314220891857
 10
-1301.026630664339
 20
4890.314220891857
 10
-1311.026630664339
 20
4890.314220891857
 10
-1311.026630664339
 20
5675.314220891857
1001
AcDbBlockRepETag
1070
     1
1071
        2
1005
7DB
  0
LWPOLYLINE
  5
7DC
330
460
100
AcDbEntity
  8
Cenrala
100
AcDbPolyline
 90
        4
 70
     1
 43
0.0
 10
-1311.026630664339
 20
5663.314220891857
 10
-1321.026630664339
 20
5663.314220891857
 10
-1321.026630664339
 20
5647.314220891857
 10
-1311.026630664339
 20
5647.314220891857
1001
AcDbBlockRepETag
1070
     1
1071
        3
1005
7DC
  0
LWPOLYLINE
  5
7DD
330
460
100
AcDbEntity
  8
Cenrala
100
AcDbPolyline
 90
        4
 70
     1
 43
0.0
 10
-1301.026630664339
 20
5780.314220891857
 10
-1311.026630664339
 20
5780.314220891857
 10
-1311.026630664339
 20
5230.314220891857
 10
-1301.026630664339
 20
5230.314220891857
1001
AcDbBlockRepETag
1070
     1
1071
        4
1005
7DD
  0
LWPOLYLINE
  5
7DE
330
460
100
AcDbEntity
  8
Cenrala
100
AcDbPolyline
 90
        4
 70
     1
 43
0.0
 10
-1311.026630664339
 20
5316.314220891857
 10
-1321.026630664339
 20
5316.314220891857
 10
-1321.026630664339
 20
5332.314220891857
 10
-1311.026630664339
 20
5332.314220891857
1001
AcDbBlockRepETag
1070
     1
1071
        5
1005
7DE
  0
CIRCLE
  5
7DF
330
460
100
AcDbEntity
  8
Cenrala
100
AcDbCircle
 10
-771.0266306643388
 20
4990.314220891857
 30
0.0
 40
253.0
1001
AcDbBlockRepETag
1070
     1
1071
        6
1005
7DF
  0
CIRCLE
  5
7E0
330
460
100
AcDbEntity
  8
Cenrala
100
AcDbCircle
 10
-771.0266306643388
 20
4990.314220891857
 30
0.0
 40
250.0
1001
AcDbBlockRepETag
1070
     1
1071
        7
1005
7E0
  0
LWPOLYLINE
  5
7E2
330
460
100
AcDbEntity
  8
Cenrala
100
AcDbPolyline
 90
        4
 70
     1
 43
0.0
 10
-426.0266306643392
 20
4720.314220891856
 10
-1301.026630664338
 20
4720.314220891859
 10
-1301.026630664338
 20
5810.314220891859
 10
-426.0266306643385
 20
5810.314220891858
1001
AcDbBlockRepETag
1070
     1
1071
        8
1005
7E2
  0
LWPOLYLINE
  5
7E3
330
460
100
AcDbEntity
  8
Cenrala
100
AcDbPolyline
 90
        4
 70
     1
 43
0.0
 10
-436.0266306643389
 20
4705.314220891858
 10
-481.0266306643391
 20
4705.314220891858
 10
-481.0266306643391
 20
4720.314220891856
 10
-436.0266306643389
 20
4720.314220891856
1001
AcDbBlockRepETag
1070
     1
1071
        9
1005
7E3
  0
LWPOLYLINE
  5
7E4
330
460
100
AcDbEntity
  8
Cenrala
100
AcDbPolyline
 90
        4
 70
     1
 43
0.0
 10
-1291.026630664338
 20
4705.314220891859
 10
-1246.026630664339
 20
4705.314220891859
 10
-1246.026630664339
 20
4720.314220891859
 10
-1291.026630664338
 20
4720.314220891859
1001
AcDbBlockRepETag
1070
     1
1071
       10
1005
7E4
  0
CIRCLE
  5
7E5
330
460
100
AcDbEntity
  8
Cenrala
100
AcDbCircle
 10
-926.0266306643385
 20
5545.314220891857
 30
0.0
 40
250.0
1001
AcDbBlockRepETag
1070
     1
1071
       11
1005
7E5
  0
CIRCLE
  5
7E6
330
460
100
AcDbEntity
  8
Cenrala
100
AcDbCircle
 10
-926.0266306643385
 20
5545.314220891857
 30
0.0
 40
253.0
1001
AcDbBlockRepETag
1070
     1
1071
       12
1005
7E6
  0
CIRCLE
  5
7E7
330
460
100
AcDbEntity
  8
Cenrala
100
AcDbCircle
 10
-446.0266306643391
 20
4740.314220891858
 30
0.0
 40
10.0
1001
AcDbBlockRepETag
1070
     1
1071
       13
1005
7E7
  0
CIRCLE
  5
7E8
330
460
100
AcDbEntity
  8
Cenrala
100
AcDbCircle
 10
-446.0266306643391
 20
4740.314220891858
 30
0.0
 40
8.0
1001
AcDbBlockRepETag
1070
     1
1071
       14
1005
7E8
  0
ENDBLK
  5
462
330
460
100
AcDbEntity
  8
0
100
AcDbBlockEnd
  0
BLOCK
  5
475
330
474
100
AcDbEntity
  8
0
100
AcDbBlockBegin
  2
*D8
 70
     1
 10
0.0
 20
0.0
 30
0.0
  3
*D8
  1

  0
LINE
  5
476
330
474
100
AcDbEntity
  8
wymiary
 62
     0
370
    -2
100
AcDbLine
 10
2798.43417494707
 20
5545.314220891857
 30
0.0
 11
2373.43417494707
 21
5545.314220891857
 31
0.0
  0
MTEXT
  5
477
330
474
100
AcDbEntity
  8
wymiary
 62
     0
100
AcDbMText
 10
2656.424906510399
 20
5566.009344408136
 30
0.0
 40
15.0
 41
0.0
 71
     5
 72
     1
  1
465
 73
     1
 44
1.0
1001
ACAD
1000
MTEXTBEGIN
1070
    73
1070
     1
1070
    44
1040
1.0
1070
    74
1070
     0
1000
MTEXTEND
  0
SOLID
  5
478
330
474
100
AcDbEntity
  8
wymiary
 62
     0
100
AcDbTrace
 10
2798.43417494707
 20
5548.64755422519
 30
0.0
 11
2798.43417494707
 21
5541.980887558525
 31
0.0
 12
2818.43417494707
 22
5545.314220891857
 32
0.0
 13
2818.43417494707
 23
5545.314220891857
 33
0.0
  0
SOLID
  5
479
330
474
100
AcDbEntity
  8
wymiary
 62
     0
100
AcDbTrace
 10
2373.43417494707
 20
5548.64755422519
 30
0.0
 11
2373.43417494707
 21
5541.980887558525
 31
0.0
 12
2353.43417494707
 22
5545.314220891857
 32
0.0
 13
2353.43417494707
 23
5545.314220891857
 33
0.0
  0
POINT
  5
47A
330
474
100
AcDbEntity
  8
Defpoints
 62
     0
100
AcDbPoint
 10
2818.43417494707
 20
5545.314220891857
 30
0.0
  0
POINT
  5
47B
330
474
100
AcDbEntity
  8
Defpoints
 62
     0
100
AcDbPoint
 10
2353.43417494707
 20
5545.314220891857
 30
0.0
  0
POINT
  5
47C
330
474
100
AcDbEntity
  8
Defpoints
 62
     0
100
AcDbPoint
 10
2353.43417494707
 20
5545.314220891857
 30
0.0
  0
ENDBLK
  5
47D
330
474
100
AcDbEntity
  8
0
100
AcDbBlockEnd
  0
BLOCK
  5
47F
330
47E
100
AcDbEntity
  8
0
100
AcDbBlockBegin
  2
*D9
 70
     1
 10
0.0
 20
0.0
 30
0.0
  3
*D9
  1

  0
LINE
  5
480
330
47E
100
AcDbEntity
  8
wymiary
 62
     0
370
    -2
100
AcDbLine
 10
2818.43417494707
 20
5565.314220891858
 30
0.0
 11
2818.43417494707
 21
5790.314220891858
 31
0.0
  0
SOLID
  5
481
330
47E
100
AcDbEntity
  8
wymiary
 62
     0
100
AcDbTrace
 10
2815.100841613736
 20
5565.314220891858
 30
0.0
 11
2821.767508280403
 21
5565.314220891858
 31
0.0
 12
2818.43417494707
 22
5545.314220891857
 32
0.0
 13
2818.43417494707
 23
5545.314220891857
 33
0.0
  0
SOLID
  5
482
330
47E
100
AcDbEntity
  8
wymiary
 62
     0
100
AcDbTrace
 10
2815.100841613736
 20
5790.314220891858
 30
0.0
 11
2821.767508280403
 21
5790.314220891858
 31
0.0
 12
2818.43417494707
 22
5810.314220891857
 32
0.0
 13
2818.43417494707
 23
5810.314220891857
 33
0.0
  0
MTEXT
  5
483
330
47E
100
AcDbEntity
  8
wymiary
 62
     0
100
AcDbMText
 10
2804.934174947069
 20
5677.814220891858
 30
0.0
 40
15.0
 41
0.0
 71
     5
 72
     1
  1
265
 11
0.0000000000000001
 21
1.0
 31
0.0
 73
     1
 44
1.0
1001
ACAD
1000
MTEXTBEGIN
1070
    73
1070
     1
1070
    44
1040
1.0
1070
    74
1070
     0
1000
MTEXTEND
  0
POINT
  5
484
330
47E
100
AcDbEntity
  8
Defpoints
 62
     0
100
AcDbPoint
 10
2818.43417494707
 20
5545.314220891857
 30
0.0
  0
POINT
  5
485
330
47E
100
AcDbEntity
  8
Defpoints
 62
     0
100
AcDbPoint
 10
2818.434174947069
 20
5810.314220891857
 30
0.0
  0
POINT
  5
486
330
47E
100
AcDbEntity
  8
Defpoints
 62
     0
100
AcDbPoint
 10
2818.43417494707
 20
5810.314220891857
 30
0.0
  0
ENDBLK
  5
487
330
47E
100
AcDbEntity
  8
0
100
AcDbBlockEnd
  0
BLOCK
  5
489
330
488
100
AcDbEntity
  8
0
100
AcDbBlockBegin
  2
*D10
 70
     1
 10
0.0
 20
0.0
 30
0.0
  3
*D10
  1

  0
LINE
  5
48A
330
488
100
AcDbEntity
  8
wymiary
 62
     0
370
    -2
100
AcDbLine
 10
2653.43417494707
 20
5000.314220891858
 30
0.0
 11
2373.43417494707
 21
5000.314220891858
 31
0.0
  0
SOLID
  5
48B
330
488
100
AcDbEntity
  8
wymiary
 62
     0
100
AcDbTrace
 10
2653.43417494707
 20
5003.647554225191
 30
0.0
 11
2653.43417494707
 21
4996.980887558525
 31
0.0
 12
2673.43417494707
 22
5000.314220891858
 32
0.0
 13
2673.43417494707
 23
5000.314220891858
 33
0.0
  0
SOLID
  5
48C
330
488
100
AcDbEntity
  8
wymiary
 62
     0
100
AcDbTrace
 10
2373.43417494707
 20
5003.647554225191
 30
0.0
 11
2373.43417494707
 21
4996.980887558525
 31
0.0
 12
2353.43417494707
 22
5000.314220891858
 32
0.0
 13
2353.43417494707
 23
5000.314220891858
 33
0.0
  0
MTEXT
  5
48D
330
488
100
AcDbEntity
  8
wymiary
 62
     0
100
AcDbMText
 10
2513.43417494707
 20
5013.814220891858
 30
0.0
 40
15.0
 41
0.0
 71
     5
 72
     1
  1
320
 73
     1
 44
1.0
1001
ACAD
1000
MTEXTBEGIN
1070
    73
1070
     1
1070
    44
1040
1.0
1070
    74
1070
     0
1000
MTEXTEND
  0
POINT
  5
48E
330
488
100
AcDbEntity
  8
Defpoints
 62
     0
100
AcDbPoint
 10
2673.43417494707
 20
5000.314220891858
 30
0.0
  0
POINT
  5
48F
330
488
100
AcDbEntity
  8
Defpoints
 62
     0
100
AcDbPoint
 10
2353.43417494707
 20
5000.314220891862
 30
0.0
  0
POINT
  5
490
330
488
100
AcDbEntity
  8
Defpoints
 62
     0
100
AcDbPoint
 10
2353.43417494707
 20
5000.314220891858
 30
0.0
  0
ENDBLK
  5
491
330
488
100
AcDbEntity
  8
0
100
AcDbBlockEnd
  0
BLOCK
  5
493
330
492
100
AcDbEntity
  8
0
100
AcDbBlockBegin
  2
*D11
 70
     1
 10
0.0
 20
0.0
 30
0.0
  3
*D11
  1

  0
LINE
  5
494
330
492
100
AcDbEntity
  8
wymiary
 62
     0
370
    -2
100
AcDbLine
 10
2673.43417494707
 20
4980.314220891858
 30
0.0
 11
2673.43417494707
 21
4740.314220891857
 31
0.0
  0
SOLID
  5
495
330
492
100
AcDbEntity
  8
wymiary
 62
     0
100
AcDbTrace
 10
2670.100841613737
 20
4980.314220891858
 30
0.0
 11
2676.767508280404
 21
4980.314220891858
 31
0.0
 12
2673.43417494707
 22
5000.314220891858
 32
0.0
 13
2673.43417494707
 23
5000.314220891858
 33
0.0
  0
SOLID
  5
496
330
492
100
AcDbEntity
  8
wymiary
 62
     0
100
AcDbTrace
 10
2670.100841613737
 20
4740.314220891857
 30
0.0
 11
2676.767508280404
 21
4740.314220891857
 31
0.0
 12
2673.43417494707
 22
4720.314220891856
 32
0.0
 13
2673.43417494707
 23
4720.314220891856
 33
0.0
  0
MTEXT
  5
497
330
492
100
AcDbEntity
  8
wymiary
 62
     0
100
AcDbMText
 10
2659.93417494707
 20
4860.314220891858
 30
0.0
 40
15.0
 41
0.0
 71
     5
 72
     1
  1
280
 11
0.0000000000000001
 21
1.0
 31
0.0
 73
     1
 44
1.0
1001
ACAD
1000
MTEXTBEGIN
1070
    73
1070
     1
1070
    44
1040
1.0
1070
    74
1070
     0
1000
MTEXTEND
  0
POINT
  5
498
330
492
100
AcDbEntity
  8
Defpoints
 62
     0
100
AcDbPoint
 10
2673.43417494707
 20
5000.314220891858
 30
0.0
  0
POINT
  5
499
330
492
100
AcDbEntity
  8
Defpoints
 62
     0
100
AcDbPoint
 10
2673.43417494707
 20
4720.314220891856
 30
0.0
  0
POINT
  5
49A
330
492
100
AcDbEntity
  8
Defpoints
 62
     0
100
AcDbPoint
 10
2673.43417494707
 20
4720.314220891856
 30
0.0
  0
ENDBLK
  5
49B
330
492
100
AcDbEntity
  8
0
100
AcDbBlockEnd
  0
BLOCK
  5
49D
330
49C
100
AcDbEntity
  8
0
100
AcDbBlockBegin
  2
*D12
 70
     1
 10
0.0
 20
0.0
 30
0.0
  3
*D12
  1

  0
LINE
  5
49E
330
49C
100
AcDbEntity
  8
wymiary
 62
     0
370
    -2
100
AcDbLine
 10
-871.0266306643386
 20
5545.314220891857
 30
0.0
 11
-446.0266306643386
 21
5545.314220891857
 31
0.0
  0
MTEXT
  5
49F
330
49C
100
AcDbEntity
  8
wymiary
 62
     0
100
AcDbMText
 10
-718.5535081252237
 20
5565.088078529005
 30
0.0
 40
15.0
 41
0.0
 71
     5
 72
     1
  1
465
 73
     1
 44
1.0
1001
ACAD
1000
MTEXTBEGIN
1070
    73
1070
     1
1070
    44
1040
1.0
1070
    74
1070
     0
1000
MTEXTEND
  0
SOLID
  5
4A0
330
49C
100
AcDbEntity
  8
wymiary
 62
     0
100
AcDbTrace
 10
-871.0266306643386
 20
5548.64755422519
 30
0.0
 11
-871.0266306643386
 21
5541.980887558525
 31
0.0
 12
-891.0266306643386
 22
5545.314220891857
 32
0.0
 13
-891.0266306643386
 23
5545.314220891857
 33
0.0
  0
SOLID
  5
4A1
330
49C
100
AcDbEntity
  8
wymiary
 62
     0
100
AcDbTrace
 10
-446.0266306643386
 20
5548.64755422519
 30
0.0
 11
-446.0266306643386
 21
5541.980887558525
 31
0.0
 12
-426.0266306643385
 22
5545.314220891857
 32
0.0
 13
-426.0266306643385
 23
5545.314220891857
 33
0.0
  0
POINT
  5
4A2
330
49C
100
AcDbEntity
  8
Defpoints
 62
     0
100
AcDbPoint
 10
-891.0266306643386
 20
5545.314220891857
 30
0.0
  0
POINT
  5
4A3
330
49C
100
AcDbEntity
  8
Defpoints
 62
     0
100
AcDbPoint
 10
-426.0266306643385
 20
5545.314220891857
 30
0.0
  0
POINT
  5
4A4
330
49C
100
AcDbEntity
  8
Defpoints
 62
     0
100
AcDbPoint
 10
-426.0266306643385
 20
5545.314220891857
 30
0.0
  0
ENDBLK
  5
4A5
330
49C
100
AcDbEntity
  8
0
100
AcDbBlockEnd
  0
BLOCK
  5
4A7
330
4A6
100
AcDbEntity
  8
0
100
AcDbBlockBegin
  2
*D13
 70
     1
 10
0.0
 20
0.0
 30
0.0
  3
*D13
  1

  0
LINE
  5
4A8
330
4A6
100
AcDbEntity
  8
wymiary
 62
     0
370
    -2
100
AcDbLine
 10
-891.0266306643386
 20
5565.314220891858
 30
0.0
 11
-891.0266306643386
 21
5790.314220891858
 31
0.0
  0
SOLID
  5
4A9
330
4A6
100
AcDbEntity
  8
wymiary
 62
     0
100
AcDbTrace
 10
-894.3599639976721
 20
5565.314220891858
 30
0.0
 11
-887.6932973310053
 21
5565.314220891858
 31
0.0
 12
-891.0266306643386
 22
5545.314220891857
 32
0.0
 13
-891.0266306643386
 23
5545.314220891857
 33
0.0
  0
SOLID
  5
4AA
330
4A6
100
AcDbEntity
  8
wymiary
 62
     0
100
AcDbTrace
 10
-894.3599639976721
 20
5790.314220891858
 30
0.0
 11
-887.6932973310053
 21
5790.314220891858
 31
0.0
 12
-891.0266306643386
 22
5810.314220891857
 32
0.0
 13
-891.0266306643386
 23
5810.314220891857
 33
0.0
  0
MTEXT
  5
4AB
330
4A6
100
AcDbEntity
  8
wymiary
 62
     0
100
AcDbMText
 10
-904.5266306643396
 20
5677.814220891858
 30
0.0
 40
15.0
 41
0.0
 71
     5
 72
     1
  1
265
 11
0.0000000000000001
 21
1.0
 31
0.0
 73
     1
 44
1.0
1001
ACAD
1000
MTEXTBEGIN
1070
    73
1070
     1
1070
    44
1040
1.0
1070
    74
1070
     0
1000
MTEXTEND
  0
POINT
  5
4AC
330
4A6
100
AcDbEntity
  8
Defpoints
 62
     0
100
AcDbPoint
 10
-891.0266306643386
 20
5545.314220891857
 30
0.0
  0
POINT
  5
4AD
330
4A6
100
AcDbEntity
  8
Defpoints
 62
     0
100
AcDbPoint
 10
-891.0266306643386
 20
5810.314220891857
 30
0.0
  0
POINT
  5
4AE
330
4A6
100
AcDbEntity
  8
Defpoints
 62
     0
100
AcDbPoint
 10
-891.0266306643386
 20
5810.314220891857
 30
0.0
  0
ENDBLK
  5
4AF
330
4A6
100
AcDbEntity
  8
0
100
AcDbBlockEnd
  0
BLOCK
  5
4B1
330
4B0
100
AcDbEntity
  8
0
100
AcDbBlockBegin
  2
*D14
 70
     1
 10
0.0
 20
0.0
 30
0.0
  3
*D14
  1

  0
LINE
  5
4B2
330
4B0
100
AcDbEntity
  8
wymiary
 62
     0
370
    -2
100
AcDbLine
 10
-726.0266306643391
 20
5000.314220891858
 30
0.0
 11
-446.0266306643389
 21
5000.314220891858
 31
0.0
  0
SOLID
  5
4B3
330
4B0
100
AcDbEntity
  8
wymiary
 62
     0
100
AcDbTrace
 10
-726.0266306643391
 20
5003.647554225191
 30
0.0
 11
-726.0266306643391
 21
4996.980887558525
 31
0.0
 12
-746.0266306643391
 22
5000.314220891858
 32
0.0
 13
-746.0266306643391
 23
5000.314220891858
 33
0.0
  0
SOLID
  5
4B4
330
4B0
100
AcDbEntity
  8
wymiary
 62
     0
100
AcDbTrace
 10
-446.0266306643389
 20
5003.647554225191
 30
0.0
 11
-446.0266306643389
 21
4996.980887558525
 31
0.0
 12
-426.026630664339
 22
5000.314220891858
 32
0.0
 13
-426.026630664339
 23
5000.314220891858
 33
0.0
  0
MTEXT
  5
4B5
330
4B0
100
AcDbEntity
  8
wymiary
 62
     0
100
AcDbMText
 10
-586.0266306643389
 20
5013.814220891858
 30
0.0
 40
15.0
 41
0.0
 71
     5
 72
     1
  1
320
 73
     1
 44
1.0
1001
ACAD
1000
MTEXTBEGIN
1070
    73
1070
     1
1070
    44
1040
1.0
1070
    74
1070
     0
1000
MTEXTEND
  0
POINT
  5
4B6
330
4B0
100
AcDbEntity
  8
Defpoints
 62
     0
100
AcDbPoint
 10
-746.0266306643391
 20
5000.314220891858
 30
0.0
  0
POINT
  5
4B7
330
4B0
100
AcDbEntity
  8
Defpoints
 62
     0
100
AcDbPoint
 10
-426.026630664339
 20
5000.314220891862
 30
0.0
  0
POINT
  5
4B8
330
4B0
100
AcDbEntity
  8
Defpoints
 62
     0
100
AcDbPoint
 10
-426.026630664339
 20
5000.314220891858
 30
0.0
  0
ENDBLK
  5
4B9
330
4B0
100
AcDbEntity
  8
0
100
AcDbBlockEnd
  0
BLOCK
  5
4BB
330
4BA
100
AcDbEntity
  8
0
100
AcDbBlockBegin
  2
*D15
 70
     1
 10
0.0
 20
0.0
 30
0.0
  3
*D15
  1

  0
LINE
  5
4BC
330
4BA
100
AcDbEntity
  8
wymiary
 62
     0
370
    -2
100
AcDbLine
 10
-746.0266306643391
 20
4980.314220891858
 30
0.0
 11
-746.0266306643393
 21
4740.314220891857
 31
0.0
  0
SOLID
  5
4BD
330
4BA
100
AcDbEntity
  8
wymiary
 62
     0
100
AcDbTrace
 10
-749.3599639976724
 20
4980.314220891858
 30
0.0
 11
-742.6932973310057
 21
4980.314220891858
 31
0.0
 12
-746.0266306643391
 22
5000.314220891858
 32
0.0
 13
-746.0266306643391
 23
5000.314220891858
 33
0.0
  0
SOLID
  5
4BE
330
4BA
100
AcDbEntity
  8
wymiary
 62
     0
100
AcDbTrace
 10
-749.3599639976726
 20
4740.314220891857
 30
0.0
 11
-742.6932973310059
 21
4740.314220891857
 31
0.0
 12
-746.0266306643393
 22
4720.314220891856
 32
0.0
 13
-746.0266306643393
 23
4720.314220891856
 33
0.0
  0
MTEXT
  5
4BF
330
4BA
100
AcDbEntity
  8
wymiary
 62
     0
100
AcDbMText
 10
-759.5266306643399
 20
4860.314220891858
 30
0.0
 40
15.0
 41
0.0
 71
     5
 72
     1
  1
280
 11
0.0000000000000001
 21
1.0
 31
0.0
 73
     1
 44
1.0
1001
ACAD
1000
MTEXTBEGIN
1070
    73
1070
     1
1070
    44
1040
1.0
1070
    74
1070
     0
1000
MTEXTEND
  0
POINT
  5
4C0
330
4BA
100
AcDbEntity
  8
Defpoints
 62
     0
100
AcDbPoint
 10
-746.0266306643391
 20
5000.314220891858
 30
0.0
  0
POINT
  5
4C1
330
4BA
100
AcDbEntity
  8
Defpoints
 62
     0
100
AcDbPoint
 10
-746.0266306643394
 20
4720.314220891856
 30
0.0
  0
POINT
  5
4C2
330
4BA
100
AcDbEntity
  8
Defpoints
 62
     0
100
AcDbPoint
 10
-746.0266306643393
 20
4720.314220891856
 30
0.0
  0
ENDBLK
  5
4C3
330
4BA
100
AcDbEntity
  8
0
100
AcDbBlockEnd
  0
BLOCK
  5
4C5
330
4C4
100
AcDbEntity
  8
0
100
AcDbBlockBegin
  2
*D16
 70
     1
 10
0.0
 20
0.0
 30
0.0
  3
*D16
  1

  0
LINE
  5
4C6
330
4C4
100
AcDbEntity
  8
wymiary
 62
     0
370
    -2
100
AcDbLine
 10
-689.8079378181141
 20
5433.909384151001
 30
0.0
 11
-1092.245323510563
 21
5656.719057632712
 31
0.0
  0
MTEXT
  5
4C7
102
{ACAD_XDICTIONARY
360
902
102
}
330
4C4
100
AcDbEntity
  8
wymiary
 62
     0
100
AcDbMText
 10
-988.6166540539012
 20
5621.785977864789
 30
0.0
 40
15.0
 41
0.0
 71
     5
 72
     1
  1
\U+2205500
 11
0.8748638819401076
 21
-0.4843688553950238
 31
0.0
 73
     1
 44
1.0
1001
ACAD
1000
MTEXTBEGIN
1070
    73
1070
     1
1070
    44
1040
1.0
1070
    74
1070
     0
1000
MTEXTEND
  0
SOLID
  5
4C8
330
4C4
100
AcDbEntity
  8
wymiary
 62
     0
100
AcDbTrace
 10
-688.1933749667978
 20
5436.825597090802
 30
0.0
 11
-691.422500669431
 21
5430.993171211201
 31
0.0
 12
-672.3106601793118
 22
5424.222007043102
 32
0.0
 13
-672.3106601793118
 23
5424.222007043102
 33
0.0
  0
SOLID
  5
4C9
330
4C4
100
AcDbEntity
  8
wymiary
 62
     0
100
AcDbTrace
 10
-1090.630760659247
 20
5659.635270572512
 30
0.0
 11
-1093.85988636188
 21
5653.802844692911
 31
0.0
 12
-1109.742601149365
 22
5666.406434740613
 32
0.0
 13
-1109.742601149365
 23
5666.406434740613
 33
0.0
  0
POINT
  5
4CA
330
4C4
100
AcDbEntity
  8
Defpoints
 62
     0
100
AcDbPoint
 10
-1109.742601149365
 20
5666.406434740613
 30
0.0
  0
POINT
  5
4CB
330
4C4
100
AcDbEntity
  8
Defpoints
 62
     0
100
AcDbPoint
 10
-672.3106601793118
 20
5424.222007043102
 30
0.0
  0
ENDBLK
  5
4CC
330
4C4
100
AcDbEntity
  8
0
100
AcDbBlockEnd
  0
BLOCK
  5
4CE
330
4CD
100
AcDbEntity
  8
0
100
AcDbBlockBegin
  2
*D17
 70
     1
 10
0.0
 20
0.0
 30
0.0
  3
*D17
  1

  0
LINE
  5
4CF
330
4CD
100
AcDbEntity
  8
wymiary
 62
     0
370
    -2
100
AcDbLine
 10
-538.5066016558385
 20
4901.140446332695
 30
0.0
 11
-953.546659672838
 21
5099.487995451021
 31
0.0
  0
MTEXT
  5
4D0
102
{ACAD_XDICTIONARY
360
904
102
}
330
4CD
100
AcDbEntity
  8
wymiary
 62
     0
100
AcDbMText
 10
-833.8088688802706
 20
5071.671528054531
 30
0.0
 40
15.0
 41
0.0
 71
     5
 72
     1
  1
\U+2205500
 11
0.9022609956891272
 21
-0.4311903241702727
 31
0.0
 73
     1
 44
1.0
1001
ACAD
1000
MTEXTBEGIN
1070
    73
1070
     1
1070
    44
1040
1.0
1070
    74
1070
     0
1000
MTEXTEND
  0
SOLID
  5
4D1
330
4CD
100
AcDbEntity
  8
wymiary
 62
     0
100
AcDbTrace
 10
-537.0693005752708
 20
4904.147982984992
 30
0.0
 11
-539.943902736406
 21
4898.132909680398
 31
0.0
 12
-520.4613817420558
 22
4892.516639849289
 32
0.0
 13
-520.4613817420558
 23
4892.516639849289
 33
0.0
  0
SOLID
  5
4D2
330
4CD
100
AcDbEntity
  8
wymiary
 62
     0
100
AcDbTrace
 10
-952.1093585922704
 20
5102.495532103318
 30
0.0
 11
-954.9839607534053
 21
5096.480458798724
 31
0.0
 12
-971.5918795866203
 22
5108.111801934427
 32
0.0
 13
-971.5918795866203
 23
5108.111801934427
 33
0.0
  0
POINT
  5
4D3
330
4CD
100
AcDbEntity
  8
Defpoints
 62
     0
100
AcDbPoint
 10
-971.5918795866203
 20
5108.111801934427
 30
0.0
  0
POINT
  5
4D4
330
4CD
100
AcDbEntity
  8
Defpoints
 62
     0
100
AcDbPoint
 10
-520.4613817420558
 20
4892.516639849289
 30
0.0
  0
ENDBLK
  5
4D5
330
4CD
100
AcDbEntity
  8
0
100
AcDbBlockEnd
  0
BLOCK
  5
4D7
330
4D6
100
AcDbEntity
  8
0
100
AcDbBlockBegin
  2
*D18
 70
     1
 10
0.0
 20
0.0
 30
0.0
  3
*D18
  1

  0
LINE
  5
4D8
330
4D6
100
AcDbEntity
  8
wymiary
 62
     0
370
    -2
100
AcDbLine
 10
3016.488349554825
 20
5428.376015328231
 30
0.0
 11
2620.380000339315
 21
5662.252426455483
 31
0.0
  0
MTEXT
  5
4D9
102
{ACAD_XDICTIONARY
360
906
102
}
330
4D6
100
AcDbEntity
  8
wymiary
 62
     0
100
AcDbMText
 10
2719.128291520787
 20
5627.236062202623
 30
0.0
 40
15.0
 41
0.0
 71
     5
 72
     1
  1
\U+2205500
 11
0.8611051069902394
 21
-0.5084269807114179
 31
0.0
 73
     1
 44
1.0
1001
ACAD
1000
MTEXTBEGIN
1070
    73
1070
     1
1070
    44
1040
1.0
1070
    74
1070
     0
1000
MTEXTEND
  0
SOLID
  5
4DA
330
4D6
100
AcDbEntity
  8
wymiary
 62
     0
100
AcDbTrace
 10
3018.183106157195
 20
5431.246365684865
 30
0.0
 11
3014.793592952453
 21
5425.505664971598
 31
0.0
 12
3033.71045169463
 22
5418.207475714003
 32
0.0
 13
3033.71045169463
 23
5418.207475714003
 33
0.0
  0
SOLID
  5
4DB
330
4D6
100
AcDbEntity
  8
wymiary
 62
     0
100
AcDbTrace
 10
2622.074756941686
 20
5665.122776812117
 30
0.0
 11
2618.685243736944
 21
5659.382076098849
 31
0.0
 12
2603.157898199511
 22
5672.420966069712
 32
0.0
 13
2603.157898199511
 23
5672.420966069712
 33
0.0
  0
POINT
  5
4DC
330
4D6
100
AcDbEntity
  8
Defpoints
 62
     0
100
AcDbPoint
 10
2603.157898199511
 20
5672.420966069712
 30
0.0
  0
POINT
  5
4DD
330
4D6
100
AcDbEntity
  8
Defpoints
 62
     0
100
AcDbPoint
 10
3033.71045169463
 20
5418.207475714003
 30
0.0
  0
ENDBLK
  5
4DE
330
4D6
100
AcDbEntity
  8
0
100
AcDbBlockEnd
  0
BLOCK
  5
4E0
330
4DF
100
AcDbEntity
  8
0
100
AcDbBlockBegin
  2
*D19
 70
     1
 10
0.0
 20
0.0
 30
0.0
  3
*D19
  1

  0
LINE
  5
4E1
330
4DF
100
AcDbEntity
  8
wymiary
 62
     0
370
    -2
100
AcDbLine
 10
2879.370549863228
 20
4897.892497188379
 30
0.0
 11
2467.497800030911
 21
5102.735944595334
 31
0.0
  0
MTEXT
  5
4E2
102
{ACAD_XDICTIONARY
360
908
102
}
330
4DF
100
AcDbEntity
  8
wymiary
 62
     0
100
AcDbMText
 10
2606.241805867482
 20
5058.750354553825
 30
0.0
 40
15.0
 41
0.0
 71
     5
 72
     1
  1
\U+2205500
 11
0.8953755431137338
 21
-0.4453118421890287
 31
0.0
 73
     1
 44
1.0
1001
ACAD
1000
MTEXTBEGIN
1070
    73
1070
     1
1070
    44
1040
1.0
1070
    74
1070
     0
1000
MTEXTEND
  0
SOLID
  5
4E3
330
4DF
100
AcDbEntity
  8
wymiary
 62
     0
100
AcDbTrace
 10
2880.854922670525
 20
4900.877082332093
 30
0.0
 11
2877.886177055932
 21
4894.907912044669
 31
0.0
 12
2897.278060725503
 22
4888.9862603446
 32
0.0
 13
2897.278060725503
 23
4888.9862603446
 33
0.0
  0
SOLID
  5
4E4
330
4DF
100
AcDbEntity
  8
wymiary
 62
     0
100
AcDbTrace
 10
2468.982172838208
 20
5105.720529739047
 30
0.0
 11
2466.013427223615
 21
5099.751359451621
 31
0.0
 12
2449.590289168637
 22
5111.642181439115
 32
0.0
 13
2449.590289168637
 23
5111.642181439115
 33
0.0
  0
POINT
  5
4E5
330
4DF
100
AcDbEntity
  8
Defpoints
 62
     0
100
AcDbPoint
 10
2449.590289168637
 20
5111.642181439115
 30
0.0
  0
POINT
  5
4E6
330
4DF
100
AcDbEntity
  8
Defpoints
 62
     0
100
AcDbPoint
 10
2897.278060725503
 20
4888.9862603446
 30
0.0
  0
ENDBLK
  5
4E7
330
4DF
100
AcDbEntity
  8
0
100
AcDbBlockEnd
  0
BLOCK
  5
4E9
330
4E8
100
AcDbEntity
  8
0
100
AcDbBlockBegin
  2
*D20
 70
     1
 10
0.0
 20
0.0
 30
0.0
  3
*D20
  1

  0
LINE
  5
4EA
330
4E8
100
AcDbEntity
  8
wymiary
 62
     0
100
AcDbLine
 10
213.7037721413654
 20
5810.314220891857
 30
0.0
 11
213.7037721413654
 21
5857.414816097548
 31
0.0
  0
LINE
  5
4EB
330
4E8
100
AcDbEntity
  8
wymiary
 62
     0
100
AcDbLine
 10
1713.703772141365
 20
5810.314220891857
 30
0.0
 11
1713.703772141365
 21
5857.414816097548
 31
0.0
  0
LINE
  5
4EC
330
4E8
100
AcDbEntity
  8
wymiary
 62
     0
370
    -2
100
AcDbLine
 10
233.7037721413653
 20
5857.414816097548
 30
0.0
 11
1693.703772141365
 21
5857.414816097548
 31
0.0
  0
SOLID
  5
4ED
330
4E8
100
AcDbEntity
  8
wymiary
 62
     0
100
AcDbTrace
 10
233.7037721413653
 20
5860.748149430879
 30
0.0
 11
233.7037721413653
 21
5854.081482764214
 31
0.0
 12
213.7037721413654
 22
5857.414816097548
 32
0.0
 13
213.7037721413654
 23
5857.414816097548
 33
0.0
  0
SOLID
  5
4EE
330
4E8
100
AcDbEntity
  8
wymiary
 62
     0
100
AcDbTrace
 10
1693.703772141365
 20
5860.748149430879
 30
0.0
 11
1693.703772141365
 21
5854.081482764214
 31
0.0
 12
1713.703772141365
 22
5857.414816097548
 32
0.0
 13
1713.703772141365
 23
5857.414816097548
 33
0.0
  0
MTEXT
  5
4EF
330
4E8
100
AcDbEntity
  8
wymiary
 62
     0
100
AcDbMText
 10
963.7037721413651
 20
5870.914816097546
 30
0.0
 40
15.0
 41
0.0
 71
     5
 72
     1
  1
1500
 73
     1
 44
1.0
1001
ACAD
1000
MTEXTBEGIN
1070
    73
1070
     1
1070
    44
1040
1.0
1070
    74
1070
     0
1000
MTEXTEND
  0
POINT
  5
4F0
330
4E8
100
AcDbEntity
  8
Defpoints
 62
     0
100
AcDbPoint
 10
213.7037721413654
 20
5810.314220891857
 30
0.0
  0
POINT
  5
4F1
330
4E8
100
AcDbEntity
  8
Defpoints
 62
     0
100
AcDbPoint
 10
1713.703772141365
 20
5810.314220891857
 30
0.0
  0
POINT
  5
4F2
330
4E8
100
AcDbEntity
  8
Defpoints
 62
     0
100
AcDbPoint
 10
1713.703772141365
 20
5857.414816097548
 30
0.0
  0
ENDBLK
  5
4F3
330
4E8
100
AcDbEntity
  8
0
100
AcDbBlockEnd
  0
BLOCK
  5
4F5
330
4F4
100
AcDbEntity
  8
0
100
AcDbBlockBegin
  2
*D21
 70
     1
 10
0.0
 20
0.0
 30
0.0
  3
*D21
  1

  0
LINE
  5
4F6
330
4F4
100
AcDbEntity
  8
wymiary
 62
     0
100
AcDbLine
 10
2353.43417494707
 20
5810.314220891857
 30
0.0
 11
2353.43417494707
 21
5857.414816097548
 31
0.0
  0
LINE
  5
4F7
330
4F4
100
AcDbEntity
  8
wymiary
 62
     0
100
AcDbLine
 10
3228.43417494707
 20
5810.314220891857
 30
0.0
 11
3228.43417494707
 21
5857.414816097548
 31
0.0
  0
LINE
  5
4F8
330
4F4
100
AcDbEntity
  8
wymiary
 62
     0
370
    -2
100
AcDbLine
 10
2373.43417494707
 20
5857.414816097548
 30
0.0
 11
3208.43417494707
 21
5857.414816097548
 31
0.0
  0
SOLID
  5
4F9
330
4F4
100
AcDbEntity
  8
wymiary
 62
     0
100
AcDbTrace
 10
2373.43417494707
 20
5860.748149430879
 30
0.0
 11
2373.43417494707
 21
5854.081482764214
 31
0.0
 12
2353.43417494707
 22
5857.414816097548
 32
0.0
 13
2353.43417494707
 23
5857.414816097548
 33
0.0
  0
SOLID
  5
4FA
330
4F4
100
AcDbEntity
  8
wymiary
 62
     0
100
AcDbTrace
 10
3208.43417494707
 20
5860.748149430879
 30
0.0
 11
3208.43417494707
 21
5854.081482764214
 31
0.0
 12
3228.43417494707
 22
5857.414816097548
 32
0.0
 13
3228.43417494707
 23
5857.414816097548
 33
0.0
  0
MTEXT
  5
4FB
330
4F4
100
AcDbEntity
  8
wymiary
 62
     0
100
AcDbMText
 10
2790.93417494707
 20
5870.914816097546
 30
0.0
 40
15.0
 41
0.0
 71
     5
 72
     1
  1
875
 73
     1
 44
1.0
1001
ACAD
1000
MTEXTBEGIN
1070
    73
1070
     1
1070
    44
1040
1.0
1070
    74
1070
     0
1000
MTEXTEND
  0
POINT
  5
4FC
330
4F4
100
AcDbEntity
  8
Defpoints
 62
     0
100
AcDbPoint
 10
2353.43417494707
 20
5810.314220891857
 30
0.0
  0
POINT
  5
4FD
330
4F4
100
AcDbEntity
  8
Defpoints
 62
     0
100
AcDbPoint
 10
3228.43417494707
 20
5810.314220891857
 30
0.0
  0
POINT
  5
4FE
330
4F4
100
AcDbEntity
  8
Defpoints
 62
     0
100
AcDbPoint
 10
3228.43417494707
 20
5857.414816097548
 30
0.0
  0
ENDBLK
  5
4FF
330
4F4
100
AcDbEntity
  8
0
100
AcDbBlockEnd
  0
BLOCK
  5
501
330
500
100
AcDbEntity
  8
0
100
AcDbBlockBegin
  2
*D22
 70
     1
 10
0.0
 20
0.0
 30
0.0
  3
*D22
  1

  0
LINE
  5
502
330
500
100
AcDbEntity
  8
wymiary
 62
     0
100
AcDbLine
 10
213.7037721413654
 20
5810.314220891857
 30
0.0
 11
104.1339602368246
 21
5810.314220891857
 31
0.0
  0
LINE
  5
503
330
500
100
AcDbEntity
  8
wymiary
 62
     0
100
AcDbLine
 10
213.7037721413654
 20
4720.314220891856
 30
0.0
 11
104.1339602368243
 21
4720.314220891856
 31
0.0
  0
LINE
  5
504
330
500
100
AcDbEntity
  8
wymiary
 62
     0
370
    -2
100
AcDbLine
 10
104.1339602368245
 20
5790.314220891858
 30
0.0
 11
104.1339602368243
 21
4740.314220891857
 31
0.0
  0
SOLID
  5
505
330
500
100
AcDbEntity
  8
wymiary
 62
     0
100
AcDbTrace
 10
100.8006269034912
 20
5790.314220891858
 30
0.0
 11
107.4672935701579
 21
5790.314220891858
 31
0.0
 12
104.1339602368246
 22
5810.314220891857
 32
0.0
 13
104.1339602368246
 23
5810.314220891857
 33
0.0
  0
SOLID
  5
506
330
500
100
AcDbEntity
  8
wymiary
 62
     0
100
AcDbTrace
 10
100.800626903491
 20
4740.314220891857
 30
0.0
 11
107.4672935701576
 21
4740.314220891857
 31
0.0
 12
104.1339602368243
 22
4720.314220891856
 32
0.0
 13
104.1339602368243
 23
4720.314220891856
 33
0.0
  0
MTEXT
  5
507
330
500
100
AcDbEntity
  8
wymiary
 62
     0
100
AcDbMText
 10
90.63396023682363
 20
5265.314220891857
 30
0.0
 40
15.0
 41
0.0
 71
     5
 72
     1
  1
1090
 11
0.0000000000000001
 21
1.0
 31
0.0
 73
     1
 44
1.0
1001
ACAD
1000
MTEXTBEGIN
1070
    73
1070
     1
1070
    44
1040
1.0
1070
    74
1070
     0
1000
MTEXTEND
  0
POINT
  5
508
330
500
100
AcDbEntity
  8
Defpoints
 62
     0
100
AcDbPoint
 10
213.7037721413654
 20
5810.314220891857
 30
0.0
  0
POINT
  5
509
330
500
100
AcDbEntity
  8
Defpoints
 62
     0
100
AcDbPoint
 10
213.7037721413654
 20
4720.314220891856
 30
0.0
  0
POINT
  5
50A
330
500
100
AcDbEntity
  8
Defpoints
 62
     0
100
AcDbPoint
 10
104.1339602368243
 20
4720.314220891856
 30
0.0
  0
ENDBLK
  5
50B
330
500
100
AcDbEntity
  8
0
100
AcDbBlockEnd
  0
BLOCK
  5
553
330
549
100
AcDbEntity
  8
0
100
AcDbBlockBegin
  2
*D23
 70
     1
 10
0.0
 20
0.0
 30
0.0
  3
*D23
  1

  0
LINE
  5
6AE
330
549
100
AcDbEntity
  8
wymiary
 62
     0
100
AcDbLine
 10
213.7037721413654
 20
5810.314220891857
 30
0.0
 11
104.1339602368246
 21
5810.314220891857
 31
0.0
  0
LINE
  5
6AF
330
549
100
AcDbEntity
  8
wymiary
 62
     0
100
AcDbLine
 10
213.7037721413654
 20
4720.314220891856
 30
0.0
 11
104.1339602368243
 21
4720.314220891856
 31
0.0
  0
LINE
  5
6B0
330
549
100
AcDbEntity
  8
wymiary
 62
     0
370
    -2
100
AcDbLine
 10
104.1339602368245
 20
5790.314220891858
 30
0.0
 11
104.1339602368243
 21
4740.314220891857
 31
0.0
  0
SOLID
  5
6B1
330
549
100
AcDbEntity
  8
wymiary
 62
     0
100
AcDbTrace
 10
100.8006269034912
 20
5790.314220891858
 30
0.0
 11
107.4672935701579
 21
5790.314220891858
 31
0.0
 12
104.1339602368246
 22
5810.314220891857
 32
0.0
 13
104.1339602368246
 23
5810.314220891857
 33
0.0
  0
SOLID
  5
6B2
330
549
100
AcDbEntity
  8
wymiary
 62
     0
100
AcDbTrace
 10
100.800626903491
 20
4740.314220891857
 30
0.0
 11
107.4672935701576
 21
4740.314220891857
 31
0.0
 12
104.1339602368243
 22
4720.314220891856
 32
0.0
 13
104.1339602368243
 23
4720.314220891856
 33
0.0
  0
MTEXT
  5
6B3
330
549
100
AcDbEntity
  8
wymiary
 62
     0
100
AcDbMText
 10
90.63396023682363
 20
5265.314220891857
 30
0.0
 40
15.0
 41
0.0
 71
     5
 72
     1
  1
1090
 11
0.0000000000000001
 21
1.0
 31
0.0
 73
     1
 44
1.0
1001
ACAD
1000
MTEXTBEGIN
1070
    73
1070
     1
1070
    44
1040
1.0
1070
    74
1070
     0
1000
MTEXTEND
  0
POINT
  5
6B4
330
549
100
AcDbEntity
  8
Defpoints
 62
     0
100
AcDbPoint
 10
213.7037721413654
 20
5810.314220891857
 30
0.0
  0
POINT
  5
6B5
330
549
100
AcDbEntity
  8
Defpoints
 62
     0
100
AcDbPoint
 10
213.7037721413654
 20
4720.314220891856
 30
0.0
  0
POINT
  5
6B6
330
549
100
AcDbEntity
  8
Defpoints
 62
     0
100
AcDbPoint
 10
104.1339602368243
 20
4720.314220891856
 30
0.0
  0
ENDBLK
  5
554
330
549
100
AcDbEntity
  8
0
100
AcDbBlockEnd
  0
BLOCK
  5
55F
330
555
100
AcDbEntity
  8
0
100
AcDbBlockBegin
  2
*D24
 70
     1
 10
0.0
 20
0.0
 30
0.0
  3
*D24
  1

  0
LINE
  5
6A5
330
555
100
AcDbEntity
  8
wymiary
 62
     0
100
AcDbLine
 10
2353.43417494707
 20
5810.314220891857
 30
0.0
 11
2353.43417494707
 21
5857.414816097548
 31
0.0
  0
LINE
  5
6A6
330
555
100
AcDbEntity
  8
wymiary
 62
     0
100
AcDbLine
 10
3228.43417494707
 20
5810.314220891857
 30
0.0
 11
3228.43417494707
 21
5857.414816097548
 31
0.0
  0
LINE
  5
6A7
330
555
100
AcDbEntity
  8
wymiary
 62
     0
370
    -2
100
AcDbLine
 10
2373.43417494707
 20
5857.414816097548
 30
0.0
 11
3208.43417494707
 21
5857.414816097548
 31
0.0
  0
SOLID
  5
6A8
330
555
100
AcDbEntity
  8
wymiary
 62
     0
100
AcDbTrace
 10
2373.43417494707
 20
5860.748149430879
 30
0.0
 11
2373.43417494707
 21
5854.081482764214
 31
0.0
 12
2353.43417494707
 22
5857.414816097548
 32
0.0
 13
2353.43417494707
 23
5857.414816097548
 33
0.0
  0
SOLID
  5
6A9
330
555
100
AcDbEntity
  8
wymiary
 62
     0
100
AcDbTrace
 10
3208.43417494707
 20
5860.748149430879
 30
0.0
 11
3208.43417494707
 21
5854.081482764214
 31
0.0
 12
3228.43417494707
 22
5857.414816097548
 32
0.0
 13
3228.43417494707
 23
5857.414816097548
 33
0.0
  0
MTEXT
  5
6AA
330
555
100
AcDbEntity
  8
wymiary
 62
     0
100
AcDbMText
 10
2790.93417494707
 20
5870.914816097546
 30
0.0
 40
15.0
 41
0.0
 71
     5
 72
     1
  1
875
 73
     1
 44
1.0
1001
ACAD
1000
MTEXTBEGIN
1070
    73
1070
     1
1070
    44
1040
1.0
1070
    74
1070
     0
1000
MTEXTEND
  0
POINT
  5
6AB
330
555
100
AcDbEntity
  8
Defpoints
 62
     0
100
AcDbPoint
 10
2353.43417494707
 20
5810.314220891857
 30
0.0
  0
POINT
  5
6AC
330
555
100
AcDbEntity
  8
Defpoints
 62
     0
100
AcDbPoint
 10
3228.43417494707
 20
5810.314220891857
 30
0.0
  0
POINT
  5
6AD
330
555
100
AcDbEntity
  8
Defpoints
 62
     0
100
AcDbPoint
 10
3228.43417494707
 20
5857.414816097548
 30
0.0
  0
ENDBLK
  5
560
330
555
100
AcDbEntity
  8
0
100
AcDbBlockEnd
  0
BLOCK
  5
56B
330
561
100
AcDbEntity
  8
0
100
AcDbBlockBegin
  2
*D25
 70
     1
 10
0.0
 20
0.0
 30
0.0
  3
*D25
  1

  0
LINE
  5
879
330
561
100
AcDbEntity
  8
wymiary
 62
     0
100
AcDbLine
 10
218.7037721413653
 20
5810.314220891857
 30
0.0
 11
218.7037721413653
 21
5857.414816097548
 31
0.0
  0
LINE
  5
87A
330
561
100
AcDbEntity
  8
wymiary
 62
     0
100
AcDbLine
 10
1713.703772141365
 20
5810.314220891857
 30
0.0
 11
1713.703772141365
 21
5857.414816097548
 31
0.0
  0
LINE
  5
87B
330
561
100
AcDbEntity
  8
wymiary
 62
     0
370
    -2
100
AcDbLine
 10
238.7037721413654
 20
5857.414816097548
 30
0.0
 11
1693.703772141365
 21
5857.414816097548
 31
0.0
  0
SOLID
  5
87C
330
561
100
AcDbEntity
  8
wymiary
 62
     0
100
AcDbTrace
 10
238.7037721413654
 20
5860.748149430881
 30
0.0
 11
238.7037721413654
 21
5854.081482764215
 31
0.0
 12
218.7037721413653
 22
5857.414816097548
 32
0.0
 13
218.7037721413653
 23
5857.414816097548
 33
0.0
  0
SOLID
  5
87D
330
561
100
AcDbEntity
  8
wymiary
 62
     0
100
AcDbTrace
 10
1693.703772141365
 20
5860.748149430881
 30
0.0
 11
1693.703772141365
 21
5854.081482764215
 31
0.0
 12
1713.703772141365
 22
5857.414816097548
 32
0.0
 13
1713.703772141365
 23
5857.414816097548
 33
0.0
  0
MTEXT
  5
87E
330
561
100
AcDbEntity
  8
wymiary
 62
     0
100
AcDbMText
 10
966.2037721413652
 20
5870.914816097547
 30
0.0
 40
15.0
 41
0.0
 71
     5
 72
     1
  1
1495
 73
     1
 44
1.0
1001
ACAD
1000
MTEXTBEGIN
1070
    73
1070
     1
1070
    44
1040
1.0
1070
    74
1070
     0
1000
MTEXTEND
  0
POINT
  5
87F
330
561
100
AcDbEntity
  8
Defpoints
 62
     0
100
AcDbPoint
 10
218.7037721413653
 20
5810.314220891857
 30
0.0
  0
POINT
  5
880
330
561
100
AcDbEntity
  8
Defpoints
 62
     0
100
AcDbPoint
 10
1713.703772141365
 20
5810.314220891857
 30
0.0
  0
POINT
  5
881
330
561
100
AcDbEntity
  8
Defpoints
 62
     0
100
AcDbPoint
 10
1713.703772141365
 20
5857.414816097548
 30
0.0
  0
ENDBLK
  5
56C
330
561
100
AcDbEntity
  8
0
100
AcDbBlockEnd
  0
BLOCK
  5
574
330
56D
100
AcDbEntity
  8
0
100
AcDbBlockBegin
  2
*D26
 70
     1
 10
0.0
 20
0.0
 30
0.0
  3
*D26
  1

  0
LINE
  5
696
330
56D
100
AcDbEntity
  8
wymiary
 62
     0
370
    -2
100
AcDbLine
 10
2879.370549863227
 20
4897.892497188379
 30
0.0
 11
2467.497800030909
 21
5102.735944595334
 31
0.0
  0
MTEXT
  5
697
102
{ACAD_XDICTIONARY
360
910
102
}
330
56D
100
AcDbEntity
  8
wymiary
 62
     0
100
AcDbMText
 10
2606.241805867481
 20
5058.750354553823
 30
0.0
 40
15.0
 41
0.0
 71
     5
 72
     1
  1
\U+2205500
 11
0.8953755431137333
 21
-0.4453118421890295
 31
0.0
 73
     1
 44
1.0
1001
ACAD
1000
MTEXTBEGIN
1070
    73
1070
     1
1070
    44
1040
1.0
1070
    74
1070
     0
1000
MTEXTEND
  0
SOLID
  5
698
330
56D
100
AcDbEntity
  8
wymiary
 62
     0
100
AcDbTrace
 10
2880.854922670523
 20
4900.877082332092
 30
0.0
 11
2877.88617705593
 21
4894.907912044668
 31
0.0
 12
2897.278060725501
 22
4888.986260344599
 32
0.0
 13
2897.278060725501
 23
4888.986260344599
 33
0.0
  0
SOLID
  5
699
330
56D
100
AcDbEntity
  8
wymiary
 62
     0
100
AcDbTrace
 10
2468.982172838205
 20
5105.720529739045
 30
0.0
 11
2466.013427223613
 21
5099.751359451621
 31
0.0
 12
2449.590289168634
 22
5111.642181439115
 32
0.0
 13
2449.590289168634
 23
5111.642181439115
 33
0.0
  0
POINT
  5
69A
330
56D
100
AcDbEntity
  8
Defpoints
 62
     0
100
AcDbPoint
 10
2449.590289168634
 20
5111.642181439115
 30
0.0
  0
POINT
  5
69B
330
56D
100
AcDbEntity
  8
Defpoints
 62
     0
100
AcDbPoint
 10
2897.278060725501
 20
4888.986260344599
 30
0.0
  0
ENDBLK
  5
575
330
56D
100
AcDbEntity
  8
0
100
AcDbBlockEnd
  0
BLOCK
  5
57D
330
576
100
AcDbEntity
  8
0
100
AcDbBlockBegin
  2
*D27
 70
     1
 10
0.0
 20
0.0
 30
0.0
  3
*D27
  1

  0
LINE
  5
84B
330
576
100
AcDbEntity
  8
wymiary
 62
     0
370
    -2
100
AcDbLine
 10
3051.488349554825
 20
5428.376015328232
 30
0.0
 11
2655.380000339315
 21
5662.252426455484
 31
0.0
  0
MTEXT
  5
84C
102
{ACAD_XDICTIONARY
360
91A
102
}
330
576
100
AcDbEntity
  8
wymiary
 62
     0
100
AcDbMText
 10
2754.128291520787
 20
5627.236062202625
 30
0.0
 40
15.0
 41
0.0
 71
     5
 72
     1
  1
\U+2205500
 11
0.8611051069902401
 21
-0.5084269807114165
 31
0.0
 73
     1
 44
1.0
1001
ACAD
1000
MTEXTBEGIN
1070
    73
1070
     1
1070
    44
1040
1.0
1070
    74
1070
     0
1000
MTEXTEND
  0
SOLID
  5
84D
330
576
100
AcDbEntity
  8
wymiary
 62
     0
100
AcDbTrace
 10
3053.183106157196
 20
5431.246365684867
 30
0.0
 11
3049.793592952453
 21
5425.505664971598
 31
0.0
 12
3068.710451694629
 22
5418.207475714004
 32
0.0
 13
3068.710451694629
 23
5418.207475714004
 33
0.0
  0
SOLID
  5
84E
330
576
100
AcDbEntity
  8
wymiary
 62
     0
100
AcDbTrace
 10
2657.074756941686
 20
5665.122776812118
 30
0.0
 11
2653.685243736943
 21
5659.38207609885
 31
0.0
 12
2638.15789819951
 22
5672.420966069712
 32
0.0
 13
2638.15789819951
 23
5672.420966069712
 33
0.0
  0
POINT
  5
84F
330
576
100
AcDbEntity
  8
Defpoints
 62
     0
100
AcDbPoint
 10
2638.15789819951
 20
5672.420966069712
 30
0.0
  0
POINT
  5
850
330
576
100
AcDbEntity
  8
Defpoints
 62
     0
100
AcDbPoint
 10
3068.710451694629
 20
5418.207475714004
 30
0.0
  0
ENDBLK
  5
57E
330
576
100
AcDbEntity
  8
0
100
AcDbBlockEnd
  0
BLOCK
  5
587
330
57F
100
AcDbEntity
  8
0
100
AcDbBlockBegin
  2
*D28
 70
     1
 10
0.0
 20
0.0
 30
0.0
  3
*D28
  1

  0
LINE
  5
851
330
57F
100
AcDbEntity
  8
wymiary
 62
     0
370
    -2
100
AcDbLine
 10
2853.43417494707
 20
5565.314220891857
 30
0.0
 11
2853.43417494707
 21
5790.314220891858
 31
0.0
  0
SOLID
  5
852
330
57F
100
AcDbEntity
  8
wymiary
 62
     0
100
AcDbTrace
 10
2850.100841613736
 20
5565.314220891857
 30
0.0
 11
2856.767508280403
 21
5565.314220891857
 31
0.0
 12
2853.43417494707
 22
5545.314220891857
 32
0.0
 13
2853.43417494707
 23
5545.314220891857
 33
0.0
  0
SOLID
  5
853
330
57F
100
AcDbEntity
  8
wymiary
 62
     0
100
AcDbTrace
 10
2850.100841613736
 20
5790.314220891858
 30
0.0
 11
2856.767508280403
 21
5790.314220891858
 31
0.0
 12
2853.43417494707
 22
5810.314220891857
 32
0.0
 13
2853.43417494707
 23
5810.314220891857
 33
0.0
  0
MTEXT
  5
854
330
57F
100
AcDbEntity
  8
wymiary
 62
     0
100
AcDbMText
 10
2839.934174947069
 20
5677.814220891858
 30
0.0
 40
15.0
 41
0.0
 71
     5
 72
     1
  1
265
 11
0.0000000000000001
 21
1.0
 31
0.0
 73
     1
 44
1.0
1001
ACAD
1000
MTEXTBEGIN
1070
    73
1070
     1
1070
    44
1040
1.0
1070
    74
1070
     0
1000
MTEXTEND
  0
POINT
  5
855
330
57F
100
AcDbEntity
  8
Defpoints
 62
     0
100
AcDbPoint
 10
2853.43417494707
 20
5545.314220891857
 30
0.0
  0
POINT
  5
856
330
57F
100
AcDbEntity
  8
Defpoints
 62
     0
100
AcDbPoint
 10
2853.43417494707
 20
5810.314220891857
 30
0.0
  0
POINT
  5
857
330
57F
100
AcDbEntity
  8
Defpoints
 62
     0
100
AcDbPoint
 10
2853.43417494707
 20
5810.314220891857
 30
0.0
  0
ENDBLK
  5
588
330
57F
100
AcDbEntity
  8
0
100
AcDbBlockEnd
  0
BLOCK
  5
591
330
589
100
AcDbEntity
  8
0
100
AcDbBlockBegin
  2
*D29
 70
     1
 10
0.0
 20
0.0
 30
0.0
  3
*D29
  1

  0
LINE
  5
858
330
589
100
AcDbEntity
  8
wymiary
 62
     0
370
    -2
100
AcDbLine
 10
2833.43417494707
 20
5545.314220891857
 30
0.0
 11
2373.43417494707
 21
5545.314220891857
 31
0.0
  0
MTEXT
  5
859
330
589
100
AcDbEntity
  8
wymiary
 62
     0
100
AcDbMText
 10
2656.424906510399
 20
5566.009344408136
 30
0.0
 40
15.0
 41
0.0
 71
     5
 72
     1
  1
500
 73
     1
 44
1.0
1001
ACAD
1000
MTEXTBEGIN
1070
    73
1070
     1
1070
    44
1040
1.0
1070
    74
1070
     0
1000
MTEXTEND
  0
SOLID
  5
85A
330
589
100
AcDbEntity
  8
wymiary
 62
     0
100
AcDbTrace
 10
2833.43417494707
 20
5548.64755422519
 30
0.0
 11
2833.43417494707
 21
5541.980887558524
 31
0.0
 12
2853.43417494707
 22
5545.314220891857
 32
0.0
 13
2853.43417494707
 23
5545.314220891857
 33
0.0
  0
SOLID
  5
85B
330
589
100
AcDbEntity
  8
wymiary
 62
     0
100
AcDbTrace
 10
2373.43417494707
 20
5548.64755422519
 30
0.0
 11
2373.43417494707
 21
5541.980887558524
 31
0.0
 12
2353.43417494707
 22
5545.314220891857
 32
0.0
 13
2353.43417494707
 23
5545.314220891857
 33
0.0
  0
POINT
  5
85C
330
589
100
AcDbEntity
  8
Defpoints
 62
     0
100
AcDbPoint
 10
2853.43417494707
 20
5545.314220891857
 30
0.0
  0
POINT
  5
85D
330
589
100
AcDbEntity
  8
Defpoints
 62
     0
100
AcDbPoint
 10
2353.43417494707
 20
5545.314220891857
 30
0.0
  0
POINT
  5
85E
330
589
100
AcDbEntity
  8
Defpoints
 62
     0
100
AcDbPoint
 10
2353.43417494707
 20
5545.314220891857
 30
0.0
  0
ENDBLK
  5
592
330
589
100
AcDbEntity
  8
0
100
AcDbBlockEnd
  0
BLOCK
  5
59B
330
593
100
AcDbEntity
  8
0
100
AcDbBlockBegin
  2
*D30
 70
     1
 10
0.0
 20
0.0
 30
0.0
  3
*D30
  1

  0
LINE
  5
67B
330
593
100
AcDbEntity
  8
wymiary
 62
     0
370
    -2
100
AcDbLine
 10
2653.43417494707
 20
5000.314220891858
 30
0.0
 11
2373.43417494707
 21
5000.314220891858
 31
0.0
  0
SOLID
  5
67C
330
593
100
AcDbEntity
  8
wymiary
 62
     0
100
AcDbTrace
 10
2653.43417494707
 20
5003.647554225191
 30
0.0
 11
2653.43417494707
 21
4996.980887558525
 31
0.0
 12
2673.43417494707
 22
5000.314220891858
 32
0.0
 13
2673.43417494707
 23
5000.314220891858
 33
0.0
  0
SOLID
  5
67D
330
593
100
AcDbEntity
  8
wymiary
 62
     0
100
AcDbTrace
 10
2373.43417494707
 20
5003.647554225191
 30
0.0
 11
2373.43417494707
 21
4996.980887558525
 31
0.0
 12
2353.43417494707
 22
5000.314220891858
 32
0.0
 13
2353.43417494707
 23
5000.314220891858
 33
0.0
  0
MTEXT
  5
67E
330
593
100
AcDbEntity
  8
wymiary
 62
     0
100
AcDbMText
 10
2513.43417494707
 20
5013.814220891858
 30
0.0
 40
15.0
 41
0.0
 71
     5
 72
     1
  1
320
 73
     1
 44
1.0
1001
ACAD
1000
MTEXTBEGIN
1070
    73
1070
     1
1070
    44
1040
1.0
1070
    74
1070
     0
1000
MTEXTEND
  0
POINT
  5
67F
330
593
100
AcDbEntity
  8
Defpoints
 62
     0
100
AcDbPoint
 10
2673.43417494707
 20
5000.314220891858
 30
0.0
  0
POINT
  5
680
330
593
100
AcDbEntity
  8
Defpoints
 62
     0
100
AcDbPoint
 10
2353.43417494707
 20
5000.314220891862
 30
0.0
  0
POINT
  5
681
330
593
100
AcDbEntity
  8
Defpoints
 62
     0
100
AcDbPoint
 10
2353.43417494707
 20
5000.314220891858
 30
0.0
  0
ENDBLK
  5
59C
330
593
100
AcDbEntity
  8
0
100
AcDbBlockEnd
  0
BLOCK
  5
5A5
330
59D
100
AcDbEntity
  8
0
100
AcDbBlockBegin
  2
*D31
 70
     1
 10
0.0
 20
0.0
 30
0.0
  3
*D31
  1

  0
LINE
  5
674
330
59D
100
AcDbEntity
  8
wymiary
 62
     0
370
    -2
100
AcDbLine
 10
2673.43417494707
 20
4980.314220891858
 30
0.0
 11
2673.43417494707
 21
4740.314220891857
 31
0.0
  0
SOLID
  5
675
330
59D
100
AcDbEntity
  8
wymiary
 62
     0
100
AcDbTrace
 10
2670.100841613737
 20
4980.314220891858
 30
0.0
 11
2676.767508280403
 21
4980.314220891858
 31
0.0
 12
2673.43417494707
 22
5000.314220891858
 32
0.0
 13
2673.43417494707
 23
5000.314220891858
 33
0.0
  0
SOLID
  5
676
330
59D
100
AcDbEntity
  8
wymiary
 62
     0
100
AcDbTrace
 10
2670.100841613737
 20
4740.314220891857
 30
0.0
 11
2676.767508280403
 21
4740.314220891857
 31
0.0
 12
2673.43417494707
 22
4720.314220891856
 32
0.0
 13
2673.43417494707
 23
4720.314220891856
 33
0.0
  0
MTEXT
  5
677
330
59D
100
AcDbEntity
  8
wymiary
 62
     0
100
AcDbMText
 10
2659.934174947069
 20
4860.314220891858
 30
0.0
 40
15.0
 41
0.0
 71
     5
 72
     1
  1
280
 11
0.0000000000000001
 21
1.0
 31
0.0
 73
     1
 44
1.0
1001
ACAD
1000
MTEXTBEGIN
1070
    73
1070
     1
1070
    44
1040
1.0
1070
    74
1070
     0
1000
MTEXTEND
  0
POINT
  5
678
330
59D
100
AcDbEntity
  8
Defpoints
 62
     0
100
AcDbPoint
 10
2673.43417494707
 20
5000.314220891858
 30
0.0
  0
POINT
  5
679
330
59D
100
AcDbEntity
  8
Defpoints
 62
     0
100
AcDbPoint
 10
2673.43417494707
 20
4720.314220891856
 30
0.0
  0
POINT
  5
67A
330
59D
100
AcDbEntity
  8
Defpoints
 62
     0
100
AcDbPoint
 10
2673.43417494707
 20
4720.314220891856
 30
0.0
  0
ENDBLK
  5
5A6
330
59D
100
AcDbEntity
  8
0
100
AcDbBlockEnd
  0
BLOCK
  5
5AE
330
5A7
100
AcDbEntity
  8
0
100
AcDbBlockBegin
  2
*D32
 70
     1
 10
0.0
 20
0.0
 30
0.0
  3
*D32
  1

  0
LINE
  5
66E
330
5A7
100
AcDbEntity
  8
wymiary
 62
     0
370
    -2
100
AcDbLine
 10
-538.506601655838
 20
4901.140446332695
 30
0.0
 11
-953.5466596728372
 21
5099.487995451021
 31
0.0
  0
MTEXT
  5
66F
102
{ACAD_XDICTIONARY
360
90E
102
}
330
5A7
100
AcDbEntity
  8
wymiary
 62
     0
100
AcDbMText
 10
-833.8088688802704
 20
5071.671528054531
 30
0.0
 40
15.0
 41
0.0
 71
     5
 72
     1
  1
\U+2205500
 11
0.9022609956891272
 21
-0.4311903241702727
 31
0.0
 73
     1
 44
1.0
1001
ACAD
1000
MTEXTBEGIN
1070
    73
1070
     1
1070
    44
1040
1.0
1070
    74
1070
     0
1000
MTEXTEND
  0
SOLID
  5
670
330
5A7
100
AcDbEntity
  8
wymiary
 62
     0
100
AcDbTrace
 10
-537.0693005752705
 20
4904.147982984992
 30
0.0
 11
-539.9439027364056
 21
4898.132909680398
 31
0.0
 12
-520.4613817420553
 22
4892.516639849289
 32
0.0
 13
-520.4613817420553
 23
4892.516639849289
 33
0.0
  0
SOLID
  5
671
330
5A7
100
AcDbEntity
  8
wymiary
 62
     0
100
AcDbTrace
 10
-952.1093585922701
 20
5102.495532103318
 30
0.0
 11
-954.983960753405
 21
5096.480458798724
 31
0.0
 12
-971.5918795866199
 22
5108.111801934427
 32
0.0
 13
-971.5918795866199
 23
5108.111801934427
 33
0.0
  0
POINT
  5
672
330
5A7
100
AcDbEntity
  8
Defpoints
 62
     0
100
AcDbPoint
 10
-971.5918795866199
 20
5108.111801934427
 30
0.0
  0
POINT
  5
673
330
5A7
100
AcDbEntity
  8
Defpoints
 62
     0
100
AcDbPoint
 10
-520.4613817420553
 20
4892.516639849289
 30
0.0
  0
ENDBLK
  5
5AF
330
5A7
100
AcDbEntity
  8
0
100
AcDbBlockEnd
  0
BLOCK
  5
5B7
330
5B0
100
AcDbEntity
  8
0
100
AcDbBlockBegin
  2
*D33
 70
     1
 10
0.0
 20
0.0
 30
0.0
  3
*D33
  1

  0
LINE
  5
81C
330
5B0
100
AcDbEntity
  8
wymiary
 62
     0
370
    -2
100
AcDbLine
 10
-724.8079378181137
 20
5433.909384151
 30
0.0
 11
-1127.245323510563
 21
5656.719057632711
 31
0.0
  0
MTEXT
  5
81D
102
{ACAD_XDICTIONARY
360
918
102
}
330
5B0
100
AcDbEntity
  8
wymiary
 62
     0
100
AcDbMText
 10
-1023.616654053902
 20
5621.78597786479
 30
0.0
 40
15.0
 41
0.0
 71
     5
 72
     1
  1
\U+2205500
 11
0.8748638819401067
 21
-0.4843688553950253
 31
0.0
 73
     1
 44
1.0
1001
ACAD
1000
MTEXTBEGIN
1070
    73
1070
     1
1070
    44
1040
1.0
1070
    74
1070
     0
1000
MTEXTEND
  0
SOLID
  5
81E
330
5B0
100
AcDbEntity
  8
wymiary
 62
     0
100
AcDbTrace
 10
-723.1933749667969
 20
5436.825597090799
 30
0.0
 11
-726.4225006694305
 21
5430.993171211199
 31
0.0
 12
-707.3106601793115
 22
5424.222007043099
 32
0.0
 13
-707.3106601793115
 23
5424.222007043099
 33
0.0
  0
SOLID
  5
81F
330
5B0
100
AcDbEntity
  8
wymiary
 62
     0
100
AcDbTrace
 10
-1125.630760659245
 20
5659.635270572512
 30
0.0
 11
-1128.859886361879
 21
5653.802844692911
 31
0.0
 12
-1144.742601149364
 22
5666.406434740613
 32
0.0
 13
-1144.742601149364
 23
5666.406434740613
 33
0.0
  0
POINT
  5
820
330
5B0
100
AcDbEntity
  8
Defpoints
 62
     0
100
AcDbPoint
 10
-1144.742601149364
 20
5666.406434740613
 30
0.0
  0
POINT
  5
821
330
5B0
100
AcDbEntity
  8
Defpoints
 62
     0
100
AcDbPoint
 10
-707.3106601793115
 20
5424.222007043099
 30
0.0
  0
ENDBLK
  5
5B8
330
5B0
100
AcDbEntity
  8
0
100
AcDbBlockEnd
  0
BLOCK
  5
5C1
330
5B9
100
AcDbEntity
  8
0
100
AcDbBlockBegin
  2
*D34
 70
     1
 10
0.0
 20
0.0
 30
0.0
  3
*D34
  1

  0
LINE
  5
661
330
5B9
100
AcDbEntity
  8
wymiary
 62
     0
370
    -2
100
AcDbLine
 10
-746.0266306643386
 20
4980.314220891858
 30
0.0
 11
-746.0266306643386
 21
4740.314220891857
 31
0.0
  0
SOLID
  5
662
330
5B9
100
AcDbEntity
  8
wymiary
 62
     0
100
AcDbTrace
 10
-749.3599639976721
 20
4980.314220891858
 30
0.0
 11
-742.6932973310052
 21
4980.314220891858
 31
0.0
 12
-746.0266306643386
 22
5000.314220891858
 32
0.0
 13
-746.0266306643386
 23
5000.314220891858
 33
0.0
  0
SOLID
  5
663
330
5B9
100
AcDbEntity
  8
wymiary
 62
     0
100
AcDbTrace
 10
-749.3599639976722
 20
4740.314220891857
 30
0.0
 11
-742.6932973310055
 21
4740.314220891857
 31
0.0
 12
-746.0266306643386
 22
4720.314220891856
 32
0.0
 13
-746.0266306643386
 23
4720.314220891856
 33
0.0
  0
MTEXT
  5
664
330
5B9
100
AcDbEntity
  8
wymiary
 62
     0
100
AcDbMText
 10
-759.5266306643394
 20
4860.314220891858
 30
0.0
 40
15.0
 41
0.0
 71
     5
 72
     1
  1
280
 11
0.0000000000000001
 21
1.0
 31
0.0
 73
     1
 44
1.0
1001
ACAD
1000
MTEXTBEGIN
1070
    73
1070
     1
1070
    44
1040
1.0
1070
    74
1070
     0
1000
MTEXTEND
  0
POINT
  5
665
330
5B9
100
AcDbEntity
  8
Defpoints
 62
     0
100
AcDbPoint
 10
-746.0266306643386
 20
5000.314220891858
 30
0.0
  0
POINT
  5
666
330
5B9
100
AcDbEntity
  8
Defpoints
 62
     0
100
AcDbPoint
 10
-746.0266306643397
 20
4720.314220891856
 30
0.0
  0
POINT
  5
667
330
5B9
100
AcDbEntity
  8
Defpoints
 62
     0
100
AcDbPoint
 10
-746.0266306643386
 20
4720.314220891856
 30
0.0
  0
ENDBLK
  5
5C2
330
5B9
100
AcDbEntity
  8
0
100
AcDbBlockEnd
  0
BLOCK
  5
5CB
330
5C3
100
AcDbEntity
  8
0
100
AcDbBlockBegin
  2
*D35
 70
     1
 10
0.0
 20
0.0
 30
0.0
  3
*D35
  1

  0
LINE
  5
65A
330
5C3
100
AcDbEntity
  8
wymiary
 62
     0
370
    -2
100
AcDbLine
 10
-726.0266306643386
 20
5000.314220891858
 30
0.0
 11
-446.0266306643388
 21
5000.314220891858
 31
0.0
  0
SOLID
  5
65B
330
5C3
100
AcDbEntity
  8
wymiary
 62
     0
100
AcDbTrace
 10
-726.0266306643386
 20
5003.647554225191
 30
0.0
 11
-726.0266306643386
 21
4996.980887558525
 31
0.0
 12
-746.0266306643386
 22
5000.314220891858
 32
0.0
 13
-746.0266306643386
 23
5000.314220891858
 33
0.0
  0
SOLID
  5
65C
330
5C3
100
AcDbEntity
  8
wymiary
 62
     0
100
AcDbTrace
 10
-446.0266306643388
 20
5003.647554225191
 30
0.0
 11
-446.0266306643388
 21
4996.980887558525
 31
0.0
 12
-426.0266306643388
 22
5000.314220891858
 32
0.0
 13
-426.0266306643388
 23
5000.314220891858
 33
0.0
  0
MTEXT
  5
65D
330
5C3
100
AcDbEntity
  8
wymiary
 62
     0
100
AcDbMText
 10
-586.0266306643389
 20
5013.814220891858
 30
0.0
 40
15.0
 41
0.0
 71
     5
 72
     1
  1
320
 73
     1
 44
1.0
1001
ACAD
1000
MTEXTBEGIN
1070
    73
1070
     1
1070
    44
1040
1.0
1070
    74
1070
     0
1000
MTEXTEND
  0
POINT
  5
65E
330
5C3
100
AcDbEntity
  8
Defpoints
 62
     0
100
AcDbPoint
 10
-746.0266306643386
 20
5000.314220891858
 30
0.0
  0
POINT
  5
65F
330
5C3
100
AcDbEntity
  8
Defpoints
 62
     0
100
AcDbPoint
 10
-426.0266306643388
 20
5000.314220891862
 30
0.0
  0
POINT
  5
660
330
5C3
100
AcDbEntity
  8
Defpoints
 62
     0
100
AcDbPoint
 10
-426.0266306643388
 20
5000.314220891858
 30
0.0
  0
ENDBLK
  5
5CC
330
5C3
100
AcDbEntity
  8
0
100
AcDbBlockEnd
  0
BLOCK
  5
5D5
330
5CD
100
AcDbEntity
  8
0
100
AcDbBlockBegin
  2
*D36
 70
     1
 10
0.0
 20
0.0
 30
0.0
  3
*D36
  1

  0
LINE
  5
815
330
5CD
100
AcDbEntity
  8
wymiary
 62
     0
370
    -2
100
AcDbLine
 10
-926.0266306643389
 20
5565.314220891857
 30
0.0
 11
-926.0266306643389
 21
5790.314220891858
 31
0.0
  0
SOLID
  5
816
330
5CD
100
AcDbEntity
  8
wymiary
 62
     0
100
AcDbTrace
 10
-929.3599639976722
 20
5565.314220891857
 30
0.0
 11
-922.6932973310054
 21
5565.314220891857
 31
0.0
 12
-926.0266306643389
 22
5545.314220891857
 32
0.0
 13
-926.0266306643389
 23
5545.314220891857
 33
0.0
  0
SOLID
  5
817
330
5CD
100
AcDbEntity
  8
wymiary
 62
     0
100
AcDbTrace
 10
-929.3599639976722
 20
5790.314220891858
 30
0.0
 11
-922.6932973310054
 21
5790.314220891858
 31
0.0
 12
-926.0266306643389
 22
5810.314220891857
 32
0.0
 13
-926.0266306643389
 23
5810.314220891857
 33
0.0
  0
MTEXT
  5
818
330
5CD
100
AcDbEntity
  8
wymiary
 62
     0
100
AcDbMText
 10
-939.5266306643398
 20
5677.814220891857
 30
0.0
 40
15.0
 41
0.0
 71
     5
 72
     1
  1
265
 11
0.0000000000000001
 21
1.0
 31
0.0
 73
     1
 44
1.0
1001
ACAD
1000
MTEXTBEGIN
1070
    73
1070
     1
1070
    44
1040
1.0
1070
    74
1070
     0
1000
MTEXTEND
  0
POINT
  5
819
330
5CD
100
AcDbEntity
  8
Defpoints
 62
     0
100
AcDbPoint
 10
-926.0266306643389
 20
5545.314220891857
 30
0.0
  0
POINT
  5
81A
330
5CD
100
AcDbEntity
  8
Defpoints
 62
     0
100
AcDbPoint
 10
-926.0266306643389
 20
5810.314220891857
 30
0.0
  0
POINT
  5
81B
330
5CD
100
AcDbEntity
  8
Defpoints
 62
     0
100
AcDbPoint
 10
-926.0266306643389
 20
5810.314220891857
 30
0.0
  0
ENDBLK
  5
5D6
330
5CD
100
AcDbEntity
  8
0
100
AcDbBlockEnd
  0
BLOCK
  5
5DF
330
5D7
100
AcDbEntity
  8
0
100
AcDbBlockBegin
  2
*D37
 70
     1
 10
0.0
 20
0.0
 30
0.0
  3
*D37
  1

  0
LINE
  5
82A
330
5D7
100
AcDbEntity
  8
wymiary
 62
     0
370
    -2
100
AcDbLine
 10
-906.0266306643388
 20
5545.314220891857
 30
0.0
 11
-446.0266306643388
 21
5545.314220891857
 31
0.0
  0
MTEXT
  5
82B
330
5D7
100
AcDbEntity
  8
wymiary
 62
     0
100
AcDbMText
 10
-718.5535081252237
 20
5565.088078529005
 30
0.0
 40
15.0
 41
0.0
 71
     5
 72
     1
  1
500
 73
     1
 44
1.0
1001
ACAD
1000
MTEXTBEGIN
1070
    73
1070
     1
1070
    44
1040
1.0
1070
    74
1070
     0
1000
MTEXTEND
  0
SOLID
  5
82C
330
5D7
100
AcDbEntity
  8
wymiary
 62
     0
100
AcDbTrace
 10
-906.0266306643388
 20
5548.64755422519
 30
0.0
 11
-906.0266306643388
 21
5541.980887558524
 31
0.0
 12
-926.0266306643389
 22
5545.314220891857
 32
0.0
 13
-926.0266306643389
 23
5545.314220891857
 33
0.0
  0
SOLID
  5
82D
330
5D7
100
AcDbEntity
  8
wymiary
 62
     0
100
AcDbTrace
 10
-446.0266306643388
 20
5548.64755422519
 30
0.0
 11
-446.0266306643388
 21
5541.980887558524
 31
0.0
 12
-426.0266306643388
 22
5545.314220891857
 32
0.0
 13
-426.0266306643388
 23
5545.314220891857
 33
0.0
  0
POINT
  5
82E
330
5D7
100
AcDbEntity
  8
Defpoints
 62
     0
100
AcDbPoint
 10
-926.0266306643389
 20
5545.314220891857
 30
0.0
  0
POINT
  5
82F
330
5D7
100
AcDbEntity
  8
Defpoints
 62
     0
100
AcDbPoint
 10
-426.0266306643388
 20
5545.314220891857
 30
0.0
  0
POINT
  5
830
330
5D7
100
AcDbEntity
  8
Defpoints
 62
     0
100
AcDbPoint
 10
-426.0266306643388
 20
5545.314220891857
 30
0.0
  0
ENDBLK
  5
5E0
330
5D7
100
AcDbEntity
  8
0
100
AcDbBlockEnd
  0
BLOCK
  5
6C0
330
6B8
100
AcDbEntity
  8
0
100
AcDbBlockBegin
  2
*D38
 70
     1
 10
0.0
 20
0.0
 30
0.0
  3
*D38
  1

  0
LINE
  5
80E
330
6B8
100
AcDbEntity
  8
wymiary
 62
     0
370
    -2
100
AcDbLine
 10
-751.0266306643387
 20
4990.314220891857
 30
0.0
 11
-446.0266306643389
 21
4990.314220891857
 31
0.0
  0
SOLID
  5
80F
330
6B8
100
AcDbEntity
  8
wymiary
 62
     0
100
AcDbTrace
 10
-751.0266306643387
 20
4993.647554225191
 30
0.0
 11
-751.0266306643387
 21
4986.980887558524
 31
0.0
 12
-771.0266306643387
 22
4990.314220891857
 32
0.0
 13
-771.0266306643387
 23
4990.314220891857
 33
0.0
  0
SOLID
  5
810
330
6B8
100
AcDbEntity
  8
wymiary
 62
     0
100
AcDbTrace
 10
-446.0266306643389
 20
4993.647554225191
 30
0.0
 11
-446.0266306643389
 21
4986.980887558524
 31
0.0
 12
-426.026630664339
 22
4990.314220891857
 32
0.0
 13
-426.026630664339
 23
4990.314220891857
 33
0.0
  0
MTEXT
  5
811
330
6B8
100
AcDbEntity
  8
wymiary
 62
     0
100
AcDbMText
 10
-598.5266306643389
 20
5003.814220891857
 30
0.0
 40
15.0
 41
0.0
 71
     5
 72
     1
  1
345
 73
     1
 44
1.0
1001
ACAD
1000
MTEXTBEGIN
1070
    73
1070
     1
1070
    44
1040
1.0
1070
    74
1070
     0
1000
MTEXTEND
  0
POINT
  5
812
330
6B8
100
AcDbEntity
  8
Defpoints
 62
     0
100
AcDbPoint
 10
-771.0266306643387
 20
4990.314220891857
 30
0.0
  0
POINT
  5
813
330
6B8
100
AcDbEntity
  8
Defpoints
 62
     0
100
AcDbPoint
 10
-426.026630664339
 20
4990.314220891864
 30
0.0
  0
POINT
  5
814
330
6B8
100
AcDbEntity
  8
Defpoints
 62
     0
100
AcDbPoint
 10
-426.026630664339
 20
4990.314220891857
 30
0.0
  0
ENDBLK
  5
6C1
330
6B8
100
AcDbEntity
  8
0
100
AcDbBlockEnd
  0
BLOCK
  5
6D4
330
6CC
100
AcDbEntity
  8
0
100
AcDbBlockBegin
  2
*D39
 70
     1
 10
0.0
 20
0.0
 30
0.0
  3
*D39
  1

  0
LINE
  5
7F4
330
6CC
100
AcDbEntity
  8
wymiary
 62
     0
370
    -2
100
AcDbLine
 10
-771.0266306643387
 20
4970.314220891857
 30
0.0
 11
-771.0266306643388
 21
4740.314220891857
 31
0.0
  0
SOLID
  5
7F5
330
6CC
100
AcDbEntity
  8
wymiary
 62
     0
100
AcDbTrace
 10
-774.3599639976721
 20
4970.314220891857
 30
0.0
 11
-767.6932973310053
 21
4970.314220891857
 31
0.0
 12
-771.0266306643387
 22
4990.314220891857
 32
0.0
 13
-771.0266306643387
 23
4990.314220891857
 33
0.0
  0
SOLID
  5
7F6
330
6CC
100
AcDbEntity
  8
wymiary
 62
     0
100
AcDbTrace
 10
-774.3599639976722
 20
4740.314220891857
 30
0.0
 11
-767.6932973310055
 21
4740.314220891857
 31
0.0
 12
-771.0266306643388
 22
4720.314220891856
 32
0.0
 13
-771.0266306643388
 23
4720.314220891856
 33
0.0
  0
MTEXT
  5
7F7
330
6CC
100
AcDbEntity
  8
wymiary
 62
     0
100
AcDbMText
 10
-784.5266306643395
 20
4855.314220891857
 30
0.0
 40
15.0
 41
0.0
 71
     5
 72
     1
  1
270
 11
0.0000000000000001
 21
1.0
 31
0.0
 73
     1
 44
1.0
1001
ACAD
1000
MTEXTBEGIN
1070
    73
1070
     1
1070
    44
1040
1.0
1070
    74
1070
     0
1000
MTEXTEND
  0
POINT
  5
7F8
330
6CC
100
AcDbEntity
  8
Defpoints
 62
     0
100
AcDbPoint
 10
-771.0266306643388
 20
4990.314220891857
 30
0.0
  0
POINT
  5
7F9
330
6CC
100
AcDbEntity
  8
Defpoints
 62
     0
100
AcDbPoint
 10
-771.0266306643377
 20
4720.314220891856
 30
0.0
  0
POINT
  5
7FA
330
6CC
100
AcDbEntity
  8
Defpoints
 62
     0
100
AcDbPoint
 10
-771.0266306643388
 20
4720.314220891856
 30
0.0
  0
ENDBLK
  5
6D5
330
6CC
100
AcDbEntity
  8
0
100
AcDbBlockEnd
  0
BLOCK
  5
6E6
330
6E0
100
AcDbEntity
  8
0
100
AcDbBlockBegin
  2
*D40
 70
     1
 10
0.0
 20
0.0
 30
0.0
  3
*D40
  1

  0
LINE
  5
801
330
6E0
100
AcDbEntity
  8
wymiary
 62
     0
370
    -2
100
AcDbLine
 10
-564.1564560558013
 20
4889.791930540747
 30
0.0
 11
-977.8968052728769
 21
5090.836511242968
 31
0.0
  0
MTEXT
  5
802
102
{ACAD_XDICTIONARY
360
916
102
}
330
6E0
100
AcDbEntity
  8
wymiary
 62
     0
100
AcDbMText
 10
-828.8308315144089
 20
5040.542827996827
 30
0.0
 40
15.0
 41
0.0
 71
     5
 72
     1
  1
\U+2205500
 11
0.8994355417762527
 21
-0.4370534363091758
 31
0.0
 73
     1
 44
1.0
1001
ACAD
1000
MTEXTBEGIN
1070
    73
1070
     1
1070
    44
1040
1.0
1070
    74
1070
     0
1000
MTEXTEND
  0
SOLID
  5
803
330
6E0
100
AcDbEntity
  8
wymiary
 62
     0
100
AcDbTrace
 10
-562.699611268104
 20
4892.790049013335
 30
0.0
 11
-565.6133008434983
 21
4886.793812068159
 31
0.0
 12
-546.1677452202762
 22
4881.050861814563
 32
0.0
 13
-546.1677452202762
 23
4881.050861814563
 33
0.0
  0
SOLID
  5
804
330
6E0
100
AcDbEntity
  8
wymiary
 62
     0
100
AcDbTrace
 10
-976.4399604851796
 20
5093.834629715555
 30
0.0
 11
-979.3536500605739
 21
5087.83839277038
 31
0.0
 12
-995.885516108402
 22
5099.57757996915
 32
0.0
 13
-995.885516108402
 23
5099.57757996915
 33
0.0
  0
POINT
  5
805
330
6E0
100
AcDbEntity
  8
Defpoints
 62
     0
100
AcDbPoint
 10
-995.885516108402
 20
5099.57757996915
 30
0.0
  0
POINT
  5
806
330
6E0
100
AcDbEntity
  8
Defpoints
 62
     0
100
AcDbPoint
 10
-546.1677452202762
 20
4881.050861814563
 30
0.0
  0
ENDBLK
  5
6E7
330
6E0
100
AcDbEntity
  8
0
100
AcDbBlockEnd
  0
BLOCK
  5
708
330
700
100
AcDbEntity
  8
0
100
AcDbBlockBegin
  2
*D41
 70
     1
 10
0.0
 20
0.0
 30
0.0
  3
*D41
  1

  0
LINE
  5
872
330
700
100
AcDbEntity
  8
wymiary
 62
     0
370
    -2
100
AcDbLine
 10
2678.434174947071
 20
4990.314220891857
 30
0.0
 11
2373.434174947071
 21
4990.314220891857
 31
0.0
  0
SOLID
  5
873
330
700
100
AcDbEntity
  8
wymiary
 62
     0
100
AcDbTrace
 10
2678.434174947071
 20
4993.647554225191
 30
0.0
 11
2678.434174947071
 21
4986.980887558524
 31
0.0
 12
2698.434174947071
 22
4990.314220891857
 32
0.0
 13
2698.434174947071
 23
4990.314220891857
 33
0.0
  0
SOLID
  5
874
330
700
100
AcDbEntity
  8
wymiary
 62
     0
100
AcDbTrace
 10
2373.434174947071
 20
4993.647554225191
 30
0.0
 11
2373.434174947071
 21
4986.980887558524
 31
0.0
 12
2353.434174947071
 22
4990.314220891857
 32
0.0
 13
2353.434174947071
 23
4990.314220891857
 33
0.0
  0
MTEXT
  5
875
330
700
100
AcDbEntity
  8
wymiary
 62
     0
100
AcDbMText
 10
2525.934174947071
 20
5003.814220891857
 30
0.0
 40
15.0
 41
0.0
 71
     5
 72
     1
  1
345
 73
     1
 44
1.0
1001
ACAD
1000
MTEXTBEGIN
1070
    73
1070
     1
1070
    44
1040
1.0
1070
    74
1070
     0
1000
MTEXTEND
  0
POINT
  5
876
330
700
100
AcDbEntity
  8
Defpoints
 62
     0
100
AcDbPoint
 10
2698.434174947071
 20
4990.314220891857
 30
0.0
  0
POINT
  5
877
330
700
100
AcDbEntity
  8
Defpoints
 62
     0
100
AcDbPoint
 10
2353.434174947071
 20
4990.314220891864
 30
0.0
  0
POINT
  5
878
330
700
100
AcDbEntity
  8
Defpoints
 62
     0
100
AcDbPoint
 10
2353.434174947071
 20
4990.314220891857
 30
0.0
  0
ENDBLK
  5
709
330
700
100
AcDbEntity
  8
0
100
AcDbBlockEnd
  0
BLOCK
  5
712
330
70A
100
AcDbEntity
  8
0
100
AcDbBlockBegin
  2
*D42
 70
     1
 10
0.0
 20
0.0
 30
0.0
  3
*D42
  1

  0
LINE
  5
85F
330
70A
100
AcDbEntity
  8
wymiary
 62
     0
370
    -2
100
AcDbLine
 10
2698.434174947071
 20
4970.314220891857
 30
0.0
 11
2698.434174947071
 21
4740.314220891857
 31
0.0
  0
SOLID
  5
860
330
70A
100
AcDbEntity
  8
wymiary
 62
     0
100
AcDbTrace
 10
2695.100841613737
 20
4970.314220891857
 30
0.0
 11
2701.767508280405
 21
4970.314220891857
 31
0.0
 12
2698.434174947071
 22
4990.314220891857
 32
0.0
 13
2698.434174947071
 23
4990.314220891857
 33
0.0
  0
SOLID
  5
861
330
70A
100
AcDbEntity
  8
wymiary
 62
     0
100
AcDbTrace
 10
2695.100841613737
 20
4740.314220891857
 30
0.0
 11
2701.767508280405
 21
4740.314220891857
 31
0.0
 12
2698.434174947071
 22
4720.314220891856
 32
0.0
 13
2698.434174947071
 23
4720.314220891856
 33
0.0
  0
MTEXT
  5
862
330
70A
100
AcDbEntity
  8
wymiary
 62
     0
100
AcDbMText
 10
2684.934174947071
 20
4855.314220891858
 30
0.0
 40
15.0
 41
0.0
 71
     5
 72
     1
  1
270
 11
0.0000000000000001
 21
1.0
 31
0.0
 73
     1
 44
1.0
1001
ACAD
1000
MTEXTBEGIN
1070
    73
1070
     1
1070
    44
1040
1.0
1070
    74
1070
     0
1000
MTEXTEND
  0
POINT
  5
863
330
70A
100
AcDbEntity
  8
Defpoints
 62
     0
100
AcDbPoint
 10
2698.434174947071
 20
4990.314220891857
 30
0.0
  0
POINT
  5
864
330
70A
100
AcDbEntity
  8
Defpoints
 62
     0
100
AcDbPoint
 10
2698.43417494707
 20
4720.314220891856
 30
0.0
  0
POINT
  5
865
330
70A
100
AcDbEntity
  8
Defpoints
 62
     0
100
AcDbPoint
 10
2698.434174947071
 20
4720.314220891856
 30
0.0
  0
ENDBLK
  5
713
330
70A
100
AcDbEntity
  8
0
100
AcDbBlockEnd
  0
BLOCK
  5
729
330
723
100
AcDbEntity
  8
0
100
AcDbBlockBegin
  2
*D43
 70
     1
 10
0.0
 20
0.0
 30
0.0
  3
*D43
  1

  0
LINE
  5
86C
330
723
100
AcDbEntity
  8
wymiary
 62
     0
370
    -2
100
AcDbLine
 10
2903.719531041924
 20
4886.59381512226
 30
0.0
 11
2493.148818852217
 21
5094.03462666145
 31
0.0
  0
MTEXT
  5
86D
102
{ACAD_XDICTIONARY
360
91C
102
}
330
723
100
AcDbEntity
  8
wymiary
 62
     0
100
AcDbMText
 10
2625.559897282097
 20
5043.515507281199
 30
0.0
 40
15.0
 41
0.0
 71
     5
 72
     1
  1
\U+2205500
 11
0.8925450264993608
 21
-0.4509582859547602
 31
0.0
 73
     1
 44
1.0
1001
ACAD
1000
MTEXTBEGIN
1070
    73
1070
     1
1070
    44
1040
1.0
1070
    74
1070
     0
1000
MTEXTEND
  0
SOLID
  5
86E
330
723
100
AcDbEntity
  8
wymiary
 62
     0
100
AcDbTrace
 10
2905.222725328439
 20
4889.568965210592
 30
0.0
 11
2902.216336755408
 21
4883.61866503393
 31
0.0
 12
2921.570431571911
 22
4877.574649403165
 32
0.0
 13
2921.570431571911
 23
4877.574649403165
 33
0.0
  0
SOLID
  5
86F
330
723
100
AcDbEntity
  8
wymiary
 62
     0
100
AcDbTrace
 10
2494.652013138733
 20
5097.009776749782
 30
0.0
 11
2491.645624565701
 21
5091.05947657312
 31
0.0
 12
2475.29791832223
 22
5103.053792380546
 32
0.0
 13
2475.29791832223
 23
5103.053792380546
 33
0.0
  0
POINT
  5
870
330
723
100
AcDbEntity
  8
Defpoints
 62
     0
100
AcDbPoint
 10
2475.29791832223
 20
5103.053792380546
 30
0.0
  0
POINT
  5
871
330
723
100
AcDbEntity
  8
Defpoints
 62
     0
100
AcDbPoint
 10
2921.570431571911
 20
4877.574649403165
 30
0.0
  0
ENDBLK
  5
72A
330
723
100
AcDbEntity
  8
0
100
AcDbBlockEnd
  0
ENDSEC
  0
SECTION
  2
ENTITIES
  0
INSERT
  5
437
330
1F
100
AcDbEntity
  8
0
100
AcDbBlockReference
  2
3000BSR_f
 10
0.0
 20
0.0
 30
0.0
  0
INSERT
  5
448
330
1F
100
AcDbEntity
  8
0
100
AcDbBlockReference
  2
3000BSR_g
 10
0.0
 20
0.0
 30
0.0
  0
INSERT
  5
45F
330
1F
100
AcDbEntity
  8
0
100
AcDbBlockReference
  2
3000BSR_l
 10
0.0
 20
0.0
 30
0.0
  0
INSERT
  5
473
330
1F
100
AcDbEntity
  8
0
100
AcDbBlockReference
  2
3000BSR_p
 10
0.0
 20
0.0
 30
0.0
  0
DIMENSION
  5
52D
330
1F
100
AcDbEntity
  8
wymiary
100
AcDbDimension
  2
*D23
 10
104.1339602368243
 20
4720.314220891856
 30
0.0
 11
90.63396023682363
 21
5265.314220891857
 31
0.0
 70
    32
 71
     5
 42
1090.0
  3
Kopia ISO-25
100
AcDbAlignedDimension
 13
213.7037721413654
 23
5810.314220891857
 33
0.0
 14
213.7037721413654
 24
4720.314220891856
 34
0.0
 50
90.0
100
AcDbRotatedDimension
  0
DIMENSION
  5
52E
330
1F
100
AcDbEntity
  8
wymiary
100
AcDbDimension
  2
*D24
 10
3228.43417494707
 20
5857.414816097548
 30
0.0
 11
2790.93417494707
 21
5870.914816097546
 31
0.0
 70
    32
 71
     5
 42
875.0
  3
Kopia ISO-25
100
AcDbAlignedDimension
 13
2353.43417494707
 23
5810.314220891857
 33
0.0
 14
3228.43417494707
 24
5810.314220891857
 34
0.0
100
AcDbRotatedDimension
  0
DIMENSION
  5
52F
330
1F
100
AcDbEntity
  8
wymiary
100
AcDbDimension
  2
*D25
 10
1713.703772141365
 20
5857.414816097548
 30
0.0
 11
966.2037721413652
 21
5870.914816097547
 31
0.0
 70
    32
 71
     5
 42
1495.0
  3
Kopia ISO-25
100
AcDbAlignedDimension
 13
218.7037721413653
 23
5810.314220891857
 33
0.0
 14
1713.703772141365
 24
5810.314220891857
 34
0.0
100
AcDbRotatedDimension
  0
DIMENSION
  5
531
330
1F
100
AcDbEntity
  8
wymiary
100
AcDbDimension
  2
*D27
 10
3068.710451694629
 20
5418.207475714004
 30
0.0
 11
2754.128291520787
 21
5627.236062202625
 31
0.0
 70
   163
 71
     5
 42
499.9999999999991
  3
Kopia ISO-25
100
AcDbDiametricDimension
 15
2638.15789819951
 25
5672.420966069712
 35
0.0
 40
0.0
1001
ACAD
1000
DSTYLE
1002
{
1070
   279
1070
     2
1070
   288
1070
     1
1002
}
  0
DIMENSION
  5
532
330
1F
100
AcDbEntity
  8
wymiary
100
AcDbDimension
  2
*D28
 10
2853.43417494707
 20
5810.314220891857
 30
0.0
 11
2839.934174947069
 21
5677.814220891858
 31
0.0
 70
    32
 71
     5
 42
265.0
  3
Kopia ISO-25
100
AcDbAlignedDimension
 13
2853.43417494707
 23
5545.314220891857
 33
0.0
 14
2853.43417494707
 24
5810.314220891857
 34
0.0
 50
90.0
100
AcDbRotatedDimension
  0
DIMENSION
  5
533
330
1F
100
AcDbEntity
  8
wymiary
100
AcDbDimension
  2
*D29
 10
2353.43417494707
 20
5545.314220891857
 30
0.0
 11
2656.424906510399
 21
5566.009344408136
 31
0.0
 70
   160
 71
     5
 42
499.9999999999995
  3
Kopia ISO-25
100
AcDbAlignedDimension
 13
2853.43417494707
 23
5545.314220891857
 33
0.0
 14
2353.43417494707
 24
5545.314220891857
 34
0.0
 50
180.0
100
AcDbRotatedDimension
1001
ACAD
1000
DSTYLE
1002
{
1070
   279
1070
     2
1002
}
  0
DIMENSION
  5
537
330
1F
100
AcDbEntity
  8
wymiary
100
AcDbDimension
  2
*D33
 10
-707.3106601793115
 20
5424.222007043099
 30
0.0
 11
-1023.616654053902
 21
5621.78597786479
 31
0.0
 70
   163
 71
     5
 42
500.0
  3
Kopia ISO-25
100
AcDbDiametricDimension
 15
-1144.742601149364
 25
5666.406434740613
 35
0.0
 40
0.0
1001
ACAD
1000
DSTYLE
1002
{
1070
   279
1070
     2
1070
   288
1070
     1
1002
}
  0
DIMENSION
  5
53A
330
1F
100
AcDbEntity
  8
wymiary
100
AcDbDimension
  2
*D36
 10
-926.0266306643389
 20
5810.314220891857
 30
0.0
 11
-939.5266306643398
 21
5677.814220891857
 31
0.0
 70
    32
 71
     5
 42
265.0
  3
Kopia ISO-25
100
AcDbAlignedDimension
 13
-926.0266306643389
 23
5545.314220891857
 33
0.0
 14
-926.0266306643389
 24
5810.314220891857
 34
0.0
 50
90.0
100
AcDbRotatedDimension
  0
DIMENSION
  5
53B
330
1F
100
AcDbEntity
  8
wymiary
100
AcDbDimension
  2
*D37
 10
-426.0266306643388
 20
5545.314220891857
 30
0.0
 11
-718.5535081252237
 21
5565.088078529005
 31
0.0
 70
   160
 71
     5
 42
500.0
  3
Kopia ISO-25
100
AcDbAlignedDimension
 13
-926.0266306643389
 23
5545.314220891857
 33
0.0
 14
-426.0266306643388
 24
5545.314220891857
 34
0.0
100
AcDbRotatedDimension
1001
ACAD
1000
DSTYLE
1002
{
1070
   279
1070
     2
1002
}
  0
MTEXT
  5
53C
330
1F
100
AcDbEntity
  8
wymiary
100
AcDbMText
 10
2321.540436674272
 20
3914.753482585442
 30
0.0
 40
30.0
 41
566.4293908612997
 71
     1
 72
     5
  1
{\Ftxt.shx|c238;Mistral 3000BSR \Pwykonanie prawe\Ftxt.shx|c0;\H0.125x;}
 73
     1
 44
1.0
1001
ACAD
1000
MTEXTBEGIN
1070
    73
1070
     1
1070
    44
1040
1.0
1070
    74
1070
     0
1000
MTEXTEND
  0
MTEXT
  5
53D
102
{ACAD_XDICTIONARY
360
90A
102
}
330
1F
100
AcDbEntity
  8
wymiary
100
AcDbMText
 10
-79.70192401484564
 20
4540.810492869858
 30
0.0
 40
30.0
 41
902.3463737508771
 71
     1
 72
     5
  1
{\Ftxt.shx|c238;Rzut z g\U+00F3ry\Ftxt.shx|c0;\H0.25x;}
 73
     1
 44
1.0
1001
ACAD
1000
MTEXTBEGIN
1070
    73
1070
     1
1070
    44
1040
1.0
1070
    74
1070
     0
1000
MTEXTEND
  0
MTEXT
  5
53E
330
1F
100
AcDbEntity
  8
wymiary
100
AcDbMText
 10
31.92835948059474
 20
5942.658874052127
 30
0.0
 40
30.0
 41
902.3463737508771
 71
     1
 72
     5
  1
{\Ftxt.shx|c238;Rzut od przodu\Ftxt.shx|c0;\H0.25x;}
 73
     1
 44
1.0
1001
ACAD
1000
MTEXTBEGIN
1070
    73
1070
     1
1070
    44
1040
1.0
1070
    74
1070
     0
1000
MTEXTEND
  0
MTEXT
  5
53F
330
1F
100
AcDbEntity
  8
wymiary
100
AcDbMText
 10
1844.933922927688
 20
5951.260208916064
 30
0.0
 40
30.0
 41
902.3463737508771
 71
     1
 72
     5
  1
{\Ftxt.shx|c238;Rzut od lewej strony\Ftxt.shx|c0;\H0.1667x;}
 73
     1
 44
1.0
1001
ACAD
1000
MTEXTBEGIN
1070
    73
1070
     1
1070
    44
1040
1.0
1070
    74
1070
     0
1000
MTEXTEND
  0
MTEXT
  5
540
330
1F
100
AcDbEntity
  8
wymiary
100
AcDbMText
 10
-1598.858017623788
 20
5957.439538736533
 30
0.0
 40
30.0
 41
902.3463737508771
 71
     1
 72
     5
  1
{\Ftxt.shx|c238;Rzut od prawej strony\Ftxt.shx|c0;\H0.125x;}
 73
     1
 44
1.0
1001
ACAD
1000
MTEXTBEGIN
1070
    73
1070
     1
1070
    44
1040
1.0
1070
    74
1070
     0
1000
MTEXTEND
  0
LWPOLYLINE
  5
541
330
1F
100
AcDbEntity
  8
wymiary
100
AcDbPolyline
 90
        2
 70
     0
 43
0.0
 10
-446.0266306643388
 20
4740.314220891858
 10
-400.9171778529579
 20
4735.550840917932
  0
MTEXT
  5
542
102
{ACAD_XDICTIONARY
360
90C
102
}
330
1F
100
AcDbEntity
  8
wymiary
100
AcDbMText
 10
-394.1230512667826
 20
4754.294629299407
 30
0.0
 40
2.5
 41
58.26734917771681
 71
     1
 72
     5
  1
{\H6x;odp\U+0142yw\Pskroplin}
 73
     1
 44
1.0
1001
ACAD
1000
MTEXTBEGIN
1070
    73
1070
     1
1070
    44
1040
1.0
1070
    74
1070
     0
1000
MTEXTEND
  0
LWPOLYLINE
  5
543
330
1F
100
AcDbEntity
  8
wymiary
100
AcDbPolyline
 90
       12
 70
     0
 43
0.0
 10
3136.676784575015
 20
4823.489823898536
 10
3143.352909775422
 20
4823.600994259386
 10
3140.595480892464
 20
4801.567592455477
 10
3151.625190808121
 20
4807.827080757459
 10
3144.856960361714
 20
4781.036471676676
 10
3148.115739440104
 20
4781.036471676676
 10
3144.104932260483
 20
4773.775465352841
 10
3140.344802986661
 20
4781.036471676676
 10
3142.720416311739
 20
4781.04884789296
 10
3145.683902601752
 20
4798.481725318151
 10
3137.457095726177
 20
4794.582080706117
 10
3136.676784575015
 20
4823.489823898536
  0
LWPOLYLINE
  5
544
330
1F
100
AcDbEntity
  8
wymiary
100
AcDbPolyline
 90
        4
 70
     1
 43
0.0
 10
-168.0860550746491
 20
6026.589476836027
 10
1791.72825712849
 20
6026.589476836027
 10
1791.72825712849
 20
4595.079069968878
 10
-168.0860550746491
 20
4595.079069968878
  0
LWPOLYLINE
  5
545
330
1F
100
AcDbEntity
  8
wymiary
100
AcDbPolyline
 90
        4
 70
     1
 43
0.0
 10
1791.72825712849
 20
6026.589476836027
 10
3315.603431153859
 20
6026.589476836027
 10
3315.603431153859
 20
4595.079069968878
 10
1791.72825712849
 20
4595.079069968878
  0
LWPOLYLINE
  5
546
330
1F
100
AcDbEntity
  8
wymiary
100
AcDbPolyline
 90
        4
 70
     1
 43
0.0
 10
-168.0860550746491
 20
6026.589476836027
 10
-1691.961229100017
 20
6026.589476836027
 10
-1691.961229100017
 20
4595.079069968878
 10
-168.0860550746491
 20
4595.079069968878
  0
LWPOLYLINE
  5
547
330
1F
100
AcDbEntity
  8
wymiary
100
AcDbPolyline
 90
        4
 70
     1
 43
0.0
 10
-168.0860550746491
 20
4595.079069968878
 10
1791.72825712849
 20
4595.079069968878
 10
1791.72825712849
 20
3141.067392070249
 10
-168.0860550746491
 20
3141.067392070249
  0
LWPOLYLINE
  5
548
330
1F
100
AcDbEntity
  8
wymiary
100
AcDbPolyline
 90
        4
 70
     1
 43
0.0
 10
-1691.961229100017
 20
6026.589476836027
 10
3315.603431153859
 20
6026.589476836027
 10
3315.603431153859
 20
3141.06739207025
 10
-1691.961229100017
 20
3141.067392070249
  0
DIMENSION
  5
6B7
330
1F
100
AcDbEntity
  8
wymiary
100
AcDbDimension
  2
*D38
 10
-426.026630664339
 20
4990.314220891857
 30
0.0
 11
-598.5266306643389
 21
5003.814220891857
 31
0.0
 70
    32
 71
     5
 42
344.9999999999998
  3
Kopia ISO-25
100
AcDbAlignedDimension
 13
-771.0266306643387
 23
4990.314220891857
 33
0.0
 14
-426.026630664339
 24
4990.314220891864
 34
0.0
100
AcDbRotatedDimension
  0
DIMENSION
  5
6CB
330
1F
100
AcDbEntity
  8
wymiary
100
AcDbDimension
  2
*D39
 10
-771.0266306643388
 20
4720.314220891856
 30
0.0
 11
-784.5266306643395
 21
4855.314220891857
 31
0.0
 70
    32
 71
     5
 42
270.0
  3
Kopia ISO-25
100
AcDbAlignedDimension
 13
-771.0266306643388
 23
4990.314220891857
 33
0.0
 14
-771.0266306643377
 24
4720.314220891856
 34
0.0
 50
90.0
100
AcDbRotatedDimension
  0
DIMENSION
  5
6DF
330
1F
100
AcDbEntity
  8
wymiary
100
AcDbDimension
  2
*D40
 10
-546.1677452202762
 20
4881.050861814563
 30
0.0
 11
-828.8308315144089
 21
5040.542827996827
 31
0.0
 70
   163
 71
     5
 42
499.9999999999995
  3
Kopia ISO-25
100
AcDbDiametricDimension
 15
-995.885516108402
 25
5099.57757996915
 35
0.0
 40
0.0
1001
ACAD
1000
DSTYLE
1002
{
1070
   279
1070
     2
1070
   288
1070
     1
1002
}
  0
DIMENSION
  5
6FA
330
1F
100
AcDbEntity
  8
wymiary
100
AcDbDimension
  2
*D41
 10
2353.434174947071
 20
4990.314220891857
 30
0.0
 11
2525.934174947071
 21
5003.814220891857
 31
0.0
 70
    32
 71
     5
 42
345.0
  3
Kopia ISO-25
100
AcDbAlignedDimension
 13
2698.434174947071
 23
4990.314220891857
 33
0.0
 14
2353.434174947071
 24
4990.314220891864
 34
0.0
 50
180.0
100
AcDbRotatedDimension
  0
DIMENSION
  5
6FD
330
1F
100
AcDbEntity
  8
wymiary
100
AcDbDimension
  2
*D42
 10
2698.434174947071
 20
4720.314220891856
 30
0.0
 11
2684.934174947071
 21
4855.314220891858
 31
0.0
 70
    32
 71
     5
 42
270.0
  3
Kopia ISO-25
100
AcDbAlignedDimension
 13
2698.434174947071
 23
4990.314220891857
 33
0.0
 14
2698.43417494707
 24
4720.314220891856
 34
0.0
 50
90.0
100
AcDbRotatedDimension
  0
DIMENSION
  5
722
330
1F
100
AcDbEntity
  8
wymiary
100
AcDbDimension
  2
*D43
 10
2921.570431571911
 20
4877.574649403165
 30
0.0
 11
2625.559897282097
 21
5043.515507281199
 31
0.0
 70
   163
 71
     5
 42
500.0000000000004
  3
Kopia ISO-25
100
AcDbDiametricDimension
 15
2475.29791832223
 25
5103.053792380546
 35
0.0
 40
0.0
1001
ACAD
1000
DSTYLE
1002
{
1070
   279
1070
     2
1070
   288
1070
     1
1002
}
  0
ENDSEC
  0
SECTION
  2
OBJECTS
  0
DICTIONARY
  5
C
330
0
100
AcDbDictionary
281
     1
  3
ACAD_COLOR
350
6B
  3
ACAD_GROUP
350
D
  3
ACAD_LAYOUT
350
1A
  3
ACAD_MATERIAL
350
6A
  3
ACAD_MLEADERSTYLE
350
78D
  3
ACAD_MLINESTYLE
350
17
  3
ACAD_PLOTSETTINGS
350
19
  3
ACAD_PLOTSTYLENAME
350
E
  3
ACAD_SCALELIST
350
77B
  3
ACAD_TABLESTYLE
350
779
  3
ACAD_VISUALSTYLE
350
768
  3
ACDB_RECOMPOSE_DATA
350
8FA
  3
AcDbVariableDictionary
350
5E
  3
DWGPROPS
350
8FB
  0
DICTIONARY
  5
882
330
10
100
AcDbDictionary
280
     1
281
     1
  3
ADSK_XREC_LAYER_RECONCILED
360
883
  0
DICTIONARY
  5
884
330
411
100
AcDbDictionary
280
     1
281
     1
  3
ADSK_XREC_LAYER_RECONCILED
360
885
  0
DICTIONARY
  5
886
330
412
100
AcDbDictionary
280
     1
281
     1
  3
ADSK_XREC_LAYER_RECONCILED
360
887
  0
DICTIONARY
  5
8CD
330
41D
100
AcDbDictionary
280
     1
281
     1
  3
ACAD_SORTENTS
360
8CE
  0
DICTIONARY
  5
7CF
330
438
100
AcDbDictionary
280
     1
281
     1
  3
ACAD_SORTENTS
360
7D4
  0
DICTIONARY
  5
847
330
449
100
AcDbDictionary
280
     1
281
     1
  0
DICTIONARY
  5
7E9
330
460
100
AcDbDictionary
280
     1
281
     1
  0
DICTIONARY
  5
902
330
4C7
100
AcDbDictionary
280
     1
281
     1
  3
ACAD_MTEXT_RT
360
903
  0
DICTIONARY
  5
904
330
4D0
100
AcDbDictionary
280
     1
281
     1
  3
ACAD_MTEXT_RT
360
905
  0
DICTIONARY
  5
906
330
4D9
100
AcDbDictionary
280
     1
281
     1
  3
ACAD_MTEXT_RT
360
907
  0
DICTIONARY
  5
908
330
4E2
100
AcDbDictionary
280
     1
281
     1
  3
ACAD_MTEXT_RT
360
909
  0
DICTIONARY
  5
910
330
697
100
AcDbDictionary
280
     1
281
     1
  3
ACAD_MTEXT_RT
360
911
  0
DICTIONARY
  5
91A
330
84C
100
AcDbDictionary
280
     1
281
     1
  3
ACAD_MTEXT_RT
360
91B
  0
DICTIONARY
  5
90E
330
66F
100
AcDbDictionary
280
     1
281
     1
  3
ACAD_MTEXT_RT
360
90F
  0
DICTIONARY
  5
918
330
81D
100
AcDbDictionary
280
     1
281
     1
  3
ACAD_MTEXT_RT
360
919
  0
DICTIONARY
  5
916
330
802
100
AcDbDictionary
280
     1
281
     1
  3
ACAD_MTEXT_RT
360
917
  0
DICTIONARY
  5
91C
330
86D
100
AcDbDictionary
280
     1
281
     1
  3
ACAD_MTEXT_RT
360
91D
  0
DICTIONARY
  5
90A
330
53D
100
AcDbDictionary
280
     1
281
     1
  3
ACAD_MTEXT_RT
360
90B
  0
DICTIONARY
  5
90C
330
542
100
AcDbDictionary
280
     1
281
     1
  3
ACAD_MTEXT_RT
360
90D
  0
DICTIONARY
  5
6B
102
{ACAD_REACTORS
330
C
102
}
330
C
100
AcDbDictionary
281
     1
  0
DICTIONARY
  5
D
102
{ACAD_REACTORS
330
C
102
}
330
C
100
AcDbDictionary
281
     1
  0
DICTIONARY
  5
1A
102
{ACAD_REACTORS
330
C
102
}
330
C
100
AcDbDictionary
281
     1
  3
Arkusz1
350
51
  3
Arkusz2
350
56
  3
Model
350
22
  0
DICTIONARY
  5
6A
102
{ACAD_REACTORS
330
C
102
}
330
C
100
AcDbDictionary
281
     1
  3
ByBlock
350
758
  3
ByLayer
350
750
  3
Global
350
760
  0
DICTIONARY
  5
78D
102
{ACAD_REACTORS
330
C
102
}
330
C
100
AcDbDictionary
281
     1
  3
Standard
350
78E
  0
DICTIONARY
  5
17
102
{ACAD_REACTORS
330
C
102
}
330
C
100
AcDbDictionary
281
     1
  3
Standard
350
18
  0
DICTIONARY
  5
19
102
{ACAD_REACTORS
330
C
102
}
330
C
100
AcDbDictionary
281
     1
  0
ACDBDICTIONARYWDFLT
  5
E
102
{ACAD_REACTORS
330
C
102
}
330
C
100
AcDbDictionary
281
     1
  3
Normal
350
F
100
AcDbDictionaryWithDefault
340
F
  0
DICTIONARY
  5
77B
102
{ACAD_REACTORS
330
C
102
}
330
C
100
AcDbDictionary
281
     1
  3
A0
350
77C
  3
A1
350
77D
  3
A2
350
77E
  3
A3
350
77F
  3
A4
350
780
  3
A5
350
781
  3
A6
350
782
  3
A7
350
783
  3
A8
350
784
  3
A9
350
785
  3
B0
350
786
  3
B1
350
787
  3
B2
350
788
  3
B3
350
789
  3
B4
350
78A
  3
B5
350
78B
  3
B6
350
78C
  0
DICTIONARY
  5
779
102
{ACAD_REACTORS
330
C
102
}
330
C
100
AcDbDictionary
281
     1
  3
Standard
350
77A
  0
DICTIONARY
  5
768
102
{ACAD_REACTORS
330
C
102
}
330
C
100
AcDbDictionary
281
     1
  3
2dWireframe
350
76E
  3
3D Hidden
350
770
  3
3dWireframe
350
76F
  3
Basic
350
76D
  3
Brighten
350
774
  3
ColorChange
350
778
  3
Conceptual
350
771
  3
Dim
350
773
  3
Facepattern
350
777
  3
Flat
350
769
  3
FlatWithEdges
350
76A
  3
Gouraud
350
76B
  3
GouraudWithEdges
350
76C
  3
Linepattern
350
776
  3
Realistic
350
772
  3
Thicken
350
775
  0
XRECORD
  5
8FA
102
{ACAD_REACTORS
330
C
102
}
330
C
100
AcDbXrecord
280
     1
 90
        1
330
77A
  0
DICTIONARY
  5
5E
102
{ACAD_REACTORS
330
C
102
}
330
C
100
AcDbDictionary
281
     1
  3
CANNOSCALE
350
88A
  3
CMLEADERSTYLE
350
889
  3
CTABLESTYLE
350
888
  3
DIMASSOC
350
5F
  3
HIDETEXT
350
63
  3
INDEXCTL
350
88C
  3
PROJECTNAME
350
73E
  3
SORTENTS
350
88B
  0
XRECORD
  5
8FB
102
{ACAD_REACTORS
330
C
102
}
330
C
100
AcDbXrecord
280
     1
  1
DWGPROPS COOKIE
  2

  3

  4

  6

  7

  8
darek
  9

300
=
301
=
302
=
303
=
304
=
305
=
306
=
307
=
308
=
309
=
 40
0.172051574074074
 41
2453959.416956308
 42
2456666.971739005
  1

 90
        0
  0
XRECORD
  5
883
102
{ACAD_REACTORS
330
882
102
}
330
882
100
AcDbXrecord
280
     1
290
     1
  0
XRECORD
  5
885
102
{ACAD_REACTORS
330
884
102
}
330
884
100
AcDbXrecord
280
     1
290
     1
  0
XRECORD
  5
887
102
{ACAD_REACTORS
330
886
102
}
330
886
100
AcDbXrecord
280
     1
290
     1
  0
SORTENTSTABLE
  5
8CE
102
{ACAD_REACTORS
330
8CD
102
}
330
8CD
100
AcDbSortentsTable
330
41D
331
8CC
  5
8CB
331
8CB
  5
8CC
  0
SORTENTSTABLE
  5
7D4
102
{ACAD_REACTORS
330
7CF
102
}
330
7CF
100
AcDbSortentsTable
330
438
331
7CC
  5
7CC
331
7CA
  5
7CA
331
7C8
  5
7C8
331
7C6
  5
7C6
331
7C4
  5
7C4
331
7C2
  5
7C2
331
7CD
  5
7CE
331
7CB
  5
7CB
331
7C9
  5
7C9
331
7C7
  5
7C7
331
7C5
  5
7C5
331
7C3
  5
7C3
331
7CE
  5
7D2
  0
XRECORD
  5
903
102
{ACAD_REACTORS
330
902
102
}
330
902
100
AcDbXrecord
280
     1
 40
2836.0
  1
\U+2205500
  0
XRECORD
  5
905
102
{ACAD_REACTORS
330
904
102
}
330
904
100
AcDbXrecord
280
     1
 40
2836.0
  1
\U+2205500
  0
XRECORD
  5
907
102
{ACAD_REACTORS
330
906
102
}
330
906
100
AcDbXrecord
280
     1
 40
2836.0
  1
\U+2205500
  0
XRECORD
  5
909
102
{ACAD_REACTORS
330
908
102
}
330
908
100
AcDbXrecord
280
     1
 40
2836.0
  1
\U+2205500
  0
XRECORD
  5
911
102
{ACAD_REACTORS
330
910
102
}
330
910
100
AcDbXrecord
280
     1
 40
2836.0
  1
\U+2205500
  0
XRECORD
  5
91B
102
{ACAD_REACTORS
330
91A
102
}
330
91A
100
AcDbXrecord
280
     1
 40
2836.0
  1
\U+2205500
  0
XRECORD
  5
90F
102
{ACAD_REACTORS
330
90E
102
}
330
90E
100
AcDbXrecord
280
     1
 40
2836.0
  1
\U+2205500
  0
XRECORD
  5
919
102
{ACAD_REACTORS
330
918
102
}
330
918
100
AcDbXrecord
280
     1
 40
2836.0
  1
\U+2205500
  0
XRECORD
  5
917
102
{ACAD_REACTORS
330
916
102
}
330
916
100
AcDbXrecord
280
     1
 40
2836.0
  1
\U+2205500
  0
XRECORD
  5
91D
102
{ACAD_REACTORS
330
91C
102
}
330
91C
100
AcDbXrecord
280
     1
 40
2836.0
  1
\U+2205500
  0
XRECORD
  5
90B
102
{ACAD_REACTORS
330
90A
102
}
330
90A
100
AcDbXrecord
280
     1
 40
128802.0
  1
{\Ftxt.shx|c238;Rzut z góry\Ftxt.shx|c0;\H0.25x;}
  0
XRECORD
  5
90D
102
{ACAD_REACTORS
330
90C
102
}
330
90C
100
AcDbXrecord
280
     1
 40
42289.0
  1
{\Ftxt.shx|c238;\H6x;odpływ^Jskroplin}
  0
LAYOUT
  5
51
102
{ACAD_XDICTIONARY
360
8FE
102
}
102
{ACAD_REACTORS
330
1A
102
}
330
1A
100
AcDbPlotSettings
  1

  2
None
  4

  6

 40
0.0
 41
0.0
 42
0.0
 43
0.0
 44
0.0
 45
0.0
 46
0.0
 47
0.0
 48
0.0
 49
0.0
140
0.0
141
0.0
142
1.0
143
1.0
 70
   688
 72
     0
 73
     0
 74
     5
  7

 75
    16
147
1.0
148
0.0
149
0.0
100
AcDbLayout
  1
Arkusz1
 70
     1
 71
     1
 10
0.0
 20
0.0
 11
12.0
 21
9.0
 12
0.0
 22
0.0
 32
0.0
 14
0.0
 24
0.0
 34
0.0
 15
0.0
 25
0.0
 35
0.0
146
0.0
 13
0.0
 23
0.0
 33
0.0
 16
1.0
 26
0.0
 36
0.0
 17
0.0
 27
1.0
 37
0.0
 76
     0
330
50
  0
LAYOUT
  5
56
102
{ACAD_XDICTIONARY
360
900
102
}
102
{ACAD_REACTORS
330
1A
102
}
330
1A
100
AcDbPlotSettings
  1

  2
None
  4

  6

 40
0.0
 41
0.0
 42
0.0
 43
0.0
 44
0.0
 45
0.0
 46
0.0
 47
0.0
 48
0.0
 49
0.0
140
0.0
141
0.0
142
1.0
143
1.0
 70
   688
 72
     0
 73
     0
 74
     5
  7

 75
    16
147
1.0
148
0.0
149
0.0
100
AcDbLayout
  1
Arkusz2
 70
     1
 71
     2
 10
0.0
 20
0.0
 11
12.0
 21
9.0
 12
0.0
 22
0.0
 32
0.0
 14
0.0
 24
0.0
 34
0.0
 15
0.0
 25
0.0
 35
0.0
146
0.0
 13
0.0
 23
0.0
 33
0.0
 16
1.0
 26
0.0
 36
0.0
 17
0.0
 27
1.0
 37
0.0
 76
     0
330
55
  0
LAYOUT
  5
22
102
{ACAD_XDICTIONARY
360
8FC
102
}
102
{ACAD_REACTORS
330
1A
102
}
330
1A
100
AcDbPlotSettings
  1

  2
none_device
  4
ANSI_A_(8.50_x_11.00_Inches)
  6

 40
6.349999904632567
 41
19.04999923706055
 42
6.350006103515625
 43
19.04998779296875
 44
215.8999938964844
 45
279.3999938964844
 46
0.0
 47
0.0
 48
0.0
 49
0.0
140
0.0
141
0.0
142
1.0
143
78.436453180766
 70
 11952
 72
     0
 73
     1
 74
     0
  7

 75
     0
147
0.0127491741332998
148
0.0
149
0.0
100
AcDbLayout
  1
Model
 70
     1
 71
     0
 10
0.0
 20
0.0
 11
12.0
 21
9.0
 12
0.0
 22
0.0
 32
0.0
 14
0.0
 24
0.0
 34
0.0
 15
0.0
 25
0.0
 35
0.0
146
0.0
 13
0.0
 23
0.0
 33
0.0
 16
1.0
 26
0.0
 36
0.0
 17
0.0
 27
1.0
 37
0.0
 76
     0
330
1F
331
73F
  0
MATERIAL
  5
758
102
{ACAD_XDICTIONARY
360
759
102
}
102
{ACAD_REACTORS
330
6A
102
}
330
6A
100
AcDbMaterial
  1
ByBlock
 72
     0
 43
0.0008202099737533
 43
0.0
 43
0.0
 43
0.0
 43
0.0
 43
0.0008202099737533
 43
0.0
 43
0.0
 43
0.0
 43
0.0
 43
1.0
 43
0.0
 43
0.0
 43
0.0
 43
0.0
 43
1.0
 77
     0
 47
0.0008202099737533
 47
0.0
 47
0.0
 47
0.0
 47
0.0
 47
0.0008202099737533
 47
0.0
 47
0.0
 47
0.0
 47
0.0
 47
1.0
 47
0.0
 47
0.0
 47
0.0
 47
0.0
 47
1.0
171
     0
 49
0.0008202099737533
 49
0.0
 49
0.0
 49
0.0
 49
0.0
 49
0.0008202099737533
 49
0.0
 49
0.0
 49
0.0
 49
0.0
 49
1.0
 49
0.0
 49
0.0
 49
0.0
 49
0.0
 49
1.0
175
     0
142
0.0008202099737533
142
0.0
142
0.0
142
0.0
142
0.0
142
0.0008202099737533
142
0.0
142
0.0
142
0.0
142
0.0
142
1.0
142
0.0
142
0.0
142
0.0
142
0.0
142
1.0
179
     0
144
0.0008202099737533
144
0.0
144
0.0
144
0.0
144
0.0
144
0.0008202099737533
144
0.0
144
0.0
144
0.0
144
0.0
144
1.0
144
0.0
144
0.0
144
0.0
144
0.0
144
1.0
147
0.0008202099737533
147
0.0
147
0.0
147
0.0
147
0.0
147
0.0008202099737533
147
0.0
147
0.0
147
0.0
147
0.0
147
1.0
147
0.0
147
0.0
147
0.0
147
0.0
147
1.0
  0
MATERIAL
  5
750
102
{ACAD_XDICTIONARY
360
751
102
}
102
{ACAD_REACTORS
330
6A
102
}
330
6A
100
AcDbMaterial
  1
ByLayer
 72
     0
 43
0.0008202099737533
 43
0.0
 43
0.0
 43
0.0
 43
0.0
 43
0.0008202099737533
 43
0.0
 43
0.0
 43
0.0
 43
0.0
 43
1.0
 43
0.0
 43
0.0
 43
0.0
 43
0.0
 43
1.0
 77
     0
 47
0.0008202099737533
 47
0.0
 47
0.0
 47
0.0
 47
0.0
 47
0.0008202099737533
 47
0.0
 47
0.0
 47
0.0
 47
0.0
 47
1.0
 47
0.0
 47
0.0
 47
0.0
 47
0.0
 47
1.0
171
     0
 49
0.0008202099737533
 49
0.0
 49
0.0
 49
0.0
 49
0.0
 49
0.0008202099737533
 49
0.0
 49
0.0
 49
0.0
 49
0.0
 49
1.0
 49
0.0
 49
0.0
 49
0.0
 49
0.0
 49
1.0
175
     0
142
0.0008202099737533
142
0.0
142
0.0
142
0.0
142
0.0
142
0.0008202099737533
142
0.0
142
0.0
142
0.0
142
0.0
142
1.0
142
0.0
142
0.0
142
0.0
142
0.0
142
1.0
179
     0
144
0.0008202099737533
144
0.0
144
0.0
144
0.0
144
0.0
144
0.0008202099737533
144
0.0
144
0.0
144
0.0
144
0.0
144
1.0
144
0.0
144
0.0
144
0.0
144
0.0
144
1.0
147
0.0008202099737533
147
0.0
147
0.0
147
0.0
147
0.0
147
0.0008202099737533
147
0.0
147
0.0
147
0.0
147
0.0
147
1.0
147
0.0
147
0.0
147
0.0
147
0.0
147
1.0
  0
MATERIAL
  5
760
102
{ACAD_XDICTIONARY
360
761
102
}
102
{ACAD_REACTORS
330
6A
102
}
330
6A
100
AcDbMaterial
  1
Global
 72
     0
 43
0.0008202099737533
 43
0.0
 43
0.0
 43
0.0
 43
0.0
 43
0.0008202099737533
 43
0.0
 43
0.0
 43
0.0
 43
0.0
 43
1.0
 43
0.0
 43
0.0
 43
0.0
 43
0.0
 43
1.0
 77
     0
 47
0.0008202099737533
 47
0.0
 47
0.0
 47
0.0
 47
0.0
 47
0.0008202099737533
 47
0.0
 47
0.0
 47
0.0
 47
0.0
 47
1.0
 47
0.0
 47
0.0
 47
0.0
 47
0.0
 47
1.0
171
     0
 49
0.0008202099737533
 49
0.0
 49
0.0
 49
0.0
 49
0.0
 49
0.0008202099737533
 49
0.0
 49
0.0
 49
0.0
 49
0.0
 49
1.0
 49
0.0
 49
0.0
 49
0.0
 49
0.0
 49
1.0
175
     0
142
0.0008202099737533
142
0.0
142
0.0
142
0.0
142
0.0
142
0.0008202099737533
142
0.0
142
0.0
142
0.0
142
0.0
142
1.0
142
0.0
142
0.0
142
0.0
142
0.0
142
1.0
179
     0
144
0.0008202099737533
144
0.0
144
0.0
144
0.0
144
0.0
144
0.0008202099737533
144
0.0
144
0.0
144
0.0
144
0.0
144
1.0
144
0.0
144
0.0
144
0.0
144
0.0
144
1.0
147
0.0008202099737533
147
0.0
147
0.0
147
0.0
147
0.0
147
0.0008202099737533
147
0.0
147
0.0
147
0.0
147
0.0
147
1.0
147
0.0
147
0.0
147
0.0
147
0.0
147
1.0
  0
MLEADERSTYLE
  5
78E
102
{ACAD_REACTORS
330
78D
102
}
330
78D
100
AcDbMLeaderStyle
170
     2
171
     1
172
     0
 90
        2
 40
0.0
 41
0.0
173
     1
 91
-1056964608
340
14
 92
       -2
290
     1
 42
2.0
291
     1
 43
0.36
  3
Standard
 44
4.0
300

342
11
174
     1
178
     6
175
     1
176
     0
 93
-1056964608
 45
4.0
292
     0
297
     0
 46
4.0
 94
-1056964608
 47
1.0
 49
1.0
140
1.0
293
     1
141
0.0
294
     1
177
     0
142
1.0
295
     0
296
     0
143
0.125
1001
ACAD_MLEADERVER
1070
     2
  0
MLINESTYLE
  5
18
102
{ACAD_REACTORS
330
17
102
}
330
17
100
AcDbMlineStyle
  2
STANDARD
 70
     0
  3

 62
   256
 51
90.0
 52
90.0
 71
     2
 49
0.5
 62
   256
  6
BYLAYER
 49
-0.5
 62
   256
  6
BYLAYER
  0
ACDBPLACEHOLDER
  5
F
102
{ACAD_REACTORS
330
E
102
}
330
E
  0
SCALE
  5
77C
102
{ACAD_REACTORS
330
77B
102
}
330
77B
100
AcDbScale
 70
     0
300
1:1
140
1.0
141
1.0
290
     1
  0
SCALE
  5
77D
102
{ACAD_REACTORS
330
77B
102
}
330
77B
100
AcDbScale
 70
     0
300
1:2
140
1.0
141
2.0
290
     0
  0
SCALE
  5
77E
102
{ACAD_REACTORS
330
77B
102
}
330
77B
100
AcDbScale
 70
     0
300
1:4
140
1.0
141
4.0
290
     0
  0
SCALE
  5
77F
102
{ACAD_REACTORS
330
77B
102
}
330
77B
100
AcDbScale
 70
     0
300
1:5
140
1.0
141
5.0
290
     0
  0
SCALE
  5
780
102
{ACAD_REACTORS
330
77B
102
}
330
77B
100
AcDbScale
 70
     0
300
1:8
140
1.0
141
8.0
290
     0
  0
SCALE
  5
781
102
{ACAD_REACTORS
330
77B
102
}
330
77B
100
AcDbScale
 70
     0
300
1:10
140
1.0
141
10.0
290
     0
  0
SCALE
  5
782
102
{ACAD_REACTORS
330
77B
102
}
330
77B
100
AcDbScale
 70
     0
300
1:16
140
1.0
141
16.0
290
     0
  0
SCALE
  5
783
102
{ACAD_REACTORS
330
77B
102
}
330
77B
100
AcDbScale
 70
     0
300
1:20
140
1.0
141
20.0
290
     0
  0
SCALE
  5
784
102
{ACAD_REACTORS
330
77B
102
}
330
77B
100
AcDbScale
 70
     0
300
1:30
140
1.0
141
30.0
290
     0
  0
SCALE
  5
785
102
{ACAD_REACTORS
330
77B
102
}
330
77B
100
AcDbScale
 70
     0
300
1:40
140
1.0
141
40.0
290
     0
  0
SCALE
  5
786
102
{ACAD_REACTORS
330
77B
102
}
330
77B
100
AcDbScale
 70
     0
300
1:50
140
1.0
141
50.0
290
     0
  0
SCALE
  5
787
102
{ACAD_REACTORS
330
77B
102
}
330
77B
100
AcDbScale
 70
     0
300
1:100
140
1.0
141
100.0
290
     0
  0
SCALE
  5
788
102
{ACAD_REACTORS
330
77B
102
}
330
77B
100
AcDbScale
 70
     0
300
2:1
140
2.0
141
1.0
290
     0
  0
SCALE
  5
789
102
{ACAD_REACTORS
330
77B
102
}
330
77B
100
AcDbScale
 70
     0
300
4:1
140
4.0
141
1.0
290
     0
  0
SCALE
  5
78A
102
{ACAD_REACTORS
330
77B
102
}
330
77B
100
AcDbScale
 70
     0
300
8:1
140
8.0
141
1.0
290
     0
  0
SCALE
  5
78B
102
{ACAD_REACTORS
330
77B
102
}
330
77B
100
AcDbScale
 70
     0
300
10:1
140
10.0
141
1.0
290
     0
  0
SCALE
  5
78C
102
{ACAD_REACTORS
330
77B
102
}
330
77B
100
AcDbScale
 70
     0
300
100:1
140
100.0
141
1.0
290
     0
  0
TABLESTYLE
  5
77A
102
{ACAD_XDICTIONARY
360
8F8
102
}
102
{ACAD_REACTORS
330
779
102
}
330
779
100
AcDbTableStyle
  3
Standard
 70
     0
 71
     0
 40
1.5
 41
1.5
280
     0
281
     0
  7
Standard
140
4.5
170
     2
 62
     0
 63
     7
283
     0
274
    -2
284
     1
 64
     0
275
    -2
285
     1
 65
     0
276
    -2
286
     1
 66
     0
277
    -2
287
     1
 67
     0
278
    -2
288
     1
 68
     0
279
    -2
289
     1
 69
     0
  7
Standard
140
6.0
170
     5
 62
     0
 63
     7
283
     0
274
    -2
284
     1
 64
     0
275
    -2
285
     1
 65
     0
276
    -2
286
     1
 66
     0
277
    -2
287
     1
 67
     0
278
    -2
288
     1
 68
     0
279
    -2
289
     1
 69
     0
  7
Standard
140
4.5
170
     5
 62
     0
 63
     7
283
     0
274
    -2
284
     1
 64
     0
275
    -2
285
     1
 65
     0
276
    -2
286
     1
 66
     0
277
    -2
287
     1
 67
     0
278
    -2
288
     1
 68
     0
279
    -2
289
     1
 69
     0
  0
VISUALSTYLE
  5
76E
102
{ACAD_REACTORS
330
768
102
}
330
768
100
AcDbVisualStyle
  2
2dWireframe
 70
     4
 71
     0
 72
     2
 73
     0
 90
        0
 40
-0.6
 41
-30.0
 62
     5
 63
     7
 74
     1
 91
        4
 64
     7
 65
   257
 75
     1
175
     1
 42
1.0
 92
        0
 66
   257
 43
1.0
 76
     1
 77
     6
 78
     2
 67
     7
 79
     5
170
     0
171
     0
290
     0
174
     0
 93
        1
 44
0.0
173
     0
291
     0
 45
0.0
1001
ACAD
1000
AcDbSavedByObjectVersion
1070
     0
  0
VISUALSTYLE
  5
770
102
{ACAD_REACTORS
330
768
102
}
330
768
100
AcDbVisualStyle
  2
3D Hidden
 70
     6
 71
     1
 72
     2
 73
     2
 90
        0
 40
-0.6
 41
-30.0
 62
     5
 63
     7
 74
     2
 91
        2
 64
     7
 65
   257
 75
     2
175
     1
 42
40.0
 92
        0
 66
   257
 43
1.0
 76
     1
 77
     6
 78
     2
 67
     7
 79
     3
170
     0
171
     0
290
     0
174
     0
 93
        1
 44
0.0
173
     0
291
     0
 45
0.0
1001
ACAD
1000
AcDbSavedByObjectVersion
1070
     0
  0
VISUALSTYLE
  5
76F
102
{ACAD_REACTORS
330
768
102
}
330
768
100
AcDbVisualStyle
  2
3dWireframe
 70
     5
 71
     0
 72
     2
 73
     0
 90
        0
 40
-0.6
 41
-30.0
 62
     5
 63
     7
 74
     1
 91
        4
 64
     7
 65
   257
 75
     1
175
     1
 42
1.0
 92
        0
 66
   257
 43
1.0
 76
     1
 77
     6
 78
     2
 67
     7
 79
     5
170
     0
171
     0
290
     0
174
     0
 93
        1
 44
0.0
173
     0
291
     0
 45
0.0
1001
ACAD
1000
AcDbSavedByObjectVersion
1070
     0
  0
VISUALSTYLE
  5
76D
102
{ACAD_REACTORS
330
768
102
}
330
768
100
AcDbVisualStyle
  2
Basic
 70
     7
 71
     1
 72
     0
 73
     1
 90
        0
 40
-0.6
 41
-30.0
 62
     5
 63
     7
 74
     0
 91
        4
 64
     7
 65
   257
 75
     1
175
     1
 42
1.0
 92
        8
 66
     7
 43
1.0
 76
     1
 77
     6
 78
     2
 67
     7
 79
     5
170
     0
171
     0
290
     0
174
     0
 93
        1
 44
0.0
173
     0
291
     1
 45
0.0
1001
ACAD
1000
AcDbSavedByObjectVersion
1070
     0
  0
VISUALSTYLE
  5
774
102
{ACAD_REACTORS
330
768
102
}
330
768
100
AcDbVisualStyle
  2
Brighten
 70
    12
 71
     2
 72
     2
 73
     0
 90
        0
 40
-0.6
 41
-30.0
 62
     5
 63
     7
 74
     1
 91
        4
 64
     7
 65
   257
 75
     1
175
     1
 42
1.0
 92
        8
 66
     7
 43
1.0
 76
     1
 77
     6
 78
     2
 67
     7
 79
     5
170
     0
171
     0
290
     0
174
     0
 93
        1
 44
50.0
173
     0
291
     1
 45
0.0
1001
ACAD
1000
AcDbSavedByObjectVersion
1070
     0
  0
VISUALSTYLE
  5
778
102
{ACAD_REACTORS
330
768
102
}
330
768
100
AcDbVisualStyle
  2
ColorChange
 70
    16
 71
     2
 72
     2
 73
     3
 90
        0
 40
-0.6
 41
-30.0
 62
     5
 63
     8
 74
     1
 91
        4
 64
     7
 65
   257
 75
     1
175
     1
 42
1.0
 92
        8
 66
     8
 43
1.0
 76
     1
 77
     6
 78
     2
 67
     7
 79
     5
170
     0
171
     0
290
     0
174
     0
 93
        1
 44
0.0
173
     0
291
     1
 45
0.0
1001
ACAD
1000
AcDbSavedByObjectVersion
1070
     0
  0
VISUALSTYLE
  5
771
102
{ACAD_REACTORS
330
768
102
}
330
768
100
AcDbVisualStyle
  2
Conceptual
 70
     9
 71
     3
 72
     2
 73
     0
 90
        0
 40
-0.6
 41
-30.0
 62
     5
 63
     7
 74
     2
 91
        2
 64
     7
 65
   257
 75
     1
175
     1
 42
40.0
 92
        8
 66
     7
 43
1.0
 76
     1
 77
     6
 78
     2
 67
     7
 79
     3
170
     0
171
     0
290
     0
174
     0
 93
        1
 44
0.0
173
     0
291
     0
 45
0.0
1001
ACAD
1000
AcDbSavedByObjectVersion
1070
     0
  0
VISUALSTYLE
  5
773
102
{ACAD_REACTORS
330
768
102
}
330
768
100
AcDbVisualStyle
  2
Dim
 70
    11
 71
     2
 72
     2
 73
     0
 90
        0
 40
-0.6
 41
-30.0
 62
     5
 63
     7
 74
     1
 91
        4
 64
     7
 65
   257
 75
     1
175
     1
 42
1.0
 92
        8
 66
     7
 43
1.0
 76
     1
 77
     6
 78
     2
 67
     7
 79
     5
170
     0
171
     0
290
     0
174
     0
 93
        1
 44
-50.0
173
     0
291
     1
 45
0.0
1001
ACAD
1000
AcDbSavedByObjectVersion
1070
     0
  0
VISUALSTYLE
  5
777
102
{ACAD_REACTORS
330
768
102
}
330
768
100
AcDbVisualStyle
  2
Facepattern
 70
    15
 71
     2
 72
     2
 73
     0
 90
        0
 40
-0.6
 41
-30.0
 62
     5
 63
     7
 74
     1
 91
        4
 64
     7
 65
   257
 75
     1
175
     1
 42
1.0
 92
        8
 66
     7
 43
1.0
 76
     1
 77
     6
 78
     2
 67
     7
 79
     5
170
     0
171
     0
290
     0
174
     0
 93
        1
 44
0.0
173
     0
291
     1
 45
0.0
1001
ACAD
1000
AcDbSavedByObjectVersion
1070
     0
  0
VISUALSTYLE
  5
769
102
{ACAD_REACTORS
330
768
102
}
330
768
100
AcDbVisualStyle
  2
Flat
 70
     0
 71
     2
 72
     1
 73
     1
 90
        2
 40
-0.6
 41
30.0
 62
     5
 63
     7
 74
     0
 91
        4
 64
     7
 65
   257
 75
     1
175
     1
 42
1.0
 92
        8
 66
     7
 43
1.0
 76
     1
 77
     6
 78
     2
 67
     7
 79
     5
170
     0
171
     0
290
     0
174
     0
 93
       13
 44
0.0
173
     0
291
     1
 45
0.0
1001
ACAD
1000
AcDbSavedByObjectVersion
1070
     0
  0
VISUALSTYLE
  5
76A
102
{ACAD_REACTORS
330
768
102
}
330
768
100
AcDbVisualStyle
  2
FlatWithEdges
 70
     1
 71
     2
 72
     1
 73
     1
 90
        2
 40
-0.6
 41
30.0
 62
     5
 63
     7
 74
     1
 91
        4
 64
     7
 65
   257
 75
     1
175
     1
 42
1.0
 92
        0
 66
   257
 43
1.0
 76
     1
 77
     6
 78
     2
 67
     7
 79
     5
170
     0
171
     0
290
     0
174
     0
 93
       13
 44
0.0
173
     0
291
     1
 45
0.0
1001
ACAD
1000
AcDbSavedByObjectVersion
1070
     0
  0
VISUALSTYLE
  5
76B
102
{ACAD_REACTORS
330
768
102
}
330
768
100
AcDbVisualStyle
  2
Gouraud
 70
     2
 71
     2
 72
     2
 73
     1
 90
        2
 40
-0.6
 41
30.0
 62
     5
 63
     7
 74
     0
 91
        4
 64
     7
 65
   257
 75
     1
175
     1
 42
1.0
 92
        0
 66
     7
 43
1.0
 76
     1
 77
     6
 78
     2
 67
     7
 79
     5
170
     0
171
     0
290
     0
174
     0
 93
       13
 44
0.0
173
     0
291
     1
 45
0.0
1001
ACAD
1000
AcDbSavedByObjectVersion
1070
     0
  0
VISUALSTYLE
  5
76C
102
{ACAD_REACTORS
330
768
102
}
330
768
100
AcDbVisualStyle
  2
GouraudWithEdges
 70
     3
 71
     2
 72
     2
 73
     1
 90
        2
 40
-0.6
 41
30.0
 62
     5
 63
     7
 74
     1
 91
        4
 64
     7
 65
   257
 75
     1
175
     1
 42
1.0
 92
        0
 66
   257
 43
1.0
 76
     1
 77
     6
 78
     2
 67
     7
 79
     5
170
     0
171
     0
290
     0
174
     0
 93
       13
 44
0.0
173
     0
291
     1
 45
0.0
1001
ACAD
1000
AcDbSavedByObjectVersion
1070
     0
  0
VISUALSTYLE
  5
776
102
{ACAD_REACTORS
330
768
102
}
330
768
100
AcDbVisualStyle
  2
Linepattern
 70
    14
 71
     2
 72
     2
 73
     0
 90
        0
 40
-0.6
 41
-30.0
 62
     5
 63
     7
 74
     1
 91
        4
 64
     7
 65
   257
 75
     7
175
     7
 42
1.0
 92
        8
 66
     7
 43
1.0
 76
     1
 77
     6
 78
     2
 67
     7
 79
     5
170
     0
171
     0
290
     0
174
     0
 93
        1
 44
0.0
173
     0
291
     1
 45
0.0
1001
ACAD
1000
AcDbSavedByObjectVersion
1070
     0
  0
VISUALSTYLE
  5
772
102
{ACAD_REACTORS
330
768
102
}
330
768
100
AcDbVisualStyle
  2
Realistic
 70
     8
 71
     2
 72
     2
 73
     0
 90
        0
 40
-0.6
 41
-30.0
 62
     5
 63
     7
 74
     1
 91
        0
 64
     7
 65
   257
 75
     1
175
     1
 42
1.0
 92
        8
 66
     8
 43
1.0
 76
     1
 77
     6
 78
     2
 67
     7
 79
     5
170
     0
171
     0
290
     0
174
     0
 93
       13
 44
0.0
173
     0
291
     0
 45
0.0
1001
ACAD
1000
AcDbSavedByObjectVersion
1070
     0
  0
VISUALSTYLE
  5
775
102
{ACAD_REACTORS
330
768
102
}
330
768
100
AcDbVisualStyle
  2
Thicken
 70
    13
 71
     2
 72
     2
 73
     0
 90
        0
 40
-0.6
 41
-30.0
 62
     5
 63
     7
 74
     1
 91
        4
 64
     7
 65
   257
 75
     1
175
     1
 42
1.0
 92
       12
 66
     7
 43
1.0
 76
     1
 77
     6
 78
     2
 67
     7
 79
     5
170
     0
171
     0
290
     0
174
     0
 93
        1
 44
0.0
173
     0
291
     1
 45
0.0
1001
ACAD
1000
AcDbSavedByObjectVersion
1070
     0
  0
DICTIONARYVAR
  5
88A
102
{ACAD_REACTORS
330
5E
102
}
330
5E
100
DictionaryVariables
280
     0
  1
1:1
  0
DICTIONARYVAR
  5
889
102
{ACAD_REACTORS
330
5E
102
}
330
5E
100
DictionaryVariables
280
     0
  1
STANDARD
  0
DICTIONARYVAR
  5
888
102
{ACAD_REACTORS
330
5E
102
}
330
5E
100
DictionaryVariables
280
     0
  1
STANDARD
  0
DICTIONARYVAR
  5
5F
102
{ACAD_REACTORS
330
5E
102
}
330
5E
100
DictionaryVariables
280
     0
  1
2
  0
DICTIONARYVAR
  5
63
102
{ACAD_REACTORS
330
5E
102
}
330
5E
100
DictionaryVariables
280
     0
  1
1
  0
DICTIONARYVAR
  5
88C
102
{ACAD_REACTORS
330
5E
102
}
330
5E
100
DictionaryVariables
280
     0
  1
0
  0
DICTIONARYVAR
  5
73E
102
{ACAD_REACTORS
330
5E
102
}
330
5E
100
DictionaryVariables
280
     0
  1

  0
DICTIONARYVAR
  5
88B
102
{ACAD_REACTORS
330
5E
102
}
330
5E
100
DictionaryVariables
280
     0
  1
127
  0
DICTIONARY
  5
8FE
330
51
100
AcDbDictionary
280
     1
281
     1
  3
ACAD_XREC_ROUNDTRIP
360
8FF
  0
DICTIONARY
  5
900
330
56
100
AcDbDictionary
280
     1
281
     1
  3
ACAD_XREC_ROUNDTRIP
360
901
  0
DICTIONARY
  5
8FC
330
22
100
AcDbDictionary
280
     1
281
     1
  3
ACAD_XREC_ROUNDTRIP
360
8FD
  0
DICTIONARY
  5
759
330
758
100
AcDbDictionary
280
     1
281
     1
  3
ACAD_XREC_ROUNDTRIP
360
913
  3
BUMPTILE
360
75B
  3
DIFFUSETILE
360
75A
  3
OPACITYTILE
360
75E
  3
REFLECTIONTILE
360
75D
  3
REFRACTIONTILE
360
75F
  3
SPECULARTILE
360
75C
  0
DICTIONARY
  5
751
330
750
100
AcDbDictionary
280
     1
281
     1
  3
ACAD_XREC_ROUNDTRIP
360
912
  3
BUMPTILE
360
753
  3
DIFFUSETILE
360
752
  3
OPACITYTILE
360
756
  3
REFLECTIONTILE
360
755
  3
REFRACTIONTILE
360
757
  3
SPECULARTILE
360
754
  0
DICTIONARY
  5
761
330
760
100
AcDbDictionary
280
     1
281
     1
  3
ACAD_XREC_ROUNDTRIP
360
914
  3
BUMPTILE
360
763
  3
DIFFUSETILE
360
762
  3
OPACITYTILE
360
766
  3
REFLECTIONTILE
360
765
  3
REFRACTIONTILE
360
767
  3
SPECULARTILE
360
764
  0
DICTIONARY
  5
8F8
330
77A
100
AcDbDictionary
280
     1
281
     1
  3
ACAD_ROUNDTRIP_2008_TABLESTYLE_CELLSTYLEMAP
360
8F9
  3
ACAD_XREC_ROUNDTRIP
360
915
  0
XRECORD
  5
8FF
102
{ACAD_REACTORS
330
8FE
102
}
330
8FE
100
AcDbXrecord
280
     1
102
SHADEPLOT
 70
     0
102
SHADEPLOTRESLEVEL
 70
     2
102
SHADEPLOTCUSTOMDPI
 70
   300
  0
XRECORD
  5
901
102
{ACAD_REACTORS
330
900
102
}
330
900
100
AcDbXrecord
280
     1
102
SHADEPLOT
 70
     0
102
SHADEPLOTRESLEVEL
 70
     2
102
SHADEPLOTCUSTOMDPI
 70
   300
  0
XRECORD
  5
8FD
102
{ACAD_REACTORS
330
8FC
102
}
330
8FC
100
AcDbXrecord
280
     1
102
SHADEPLOT
 70
     0
102
SHADEPLOTRESLEVEL
 70
     2
102
SHADEPLOTCUSTOMDPI
 70
   300
  0
XRECORD
  5
913
102
{ACAD_REACTORS
330
759
102
}
330
759
100
AcDbXrecord
280
     1
102
MATERIAL
148
0.0
149
0.0
149
0.0
 93
        0
 94
      127
282
     0
 72
     0
 77
     0
171
     0
175
     0
179
     0
273
     0
  0
XRECORD
  5
75B
102
{ACAD_REACTORS
330
759
102
}
330
759
100
AcDbXrecord
280
     1
270
     1
271
     1
  0
XRECORD
  5
75A
102
{ACAD_REACTORS
330
759
102
}
330
759
100
AcDbXrecord
280
     1
270
     1
271
     1
  0
XRECORD
  5
75E
102
{ACAD_REACTORS
330
759
102
}
330
759
100
AcDbXrecord
280
     1
270
     1
271
     1
  0
XRECORD
  5
75D
102
{ACAD_REACTORS
330
759
102
}
330
759
100
AcDbXrecord
280
     1
270
     1
271
     1
  0
XRECORD
  5
75F
102
{ACAD_REACTORS
330
759
102
}
330
759
100
AcDbXrecord
280
     1
270
     1
271
     1
  0
XRECORD
  5
75C
102
{ACAD_REACTORS
330
759
102
}
330
759
100
AcDbXrecord
280
     1
270
     1
271
     1
  0
XRECORD
  5
912
102
{ACAD_REACTORS
330
751
102
}
330
751
100
AcDbXrecord
280
     1
102
MATERIAL
148
0.0
149
0.0
149
0.0
 93
        0
 94
      127
282
     0
 72
     0
 77
     0
171
     0
175
     0
179
     0
273
     0
  0
XRECORD
  5
753
102
{ACAD_REACTORS
330
751
102
}
330
751
100
AcDbXrecord
280
     1
270
     1
271
     1
  0
XRECORD
  5
752
102
{ACAD_REACTORS
330
751
102
}
330
751
100
AcDbXrecord
280
     1
270
     1
271
     1
  0
XRECORD
  5
756
102
{ACAD_REACTORS
330
751
102
}
330
751
100
AcDbXrecord
280
     1
270
     1
271
     1
  0
XRECORD
  5
755
102
{ACAD_REACTORS
330
751
102
}
330
751
100
AcDbXrecord
280
     1
270
     1
271
     1
  0
XRECORD
  5
757
102
{ACAD_REACTORS
330
751
102
}
330
751
100
AcDbXrecord
280
     1
270
     1
271
     1
  0
XRECORD
  5
754
102
{ACAD_REACTORS
330
751
102
}
330
751
100
AcDbXrecord
280
     1
270
     1
271
     1
  0
XRECORD
  5
914
102
{ACAD_REACTORS
330
761
102
}
330
761
100
AcDbXrecord
280
     1
102
MATERIAL
148
0.0
149
0.0
149
0.0
 93
        0
 94
      127
282
     0
 72
     0
 77
     0
171
     0
175
     0
179
     0
273
     0
  0
XRECORD
  5
763
102
{ACAD_REACTORS
330
761
102
}
330
761
100
AcDbXrecord
280
     1
270
     1
271
     1
  0
XRECORD
  5
762
102
{ACAD_REACTORS
330
761
102
}
330
761
100
AcDbXrecord
280
     1
270
     1
271
     1
  0
XRECORD
  5
766
102
{ACAD_REACTORS
330
761
102
}
330
761
100
AcDbXrecord
280
     1
270
     1
271
     1
  0
XRECORD
  5
765
102
{ACAD_REACTORS
330
761
102
}
330
761
100
AcDbXrecord
280
     1
270
     1
271
     1
  0
XRECORD
  5
767
102
{ACAD_REACTORS
330
761
102
}
330
761
100
AcDbXrecord
280
     1
270
     1
271
     1
  0
XRECORD
  5
764
102
{ACAD_REACTORS
330
761
102
}
330
761
100
AcDbXrecord
280
     1
270
     1
271
     1
  0
CELLSTYLEMAP
  5
8F9
102
{ACAD_REACTORS
330
8F8
102
}
330
8F8
100
AcDbCellStyleMap
 90
        3
300
CELLSTYLE
  1
TABLEFORMAT_BEGIN
 90
        5
170
     1
 91
        0
 92
    32768
 62
   257
 93
        1
300
CONTENTFORMAT
  1
CONTENTFORMAT_BEGIN
 90
        0
 91
        0
 92
      512
 93
        0
300

 40
0.0
140
1.0
 94
        5
 62
     0
340
11
144
6.0
309
CONTENTFORMAT_END
171
     1
301
MARGIN
  1
CELLMARGIN_BEGIN
 40
1.5
 40
1.5
 40
1.5
 40
1.5
 40
4.5
 40
4.5
309
CELLMARGIN_END
 94
        6
 95
        1
302
GRIDFORMAT
  1
GRIDFORMAT_BEGIN
 90
        0
 91
        1
 62
     0
 92
       -2
340
0
 93
        0
 40
1.125
309
GRIDFORMAT_END
 95
        2
302
GRIDFORMAT
  1
GRIDFORMAT_BEGIN
 90
        0
 91
        1
 62
     0
 92
       -2
340
0
 93
        0
 40
1.125
309
GRIDFORMAT_END
 95
        4
302
GRIDFORMAT
  1
GRIDFORMAT_BEGIN
 90
        0
 91
        1
 62
     0
 92
       -2
340
0
 93
        0
 40
1.125
309
GRIDFORMAT_END
 95
        8
302
GRIDFORMAT
  1
GRIDFORMAT_BEGIN
 90
        0
 91
        1
 62
     0
 92
       -2
340
0
 93
        0
 40
1.125
309
GRIDFORMAT_END
 95
       16
302
GRIDFORMAT
  1
GRIDFORMAT_BEGIN
 90
        0
 91
        1
 62
     0
 92
       -2
340
0
 93
        0
 40
1.125
309
GRIDFORMAT_END
 95
       32
302
GRIDFORMAT
  1
GRIDFORMAT_BEGIN
 90
        0
 91
        1
 62
     0
 92
       -2
340
0
 93
        0
 40
1.125
309
GRIDFORMAT_END
309
TABLEFORMAT_END
  1
CELLSTYLE_BEGIN
 90
        1
 91
        1
300
_TITLE
309
CELLSTYLE_END
300
CELLSTYLE
  1
TABLEFORMAT_BEGIN
 90
        5
170
     1
 91
        0
 92
        0
 62
   257
 93
        1
300
CONTENTFORMAT
  1
CONTENTFORMAT_BEGIN
 90
        0
 91
        0
 92
      512
 93
        0
300

 40
0.0
140
1.0
 94
        5
 62
     0
340
11
144
4.5
309
CONTENTFORMAT_END
171
     1
301
MARGIN
  1
CELLMARGIN_BEGIN
 40
1.5
 40
1.5
 40
1.5
 40
1.5
 40
4.5
 40
4.5
309
CELLMARGIN_END
 94
        6
 95
        1
302
GRIDFORMAT
  1
GRIDFORMAT_BEGIN
 90
        0
 91
        1
 62
     0
 92
       -2
340
0
 93
        0
 40
1.125
309
GRIDFORMAT_END
 95
        2
302
GRIDFORMAT
  1
GRIDFORMAT_BEGIN
 90
        0
 91
        1
 62
     0
 92
       -2
340
0
 93
        0
 40
1.125
309
GRIDFORMAT_END
 95
        4
302
GRIDFORMAT
  1
GRIDFORMAT_BEGIN
 90
        0
 91
        1
 62
     0
 92
       -2
340
0
 93
        0
 40
1.125
309
GRIDFORMAT_END
 95
        8
302
GRIDFORMAT
  1
GRIDFORMAT_BEGIN
 90
        0
 91
        1
 62
     0
 92
       -2
340
0
 93
        0
 40
1.125
309
GRIDFORMAT_END
 95
       16
302
GRIDFORMAT
  1
GRIDFORMAT_BEGIN
 90
        0
 91
        1
 62
     0
 92
       -2
340
0
 93
        0
 40
1.125
309
GRIDFORMAT_END
 95
       32
302
GRIDFORMAT
  1
GRIDFORMAT_BEGIN
 90
        0
 91
        1
 62
     0
 92
       -2
340
0
 93
        0
 40
1.125
309
GRIDFORMAT_END
309
TABLEFORMAT_END
  1
CELLSTYLE_BEGIN
 90
        2
 91
        1
300
_HEADER
309
CELLSTYLE_END
300
CELLSTYLE
  1
TABLEFORMAT_BEGIN
 90
        5
170
     1
 91
        0
 92
        0
 62
   257
 93
        1
300
CONTENTFORMAT
  1
CONTENTFORMAT_BEGIN
 90
        0
 91
        0
 92
      512
 93
        0
300

 40
0.0
140
1.0
 94
        2
 62
     0
340
11
144
4.5
309
CONTENTFORMAT_END
171
     1
301
MARGIN
  1
CELLMARGIN_BEGIN
 40
1.5
 40
1.5
 40
1.5
 40
1.5
 40
4.5
 40
4.5
309
CELLMARGIN_END
 94
        6
 95
        1
302
GRIDFORMAT
  1
GRIDFORMAT_BEGIN
 90
        0
 91
        1
 62
     0
 92
       -2
340
0
 93
        0
 40
1.125
309
GRIDFORMAT_END
 95
        2
302
GRIDFORMAT
  1
GRIDFORMAT_BEGIN
 90
        0
 91
        1
 62
     0
 92
       -2
340
0
 93
        0
 40
1.125
309
GRIDFORMAT_END
 95
        4
302
GRIDFORMAT
  1
GRIDFORMAT_BEGIN
 90
        0
 91
        1
 62
     0
 92
       -2
340
0
 93
        0
 40
1.125
309
GRIDFORMAT_END
 95
        8
302
GRIDFORMAT
  1
GRIDFORMAT_BEGIN
 90
        0
 91
        1
 62
     0
 92
       -2
340
0
 93
        0
 40
1.125
309
GRIDFORMAT_END
 95
       16
302
GRIDFORMAT
  1
GRIDFORMAT_BEGIN
 90
        0
 91
        1
 62
     0
 92
       -2
340
0
 93
        0
 40
1.125
309
GRIDFORMAT_END
 95
       32
302
GRIDFORMAT
  1
GRIDFORMAT_BEGIN
 90
        0
 91
        1
 62
     0
 92
       -2
340
0
 93
        0
 40
1.125
309
GRIDFORMAT_END
309
TABLEFORMAT_END
  1
CELLSTYLE_BEGIN
 90
        3
 91
        2
300
_DATA
309
CELLSTYLE_END
  0
XRECORD
  5
915
102
{ACAD_REACTORS
330
8F8
102
}
330
8F8
100
AcDbXrecord
280
     1
102
ACAD_ROUNDTRIP_PRE2007_TABLESTYLE
 90
      512
 91
        0
  1

 92
      512
 93
        0
  2

 94
      512
 95
        0
  3

  0
ENDSEC
  0
EOF
