  0
SECTION
  2
HEADER
  9
$ACADVER
  1
AC1021
  9
$ACADMAINTVER
 70
    53
  9
$DWGCODEPAGE
  3
ANSI_1250
  9
$LASTSAVEDBY
  1
Darek
  9
$INSBASE
 10
0.0
 20
0.0
 30
0.0
  9
$EXTMIN
 10
1993.99516619637
 20
1285.048389803563
 30
0.0
  9
$EXTMAX
 10
7377.127314670855
 20
4596.487104501959
 30
5.0
  9
$LIMMIN
 10
0.0
 20
0.0
  9
$LIMMAX
 10
420.0
 20
297.0
  9
$ORTHOMODE
 70
     1
  9
$REGENMODE
 70
     1
  9
$FILLMODE
 70
     1
  9
$QTEXTMODE
 70
     0
  9
$MIRRTEXT
 70
     0
  9
$LTSCALE
 40
1.0
  9
$ATTMODE
 70
     1
  9
$TEXTSIZE
 40
2.5
  9
$TRACEWID
 40
1.0
  9
$TEXTSTYLE
  7
Standard
  9
$CLAYER
  8
wymiary
  9
$CELTYPE
  6
ByLayer
  9
$CECOLOR
 62
   256
  9
$CELTSCALE
 40
1.0
  9
$DISPSILH
 70
     0
  9
$DIMSCALE
 40
1.0
  9
$DIMASZ
 40
32.0
  9
$DIMEXO
 40
5.0
  9
$DIMDLI
 40
0.38
  9
$DIMRND
 40
0.0
  9
$DIMDLE
 40
0.0
  9
$DIMEXE
 40
1.0
  9
$DIMTP
 40
0.0
  9
$DIMTM
 40
0.0
  9
$DIMTXT
 40
32.0
  9
$DIMCEN
 40
0.09
  9
$DIMTSZ
 40
0.0
  9
$DIMTOL
 70
     0
  9
$DIMLIM
 70
     0
  9
$DIMTIH
 70
     0
  9
$DIMTOH
 70
     1
  9
$DIMSE1
 70
     0
  9
$DIMSE2
 70
     0
  9
$DIMTAD
 70
     1
  9
$DIMZIN
 70
     0
  9
$DIMBLK
  1

  9
$DIMASO
 70
     1
  9
$DIMSHO
 70
     1
  9
$DIMPOST
  1

  9
$DIMAPOST
  1

  9
$DIMALT
 70
     0
  9
$DIMALTD
 70
     2
  9
$DIMALTF
 40
25.4
  9
$DIMLFAC
 40
1.0
  9
$DIMTOFL
 70
     0
  9
$DIMTVP
 40
0.0
  9
$DIMTIX
 70
     0
  9
$DIMSOXD
 70
     0
  9
$DIMSAH
 70
     0
  9
$DIMBLK1
  1

  9
$DIMBLK2
  1

  9
$DIMSTYLE
  2
CENTRALA
  9
$DIMCLRD
 70
     0
  9
$DIMCLRE
 70
     0
  9
$DIMCLRT
 70
     0
  9
$DIMTFAC
 40
1.0
  9
$DIMGAP
 40
8.0
  9
$DIMJUST
 70
     0
  9
$DIMSD1
 70
     0
  9
$DIMSD2
 70
     0
  9
$DIMTOLJ
 70
     1
  9
$DIMTZIN
 70
     0
  9
$DIMALTZ
 70
     0
  9
$DIMALTTZ
 70
     0
  9
$DIMUPT
 70
     0
  9
$DIMDEC
 70
     0
  9
$DIMTDEC
 70
     0
  9
$DIMALTU
 70
     2
  9
$DIMALTTD
 70
     2
  9
$DIMTXSTY
  7
Standard
  9
$DIMAUNIT
 70
     0
  9
$DIMADEC
 70
     0
  9
$DIMALTRND
 40
0.0
  9
$DIMAZIN
 70
     0
  9
$DIMDSEP
 70
    46
  9
$DIMATFIT
 70
     0
  9
$DIMFRAC
 70
     0
  9
$DIMLDRBLK
  1

  9
$DIMLUNIT
 70
     2
  9
$DIMLWD
 70
    -2
  9
$DIMLWE
 70
    -2
  9
$DIMTMOVE
 70
     2
  9
$DIMFXL
 40
1.0
  9
$DIMFXLON
 70
     0
  9
$DIMJOGANG
 40
0.7853981633974483
  9
$DIMTFILL
 70
     0
  9
$DIMTFILLCLR
 70
     0
  9
$DIMARCSYM
 70
     1
  9
$DIMLTYPE
  6

  9
$DIMLTEX1
  6

  9
$DIMLTEX2
  6

  9
$LUNITS
 70
     2
  9
$LUPREC
 70
     4
  9
$SKETCHINC
 40
1.0
  9
$FILLETRAD
 40
0.0
  9
$AUNITS
 70
     0
  9
$AUPREC
 70
     0
  9
$MENU
  1
.
  9
$ELEVATION
 40
0.0
  9
$PELEVATION
 40
0.0
  9
$THICKNESS
 40
0.0
  9
$LIMCHECK
 70
     0
  9
$CHAMFERA
 40
0.0
  9
$CHAMFERB
 40
0.0
  9
$CHAMFERC
 40
0.0
  9
$CHAMFERD
 40
0.0
  9
$SKPOLY
 70
     0
  9
$TDCREATE
 40
2456689.604787570
  9
$TDUCREATE
 40
2456689.521454236
  9
$TDUPDATE
 40
2458032.448841829
  9
$TDUUPDATE
 40
2458032.365508496
  9
$TDINDWG
 40
0.4195633565
  9
$TDUSRTIMER
 40
0.4195577894
  9
$USRTIMER
 70
     1
  9
$ANGBASE
 50
0.0
  9
$ANGDIR
 70
     0
  9
$PDMODE
 70
     0
  9
$PDSIZE
 40
0.0
  9
$PLINEWID
 40
0.0
  9
$SPLFRAME
 70
     0
  9
$SPLINETYPE
 70
     6
  9
$SPLINESEGS
 70
     8
  9
$HANDSEED
  5
2D59
  9
$SURFTAB1
 70
     6
  9
$SURFTAB2
 70
     6
  9
$SURFTYPE
 70
     6
  9
$SURFU
 70
     6
  9
$SURFV
 70
     6
  9
$UCSBASE
  2

  9
$UCSNAME
  2

  9
$UCSORG
 10
0.0
 20
0.0
 30
0.0
  9
$UCSXDIR
 10
1.0
 20
0.0
 30
0.0
  9
$UCSYDIR
 10
0.0
 20
1.0
 30
0.0
  9
$UCSORTHOREF
  2

  9
$UCSORTHOVIEW
 70
     0
  9
$UCSORGTOP
 10
0.0
 20
0.0
 30
0.0
  9
$UCSORGBOTTOM
 10
0.0
 20
0.0
 30
0.0
  9
$UCSORGLEFT
 10
0.0
 20
0.0
 30
0.0
  9
$UCSORGRIGHT
 10
0.0
 20
0.0
 30
0.0
  9
$UCSORGFRONT
 10
0.0
 20
0.0
 30
0.0
  9
$UCSORGBACK
 10
0.0
 20
0.0
 30
0.0
  9
$PUCSBASE
  2

  9
$PUCSNAME
  2

  9
$PUCSORG
 10
0.0
 20
0.0
 30
0.0
  9
$PUCSXDIR
 10
1.0
 20
0.0
 30
0.0
  9
$PUCSYDIR
 10
0.0
 20
1.0
 30
0.0
  9
$PUCSORTHOREF
  2

  9
$PUCSORTHOVIEW
 70
     0
  9
$PUCSORGTOP
 10
0.0
 20
0.0
 30
0.0
  9
$PUCSORGBOTTOM
 10
0.0
 20
0.0
 30
0.0
  9
$PUCSORGLEFT
 10
0.0
 20
0.0
 30
0.0
  9
$PUCSORGRIGHT
 10
0.0
 20
0.0
 30
0.0
  9
$PUCSORGFRONT
 10
0.0
 20
0.0
 30
0.0
  9
$PUCSORGBACK
 10
0.0
 20
0.0
 30
0.0
  9
$USERI1
 70
     0
  9
$USERI2
 70
     0
  9
$USERI3
 70
     0
  9
$USERI4
 70
     0
  9
$USERI5
 70
     0
  9
$USERR1
 40
0.0
  9
$USERR2
 40
0.0
  9
$USERR3
 40
0.0
  9
$USERR4
 40
0.0
  9
$USERR5
 40
0.0
  9
$WORLDVIEW
 70
     1
  9
$SHADEDGE
 70
     3
  9
$SHADEDIF
 70
    70
  9
$TILEMODE
 70
     1
  9
$MAXACTVP
 70
    64
  9
$PINSBASE
 10
0.0
 20
0.0
 30
0.0
  9
$PLIMCHECK
 70
     0
  9
$PEXTMIN
 10
0.0
 20
0.0
 30
0.0
  9
$PEXTMAX
 10
0.0
 20
0.0
 30
0.0
  9
$PLIMMIN
 10
0.0
 20
0.0
  9
$PLIMMAX
 10
12.0
 20
9.0
  9
$UNITMODE
 70
     0
  9
$VISRETAIN
 70
     1
  9
$PLINEGEN
 70
     0
  9
$PSLTSCALE
 70
     1
  9
$TREEDEPTH
 70
  3020
  9
$CMLSTYLE
  2
Standard
  9
$CMLJUST
 70
     0
  9
$CMLSCALE
 40
20.0
  9
$PROXYGRAPHICS
 70
     1
  9
$MEASUREMENT
 70
     1
  9
$CELWEIGHT
370
    -1
  9
$ENDCAPS
280
     0
  9
$JOINSTYLE
280
     0
  9
$LWDISPLAY
290
     0
  9
$INSUNITS
 70
     4
  9
$HYPERLINKBASE
  1

  9
$STYLESHEET
  1

  9
$XEDIT
290
     1
  9
$CEPSNTYPE
380
     0
  9
$PSTYLEMODE
290
     1
  9
$FINGERPRINTGUID
  2
{B14C3A55-DF71-4A3E-81F7-2D0C5E0F999F}
  9
$VERSIONGUID
  2
{E9EBF6FD-732F-4D25-9A64-79BE2386D4A9}
  9
$EXTNAMES
290
     1
  9
$PSVPSCALE
 40
0.0
  9
$OLESTARTUP
290
     0
  9
$SORTENTS
280
   127
  9
$INDEXCTL
280
     0
  9
$HIDETEXT
280
     1
  9
$XCLIPFRAME
290
     0
  9
$HALOGAP
280
     0
  9
$OBSCOLOR
 70
   257
  9
$OBSLTYPE
280
     0
  9
$INTERSECTIONDISPLAY
280
     0
  9
$INTERSECTIONCOLOR
 70
   257
  9
$DIMASSOC
280
     2
  9
$PROJECTNAME
  1

  9
$CAMERADISPLAY
290
     0
  9
$LENSLENGTH
 40
50.0
  9
$CAMERAHEIGHT
 40
0.0
  9
$STEPSPERSEC
 40
2.0
  9
$STEPSIZE
 40
6.0
  9
$3DDWFPREC
 40
2.0
  9
$PSOLWIDTH
 40
5.0
  9
$PSOLHEIGHT
 40
80.0
  9
$LOFTANG1
 40
1.570795999999999
  9
$LOFTANG2
 40
1.570795999999999
  9
$LOFTMAG1
 40
0.0
  9
$LOFTMAG2
 40
0.0
  9
$LOFTPARAM
 70
     7
  9
$LOFTNORMALS
280
     1
  9
$LATITUDE
 40
37.795
  9
$LONGITUDE
 40
-122.394
  9
$NORTHDIRECTION
 40
0.0
  9
$TIMEZONE
 70
 -8000
  9
$LIGHTGLYPHDISPLAY
280
     1
  9
$TILEMODELIGHTSYNCH
280
     1
  9
$CMATERIAL
347
EC
  9
$SOLIDHIST
280
     1
  9
$SHOWHIST
280
     1
  9
$DWFFRAME
280
     2
  9
$DGNFRAME
280
     0
  9
$REALWORLDSCALE
290
     1
  9
$INTERFERECOLOR
 62
     1
  9
$INTERFEREOBJVS
345
F9
  9
$INTERFEREVPVS
346
F6
  9
$CSHADOW
280
     0
  9
$SHADOWPLANELOCATION
 40
0.0
  0
ENDSEC
  0
SECTION
  2
CLASSES
  0
CLASS
  1
ACDBDICTIONARYWDFLT
  2
AcDbDictionaryWithDefault
  3
ObjectDBX Classes
 90
        0
 91
        1
280
     0
281
     0
  0
CLASS
  1
DICTIONARYVAR
  2
AcDbDictionaryVar
  3
ObjectDBX Classes
 90
        0
 91
       12
280
     0
281
     0
  0
CLASS
  1
TABLESTYLE
  2
AcDbTableStyle
  3
ObjectDBX Classes
 90
     4095
 91
        1
280
     0
281
     0
  0
CLASS
  1
MATERIAL
  2
AcDbMaterial
  3
ObjectDBX Classes
 90
     1153
 91
        3
280
     0
281
     0
  0
CLASS
  1
VISUALSTYLE
  2
AcDbVisualStyle
  3
ObjectDBX Classes
 90
     4095
 91
       19
280
     0
281
     0
  0
CLASS
  1
SCALE
  2
AcDbScale
  3
ObjectDBX Classes
 90
     1153
 91
       17
280
     0
281
     0
  0
CLASS
  1
MLEADERSTYLE
  2
AcDbMLeaderStyle
  3
ACDB_MLEADERSTYLE_CLASS
 90
     4095
 91
        2
280
     0
281
     0
  0
CLASS
  1
CELLSTYLEMAP
  2
AcDbCellStyleMap
  3
ObjectDBX Classes
 90
     1152
 91
        3
280
     0
281
     0
  0
CLASS
  1
EXACXREFPANELOBJECT
  2
ExAcXREFPanelObject
  3
EXAC_ESW
 90
     1025
 91
        0
280
     0
281
     0
  0
CLASS
  1
NPOCOLLECTION
  2
AcDbImpNonPersistentObjectsCollection
  3
ObjectDBX Classes
 90
     1153
 91
        0
280
     0
281
     0
  0
CLASS
  1
LAYER_INDEX
  2
AcDbLayerIndex
  3
ObjectDBX Classes
 90
        0
 91
        0
280
     0
281
     0
  0
CLASS
  1
SPATIAL_INDEX
  2
AcDbSpatialIndex
  3
ObjectDBX Classes
 90
        0
 91
        0
280
     0
281
     0
  0
CLASS
  1
IDBUFFER
  2
AcDbIdBuffer
  3
ObjectDBX Classes
 90
        0
 91
        0
280
     0
281
     0
  0
CLASS
  1
DIMASSOC
  2
AcDbDimAssoc
  3
"AcDbDimAssoc|Product Desc:     AcDim ARX App For Dimension|Company:          Autodesk, Inc.|WEB Address:      www.autodesk.com"
 90
        0
 91
       20
280
     0
281
     0
  0
CLASS
  1
SORTENTSTABLE
  2
AcDbSortentsTable
  3
ObjectDBX Classes
 90
        0
 91
        2
280
     0
281
     0
  0
CLASS
  1
AEC_REFEDIT_STATUS_TRACKER
  2
AecDbRefEditStatusTracker
  3
AecArchBase50|Product Desc: Autodesk Architectural Desktop 2007 |Company: Autodesk,Inc. |WEB Address: www.autodesk.com
 90
      129
 91
        0
280
     0
281
     0
  0
ENDSEC
  0
SECTION
  2
TABLES
  0
TABLE
  2
VPORT
  5
8
102
{ACAD_XDICTIONARY
360
34D
102
}
330
0
100
AcDbSymbolTable
 70
     1
  0
VPORT
  5
EA
330
8
100
AcDbSymbolTableRecord
100
AcDbViewportTableRecord
  2
*Active
 70
     0
 10
0.0
 20
0.0
 11
1.0
 21
1.0
 12
4726.763864368747
 22
2875.708175707842
 13
0.0
 23
0.0
 14
10.0
 24
10.0
 15
10.0
 25
10.0
 16
0.0
 26
0.0
 36
1.0
 17
0.0
 27
0.0
 37
0.0
 40
3254.193751276464
 41
2.121372031662269
 42
50.0
 43
0.0
 44
0.0
 50
0.0
 51
0.0
 71
     0
 72
  1000
 73
     1
 74
     3
 75
     0
 76
     0
 77
     0
 78
     0
281
     0
 65
     1
110
0.0
120
0.0
130
0.0
111
1.0
121
0.0
131
0.0
112
0.0
122
1.0
132
0.0
 79
     0
146
0.0
348
F5
 60
     3
 61
     5
292
     1
282
     1
141
0.0
142
0.0
 63
   250
421
  3355443
  0
ENDTAB
  0
TABLE
  2
LTYPE
  5
5
330
0
100
AcDbSymbolTable
 70
     3
  0
LTYPE
  5
14
330
5
100
AcDbSymbolTableRecord
100
AcDbLinetypeTableRecord
  2
ByBlock
 70
     0
  3

 72
    65
 73
     0
 40
0.0
  0
LTYPE
  5
15
330
5
100
AcDbSymbolTableRecord
100
AcDbLinetypeTableRecord
  2
ByLayer
 70
     0
  3

 72
    65
 73
     0
 40
0.0
  0
LTYPE
  5
16
330
5
100
AcDbSymbolTableRecord
100
AcDbLinetypeTableRecord
  2
Continuous
 70
     0
  3
Solid line
 72
    65
 73
     0
 40
0.0
  0
LTYPE
  5
56C
330
5
100
AcDbSymbolTableRecord
100
AcDbLinetypeTableRecord
  2
DASHDOT
 70
     0
  3
Dash dot __ . __ . __ . __ . __ . __ . __ . __
 72
    65
 73
     4
 40
1.0
 49
0.5
 74
     0
 49
-0.25
 74
     0
 49
0.0
 74
     0
 49
-0.25
 74
     0
  0
ENDTAB
  0
TABLE
  2
LAYER
  5
2
102
{ACAD_XDICTIONARY
360
579
102
}
330
0
100
AcDbSymbolTable
 70
    10
  0
LAYER
  5
10
102
{ACAD_XDICTIONARY
360
13C
102
}
330
2
100
AcDbSymbolTableRecord
100
AcDbLayerTableRecord
  2
0
 70
     0
 62
     7
  6
Continuous
370
    -3
390
F
347
EE
  0
LAYER
  5
222
330
2
100
AcDbSymbolTableRecord
100
AcDbLayerTableRecord
  2
Defpoints
 70
     0
 62
     7
  6
Continuous
290
     0
370
    -3
390
F
347
EE
  0
LAYER
  5
56D
102
{ACAD_XDICTIONARY
360
56E
102
}
330
2
100
AcDbSymbolTableRecord
100
AcDbLayerTableRecord
  2
WARSTWA_1
 70
     0
 62
     1
  6
Continuous
370
    -3
390
F
347
EE
  0
LAYER
  5
56F
102
{ACAD_XDICTIONARY
360
570
102
}
330
2
100
AcDbSymbolTableRecord
100
AcDbLayerTableRecord
  2
wymiary
 70
     0
 62
     1
  6
Continuous
370
    -3
390
F
347
EE
  0
LAYER
  5
571
102
{ACAD_XDICTIONARY
360
572
102
}
330
2
100
AcDbSymbolTableRecord
100
AcDbLayerTableRecord
  2
Centrala
 70
     0
 62
     7
  6
Continuous
370
    -3
390
F
347
EE
  0
LAYER
  5
573
102
{ACAD_XDICTIONARY
360
574
102
}
330
2
100
AcDbSymbolTableRecord
100
AcDbLayerTableRecord
  2
osie
 70
     0
 62
     2
  6
DASHDOT
370
    -3
390
F
347
EE
1001
AcAecLayerStandard
1000

1000

  0
ENDTAB
  0
TABLE
  2
STYLE
  5
3
330
0
100
AcDbSymbolTable
 70
     3
  0
STYLE
  5
11
330
3
100
AcDbSymbolTableRecord
100
AcDbTextStyleTableRecord
  2
Standard
 70
     0
 40
0.0
 41
1.0
 50
0.0
 71
     0
 42
2.5
  3
arial.ttf
  4

1001
ACAD
1000
Arial
1071
       34
  0
STYLE
  5
575
330
3
100
AcDbSymbolTableRecord
100
AcDbTextStyleTableRecord
  2
ARIAL
 70
     0
 40
1.0
 41
1.0
 50
0.0
 71
     0
 42
1.0
  3
Arial
  4

  0
ENDTAB
  0
TABLE
  2
VIEW
  5
6
330
0
100
AcDbSymbolTable
 70
     0
  0
ENDTAB
  0
TABLE
  2
UCS
  5
7
330
0
100
AcDbSymbolTable
 70
     0
  0
ENDTAB
  0
TABLE
  2
APPID
  5
9
330
0
100
AcDbSymbolTable
 70
    14
  0
APPID
  5
12
330
9
100
AcDbSymbolTableRecord
100
AcDbRegAppTableRecord
  2
ACAD
 70
     0
  0
APPID
  5
9E
330
9
100
AcDbSymbolTableRecord
100
AcDbRegAppTableRecord
  2
ACAD_PSEXT
 70
     0
  0
APPID
  5
133
330
9
100
AcDbSymbolTableRecord
100
AcDbRegAppTableRecord
  2
AcadAnnoPO
 70
     0
  0
APPID
  5
134
330
9
100
AcDbSymbolTableRecord
100
AcDbRegAppTableRecord
  2
AcadAnnotative
 70
     0
  0
APPID
  5
135
330
9
100
AcDbSymbolTableRecord
100
AcDbRegAppTableRecord
  2
ACAD_DSTYLE_DIMJAG
 70
     0
  0
APPID
  5
136
330
9
100
AcDbSymbolTableRecord
100
AcDbRegAppTableRecord
  2
ACAD_DSTYLE_DIMTALN
 70
     0
  0
APPID
  5
165
330
9
100
AcDbSymbolTableRecord
100
AcDbRegAppTableRecord
  2
ACAD_MLEADERVER
 70
     0
  0
APPID
  5
1F9
330
9
100
AcDbSymbolTableRecord
100
AcDbRegAppTableRecord
  2
ACAD_EXEMPT_FROM_CAD_STANDARDS
 70
     0
  0
APPID
  5
2D1
330
9
100
AcDbSymbolTableRecord
100
AcDbRegAppTableRecord
  2
ACAD_DSTYLE_DIMRADIAL_EXTENSION
 70
     0
  0
APPID
  5
577
330
9
100
AcDbSymbolTableRecord
100
AcDbRegAppTableRecord
  2
ACAD_DSTYLE_DIMBREAK
 70
     0
  0
APPID
  5
578
330
9
100
AcDbSymbolTableRecord
100
AcDbRegAppTableRecord
  2
AcAecLayerStandard
 70
     0
  0
APPID
  5
F80
330
9
100
AcDbSymbolTableRecord
100
AcDbRegAppTableRecord
  2
ACAD_DSTYLE_DIMARC_LENGTH_SYMBOL
 70
     0
  0
APPID
  5
21CE
330
9
100
AcDbSymbolTableRecord
100
AcDbRegAppTableRecord
  2
AcDbDynamicBlockGUID
 70
     0
  0
APPID
  5
21CF
330
9
100
AcDbSymbolTableRecord
100
AcDbRegAppTableRecord
  2
AcDbBlockRepETag
 70
     0
  0
ENDTAB
  0
TABLE
  2
DIMSTYLE
  5
A
330
0
100
AcDbSymbolTable
 70
     4
100
AcDbDimStyleTable
 71
     1
340
576
  0
DIMSTYLE
105
1B0
330
A
100
AcDbSymbolTableRecord
100
AcDbDimStyleTableRecord
  2
Standard
 70
     0
340
11
  0
DIMSTYLE
105
576
102
{ACAD_REACTORS
330
2A8F
330
2AA7
330
2AED
330
2B27
330
2B39
330
2B4B
330
2B5D
330
2B75
330
2B8D
330
2BA5
330
2BBD
330
2BD5
330
2BEF
330
2C07
330
2C1F
330
2C4F
330
2C67
330
2C8C
330
2CA4
330
2CBC
330
2CD4
102
}
330
A
100
AcDbSymbolTableRecord
100
AcDbDimStyleTableRecord
  2
CENTRALA
 70
     0
 41
32.0
 42
5.0
 44
1.0
 73
     0
 77
     1
 90
     1
140
32.0
147
8.0
271
     0
272
     0
279
     2
289
     0
340
11
1001
ACAD_DSTYLE_DIMBREAK
1070
   391
1040
0.125
1001
ACAD_DSTYLE_DIMJAG
1070
   388
1040
1.5
1001
ACAD_DSTYLE_DIMTALN
1070
   392
1070
     0
  0
ENDTAB
  0
TABLE
  2
BLOCK_RECORD
  5
1
330
0
100
AcDbSymbolTable
 70
   186
  0
BLOCK_RECORD
  5
1F
102
{ACAD_XDICTIONARY
360
1CE
102
}
330
1
100
AcDbSymbolTableRecord
100
AcDbBlockTableRecord
  2
*Model_Space
340
22
 70
     0
280
     1
281
     0
  0
BLOCK_RECORD
  5
D2
330
1
100
AcDbSymbolTableRecord
100
AcDbBlockTableRecord
  2
*Paper_Space
340
D3
 70
     0
280
     1
281
     0
  0
BLOCK_RECORD
  5
D6
330
1
100
AcDbSymbolTableRecord
100
AcDbBlockTableRecord
  2
*Paper_Space0
340
D7
 70
     0
280
     1
281
     0
  0
BLOCK_RECORD
  5
1EC7
102
{ACAD_XDICTIONARY
360
1EC8
102
}
330
1
100
AcDbSymbolTableRecord
100
AcDbBlockTableRecord
  2
GALKA
340
0
102
{BLKREFS
331
281C
331
281D
331
281E
331
281F
331
2820
331
2821
331
2822
331
2823
331
2824
331
2825
102
}
 70
     0
280
     1
281
     0
1001
AcDbDynamicBlockGUID
1000
{11DD13DA-2B0D-4CEF-8BBD-7FA81B7EA628}
1001
AcDbBlockRepETag
1070
     1
1071
        2
  0
BLOCK_RECORD
  5
237A
330
1
100
AcDbSymbolTableRecord
100
AcDbBlockTableRecord
  2
Galka-bok
340
0
310
2800000020000000200000000100080000000000000400000000000000000000000000000000000000000000000080000080000000808000800000008000800080800000C0C0C000C0DCC000F0CAA6000020400000206000002080000020A0000020C0000020E00000400000004020000040400000406000004080000040A0
310
000040C0000040E00000600000006020000060400000606000006080000060A0000060C0000060E00000800000008020000080400000806000008080000080A0000080C0000080E00000A0000000A0200000A0400000A0600000A0800000A0A00000A0C00000A0E00000C0000000C0200000C0400000C0600000C0800000C0
310
A00000C0C00000C0E00000E0000000E0200000E0400000E0600000E0800000E0A00000E0C00000E0E00040000000400020004000400040006000400080004000A0004000C0004000E00040200000402020004020400040206000402080004020A0004020C0004020E000404000004040200040404000404060004040800040
310
40A0004040C0004040E00040600000406020004060400040606000406080004060A0004060C0004060E00040800000408020004080400040806000408080004080A0004080C0004080E00040A0000040A0200040A0400040A0600040A0800040A0A00040A0C00040A0E00040C0000040C0200040C0400040C0600040C08000
310
40C0A00040C0C00040C0E00040E0000040E0200040E0400040E0600040E0800040E0A00040E0C00040E0E00080000000800020008000400080006000800080008000A0008000C0008000E00080200000802020008020400080206000802080008020A0008020C0008020E00080400000804020008040400080406000804080
310
008040A0008040C0008040E00080600000806020008060400080606000806080008060A0008060C0008060E00080800000808020008080400080806000808080008080A0008080C0008080E00080A0000080A0200080A0400080A0600080A0800080A0A00080A0C00080A0E00080C0000080C0200080C0400080C0600080C0
310
800080C0A00080C0C00080C0E00080E0000080E0200080E0400080E0600080E0800080E0A00080E0C00080E0E000C0000000C0002000C0004000C0006000C0008000C000A000C000C000C000E000C0200000C0202000C0204000C0206000C0208000C020A000C020C000C020E000C0400000C0402000C0404000C0406000C0
310
408000C040A000C040C000C040E000C0600000C0602000C0604000C0606000C0608000C060A000C060C000C060E000C0800000C0802000C0804000C0806000C0808000C080A000C080C000C080E000C0A00000C0A02000C0A04000C0A06000C0A08000C0A0A000C0A0C000C0A0E000C0C00000C0C02000C0C04000C0C06000
310
C0C08000C0C0A000F0FBFF00A4A0A000808080000000FF0000FF000000FFFF00FF000000FF00FF00FFFF0000FFFFFF00FFFFFFFFFFFFFFFFFFFFFFFFFFFFFFFFFFFFFFFFFFFFFFFFFFFFFFFFFFFFFFFFFFFFFFFFFFFFFFFFFFFFFFFFFFFFFFFFFFFFFFFFFFFFFFFFFFFFFFFFFFFFFFFFFFFFFFFFFFFFFFFFFFFFFFFFFFFFFF
310
FFFFFFFFFFFFFFFFFFFFFFFFFFFFFFFFFFFFFFFFFFFFFFFFFFFFFFFFFFFFFFFFFFFFFFFFFFFFFFFFFFFFFFFFFFFFFFFFFFFFFFFFFFFFFFFFFFFFFFFFFFFFFFFFFFFFFFFFFFFFFFFFFFFFFFFFFFFFFFFFFFFFFFFFFFFFFFFFFFFFFFFFFFFFFFFFFFFFFFFFFFFFFFFFFFFFFFFFFFFFFFFFFFFFFFFFFFFFFFFFFFFFFFFFFFFFFF
310
FFFFFFFFFFFFFFFFFFFFFFFFFFFFFFFFFFFFFFFFFFFFFFFFFFFFFCFCFCFCFCFCFCFCFCFCFCFCFCFCFCFCFFFFFFFFFFFFFFFFFFFFFFFFFFFFFFFFFCFFFFFFFFFFFFFFFFFFFFFFFFFFFFFCFFFFFFFFFFFFFFFFFFFFFFFFFFFFFFFFFCFFFFFFFFFFFFFFFFFFFFFFFFFFFFFCFFFFFFFFFFFFFFFFFFFFFFFFFFFFFFFFFCFFFFFFFF
310
FFFFFFFFFFFFFFFFFFFFFCFFFFFFFFFFFFFFFFFFFFFFFFFFFFFFFFFCFFFFFFFFFFFFFFFFFFFFFFFFFFFFFCFFFFFFFFFFFFFFFFFFFFFFFFFFFFFFFFFCFFFFFFFFFFFFFFFFFFFFFFFFFFFFFCFFFFFFFFFFFFFFFFFFFCFCFCFCFCFCFCFCFCFCFCFCFCFCFCFCFCFCFCFCFCFCFCFCFCFCFCFCFCFCFFFFFCFFFFFCFFFFFFFFFFFFFF
310
FFFFFFFFFFFFFFFFFFFFFFFFFFFFFFFFFFFFFCFFFFFCFFFFFCFFFFFFFFFFFFFFFFFFFFFFFFFFFFFFFFFFFFFFFFFFFFFFFFFFFCFFFFFCFFFFFCFFFFFFFFFFFFFFFFFFFFFFFFFFFFFFFFFFFFFFFFFFFFFFFFFFFCFFFFFCFFFFFCFFFFFFFFFFFFFFFFFFFFFFFFFFFFFFFFFFFFFFFFFFFFFFFFFFFCFFFFFCFFFCFCFFFFFFFFFFFF
310
FFFFFFFFFFFFFFFFFFFFFFFFFFFFFFFFFFFCFCFCFFFFFFFCFCFCFCFFFFFFFFFFFFFFFFFFFFFFFFFFFFFFFFFFFFFFFFFFFCFCFFFCFFFFFFFCFCFFFCFFFFFFFFFFFFFFFFFFFFFFFFFFFFFFFFFFFFFFFFFCFCFFFCFFFFFFFFFFFCFFFFFCFFFFFFFFFFFFFFFFFFFFFFFFFFFFFFFFFFFCFCFFFFFFFCFFFFFFFFFFFCFCFFFCFCFFFF
310
FFFFFFFFFFFFFFFFFFFFFFFFFCFCFCFFFFFFFCFFFFFFFFFFFFFFFCFCFFFCFCFFFFFFFFFFFFFFFFFFFFFCFCFCFCFFFFFFFCFCFFFFFFFFFFFFFFFFFFFCFCFCFCFCFCFCFCFCFCFCFCFCFCFCFCFCFCFCFCFCFFFFFFFFFFFFFFFFFFFFFFFFFFFFFFFFFFFFFFFFFFFFFFFFFFFFFFFFFFFFFFFFFFFFFFFFFFFFFFFFFFFFFFFFFFFFFF
310
FFFFFFFFFFFFFFFFFFFFFFFFFFFFFFFFFFFFFFFFFFFFFFFFFFFFFFFFFFFFFFFFFFFFFFFFFFFFFFFFFFFFFFFFFFFFFFFFFFFFFFFFFFFFFFFFFFFFFFFFFFFFFFFFFFFFFFFFFFFFFFFFFFFFFFFFFFFFFFFFFFFFFFFFFFFFFFFFFFFFFFFFFFFFFFFFFFFFFFFFFFFFFFFFFFFFFFFFFFFFFFFFFFFFFFFFFFFFFFFFFFFFFFFFFFFFFF
310
FFFFFFFFFFFFFFFFFFFFFFFFFFFFFFFFFFFFFFFFFFFFFFFFFFFFFFFFFFFFFFFFFFFFFFFFFFFFFFFFFFFFFFFFFFFFFFFFFFFFFFFFFFFFFFFF
102
{BLKREFS
331
285C
331
285D
331
285E
331
2860
331
2861
331
2862
331
28DD
331
28DE
331
28DF
331
28E0
331
28E1
331
28E2
331
28E5
331
28E6
102
}
 70
     4
280
     1
281
     0
  0
BLOCK_RECORD
  5
2A90
330
1
100
AcDbSymbolTableRecord
100
AcDbBlockTableRecord
  2
*D161
340
0
 70
     0
280
     1
281
     0
  0
BLOCK_RECORD
  5
2AA8
330
1
100
AcDbSymbolTableRecord
100
AcDbBlockTableRecord
  2
*D162
340
0
 70
     0
280
     1
281
     0
  0
BLOCK_RECORD
  5
2AEE
330
1
100
AcDbSymbolTableRecord
100
AcDbBlockTableRecord
  2
*D164
340
0
 70
     0
280
     1
281
     0
  0
BLOCK_RECORD
  5
2B28
330
1
100
AcDbSymbolTableRecord
100
AcDbBlockTableRecord
  2
*D167
340
0
 70
     0
280
     1
281
     0
  0
BLOCK_RECORD
  5
2B3A
330
1
100
AcDbSymbolTableRecord
100
AcDbBlockTableRecord
  2
*D168
340
0
 70
     0
280
     1
281
     0
  0
BLOCK_RECORD
  5
2B4C
330
1
100
AcDbSymbolTableRecord
100
AcDbBlockTableRecord
  2
*D169
340
0
 70
     0
280
     1
281
     0
  0
BLOCK_RECORD
  5
2B5E
330
1
100
AcDbSymbolTableRecord
100
AcDbBlockTableRecord
  2
*D170
340
0
 70
     0
280
     1
281
     0
  0
BLOCK_RECORD
  5
2B76
330
1
100
AcDbSymbolTableRecord
100
AcDbBlockTableRecord
  2
*D171
340
0
 70
     0
280
     1
281
     0
  0
BLOCK_RECORD
  5
2B8E
330
1
100
AcDbSymbolTableRecord
100
AcDbBlockTableRecord
  2
*D172
340
0
 70
     0
280
     1
281
     0
  0
BLOCK_RECORD
  5
2BA6
330
1
100
AcDbSymbolTableRecord
100
AcDbBlockTableRecord
  2
*D173
340
0
 70
     0
280
     1
281
     0
  0
BLOCK_RECORD
  5
2BBE
330
1
100
AcDbSymbolTableRecord
100
AcDbBlockTableRecord
  2
*D174
340
0
 70
     0
280
     1
281
     0
  0
BLOCK_RECORD
  5
2BD6
330
1
100
AcDbSymbolTableRecord
100
AcDbBlockTableRecord
  2
*D175
340
0
 70
     0
280
     1
281
     0
  0
BLOCK_RECORD
  5
2BF0
330
1
100
AcDbSymbolTableRecord
100
AcDbBlockTableRecord
  2
*D176
340
0
 70
     0
280
     1
281
     0
  0
BLOCK_RECORD
  5
2C08
330
1
100
AcDbSymbolTableRecord
100
AcDbBlockTableRecord
  2
*D177
340
0
 70
     0
280
     1
281
     0
  0
BLOCK_RECORD
  5
2C20
330
1
100
AcDbSymbolTableRecord
100
AcDbBlockTableRecord
  2
*D178
340
0
 70
     0
280
     1
281
     0
  0
BLOCK_RECORD
  5
2C50
330
1
100
AcDbSymbolTableRecord
100
AcDbBlockTableRecord
  2
*D180
340
0
 70
     0
280
     1
281
     0
  0
BLOCK_RECORD
  5
2C68
330
1
100
AcDbSymbolTableRecord
100
AcDbBlockTableRecord
  2
*D181
340
0
 70
     0
280
     1
281
     0
  0
BLOCK_RECORD
  5
2C8D
330
1
100
AcDbSymbolTableRecord
100
AcDbBlockTableRecord
  2
*D182
340
0
 70
     0
280
     1
281
     0
  0
BLOCK_RECORD
  5
2CA5
330
1
100
AcDbSymbolTableRecord
100
AcDbBlockTableRecord
  2
*D183
340
0
 70
     0
280
     1
281
     0
  0
BLOCK_RECORD
  5
2CBD
330
1
100
AcDbSymbolTableRecord
100
AcDbBlockTableRecord
  2
*D184
340
0
 70
     0
280
     1
281
     0
  0
BLOCK_RECORD
  5
2CD5
330
1
100
AcDbSymbolTableRecord
100
AcDbBlockTableRecord
  2
*D185
340
0
 70
     0
280
     1
281
     0
  0
ENDTAB
  0
ENDSEC
  0
SECTION
  2
BLOCKS
  0
BLOCK
  5
20
330
1F
100
AcDbEntity
  8
0
100
AcDbBlockBegin
  2
*Model_Space
 70
     0
 10
0.0
 20
0.0
 30
0.0
  3
*Model_Space
  1

  0
ENDBLK
  5
21
330
1F
100
AcDbEntity
  8
0
100
AcDbBlockEnd
  0
BLOCK
  5
D4
330
D2
100
AcDbEntity
 67
     1
  8
0
100
AcDbBlockBegin
  2
*Paper_Space
 70
     0
 10
0.0
 20
0.0
 30
0.0
  3
*Paper_Space
  1

  0
ENDBLK
  5
D5
330
D2
100
AcDbEntity
 67
     1
  8
0
100
AcDbBlockEnd
  0
BLOCK
  5
D8
330
D6
100
AcDbEntity
 67
     1
  8
0
100
AcDbBlockBegin
  2
*Paper_Space0
 70
     0
 10
0.0
 20
0.0
 30
0.0
  3
*Paper_Space0
  1

  0
ENDBLK
  5
D9
330
D6
100
AcDbEntity
 67
     1
  8
0
100
AcDbBlockEnd
  0
BLOCK
  5
1EC9
330
1EC7
100
AcDbEntity
  8
0
100
AcDbBlockBegin
  2
GALKA
 70
     0
 10
0.0
 20
0.0
 30
0.0
  3
GALKA
  1

  0
POLYLINE
  5
1ECA
330
1EC7
100
AcDbEntity
  8
Centrala
 62
     5
100
AcDb3dPolyline
 66
     1
 10
0.0
 20
0.0
 30
0.0
 70
     8
1001
AcDbBlockRepETag
1070
     1
1071
        0
1005
1ECA
  0
VERTEX
  5
1ECB
330
1ECA
100
AcDbEntity
  8
Centrala
 62
     5
100
AcDbVertex
100
AcDb3dPolylineVertex
 10
-17.0
 20
15.2745
 30
0.0
 70
    32
  0
VERTEX
  5
1ECC
330
1ECA
100
AcDbEntity
  8
Centrala
 62
     5
100
AcDbVertex
100
AcDb3dPolylineVertex
 10
-16.8282
 20
15.3273
 30
0.0
 70
    32
  0
VERTEX
  5
1ECD
330
1ECA
100
AcDbEntity
  8
Centrala
 62
     5
100
AcDbVertex
100
AcDb3dPolylineVertex
 10
-16.6563
 20
15.3801
 30
0.0
 70
    32
  0
VERTEX
  5
1ECE
330
1ECA
100
AcDbEntity
  8
Centrala
 62
     5
100
AcDbVertex
100
AcDb3dPolylineVertex
 10
-16.4845
 20
15.4327
 30
0.0
 70
    32
  0
VERTEX
  5
1ECF
330
1ECA
100
AcDbEntity
  8
Centrala
 62
     5
100
AcDbVertex
100
AcDb3dPolylineVertex
 10
-16.3126
 20
15.4852
 30
0.0
 70
    32
  0
VERTEX
  5
1ED0
330
1ECA
100
AcDbEntity
  8
Centrala
 62
     5
100
AcDbVertex
100
AcDb3dPolylineVertex
 10
-16.1407
 20
15.5375
 30
0.0
 70
    32
  0
VERTEX
  5
1ED1
330
1ECA
100
AcDbEntity
  8
Centrala
 62
     5
100
AcDbVertex
100
AcDb3dPolylineVertex
 10
-15.9688
 20
15.5895
 30
0.0
 70
    32
  0
VERTEX
  5
1ED2
330
1ECA
100
AcDbEntity
  8
Centrala
 62
     5
100
AcDbVertex
100
AcDb3dPolylineVertex
 10
-15.7969
 20
15.6412
 30
0.0
 70
    32
  0
VERTEX
  5
1ED3
330
1ECA
100
AcDbEntity
  8
Centrala
 62
     5
100
AcDbVertex
100
AcDb3dPolylineVertex
 10
-15.625
 20
15.6925
 30
0.0
 70
    32
  0
VERTEX
  5
1ED4
330
1ECA
100
AcDbEntity
  8
Centrala
 62
     5
100
AcDbVertex
100
AcDb3dPolylineVertex
 10
-15.453
 20
15.7434
 30
0.0
 70
    32
  0
VERTEX
  5
1ED5
330
1ECA
100
AcDbEntity
  8
Centrala
 62
     5
100
AcDbVertex
100
AcDb3dPolylineVertex
 10
-15.281
 20
15.7937
 30
0.0
 70
    32
  0
VERTEX
  5
1ED6
330
1ECA
100
AcDbEntity
  8
Centrala
 62
     5
100
AcDbVertex
100
AcDb3dPolylineVertex
 10
-15.109
 20
15.8436
 30
0.0
 70
    32
  0
VERTEX
  5
1ED7
330
1ECA
100
AcDbEntity
  8
Centrala
 62
     5
100
AcDbVertex
100
AcDb3dPolylineVertex
 10
-14.9369
 20
15.8929
 30
0.0
 70
    32
  0
VERTEX
  5
1ED8
330
1ECA
100
AcDbEntity
  8
Centrala
 62
     5
100
AcDbVertex
100
AcDb3dPolylineVertex
 10
-14.7648
 20
15.9415
 30
0.0
 70
    32
  0
VERTEX
  5
1ED9
330
1ECA
100
AcDbEntity
  8
Centrala
 62
     5
100
AcDbVertex
100
AcDb3dPolylineVertex
 10
-14.5926
 20
15.9894
 30
0.0
 70
    32
  0
VERTEX
  5
1EDA
330
1ECA
100
AcDbEntity
  8
Centrala
 62
     5
100
AcDbVertex
100
AcDb3dPolylineVertex
 10
-14.4204
 20
16.0366
 30
0.0
 70
    32
  0
VERTEX
  5
1EDB
330
1ECA
100
AcDbEntity
  8
Centrala
 62
     5
100
AcDbVertex
100
AcDb3dPolylineVertex
 10
-14.2481
 20
16.083
 30
0.0
 70
    32
  0
VERTEX
  5
1EDC
330
1ECA
100
AcDbEntity
  8
Centrala
 62
     5
100
AcDbVertex
100
AcDb3dPolylineVertex
 10
-14.0758
 20
16.1285
 30
0.0
 70
    32
  0
VERTEX
  5
1EDD
330
1ECA
100
AcDbEntity
  8
Centrala
 62
     5
100
AcDbVertex
100
AcDb3dPolylineVertex
 10
-13.9034
 20
16.1731
 30
0.0
 70
    32
  0
VERTEX
  5
1EDE
330
1ECA
100
AcDbEntity
  8
Centrala
 62
     5
100
AcDbVertex
100
AcDb3dPolylineVertex
 10
-13.7309
 20
16.2167
 30
0.0
 70
    32
  0
VERTEX
  5
1EDF
330
1ECA
100
AcDbEntity
  8
Centrala
 62
     5
100
AcDbVertex
100
AcDb3dPolylineVertex
 10
-13.5584
 20
16.2593
 30
0.0
 70
    32
  0
VERTEX
  5
1EE0
330
1ECA
100
AcDbEntity
  8
Centrala
 62
     5
100
AcDbVertex
100
AcDb3dPolylineVertex
 10
-13.3858
 20
16.3009
 30
0.0
 70
    32
  0
VERTEX
  5
1EE1
330
1ECA
100
AcDbEntity
  8
Centrala
 62
     5
100
AcDbVertex
100
AcDb3dPolylineVertex
 10
-13.2131
 20
16.3413
 30
0.0
 70
    32
  0
VERTEX
  5
1EE2
330
1ECA
100
AcDbEntity
  8
Centrala
 62
     5
100
AcDbVertex
100
AcDb3dPolylineVertex
 10
-13.0403
 20
16.3805
 30
0.0
 70
    32
  0
VERTEX
  5
1EE3
330
1ECA
100
AcDbEntity
  8
Centrala
 62
     5
100
AcDbVertex
100
AcDb3dPolylineVertex
 10
-12.8675
 20
16.4185
 30
0.0
 70
    32
  0
VERTEX
  5
1EE4
330
1ECA
100
AcDbEntity
  8
Centrala
 62
     5
100
AcDbVertex
100
AcDb3dPolylineVertex
 10
-12.6946
 20
16.4552
 30
0.0
 70
    32
  0
VERTEX
  5
1EE5
330
1ECA
100
AcDbEntity
  8
Centrala
 62
     5
100
AcDbVertex
100
AcDb3dPolylineVertex
 10
-12.5215
 20
16.4906
 30
0.0
 70
    32
  0
VERTEX
  5
1EE6
330
1ECA
100
AcDbEntity
  8
Centrala
 62
     5
100
AcDbVertex
100
AcDb3dPolylineVertex
 10
-12.3484
 20
16.5246
 30
0.0
 70
    32
  0
VERTEX
  5
1EE7
330
1ECA
100
AcDbEntity
  8
Centrala
 62
     5
100
AcDbVertex
100
AcDb3dPolylineVertex
 10
-12.1752
 20
16.5571
 30
0.0
 70
    32
  0
VERTEX
  5
1EE8
330
1ECA
100
AcDbEntity
  8
Centrala
 62
     5
100
AcDbVertex
100
AcDb3dPolylineVertex
 10
-12.0019
 20
16.5881
 30
0.0
 70
    32
  0
VERTEX
  5
1EE9
330
1ECA
100
AcDbEntity
  8
Centrala
 62
     5
100
AcDbVertex
100
AcDb3dPolylineVertex
 10
-11.8285
 20
16.6176
 30
0.0
 70
    32
  0
VERTEX
  5
1EEA
330
1ECA
100
AcDbEntity
  8
Centrala
 62
     5
100
AcDbVertex
100
AcDb3dPolylineVertex
 10
-11.655
 20
16.6454
 30
0.0
 70
    32
  0
VERTEX
  5
1EEB
330
1ECA
100
AcDbEntity
  8
Centrala
 62
     5
100
AcDbVertex
100
AcDb3dPolylineVertex
 10
-11.4813
 20
16.6716
 30
0.0
 70
    32
  0
VERTEX
  5
1EEC
330
1ECA
100
AcDbEntity
  8
Centrala
 62
     5
100
AcDbVertex
100
AcDb3dPolylineVertex
 10
-11.3076
 20
16.6961
 30
0.0
 70
    32
  0
VERTEX
  5
1EED
330
1ECA
100
AcDbEntity
  8
Centrala
 62
     5
100
AcDbVertex
100
AcDb3dPolylineVertex
 10
-11.1337
 20
16.7188
 30
0.0
 70
    32
  0
VERTEX
  5
1EEE
330
1ECA
100
AcDbEntity
  8
Centrala
 62
     5
100
AcDbVertex
100
AcDb3dPolylineVertex
 10
-10.9597
 20
16.7397
 30
0.0
 70
    32
  0
VERTEX
  5
1EEF
330
1ECA
100
AcDbEntity
  8
Centrala
 62
     5
100
AcDbVertex
100
AcDb3dPolylineVertex
 10
-10.7856
 20
16.7587
 30
0.0
 70
    32
  0
VERTEX
  5
1EF0
330
1ECA
100
AcDbEntity
  8
Centrala
 62
     5
100
AcDbVertex
100
AcDb3dPolylineVertex
 10
-10.6113
 20
16.7757
 30
0.0
 70
    32
  0
VERTEX
  5
1EF1
330
1ECA
100
AcDbEntity
  8
Centrala
 62
     5
100
AcDbVertex
100
AcDb3dPolylineVertex
 10
-10.4369
 20
16.7908
 30
0.0
 70
    32
  0
VERTEX
  5
1EF2
330
1ECA
100
AcDbEntity
  8
Centrala
 62
     5
100
AcDbVertex
100
AcDb3dPolylineVertex
 10
-10.2624
 20
16.8039
 30
0.0
 70
    32
  0
VERTEX
  5
1EF3
330
1ECA
100
AcDbEntity
  8
Centrala
 62
     5
100
AcDbVertex
100
AcDb3dPolylineVertex
 10
-10.0877
 20
16.8148
 30
0.0
 70
    32
  0
VERTEX
  5
1EF4
330
1ECA
100
AcDbEntity
  8
Centrala
 62
     5
100
AcDbVertex
100
AcDb3dPolylineVertex
 10
-9.9129
 20
16.8236
 30
0.0
 70
    32
  0
VERTEX
  5
1EF5
330
1ECA
100
AcDbEntity
  8
Centrala
 62
     5
100
AcDbVertex
100
AcDb3dPolylineVertex
 10
-9.73794
 20
16.8302
 30
0.0
 70
    32
  0
VERTEX
  5
1EF6
330
1ECA
100
AcDbEntity
  8
Centrala
 62
     5
100
AcDbVertex
100
AcDb3dPolylineVertex
 10
-9.56282
 20
16.8346
 30
0.0
 70
    32
  0
VERTEX
  5
1EF7
330
1ECA
100
AcDbEntity
  8
Centrala
 62
     5
100
AcDbVertex
100
AcDb3dPolylineVertex
 10
-9.387549999999999
 20
16.8366
 30
0.0
 70
    32
  0
VERTEX
  5
1EF8
330
1ECA
100
AcDbEntity
  8
Centrala
 62
     5
100
AcDbVertex
100
AcDb3dPolylineVertex
 10
-9.21212
 20
16.8363
 30
0.0
 70
    32
  0
VERTEX
  5
1EF9
330
1ECA
100
AcDbEntity
  8
Centrala
 62
     5
100
AcDbVertex
100
AcDb3dPolylineVertex
 10
-9.036519999999999
 20
16.8336
 30
0.0
 70
    32
  0
VERTEX
  5
1EFA
330
1ECA
100
AcDbEntity
  8
Centrala
 62
     5
100
AcDbVertex
100
AcDb3dPolylineVertex
 10
-8.86076
 20
16.8284
 30
0.0
 70
    32
  0
VERTEX
  5
1EFB
330
1ECA
100
AcDbEntity
  8
Centrala
 62
     5
100
AcDbVertex
100
AcDb3dPolylineVertex
 10
-8.684829999999998
 20
16.8207
 30
0.0
 70
    32
  0
VERTEX
  5
1EFC
330
1ECA
100
AcDbEntity
  8
Centrala
 62
     5
100
AcDbVertex
100
AcDb3dPolylineVertex
 10
-8.50872
 20
16.8104
 30
0.0
 70
    32
  0
VERTEX
  5
1EFD
330
1ECA
100
AcDbEntity
  8
Centrala
 62
     5
100
AcDbVertex
100
AcDb3dPolylineVertex
 10
-8.33243
 20
16.7974
 30
0.0
 70
    32
  0
VERTEX
  5
1EFE
330
1ECA
100
AcDbEntity
  8
Centrala
 62
     5
100
AcDbVertex
100
AcDb3dPolylineVertex
 10
-8.155969999999998
 20
16.7818
 30
0.0
 70
    32
  0
VERTEX
  5
1EFF
330
1ECA
100
AcDbEntity
  8
Centrala
 62
     5
100
AcDbVertex
100
AcDb3dPolylineVertex
 10
-7.979319999999997
 20
16.7635
 30
0.0
 70
    32
  0
VERTEX
  5
1F00
330
1ECA
100
AcDbEntity
  8
Centrala
 62
     5
100
AcDbVertex
100
AcDb3dPolylineVertex
 10
-7.80248
 20
16.7423
 30
0.0
 70
    32
  0
VERTEX
  5
1F01
330
1ECA
100
AcDbEntity
  8
Centrala
 62
     5
100
AcDbVertex
100
AcDb3dPolylineVertex
 10
-7.625439999999997
 20
16.7183
 30
0.0
 70
    32
  0
VERTEX
  5
1F02
330
1ECA
100
AcDbEntity
  8
Centrala
 62
     5
100
AcDbVertex
100
AcDb3dPolylineVertex
 10
-7.44822
 20
16.6915
 30
0.0
 70
    32
  0
VERTEX
  5
1F03
330
1ECA
100
AcDbEntity
  8
Centrala
 62
     5
100
AcDbVertex
100
AcDb3dPolylineVertex
 10
-7.270789999999997
 20
16.6616
 30
0.0
 70
    32
  0
VERTEX
  5
1F04
330
1ECA
100
AcDbEntity
  8
Centrala
 62
     5
100
AcDbVertex
100
AcDb3dPolylineVertex
 10
-7.093160000000001
 20
16.6288
 30
0.0
 70
    32
  0
VERTEX
  5
1F05
330
1ECA
100
AcDbEntity
  8
Centrala
 62
     5
100
AcDbVertex
100
AcDb3dPolylineVertex
 10
-6.915319999999997
 20
16.5929
 30
0.0
 70
    32
  0
VERTEX
  5
1F06
330
1ECA
100
AcDbEntity
  8
Centrala
 62
     5
100
AcDbVertex
100
AcDb3dPolylineVertex
 10
-6.737269999999997
 20
16.5539
 30
0.0
 70
    32
  0
VERTEX
  5
1F07
330
1ECA
100
AcDbEntity
  8
Centrala
 62
     5
100
AcDbVertex
100
AcDb3dPolylineVertex
 10
-6.55901
 20
16.5117
 30
0.0
 70
    32
  0
VERTEX
  5
1F08
330
1ECA
100
AcDbEntity
  8
Centrala
 62
     5
100
AcDbVertex
100
AcDb3dPolylineVertex
 10
-6.38053
 20
16.4663
 30
0.0
 70
    32
  0
VERTEX
  5
1F09
330
1ECA
100
AcDbEntity
  8
Centrala
 62
     5
100
AcDbVertex
100
AcDb3dPolylineVertex
 10
-6.20183
 20
16.4177
 30
0.0
 70
    32
  0
VERTEX
  5
1F0A
330
1ECA
100
AcDbEntity
  8
Centrala
 62
     5
100
AcDbVertex
100
AcDb3dPolylineVertex
 10
-6.022909999999997
 20
16.3657
 30
0.0
 70
    32
  0
VERTEX
  5
1F0B
330
1ECA
100
AcDbEntity
  8
Centrala
 62
     5
100
AcDbVertex
100
AcDb3dPolylineVertex
 10
-5.84377
 20
16.3106
 30
0.0
 70
    32
  0
VERTEX
  5
1F0C
330
1ECA
100
AcDbEntity
  8
Centrala
 62
     5
100
AcDbVertex
100
AcDb3dPolylineVertex
 10
-5.664439999999999
 20
16.2524
 30
0.0
 70
    32
  0
VERTEX
  5
1F0D
330
1ECA
100
AcDbEntity
  8
Centrala
 62
     5
100
AcDbVertex
100
AcDb3dPolylineVertex
 10
-5.48491
 20
16.1912
 30
0.0
 70
    32
  0
VERTEX
  5
1F0E
330
1ECA
100
AcDbEntity
  8
Centrala
 62
     5
100
AcDbVertex
100
AcDb3dPolylineVertex
 10
-5.305209999999997
 20
16.1271
 30
0.0
 70
    32
  0
VERTEX
  5
1F0F
330
1ECA
100
AcDbEntity
  8
Centrala
 62
     5
100
AcDbVertex
100
AcDb3dPolylineVertex
 10
-5.12534
 20
16.0603
 30
0.0
 70
    32
  0
VERTEX
  5
1F10
330
1ECA
100
AcDbEntity
  8
Centrala
 62
     5
100
AcDbVertex
100
AcDb3dPolylineVertex
 10
-4.945299999999996
 20
15.9908
 30
0.0
 70
    32
  0
VERTEX
  5
1F11
330
1ECA
100
AcDbEntity
  8
Centrala
 62
     5
100
AcDbVertex
100
AcDb3dPolylineVertex
 10
-4.765119999999996
 20
15.9187
 30
0.0
 70
    32
  0
VERTEX
  5
1F12
330
1ECA
100
AcDbEntity
  8
Centrala
 62
     5
100
AcDbVertex
100
AcDb3dPolylineVertex
 10
-4.5848
 20
15.8442
 30
0.0
 70
    32
  0
VERTEX
  5
1F13
330
1ECA
100
AcDbEntity
  8
Centrala
 62
     5
100
AcDbVertex
100
AcDb3dPolylineVertex
 10
-4.404349999999999
 20
15.7673
 30
0.0
 70
    32
  0
VERTEX
  5
1F14
330
1ECA
100
AcDbEntity
  8
Centrala
 62
     5
100
AcDbVertex
100
AcDb3dPolylineVertex
 10
-4.22379
 20
15.6882
 30
0.0
 70
    32
  0
VERTEX
  5
1F15
330
1ECA
100
AcDbEntity
  8
Centrala
 62
     5
100
AcDbVertex
100
AcDb3dPolylineVertex
 10
-4.043109999999998
 20
15.6069
 30
0.0
 70
    32
  0
VERTEX
  5
1F16
330
1ECA
100
AcDbEntity
  8
Centrala
 62
     5
100
AcDbVertex
100
AcDb3dPolylineVertex
 10
-3.86234
 20
15.5235
 30
0.0
 70
    32
  0
VERTEX
  5
1F17
330
1ECA
100
AcDbEntity
  8
Centrala
 62
     5
100
AcDbVertex
100
AcDb3dPolylineVertex
 10
-3.68149
 20
15.4383
 30
0.0
 70
    32
  0
VERTEX
  5
1F18
330
1ECA
100
AcDbEntity
  8
Centrala
 62
     5
100
AcDbVertex
100
AcDb3dPolylineVertex
 10
-3.50055
 20
15.3511
 30
0.0
 70
    32
  0
VERTEX
  5
1F19
330
1ECA
100
AcDbEntity
  8
Centrala
 62
     5
100
AcDbVertex
100
AcDb3dPolylineVertex
 10
-3.31956
 20
15.2623
 30
0.0
 70
    32
  0
VERTEX
  5
1F1A
330
1ECA
100
AcDbEntity
  8
Centrala
 62
     5
100
AcDbVertex
100
AcDb3dPolylineVertex
 10
-3.1385
 20
15.1718
 30
0.0
 70
    32
  0
VERTEX
  5
1F1B
330
1ECA
100
AcDbEntity
  8
Centrala
 62
     5
100
AcDbVertex
100
AcDb3dPolylineVertex
 10
-2.957399999999998
 20
15.0797
 30
0.0
 70
    32
  0
VERTEX
  5
1F1C
330
1ECA
100
AcDbEntity
  8
Centrala
 62
     5
100
AcDbVertex
100
AcDb3dPolylineVertex
 10
-2.77627
 20
14.9863
 30
0.0
 70
    32
  0
VERTEX
  5
1F1D
330
1ECA
100
AcDbEntity
  8
Centrala
 62
     5
100
AcDbVertex
100
AcDb3dPolylineVertex
 10
-2.59511
 20
14.8915
 30
0.0
 70
    32
  0
VERTEX
  5
1F1E
330
1ECA
100
AcDbEntity
  8
Centrala
 62
     5
100
AcDbVertex
100
AcDb3dPolylineVertex
 10
-2.41394
 20
14.7955
 30
0.0
 70
    32
  0
VERTEX
  5
1F1F
330
1ECA
100
AcDbEntity
  8
Centrala
 62
     5
100
AcDbVertex
100
AcDb3dPolylineVertex
 10
-2.232769999999999
 20
14.6984
 30
0.0
 70
    32
  0
VERTEX
  5
1F20
330
1ECA
100
AcDbEntity
  8
Centrala
 62
     5
100
AcDbVertex
100
AcDb3dPolylineVertex
 10
-2.0516
 20
14.6002
 30
0.0
 70
    32
  0
VERTEX
  5
1F21
330
1ECA
100
AcDbEntity
  8
Centrala
 62
     5
100
AcDbVertex
100
AcDb3dPolylineVertex
 10
-1.870449999999999
 20
14.5012
 30
0.0
 70
    32
  0
VERTEX
  5
1F22
330
1ECA
100
AcDbEntity
  8
Centrala
 62
     5
100
AcDbVertex
100
AcDb3dPolylineVertex
 10
-1.68932
 20
14.4013
 30
0.0
 70
    32
  0
VERTEX
  5
1F23
330
1ECA
100
AcDbEntity
  8
Centrala
 62
     5
100
AcDbVertex
100
AcDb3dPolylineVertex
 10
-1.508239999999999
 20
14.3008
 30
0.0
 70
    32
  0
VERTEX
  5
1F24
330
1ECA
100
AcDbEntity
  8
Centrala
 62
     5
100
AcDbVertex
100
AcDb3dPolylineVertex
 10
-1.327199999999999
 20
14.1996
 30
0.0
 70
    32
  0
VERTEX
  5
1F25
330
1ECA
100
AcDbEntity
  8
Centrala
 62
     5
100
AcDbVertex
100
AcDb3dPolylineVertex
 10
-1.14622
 20
14.098
 30
0.0
 70
    32
  0
VERTEX
  5
1F26
330
1ECA
100
AcDbEntity
  8
Centrala
 62
     5
100
AcDbVertex
100
AcDb3dPolylineVertex
 10
-0.965315
 20
13.9959
 30
0.0
 70
    32
  0
VERTEX
  5
1F27
330
1ECA
100
AcDbEntity
  8
Centrala
 62
     5
100
AcDbVertex
100
AcDb3dPolylineVertex
 10
-0.7844860000000004
 20
13.8936
 30
0.0
 70
    32
  0
VERTEX
  5
1F28
330
1ECA
100
AcDbEntity
  8
Centrala
 62
     5
100
AcDbVertex
100
AcDb3dPolylineVertex
 10
-0.6037470000000002
 20
13.791
 30
0.0
 70
    32
  0
VERTEX
  5
1F29
330
1ECA
100
AcDbEntity
  8
Centrala
 62
     5
100
AcDbVertex
100
AcDb3dPolylineVertex
 10
-0.423108
 20
13.6884
 30
0.0
 70
    32
  0
VERTEX
  5
1F2A
330
1ECA
100
AcDbEntity
  8
Centrala
 62
     5
100
AcDbVertex
100
AcDb3dPolylineVertex
 10
-0.24258
 20
13.5858
 30
0.0
 70
    32
  0
VERTEX
  5
1F2B
330
1ECA
100
AcDbEntity
  8
Centrala
 62
     5
100
AcDbVertex
100
AcDb3dPolylineVertex
 10
-0.0621731
 20
13.4834
 30
0.0
 70
    32
  0
VERTEX
  5
1F2C
330
1ECA
100
AcDbEntity
  8
Centrala
 62
     5
100
AcDbVertex
100
AcDb3dPolylineVertex
 10
0.118102
 20
13.3811
 30
0.0
 70
    32
  0
VERTEX
  5
1F2D
330
1ECA
100
AcDbEntity
  8
Centrala
 62
     5
100
AcDbVertex
100
AcDb3dPolylineVertex
 10
0.298236
 20
13.2792
 30
0.0
 70
    32
  0
VERTEX
  5
1F2E
330
1ECA
100
AcDbEntity
  8
Centrala
 62
     5
100
AcDbVertex
100
AcDb3dPolylineVertex
 10
0.478217
 20
13.1777
 30
0.0
 70
    32
  0
VERTEX
  5
1F2F
330
1ECA
100
AcDbEntity
  8
Centrala
 62
     5
100
AcDbVertex
100
AcDb3dPolylineVertex
 10
0.6580350000000001
 20
13.0768
 30
0.0
 70
    32
  0
VERTEX
  5
1F30
330
1ECA
100
AcDbEntity
  8
Centrala
 62
     5
100
AcDbVertex
100
AcDb3dPolylineVertex
 10
0.8376809999999997
 20
12.9765
 30
0.0
 70
    32
  0
VERTEX
  5
1F31
330
1ECA
100
AcDbEntity
  8
Centrala
 62
     5
100
AcDbVertex
100
AcDb3dPolylineVertex
 10
1.017139999999999
 20
12.8769
 30
0.0
 70
    32
  0
VERTEX
  5
1F32
330
1ECA
100
AcDbEntity
  8
Centrala
 62
     5
100
AcDbVertex
100
AcDb3dPolylineVertex
 10
1.196409999999997
 20
12.7782
 30
0.0
 70
    32
  0
VERTEX
  5
1F33
330
1ECA
100
AcDbEntity
  8
Centrala
 62
     5
100
AcDbVertex
100
AcDb3dPolylineVertex
 10
1.37548
 20
12.6804
 30
0.0
 70
    32
  0
VERTEX
  5
1F34
330
1ECA
100
AcDbEntity
  8
Centrala
 62
     5
100
AcDbVertex
100
AcDb3dPolylineVertex
 10
1.55432
 20
12.5837
 30
0.0
 70
    32
  0
VERTEX
  5
1F35
330
1ECA
100
AcDbEntity
  8
Centrala
 62
     5
100
AcDbVertex
100
AcDb3dPolylineVertex
 10
1.732949999999999
 20
12.4881
 30
0.0
 70
    32
  0
VERTEX
  5
1F36
330
1ECA
100
AcDbEntity
  8
Centrala
 62
     5
100
AcDbVertex
100
AcDb3dPolylineVertex
 10
1.91134
 20
12.3938
 30
0.0
 70
    32
  0
VERTEX
  5
1F37
330
1ECA
100
AcDbEntity
  8
Centrala
 62
     5
100
AcDbVertex
100
AcDb3dPolylineVertex
 10
2.08948
 20
12.3009
 30
0.0
 70
    32
  0
VERTEX
  5
1F38
330
1ECA
100
AcDbEntity
  8
Centrala
 62
     5
100
AcDbVertex
100
AcDb3dPolylineVertex
 10
2.26737
 20
12.2094
 30
0.0
 70
    32
  0
VERTEX
  5
1F39
330
1ECA
100
AcDbEntity
  8
Centrala
 62
     5
100
AcDbVertex
100
AcDb3dPolylineVertex
 10
2.44499
 20
12.1195
 30
0.0
 70
    32
  0
VERTEX
  5
1F3A
330
1ECA
100
AcDbEntity
  8
Centrala
 62
     5
100
AcDbVertex
100
AcDb3dPolylineVertex
 10
2.622329999999998
 20
12.0313
 30
0.0
 70
    32
  0
VERTEX
  5
1F3B
330
1ECA
100
AcDbEntity
  8
Centrala
 62
     5
100
AcDbVertex
100
AcDb3dPolylineVertex
 10
2.79939
 20
11.9449
 30
0.0
 70
    32
  0
VERTEX
  5
1F3C
330
1ECA
100
AcDbEntity
  8
Centrala
 62
     5
100
AcDbVertex
100
AcDb3dPolylineVertex
 10
2.97615
 20
11.8603
 30
0.0
 70
    32
  0
VERTEX
  5
1F3D
330
1ECA
100
AcDbEntity
  8
Centrala
 62
     5
100
AcDbVertex
100
AcDb3dPolylineVertex
 10
3.1526
 20
11.7777
 30
0.0
 70
    32
  0
VERTEX
  5
1F3E
330
1ECA
100
AcDbEntity
  8
Centrala
 62
     5
100
AcDbVertex
100
AcDb3dPolylineVertex
 10
3.32873
 20
11.6972
 30
0.0
 70
    32
  0
VERTEX
  5
1F3F
330
1ECA
100
AcDbEntity
  8
Centrala
 62
     5
100
AcDbVertex
100
AcDb3dPolylineVertex
 10
3.504539999999998
 20
11.6189
 30
0.0
 70
    32
  0
VERTEX
  5
1F40
330
1ECA
100
AcDbEntity
  8
Centrala
 62
     5
100
AcDbVertex
100
AcDb3dPolylineVertex
 10
3.68
 20
11.5429
 30
0.0
 70
    32
  0
VERTEX
  5
1F41
330
1ECA
100
AcDbEntity
  8
Centrala
 62
     5
100
AcDbVertex
100
AcDb3dPolylineVertex
 10
3.855119999999999
 20
11.4692
 30
0.0
 70
    32
  0
VERTEX
  5
1F42
330
1ECA
100
AcDbEntity
  8
Centrala
 62
     5
100
AcDbVertex
100
AcDb3dPolylineVertex
 10
4.029869999999998
 20
11.3981
 30
0.0
 70
    32
  0
VERTEX
  5
1F43
330
1ECA
100
AcDbEntity
  8
Centrala
 62
     5
100
AcDbVertex
100
AcDb3dPolylineVertex
 10
4.204259999999996
 20
11.3296
 30
0.0
 70
    32
  0
VERTEX
  5
1F44
330
1ECA
100
AcDbEntity
  8
Centrala
 62
     5
100
AcDbVertex
100
AcDb3dPolylineVertex
 10
4.37826
 20
11.2638
 30
0.0
 70
    32
  0
VERTEX
  5
1F45
330
1ECA
100
AcDbEntity
  8
Centrala
 62
     5
100
AcDbVertex
100
AcDb3dPolylineVertex
 10
4.55188
 20
11.2008
 30
0.0
 70
    32
  0
VERTEX
  5
1F46
330
1ECA
100
AcDbEntity
  8
Centrala
 62
     5
100
AcDbVertex
100
AcDb3dPolylineVertex
 10
4.725089999999998
 20
11.1407
 30
0.0
 70
    32
  0
VERTEX
  5
1F47
330
1ECA
100
AcDbEntity
  8
Centrala
 62
     5
100
AcDbVertex
100
AcDb3dPolylineVertex
 10
4.89789
 20
11.0836
 30
0.0
 70
    32
  0
VERTEX
  5
1F48
330
1ECA
100
AcDbEntity
  8
Centrala
 62
     5
100
AcDbVertex
100
AcDb3dPolylineVertex
 10
5.070269999999998
 20
11.0297
 30
0.0
 70
    32
  0
VERTEX
  5
1F49
330
1ECA
100
AcDbEntity
  8
Centrala
 62
     5
100
AcDbVertex
100
AcDb3dPolylineVertex
 10
5.24221
 20
10.9789
 30
0.0
 70
    32
  0
VERTEX
  5
1F4A
330
1ECA
100
AcDbEntity
  8
Centrala
 62
     5
100
AcDbVertex
100
AcDb3dPolylineVertex
 10
5.41371
 20
10.9315
 30
0.0
 70
    32
  0
VERTEX
  5
1F4B
330
1ECA
100
AcDbEntity
  8
Centrala
 62
     5
100
AcDbVertex
100
AcDb3dPolylineVertex
 10
5.58476
 20
10.8876
 30
0.0
 70
    32
  0
VERTEX
  5
1F4C
330
1ECA
100
AcDbEntity
  8
Centrala
 62
     5
100
AcDbVertex
100
AcDb3dPolylineVertex
 10
5.755349999999999
 20
10.8471
 30
0.0
 70
    32
  0
VERTEX
  5
1F4D
330
1ECA
100
AcDbEntity
  8
Centrala
 62
     5
100
AcDbVertex
100
AcDb3dPolylineVertex
 10
5.92546
 20
10.8103
 30
0.0
 70
    32
  0
VERTEX
  5
1F4E
330
1ECA
100
AcDbEntity
  8
Centrala
 62
     5
100
AcDbVertex
100
AcDb3dPolylineVertex
 10
6.09508
 20
10.7773
 30
0.0
 70
    32
  0
VERTEX
  5
1F4F
330
1ECA
100
AcDbEntity
  8
Centrala
 62
     5
100
AcDbVertex
100
AcDb3dPolylineVertex
 10
6.26421
 20
10.7481
 30
0.0
 70
    32
  0
VERTEX
  5
1F50
330
1ECA
100
AcDbEntity
  8
Centrala
 62
     5
100
AcDbVertex
100
AcDb3dPolylineVertex
 10
6.43284
 20
10.7228
 30
0.0
 70
    32
  0
VERTEX
  5
1F51
330
1ECA
100
AcDbEntity
  8
Centrala
 62
     5
100
AcDbVertex
100
AcDb3dPolylineVertex
 10
6.60095
 20
10.7016
 30
0.0
 70
    32
  0
VERTEX
  5
1F52
330
1ECA
100
AcDbEntity
  8
Centrala
 62
     5
100
AcDbVertex
100
AcDb3dPolylineVertex
 10
6.768539999999998
 20
10.6845
 30
0.0
 70
    32
  0
VERTEX
  5
1F53
330
1ECA
100
AcDbEntity
  8
Centrala
 62
     5
100
AcDbVertex
100
AcDb3dPolylineVertex
 10
6.935579999999997
 20
10.6717
 30
0.0
 70
    32
  0
VERTEX
  5
1F54
330
1ECA
100
AcDbEntity
  8
Centrala
 62
     5
100
AcDbVertex
100
AcDb3dPolylineVertex
 10
7.102089999999997
 20
10.6632
 30
0.0
 70
    32
  0
VERTEX
  5
1F55
330
1ECA
100
AcDbEntity
  8
Centrala
 62
     5
100
AcDbVertex
100
AcDb3dPolylineVertex
 10
7.26803
 20
10.6593
 30
0.0
 70
    32
  0
VERTEX
  5
1F56
330
1ECA
100
AcDbEntity
  8
Centrala
 62
     5
100
AcDbVertex
100
AcDb3dPolylineVertex
 10
7.43341
 20
10.6598
 30
0.0
 70
    32
  0
VERTEX
  5
1F57
330
1ECA
100
AcDbEntity
  8
Centrala
 62
     5
100
AcDbVertex
100
AcDb3dPolylineVertex
 10
7.5982
 20
10.6651
 30
0.0
 70
    32
  0
VERTEX
  5
1F58
330
1ECA
100
AcDbEntity
  8
Centrala
 62
     5
100
AcDbVertex
100
AcDb3dPolylineVertex
 10
7.76241
 20
10.6751
 30
0.0
 70
    32
  0
VERTEX
  5
1F59
330
1ECA
100
AcDbEntity
  8
Centrala
 62
     5
100
AcDbVertex
100
AcDb3dPolylineVertex
 10
7.926029999999999
 20
10.69
 30
0.0
 70
    32
  0
VERTEX
  5
1F5A
330
1ECA
100
AcDbEntity
  8
Centrala
 62
     5
100
AcDbVertex
100
AcDb3dPolylineVertex
 10
8.089030000000001
 20
10.7099
 30
0.0
 70
    32
  0
VERTEX
  5
1F5B
330
1ECA
100
AcDbEntity
  8
Centrala
 62
     5
100
AcDbVertex
100
AcDb3dPolylineVertex
 10
8.251409999999998
 20
10.7349
 30
0.0
 70
    32
  0
VERTEX
  5
1F5C
330
1ECA
100
AcDbEntity
  8
Centrala
 62
     5
100
AcDbVertex
100
AcDb3dPolylineVertex
 10
8.413160000000001
 20
10.765
 30
0.0
 70
    32
  0
VERTEX
  5
1F5D
330
1ECA
100
AcDbEntity
  8
Centrala
 62
     5
100
AcDbVertex
100
AcDb3dPolylineVertex
 10
8.574279999999998
 20
10.8005
 30
0.0
 70
    32
  0
VERTEX
  5
1F5E
330
1ECA
100
AcDbEntity
  8
Centrala
 62
     5
100
AcDbVertex
100
AcDb3dPolylineVertex
 10
8.734739999999996
 20
10.8413
 30
0.0
 70
    32
  0
VERTEX
  5
1F5F
330
1ECA
100
AcDbEntity
  8
Centrala
 62
     5
100
AcDbVertex
100
AcDb3dPolylineVertex
 10
8.894539999999997
 20
10.8877
 30
0.0
 70
    32
  0
VERTEX
  5
1F60
330
1ECA
100
AcDbEntity
  8
Centrala
 62
     5
100
AcDbVertex
100
AcDb3dPolylineVertex
 10
9.05367
 20
10.9396
 30
0.0
 70
    32
  0
VERTEX
  5
1F61
330
1ECA
100
AcDbEntity
  8
Centrala
 62
     5
100
AcDbVertex
100
AcDb3dPolylineVertex
 10
9.21212
 20
10.9972
 30
0.0
 70
    32
  0
VERTEX
  5
1F62
330
1ECA
100
AcDbEntity
  8
Centrala
 62
     5
100
AcDbVertex
100
AcDb3dPolylineVertex
 10
9.36987
 20
11.0607
 30
0.0
 70
    32
  0
VERTEX
  5
1F63
330
1ECA
100
AcDbEntity
  8
Centrala
 62
     5
100
AcDbVertex
100
AcDb3dPolylineVertex
 10
9.52693
 20
11.13
 30
0.0
 70
    32
  0
VERTEX
  5
1F64
330
1ECA
100
AcDbEntity
  8
Centrala
 62
     5
100
AcDbVertex
100
AcDb3dPolylineVertex
 10
9.68327
 20
11.2054
 30
0.0
 70
    32
  0
VERTEX
  5
1F65
330
1ECA
100
AcDbEntity
  8
Centrala
 62
     5
100
AcDbVertex
100
AcDb3dPolylineVertex
 10
9.838879999999999
 20
11.2869
 30
0.0
 70
    32
  0
VERTEX
  5
1F66
330
1ECA
100
AcDbEntity
  8
Centrala
 62
     5
100
AcDbVertex
100
AcDb3dPolylineVertex
 10
9.993769999999999
 20
11.3746
 30
0.0
 70
    32
  0
VERTEX
  5
1F67
330
1ECA
100
AcDbEntity
  8
Centrala
 62
     5
100
AcDbVertex
100
AcDb3dPolylineVertex
 10
10.1479
 20
11.4687
 30
0.0
 70
    32
  0
VERTEX
  5
1F68
330
1ECA
100
AcDbEntity
  8
Centrala
 62
     5
100
AcDbVertex
100
AcDb3dPolylineVertex
 10
10.3013
 20
11.5691
 30
0.0
 70
    32
  0
VERTEX
  5
1F69
330
1ECA
100
AcDbEntity
  8
Centrala
 62
     5
100
AcDbVertex
100
AcDb3dPolylineVertex
 10
10.4539
 20
11.6761
 30
0.0
 70
    32
  0
VERTEX
  5
1F6A
330
1ECA
100
AcDbEntity
  8
Centrala
 62
     5
100
AcDbVertex
100
AcDb3dPolylineVertex
 10
10.6058
 20
11.7898
 30
0.0
 70
    32
  0
VERTEX
  5
1F6B
330
1ECA
100
AcDbEntity
  8
Centrala
 62
     5
100
AcDbVertex
100
AcDb3dPolylineVertex
 10
10.7568
 20
11.9101
 30
0.0
 70
    32
  0
VERTEX
  5
1F6C
330
1ECA
100
AcDbEntity
  8
Centrala
 62
     5
100
AcDbVertex
100
AcDb3dPolylineVertex
 10
10.9071
 20
12.0372
 30
0.0
 70
    32
  0
VERTEX
  5
1F6D
330
1ECA
100
AcDbEntity
  8
Centrala
 62
     5
100
AcDbVertex
100
AcDb3dPolylineVertex
 10
11.0566
 20
12.1706
 30
0.0
 70
    32
  0
VERTEX
  5
1F6E
330
1ECA
100
AcDbEntity
  8
Centrala
 62
     5
100
AcDbVertex
100
AcDb3dPolylineVertex
 10
11.2054
 20
12.31
 30
0.0
 70
    32
  0
VERTEX
  5
1F6F
330
1ECA
100
AcDbEntity
  8
Centrala
 62
     5
100
AcDbVertex
100
AcDb3dPolylineVertex
 10
11.3534
 20
12.4548
 30
0.0
 70
    32
  0
VERTEX
  5
1F70
330
1ECA
100
AcDbEntity
  8
Centrala
 62
     5
100
AcDbVertex
100
AcDb3dPolylineVertex
 10
11.5008
 20
12.6048
 30
0.0
 70
    32
  0
VERTEX
  5
1F71
330
1ECA
100
AcDbEntity
  8
Centrala
 62
     5
100
AcDbVertex
100
AcDb3dPolylineVertex
 10
11.6474
 20
12.7594
 30
0.0
 70
    32
  0
VERTEX
  5
1F72
330
1ECA
100
AcDbEntity
  8
Centrala
 62
     5
100
AcDbVertex
100
AcDb3dPolylineVertex
 10
11.7935
 20
12.9182
 30
0.0
 70
    32
  0
VERTEX
  5
1F73
330
1ECA
100
AcDbEntity
  8
Centrala
 62
     5
100
AcDbVertex
100
AcDb3dPolylineVertex
 10
11.9389
 20
13.0809
 30
0.0
 70
    32
  0
VERTEX
  5
1F74
330
1ECA
100
AcDbEntity
  8
Centrala
 62
     5
100
AcDbVertex
100
AcDb3dPolylineVertex
 10
12.0838
 20
13.2469
 30
0.0
 70
    32
  0
VERTEX
  5
1F75
330
1ECA
100
AcDbEntity
  8
Centrala
 62
     5
100
AcDbVertex
100
AcDb3dPolylineVertex
 10
12.228
 20
13.4159
 30
0.0
 70
    32
  0
VERTEX
  5
1F76
330
1ECA
100
AcDbEntity
  8
Centrala
 62
     5
100
AcDbVertex
100
AcDb3dPolylineVertex
 10
12.3718
 20
13.5875
 30
0.0
 70
    32
  0
VERTEX
  5
1F77
330
1ECA
100
AcDbEntity
  8
Centrala
 62
     5
100
AcDbVertex
100
AcDb3dPolylineVertex
 10
12.515
 20
13.7611
 30
0.0
 70
    32
  0
VERTEX
  5
1F78
330
1ECA
100
AcDbEntity
  8
Centrala
 62
     5
100
AcDbVertex
100
AcDb3dPolylineVertex
 10
12.6577
 20
13.9365
 30
0.0
 70
    32
  0
VERTEX
  5
1F79
330
1ECA
100
AcDbEntity
  8
Centrala
 62
     5
100
AcDbVertex
100
AcDb3dPolylineVertex
 10
12.8
 20
14.1132
 30
0.0
 70
    32
  0
VERTEX
  5
1F7A
330
1ECA
100
AcDbEntity
  8
Centrala
 62
     5
100
AcDbVertex
100
AcDb3dPolylineVertex
 10
12.9418
 20
14.2907
 30
0.0
 70
    32
  0
VERTEX
  5
1F7B
330
1ECA
100
AcDbEntity
  8
Centrala
 62
     5
100
AcDbVertex
100
AcDb3dPolylineVertex
 10
13.0832
 20
14.4687
 30
0.0
 70
    32
  0
VERTEX
  5
1F7C
330
1ECA
100
AcDbEntity
  8
Centrala
 62
     5
100
AcDbVertex
100
AcDb3dPolylineVertex
 10
13.2242
 20
14.6467
 30
0.0
 70
    32
  0
VERTEX
  5
1F7D
330
1ECA
100
AcDbEntity
  8
Centrala
 62
     5
100
AcDbVertex
100
AcDb3dPolylineVertex
 10
13.3648
 20
14.8242
 30
0.0
 70
    32
  0
VERTEX
  5
1F7E
330
1ECA
100
AcDbEntity
  8
Centrala
 62
     5
100
AcDbVertex
100
AcDb3dPolylineVertex
 10
13.5051
 20
15.001
 30
0.0
 70
    32
  0
VERTEX
  5
1F7F
330
1ECA
100
AcDbEntity
  8
Centrala
 62
     5
100
AcDbVertex
100
AcDb3dPolylineVertex
 10
13.6451
 20
15.1765
 30
0.0
 70
    32
  0
VERTEX
  5
1F80
330
1ECA
100
AcDbEntity
  8
Centrala
 62
     5
100
AcDbVertex
100
AcDb3dPolylineVertex
 10
13.7847
 20
15.3503
 30
0.0
 70
    32
  0
VERTEX
  5
1F81
330
1ECA
100
AcDbEntity
  8
Centrala
 62
     5
100
AcDbVertex
100
AcDb3dPolylineVertex
 10
13.9242
 20
15.522
 30
0.0
 70
    32
  0
VERTEX
  5
1F82
330
1ECA
100
AcDbEntity
  8
Centrala
 62
     5
100
AcDbVertex
100
AcDb3dPolylineVertex
 10
14.0633
 20
15.6913
 30
0.0
 70
    32
  0
VERTEX
  5
1F83
330
1ECA
100
AcDbEntity
  8
Centrala
 62
     5
100
AcDbVertex
100
AcDb3dPolylineVertex
 10
14.2023
 20
15.8575
 30
0.0
 70
    32
  0
VERTEX
  5
1F84
330
1ECA
100
AcDbEntity
  8
Centrala
 62
     5
100
AcDbVertex
100
AcDb3dPolylineVertex
 10
14.341
 20
16.0204
 30
0.0
 70
    32
  0
VERTEX
  5
1F85
330
1ECA
100
AcDbEntity
  8
Centrala
 62
     5
100
AcDbVertex
100
AcDb3dPolylineVertex
 10
14.4796
 20
16.1796
 30
0.0
 70
    32
  0
VERTEX
  5
1F86
330
1ECA
100
AcDbEntity
  8
Centrala
 62
     5
100
AcDbVertex
100
AcDb3dPolylineVertex
 10
14.6181
 20
16.3345
 30
0.0
 70
    32
  0
VERTEX
  5
1F87
330
1ECA
100
AcDbEntity
  8
Centrala
 62
     5
100
AcDbVertex
100
AcDb3dPolylineVertex
 10
14.7564
 20
16.4848
 30
0.0
 70
    32
  0
VERTEX
  5
1F88
330
1ECA
100
AcDbEntity
  8
Centrala
 62
     5
100
AcDbVertex
100
AcDb3dPolylineVertex
 10
14.8946
 20
16.63
 30
0.0
 70
    32
  0
VERTEX
  5
1F89
330
1ECA
100
AcDbEntity
  8
Centrala
 62
     5
100
AcDbVertex
100
AcDb3dPolylineVertex
 10
15.0328
 20
16.7698
 30
0.0
 70
    32
  0
VERTEX
  5
1F8A
330
1ECA
100
AcDbEntity
  8
Centrala
 62
     5
100
AcDbVertex
100
AcDb3dPolylineVertex
 10
15.1709
 20
16.9037
 30
0.0
 70
    32
  0
VERTEX
  5
1F8B
330
1ECA
100
AcDbEntity
  8
Centrala
 62
     5
100
AcDbVertex
100
AcDb3dPolylineVertex
 10
15.2877
 20
16.957
 30
0.0
 70
    32
  0
VERTEX
  5
1F8C
330
1ECA
100
AcDbEntity
  8
Centrala
 62
     5
100
AcDbVertex
100
AcDb3dPolylineVertex
 10
15.3405
 20
16.7852
 30
0.0
 70
    32
  0
VERTEX
  5
1F8D
330
1ECA
100
AcDbEntity
  8
Centrala
 62
     5
100
AcDbVertex
100
AcDb3dPolylineVertex
 10
15.3933
 20
16.6134
 30
0.0
 70
    32
  0
VERTEX
  5
1F8E
330
1ECA
100
AcDbEntity
  8
Centrala
 62
     5
100
AcDbVertex
100
AcDb3dPolylineVertex
 10
15.4459
 20
16.4415
 30
0.0
 70
    32
  0
VERTEX
  5
1F8F
330
1ECA
100
AcDbEntity
  8
Centrala
 62
     5
100
AcDbVertex
100
AcDb3dPolylineVertex
 10
15.4983
 20
16.2696
 30
0.0
 70
    32
  0
VERTEX
  5
1F90
330
1ECA
100
AcDbEntity
  8
Centrala
 62
     5
100
AcDbVertex
100
AcDb3dPolylineVertex
 10
15.5505
 20
16.0978
 30
0.0
 70
    32
  0
VERTEX
  5
1F91
330
1ECA
100
AcDbEntity
  8
Centrala
 62
     5
100
AcDbVertex
100
AcDb3dPolylineVertex
 10
15.6024
 20
15.9259
 30
0.0
 70
    32
  0
VERTEX
  5
1F92
330
1ECA
100
AcDbEntity
  8
Centrala
 62
     5
100
AcDbVertex
100
AcDb3dPolylineVertex
 10
15.654
 20
15.7539
 30
0.0
 70
    32
  0
VERTEX
  5
1F93
330
1ECA
100
AcDbEntity
  8
Centrala
 62
     5
100
AcDbVertex
100
AcDb3dPolylineVertex
 10
15.7052
 20
15.582
 30
0.0
 70
    32
  0
VERTEX
  5
1F94
330
1ECA
100
AcDbEntity
  8
Centrala
 62
     5
100
AcDbVertex
100
AcDb3dPolylineVertex
 10
15.756
 20
15.41
 30
0.0
 70
    32
  0
VERTEX
  5
1F95
330
1ECA
100
AcDbEntity
  8
Centrala
 62
     5
100
AcDbVertex
100
AcDb3dPolylineVertex
 10
15.8063
 20
15.238
 30
0.0
 70
    32
  0
VERTEX
  5
1F96
330
1ECA
100
AcDbEntity
  8
Centrala
 62
     5
100
AcDbVertex
100
AcDb3dPolylineVertex
 10
15.856
 20
15.0659
 30
0.0
 70
    32
  0
VERTEX
  5
1F97
330
1ECA
100
AcDbEntity
  8
Centrala
 62
     5
100
AcDbVertex
100
AcDb3dPolylineVertex
 10
15.9051
 20
14.8939
 30
0.0
 70
    32
  0
VERTEX
  5
1F98
330
1ECA
100
AcDbEntity
  8
Centrala
 62
     5
100
AcDbVertex
100
AcDb3dPolylineVertex
 10
15.9535
 20
14.7217
 30
0.0
 70
    32
  0
VERTEX
  5
1F99
330
1ECA
100
AcDbEntity
  8
Centrala
 62
     5
100
AcDbVertex
100
AcDb3dPolylineVertex
 10
16.0013
 20
14.5495
 30
0.0
 70
    32
  0
VERTEX
  5
1F9A
330
1ECA
100
AcDbEntity
  8
Centrala
 62
     5
100
AcDbVertex
100
AcDb3dPolylineVertex
 10
16.0483
 20
14.3773
 30
0.0
 70
    32
  0
VERTEX
  5
1F9B
330
1ECA
100
AcDbEntity
  8
Centrala
 62
     5
100
AcDbVertex
100
AcDb3dPolylineVertex
 10
16.0944
 20
14.205
 30
0.0
 70
    32
  0
VERTEX
  5
1F9C
330
1ECA
100
AcDbEntity
  8
Centrala
 62
     5
100
AcDbVertex
100
AcDb3dPolylineVertex
 10
16.1397
 20
14.0327
 30
0.0
 70
    32
  0
VERTEX
  5
1F9D
330
1ECA
100
AcDbEntity
  8
Centrala
 62
     5
100
AcDbVertex
100
AcDb3dPolylineVertex
 10
16.1841
 20
13.8603
 30
0.0
 70
    32
  0
VERTEX
  5
1F9E
330
1ECA
100
AcDbEntity
  8
Centrala
 62
     5
100
AcDbVertex
100
AcDb3dPolylineVertex
 10
16.2275
 20
13.6878
 30
0.0
 70
    32
  0
VERTEX
  5
1F9F
330
1ECA
100
AcDbEntity
  8
Centrala
 62
     5
100
AcDbVertex
100
AcDb3dPolylineVertex
 10
16.2698
 20
13.5152
 30
0.0
 70
    32
  0
VERTEX
  5
1FA0
330
1ECA
100
AcDbEntity
  8
Centrala
 62
     5
100
AcDbVertex
100
AcDb3dPolylineVertex
 10
16.3111
 20
13.3426
 30
0.0
 70
    32
  0
VERTEX
  5
1FA1
330
1ECA
100
AcDbEntity
  8
Centrala
 62
     5
100
AcDbVertex
100
AcDb3dPolylineVertex
 10
16.3512
 20
13.1699
 30
0.0
 70
    32
  0
VERTEX
  5
1FA2
330
1ECA
100
AcDbEntity
  8
Centrala
 62
     5
100
AcDbVertex
100
AcDb3dPolylineVertex
 10
16.3901
 20
12.9971
 30
0.0
 70
    32
  0
VERTEX
  5
1FA3
330
1ECA
100
AcDbEntity
  8
Centrala
 62
     5
100
AcDbVertex
100
AcDb3dPolylineVertex
 10
16.4278
 20
12.8243
 30
0.0
 70
    32
  0
VERTEX
  5
1FA4
330
1ECA
100
AcDbEntity
  8
Centrala
 62
     5
100
AcDbVertex
100
AcDb3dPolylineVertex
 10
16.4642
 20
12.6513
 30
0.0
 70
    32
  0
VERTEX
  5
1FA5
330
1ECA
100
AcDbEntity
  8
Centrala
 62
     5
100
AcDbVertex
100
AcDb3dPolylineVertex
 10
16.4992
 20
12.4783
 30
0.0
 70
    32
  0
VERTEX
  5
1FA6
330
1ECA
100
AcDbEntity
  8
Centrala
 62
     5
100
AcDbVertex
100
AcDb3dPolylineVertex
 10
16.5328
 20
12.3051
 30
0.0
 70
    32
  0
VERTEX
  5
1FA7
330
1ECA
100
AcDbEntity
  8
Centrala
 62
     5
100
AcDbVertex
100
AcDb3dPolylineVertex
 10
16.565
 20
12.1319
 30
0.0
 70
    32
  0
VERTEX
  5
1FA8
330
1ECA
100
AcDbEntity
  8
Centrala
 62
     5
100
AcDbVertex
100
AcDb3dPolylineVertex
 10
16.5956
 20
11.9586
 30
0.0
 70
    32
  0
VERTEX
  5
1FA9
330
1ECA
100
AcDbEntity
  8
Centrala
 62
     5
100
AcDbVertex
100
AcDb3dPolylineVertex
 10
16.6247
 20
11.7851
 30
0.0
 70
    32
  0
VERTEX
  5
1FAA
330
1ECA
100
AcDbEntity
  8
Centrala
 62
     5
100
AcDbVertex
100
AcDb3dPolylineVertex
 10
16.6521
 20
11.6116
 30
0.0
 70
    32
  0
VERTEX
  5
1FAB
330
1ECA
100
AcDbEntity
  8
Centrala
 62
     5
100
AcDbVertex
100
AcDb3dPolylineVertex
 10
16.6779
 20
11.4379
 30
0.0
 70
    32
  0
VERTEX
  5
1FAC
330
1ECA
100
AcDbEntity
  8
Centrala
 62
     5
100
AcDbVertex
100
AcDb3dPolylineVertex
 10
16.7019
 20
11.2641
 30
0.0
 70
    32
  0
VERTEX
  5
1FAD
330
1ECA
100
AcDbEntity
  8
Centrala
 62
     5
100
AcDbVertex
100
AcDb3dPolylineVertex
 10
16.7242
 20
11.0902
 30
0.0
 70
    32
  0
VERTEX
  5
1FAE
330
1ECA
100
AcDbEntity
  8
Centrala
 62
     5
100
AcDbVertex
100
AcDb3dPolylineVertex
 10
16.7446
 20
10.9162
 30
0.0
 70
    32
  0
VERTEX
  5
1FAF
330
1ECA
100
AcDbEntity
  8
Centrala
 62
     5
100
AcDbVertex
100
AcDb3dPolylineVertex
 10
16.7631
 20
10.742
 30
0.0
 70
    32
  0
VERTEX
  5
1FB0
330
1ECA
100
AcDbEntity
  8
Centrala
 62
     5
100
AcDbVertex
100
AcDb3dPolylineVertex
 10
16.7797
 20
10.5677
 30
0.0
 70
    32
  0
VERTEX
  5
1FB1
330
1ECA
100
AcDbEntity
  8
Centrala
 62
     5
100
AcDbVertex
100
AcDb3dPolylineVertex
 10
16.7943
 20
10.3933
 30
0.0
 70
    32
  0
VERTEX
  5
1FB2
330
1ECA
100
AcDbEntity
  8
Centrala
 62
     5
100
AcDbVertex
100
AcDb3dPolylineVertex
 10
16.8068
 20
10.2187
 30
0.0
 70
    32
  0
VERTEX
  5
1FB3
330
1ECA
100
AcDbEntity
  8
Centrala
 62
     5
100
AcDbVertex
100
AcDb3dPolylineVertex
 10
16.8172
 20
10.044
 30
0.0
 70
    32
  0
VERTEX
  5
1FB4
330
1ECA
100
AcDbEntity
  8
Centrala
 62
     5
100
AcDbVertex
100
AcDb3dPolylineVertex
 10
16.8255
 20
9.86918
 30
0.0
 70
    32
  0
VERTEX
  5
1FB5
330
1ECA
100
AcDbEntity
  8
Centrala
 62
     5
100
AcDbVertex
100
AcDb3dPolylineVertex
 10
16.8315
 20
9.694169999999999
 30
0.0
 70
    32
  0
VERTEX
  5
1FB6
330
1ECA
100
AcDbEntity
  8
Centrala
 62
     5
100
AcDbVertex
100
AcDb3dPolylineVertex
 10
16.8353
 20
9.519019999999999
 30
0.0
 70
    32
  0
VERTEX
  5
1FB7
330
1ECA
100
AcDbEntity
  8
Centrala
 62
     5
100
AcDbVertex
100
AcDb3dPolylineVertex
 10
16.8368
 20
9.343709999999999
 30
0.0
 70
    32
  0
VERTEX
  5
1FB8
330
1ECA
100
AcDbEntity
  8
Centrala
 62
     5
100
AcDbVertex
100
AcDb3dPolylineVertex
 10
16.8359
 20
9.168229999999999
 30
0.0
 70
    32
  0
VERTEX
  5
1FB9
330
1ECA
100
AcDbEntity
  8
Centrala
 62
     5
100
AcDbVertex
100
AcDb3dPolylineVertex
 10
16.8325
 20
8.992599999999997
 30
0.0
 70
    32
  0
VERTEX
  5
1FBA
330
1ECA
100
AcDbEntity
  8
Centrala
 62
     5
100
AcDbVertex
100
AcDb3dPolylineVertex
 10
16.8267
 20
8.816789999999997
 30
0.0
 70
    32
  0
VERTEX
  5
1FBB
330
1ECA
100
AcDbEntity
  8
Centrala
 62
     5
100
AcDbVertex
100
AcDb3dPolylineVertex
 10
16.8183
 20
8.640819999999997
 30
0.0
 70
    32
  0
VERTEX
  5
1FBC
330
1ECA
100
AcDbEntity
  8
Centrala
 62
     5
100
AcDbVertex
100
AcDb3dPolylineVertex
 10
16.8074
 20
8.464669999999998
 30
0.0
 70
    32
  0
VERTEX
  5
1FBD
330
1ECA
100
AcDbEntity
  8
Centrala
 62
     5
100
AcDbVertex
100
AcDb3dPolylineVertex
 10
16.7938
 20
8.288339999999998
 30
0.0
 70
    32
  0
VERTEX
  5
1FBE
330
1ECA
100
AcDbEntity
  8
Centrala
 62
     5
100
AcDbVertex
100
AcDb3dPolylineVertex
 10
16.7775
 20
8.111819999999998
 30
0.0
 70
    32
  0
VERTEX
  5
1FBF
330
1ECA
100
AcDbEntity
  8
Centrala
 62
     5
100
AcDbVertex
100
AcDb3dPolylineVertex
 10
16.7584
 20
7.93513
 30
0.0
 70
    32
  0
VERTEX
  5
1FC0
330
1ECA
100
AcDbEntity
  8
Centrala
 62
     5
100
AcDbVertex
100
AcDb3dPolylineVertex
 10
16.7366
 20
7.758239999999998
 30
0.0
 70
    32
  0
VERTEX
  5
1FC1
330
1ECA
100
AcDbEntity
  8
Centrala
 62
     5
100
AcDbVertex
100
AcDb3dPolylineVertex
 10
16.7119
 20
7.58116
 30
0.0
 70
    32
  0
VERTEX
  5
1FC2
330
1ECA
100
AcDbEntity
  8
Centrala
 62
     5
100
AcDbVertex
100
AcDb3dPolylineVertex
 10
16.6843
 20
7.40388
 30
0.0
 70
    32
  0
VERTEX
  5
1FC3
330
1ECA
100
AcDbEntity
  8
Centrala
 62
     5
100
AcDbVertex
100
AcDb3dPolylineVertex
 10
16.6537
 20
7.226399999999999
 30
0.0
 70
    32
  0
VERTEX
  5
1FC4
330
1ECA
100
AcDbEntity
  8
Centrala
 62
     5
100
AcDbVertex
100
AcDb3dPolylineVertex
 10
16.6201
 20
7.048719999999997
 30
0.0
 70
    32
  0
VERTEX
  5
1FC5
330
1ECA
100
AcDbEntity
  8
Centrala
 62
     5
100
AcDbVertex
100
AcDb3dPolylineVertex
 10
16.5834
 20
6.87083
 30
0.0
 70
    32
  0
VERTEX
  5
1FC6
330
1ECA
100
AcDbEntity
  8
Centrala
 62
     5
100
AcDbVertex
100
AcDb3dPolylineVertex
 10
16.5437
 20
6.69273
 30
0.0
 70
    32
  0
VERTEX
  5
1FC7
330
1ECA
100
AcDbEntity
  8
Centrala
 62
     5
100
AcDbVertex
100
AcDb3dPolylineVertex
 10
16.5007
 20
6.514409999999998
 30
0.0
 70
    32
  0
VERTEX
  5
1FC8
330
1ECA
100
AcDbEntity
  8
Centrala
 62
     5
100
AcDbVertex
100
AcDb3dPolylineVertex
 10
16.4545
 20
6.335869999999999
 30
0.0
 70
    32
  0
VERTEX
  5
1FC9
330
1ECA
100
AcDbEntity
  8
Centrala
 62
     5
100
AcDbVertex
100
AcDb3dPolylineVertex
 10
16.405
 20
6.157119999999999
 30
0.0
 70
    32
  0
VERTEX
  5
1FCA
330
1ECA
100
AcDbEntity
  8
Centrala
 62
     5
100
AcDbVertex
100
AcDb3dPolylineVertex
 10
16.3522
 20
5.978139999999998
 30
0.0
 70
    32
  0
VERTEX
  5
1FCB
330
1ECA
100
AcDbEntity
  8
Centrala
 62
     5
100
AcDbVertex
100
AcDb3dPolylineVertex
 10
16.2963
 20
5.79896
 30
0.0
 70
    32
  0
VERTEX
  5
1FCC
330
1ECA
100
AcDbEntity
  8
Centrala
 62
     5
100
AcDbVertex
100
AcDb3dPolylineVertex
 10
16.2374
 20
5.619569999999997
 30
0.0
 70
    32
  0
VERTEX
  5
1FCD
330
1ECA
100
AcDbEntity
  8
Centrala
 62
     5
100
AcDbVertex
100
AcDb3dPolylineVertex
 10
16.1754
 20
5.44
 30
0.0
 70
    32
  0
VERTEX
  5
1FCE
330
1ECA
100
AcDbEntity
  8
Centrala
 62
     5
100
AcDbVertex
100
AcDb3dPolylineVertex
 10
16.1107
 20
5.260259999999997
 30
0.0
 70
    32
  0
VERTEX
  5
1FCF
330
1ECA
100
AcDbEntity
  8
Centrala
 62
     5
100
AcDbVertex
100
AcDb3dPolylineVertex
 10
16.0432
 20
5.08034
 30
0.0
 70
    32
  0
VERTEX
  5
1FD0
330
1ECA
100
AcDbEntity
  8
Centrala
 62
     5
100
AcDbVertex
100
AcDb3dPolylineVertex
 10
15.973
 20
4.900269999999999
 30
0.0
 70
    32
  0
VERTEX
  5
1FD1
330
1ECA
100
AcDbEntity
  8
Centrala
 62
     5
100
AcDbVertex
100
AcDb3dPolylineVertex
 10
15.9003
 20
4.720049999999996
 30
0.0
 70
    32
  0
VERTEX
  5
1FD2
330
1ECA
100
AcDbEntity
  8
Centrala
 62
     5
100
AcDbVertex
100
AcDb3dPolylineVertex
 10
15.8252
 20
4.539699999999998
 30
0.0
 70
    32
  0
VERTEX
  5
1FD3
330
1ECA
100
AcDbEntity
  8
Centrala
 62
     5
100
AcDbVertex
100
AcDb3dPolylineVertex
 10
15.7477
 20
4.359219999999996
 30
0.0
 70
    32
  0
VERTEX
  5
1FD4
330
1ECA
100
AcDbEntity
  8
Centrala
 62
     5
100
AcDbVertex
100
AcDb3dPolylineVertex
 10
15.668
 20
4.17863
 30
0.0
 70
    32
  0
VERTEX
  5
1FD5
330
1ECA
100
AcDbEntity
  8
Centrala
 62
     5
100
AcDbVertex
100
AcDb3dPolylineVertex
 10
15.5862
 20
3.99793
 30
0.0
 70
    32
  0
VERTEX
  5
1FD6
330
1ECA
100
AcDbEntity
  8
Centrala
 62
     5
100
AcDbVertex
100
AcDb3dPolylineVertex
 10
15.5024
 20
3.81714
 30
0.0
 70
    32
  0
VERTEX
  5
1FD7
330
1ECA
100
AcDbEntity
  8
Centrala
 62
     5
100
AcDbVertex
100
AcDb3dPolylineVertex
 10
15.4166
 20
3.63626
 30
0.0
 70
    32
  0
VERTEX
  5
1FD8
330
1ECA
100
AcDbEntity
  8
Centrala
 62
     5
100
AcDbVertex
100
AcDb3dPolylineVertex
 10
15.3291
 20
3.455309999999998
 30
0.0
 70
    32
  0
VERTEX
  5
1FD9
330
1ECA
100
AcDbEntity
  8
Centrala
 62
     5
100
AcDbVertex
100
AcDb3dPolylineVertex
 10
15.2398
 20
3.2743
 30
0.0
 70
    32
  0
VERTEX
  5
1FDA
330
1ECA
100
AcDbEntity
  8
Centrala
 62
     5
100
AcDbVertex
100
AcDb3dPolylineVertex
 10
15.1489
 20
3.09323
 30
0.0
 70
    32
  0
VERTEX
  5
1FDB
330
1ECA
100
AcDbEntity
  8
Centrala
 62
     5
100
AcDbVertex
100
AcDb3dPolylineVertex
 10
15.0565
 20
2.91212
 30
0.0
 70
    32
  0
VERTEX
  5
1FDC
330
1ECA
100
AcDbEntity
  8
Centrala
 62
     5
100
AcDbVertex
100
AcDb3dPolylineVertex
 10
14.9627
 20
2.730979999999998
 30
0.0
 70
    32
  0
VERTEX
  5
1FDD
330
1ECA
100
AcDbEntity
  8
Centrala
 62
     5
100
AcDbVertex
100
AcDb3dPolylineVertex
 10
14.8676
 20
2.549819999999999
 30
0.0
 70
    32
  0
VERTEX
  5
1FDE
330
1ECA
100
AcDbEntity
  8
Centrala
 62
     5
100
AcDbVertex
100
AcDb3dPolylineVertex
 10
14.7713
 20
2.36865
 30
0.0
 70
    32
  0
VERTEX
  5
1FDF
330
1ECA
100
AcDbEntity
  8
Centrala
 62
     5
100
AcDbVertex
100
AcDb3dPolylineVertex
 10
14.6739
 20
2.18747
 30
0.0
 70
    32
  0
VERTEX
  5
1FE0
330
1ECA
100
AcDbEntity
  8
Centrala
 62
     5
100
AcDbVertex
100
AcDb3dPolylineVertex
 10
14.5756
 20
2.00631
 30
0.0
 70
    32
  0
VERTEX
  5
1FE1
330
1ECA
100
AcDbEntity
  8
Centrala
 62
     5
100
AcDbVertex
100
AcDb3dPolylineVertex
 10
14.4763
 20
1.825159999999995
 30
0.0
 70
    32
  0
VERTEX
  5
1FE2
330
1ECA
100
AcDbEntity
  8
Centrala
 62
     5
100
AcDbVertex
100
AcDb3dPolylineVertex
 10
14.3763
 20
1.64405
 30
0.0
 70
    32
  0
VERTEX
  5
1FE3
330
1ECA
100
AcDbEntity
  8
Centrala
 62
     5
100
AcDbVertex
100
AcDb3dPolylineVertex
 10
14.2755
 20
1.46297
 30
0.0
 70
    32
  0
VERTEX
  5
1FE4
330
1ECA
100
AcDbEntity
  8
Centrala
 62
     5
100
AcDbVertex
100
AcDb3dPolylineVertex
 10
14.1742
 20
1.281949999999999
 30
0.0
 70
    32
  0
VERTEX
  5
1FE5
330
1ECA
100
AcDbEntity
  8
Centrala
 62
     5
100
AcDbVertex
100
AcDb3dPolylineVertex
 10
14.0725
 20
1.100989999999999
 30
0.0
 70
    32
  0
VERTEX
  5
1FE6
330
1ECA
100
AcDbEntity
  8
Centrala
 62
     5
100
AcDbVertex
100
AcDb3dPolylineVertex
 10
13.9704
 20
0.9201
 30
0.0
 70
    32
  0
VERTEX
  5
1FE7
330
1ECA
100
AcDbEntity
  8
Centrala
 62
     5
100
AcDbVertex
100
AcDb3dPolylineVertex
 10
13.868
 20
0.7392920000000001
 30
0.0
 70
    32
  0
VERTEX
  5
1FE8
330
1ECA
100
AcDbEntity
  8
Centrala
 62
     5
100
AcDbVertex
100
AcDb3dPolylineVertex
 10
13.7654
 20
0.5585770000000001
 30
0.0
 70
    32
  0
VERTEX
  5
1FE9
330
1ECA
100
AcDbEntity
  8
Centrala
 62
     5
100
AcDbVertex
100
AcDb3dPolylineVertex
 10
13.6628
 20
0.377965
 30
0.0
 70
    32
  0
VERTEX
  5
1FEA
330
1ECA
100
AcDbEntity
  8
Centrala
 62
     5
100
AcDbVertex
100
AcDb3dPolylineVertex
 10
13.5602
 20
0.197466
 30
0.0
 70
    32
  0
VERTEX
  5
1FEB
330
1ECA
100
AcDbEntity
  8
Centrala
 62
     5
100
AcDbVertex
100
AcDb3dPolylineVertex
 10
13.4578
 20
0.0170916
 30
0.0
 70
    32
  0
VERTEX
  5
1FEC
330
1ECA
100
AcDbEntity
  8
Centrala
 62
     5
100
AcDbVertex
100
AcDb3dPolylineVertex
 10
13.3556
 20
-0.163149
 30
0.0
 70
    32
  0
VERTEX
  5
1FED
330
1ECA
100
AcDbEntity
  8
Centrala
 62
     5
100
AcDbVertex
100
AcDb3dPolylineVertex
 10
13.2538
 20
-0.343246
 30
0.0
 70
    32
  0
VERTEX
  5
1FEE
330
1ECA
100
AcDbEntity
  8
Centrala
 62
     5
100
AcDbVertex
100
AcDb3dPolylineVertex
 10
13.1524
 20
-0.523187
 30
0.0
 70
    32
  0
VERTEX
  5
1FEF
330
1ECA
100
AcDbEntity
  8
Centrala
 62
     5
100
AcDbVertex
100
AcDb3dPolylineVertex
 10
13.0516
 20
-0.702963
 30
0.0
 70
    32
  0
VERTEX
  5
1FF0
330
1ECA
100
AcDbEntity
  8
Centrala
 62
     5
100
AcDbVertex
100
AcDb3dPolylineVertex
 10
12.9515
 20
-0.8825639999999999
 30
0.0
 70
    32
  0
VERTEX
  5
1FF1
330
1ECA
100
AcDbEntity
  8
Centrala
 62
     5
100
AcDbVertex
100
AcDb3dPolylineVertex
 10
12.8521
 20
-1.061979999999999
 30
0.0
 70
    32
  0
VERTEX
  5
1FF2
330
1ECA
100
AcDbEntity
  8
Centrala
 62
     5
100
AcDbVertex
100
AcDb3dPolylineVertex
 10
12.7537
 20
-1.2412
 30
0.0
 70
    32
  0
VERTEX
  5
1FF3
330
1ECA
100
AcDbEntity
  8
Centrala
 62
     5
100
AcDbVertex
100
AcDb3dPolylineVertex
 10
12.6561
 20
-1.420209999999999
 30
0.0
 70
    32
  0
VERTEX
  5
1FF4
330
1ECA
100
AcDbEntity
  8
Centrala
 62
     5
100
AcDbVertex
100
AcDb3dPolylineVertex
 10
12.5597
 20
-1.599
 30
0.0
 70
    32
  0
VERTEX
  5
1FF5
330
1ECA
100
AcDbEntity
  8
Centrala
 62
     5
100
AcDbVertex
100
AcDb3dPolylineVertex
 10
12.4644
 20
-1.77757
 30
0.0
 70
    32
  0
VERTEX
  5
1FF6
330
1ECA
100
AcDbEntity
  8
Centrala
 62
     5
100
AcDbVertex
100
AcDb3dPolylineVertex
 10
12.3705
 20
-1.955899999999999
 30
0.0
 70
    32
  0
VERTEX
  5
1FF7
330
1ECA
100
AcDbEntity
  8
Centrala
 62
     5
100
AcDbVertex
100
AcDb3dPolylineVertex
 10
12.2779
 20
-2.133979999999999
 30
0.0
 70
    32
  0
VERTEX
  5
1FF8
330
1ECA
100
AcDbEntity
  8
Centrala
 62
     5
100
AcDbVertex
100
AcDb3dPolylineVertex
 10
12.1868
 20
-2.311799999999998
 30
0.0
 70
    32
  0
VERTEX
  5
1FF9
330
1ECA
100
AcDbEntity
  8
Centrala
 62
     5
100
AcDbVertex
100
AcDb3dPolylineVertex
 10
12.0973
 20
-2.489349999999999
 30
0.0
 70
    32
  0
VERTEX
  5
1FFA
330
1ECA
100
AcDbEntity
  8
Centrala
 62
     5
100
AcDbVertex
100
AcDb3dPolylineVertex
 10
12.0095
 20
-2.66663
 30
0.0
 70
    32
  0
VERTEX
  5
1FFB
330
1ECA
100
AcDbEntity
  8
Centrala
 62
     5
100
AcDbVertex
100
AcDb3dPolylineVertex
 10
11.9235
 20
-2.843609999999998
 30
0.0
 70
    32
  0
VERTEX
  5
1FFC
330
1ECA
100
AcDbEntity
  8
Centrala
 62
     5
100
AcDbVertex
100
AcDb3dPolylineVertex
 10
11.8394
 20
-3.02029
 30
0.0
 70
    32
  0
VERTEX
  5
1FFD
330
1ECA
100
AcDbEntity
  8
Centrala
 62
     5
100
AcDbVertex
100
AcDb3dPolylineVertex
 10
11.7574
 20
-3.19666
 30
0.0
 70
    32
  0
VERTEX
  5
1FFE
330
1ECA
100
AcDbEntity
  8
Centrala
 62
     5
100
AcDbVertex
100
AcDb3dPolylineVertex
 10
11.6774
 20
-3.372719999999998
 30
0.0
 70
    32
  0
VERTEX
  5
1FFF
330
1ECA
100
AcDbEntity
  8
Centrala
 62
     5
100
AcDbVertex
100
AcDb3dPolylineVertex
 10
11.5997
 20
-3.54844
 30
0.0
 70
    32
  0
VERTEX
  5
2000
330
1ECA
100
AcDbEntity
  8
Centrala
 62
     5
100
AcDbVertex
100
AcDb3dPolylineVertex
 10
11.5242
 20
-3.723809999999998
 30
0.0
 70
    32
  0
VERTEX
  5
2001
330
1ECA
100
AcDbEntity
  8
Centrala
 62
     5
100
AcDbVertex
100
AcDb3dPolylineVertex
 10
11.4512
 20
-3.89884
 30
0.0
 70
    32
  0
VERTEX
  5
2002
330
1ECA
100
AcDbEntity
  8
Centrala
 62
     5
100
AcDbVertex
100
AcDb3dPolylineVertex
 10
11.3807
 20
-4.0735
 30
0.0
 70
    32
  0
VERTEX
  5
2003
330
1ECA
100
AcDbEntity
  8
Centrala
 62
     5
100
AcDbVertex
100
AcDb3dPolylineVertex
 10
11.3129
 20
-4.247799999999998
 30
0.0
 70
    32
  0
VERTEX
  5
2004
330
1ECA
100
AcDbEntity
  8
Centrala
 62
     5
100
AcDbVertex
100
AcDb3dPolylineVertex
 10
11.2478
 20
-4.4217
 30
0.0
 70
    32
  0
VERTEX
  5
2005
330
1ECA
100
AcDbEntity
  8
Centrala
 62
     5
100
AcDbVertex
100
AcDb3dPolylineVertex
 10
11.1855
 20
-4.595219999999998
 30
0.0
 70
    32
  0
VERTEX
  5
2006
330
1ECA
100
AcDbEntity
  8
Centrala
 62
     5
100
AcDbVertex
100
AcDb3dPolylineVertex
 10
11.1261
 20
-4.76833
 30
0.0
 70
    32
  0
VERTEX
  5
2007
330
1ECA
100
AcDbEntity
  8
Centrala
 62
     5
100
AcDbVertex
100
AcDb3dPolylineVertex
 10
11.0698
 20
-4.941019999999999
 30
0.0
 70
    32
  0
VERTEX
  5
2008
330
1ECA
100
AcDbEntity
  8
Centrala
 62
     5
100
AcDbVertex
100
AcDb3dPolylineVertex
 10
11.0167
 20
-5.11329
 30
0.0
 70
    32
  0
VERTEX
  5
2009
330
1ECA
100
AcDbEntity
  8
Centrala
 62
     5
100
AcDbVertex
100
AcDb3dPolylineVertex
 10
10.9668
 20
-5.28513
 30
0.0
 70
    32
  0
VERTEX
  5
200A
330
1ECA
100
AcDbEntity
  8
Centrala
 62
     5
100
AcDbVertex
100
AcDb3dPolylineVertex
 10
10.9202
 20
-5.456519999999997
 30
0.0
 70
    32
  0
VERTEX
  5
200B
330
1ECA
100
AcDbEntity
  8
Centrala
 62
     5
100
AcDbVertex
100
AcDb3dPolylineVertex
 10
10.8771
 20
-5.627449999999997
 30
0.0
 70
    32
  0
VERTEX
  5
200C
330
1ECA
100
AcDbEntity
  8
Centrala
 62
     5
100
AcDbVertex
100
AcDb3dPolylineVertex
 10
10.8376
 20
-5.797919999999997
 30
0.0
 70
    32
  0
VERTEX
  5
200D
330
1ECA
100
AcDbEntity
  8
Centrala
 62
     5
100
AcDbVertex
100
AcDb3dPolylineVertex
 10
10.8017
 20
-5.967909999999998
 30
0.0
 70
    32
  0
VERTEX
  5
200E
330
1ECA
100
AcDbEntity
  8
Centrala
 62
     5
100
AcDbVertex
100
AcDb3dPolylineVertex
 10
10.7696
 20
-6.13741
 30
0.0
 70
    32
  0
VERTEX
  5
200F
330
1ECA
100
AcDbEntity
  8
Centrala
 62
     5
100
AcDbVertex
100
AcDb3dPolylineVertex
 10
10.7414
 20
-6.30642
 30
0.0
 70
    32
  0
VERTEX
  5
2010
330
1ECA
100
AcDbEntity
  8
Centrala
 62
     5
100
AcDbVertex
100
AcDb3dPolylineVertex
 10
10.7171
 20
-6.47492
 30
0.0
 70
    32
  0
VERTEX
  5
2011
330
1ECA
100
AcDbEntity
  8
Centrala
 62
     5
100
AcDbVertex
100
AcDb3dPolylineVertex
 10
10.6969
 20
-6.6429
 30
0.0
 70
    32
  0
VERTEX
  5
2012
330
1ECA
100
AcDbEntity
  8
Centrala
 62
     5
100
AcDbVertex
100
AcDb3dPolylineVertex
 10
10.6809
 20
-6.810349999999997
 30
0.0
 70
    32
  0
VERTEX
  5
2013
330
1ECA
100
AcDbEntity
  8
Centrala
 62
     5
100
AcDbVertex
100
AcDb3dPolylineVertex
 10
10.6692
 20
-6.97726
 30
0.0
 70
    32
  0
VERTEX
  5
2014
330
1ECA
100
AcDbEntity
  8
Centrala
 62
     5
100
AcDbVertex
100
AcDb3dPolylineVertex
 10
10.6618
 20
-7.143619999999997
 30
0.0
 70
    32
  0
VERTEX
  5
2015
330
1ECA
100
AcDbEntity
  8
Centrala
 62
     5
100
AcDbVertex
100
AcDb3dPolylineVertex
 10
10.659
 20
-7.309429999999997
 30
0.0
 70
    32
  0
VERTEX
  5
2016
330
1ECA
100
AcDbEntity
  8
Centrala
 62
     5
100
AcDbVertex
100
AcDb3dPolylineVertex
 10
10.6607
 20
-7.47466
 30
0.0
 70
    32
  0
VERTEX
  5
2017
330
1ECA
100
AcDbEntity
  8
Centrala
 62
     5
100
AcDbVertex
100
AcDb3dPolylineVertex
 10
10.6671
 20
-7.63931
 30
0.0
 70
    32
  0
VERTEX
  5
2018
330
1ECA
100
AcDbEntity
  8
Centrala
 62
     5
100
AcDbVertex
100
AcDb3dPolylineVertex
 10
10.6784
 20
-7.80337
 30
0.0
 70
    32
  0
VERTEX
  5
2019
330
1ECA
100
AcDbEntity
  8
Centrala
 62
     5
100
AcDbVertex
100
AcDb3dPolylineVertex
 10
10.6945
 20
-7.966829999999997
 30
0.0
 70
    32
  0
VERTEX
  5
201A
330
1ECA
100
AcDbEntity
  8
Centrala
 62
     5
100
AcDbVertex
100
AcDb3dPolylineVertex
 10
10.7157
 20
-8.12968
 30
0.0
 70
    32
  0
VERTEX
  5
201B
330
1ECA
100
AcDbEntity
  8
Centrala
 62
     5
100
AcDbVertex
100
AcDb3dPolylineVertex
 10
10.7419
 20
-8.291910000000001
 30
0.0
 70
    32
  0
VERTEX
  5
201C
330
1ECA
100
AcDbEntity
  8
Centrala
 62
     5
100
AcDbVertex
100
AcDb3dPolylineVertex
 10
10.7734
 20
-8.4535
 30
0.0
 70
    32
  0
VERTEX
  5
201D
330
1ECA
100
AcDbEntity
  8
Centrala
 62
     5
100
AcDbVertex
100
AcDb3dPolylineVertex
 10
10.8102
 20
-8.614449999999997
 30
0.0
 70
    32
  0
VERTEX
  5
201E
330
1ECA
100
AcDbEntity
  8
Centrala
 62
     5
100
AcDbVertex
100
AcDb3dPolylineVertex
 10
10.8524
 20
-8.774749999999999
 30
0.0
 70
    32
  0
VERTEX
  5
201F
330
1ECA
100
AcDbEntity
  8
Centrala
 62
     5
100
AcDbVertex
100
AcDb3dPolylineVertex
 10
10.9001
 20
-8.934389999999996
 30
0.0
 70
    32
  0
VERTEX
  5
2020
330
1ECA
100
AcDbEntity
  8
Centrala
 62
     5
100
AcDbVertex
100
AcDb3dPolylineVertex
 10
10.9535
 20
-9.093349999999999
 30
0.0
 70
    32
  0
VERTEX
  5
2021
330
1ECA
100
AcDbEntity
  8
Centrala
 62
     5
100
AcDbVertex
100
AcDb3dPolylineVertex
 10
11.0126
 20
-9.25162
 30
0.0
 70
    32
  0
VERTEX
  5
2022
330
1ECA
100
AcDbEntity
  8
Centrala
 62
     5
100
AcDbVertex
100
AcDb3dPolylineVertex
 10
11.0775
 20
-9.4092
 30
0.0
 70
    32
  0
VERTEX
  5
2023
330
1ECA
100
AcDbEntity
  8
Centrala
 62
     5
100
AcDbVertex
100
AcDb3dPolylineVertex
 10
11.1483
 20
-9.566079999999999
 30
0.0
 70
    32
  0
VERTEX
  5
2024
330
1ECA
100
AcDbEntity
  8
Centrala
 62
     5
100
AcDbVertex
100
AcDb3dPolylineVertex
 10
11.2252
 20
-9.722239999999999
 30
0.0
 70
    32
  0
VERTEX
  5
2025
330
1ECA
100
AcDbEntity
  8
Centrala
 62
     5
100
AcDbVertex
100
AcDb3dPolylineVertex
 10
11.3083
 20
-9.87767
 30
0.0
 70
    32
  0
VERTEX
  5
2026
330
1ECA
100
AcDbEntity
  8
Centrala
 62
     5
100
AcDbVertex
100
AcDb3dPolylineVertex
 10
11.3975
 20
-10.0324
 30
0.0
 70
    32
  0
VERTEX
  5
2027
330
1ECA
100
AcDbEntity
  8
Centrala
 62
     5
100
AcDbVertex
100
AcDb3dPolylineVertex
 10
11.4932
 20
-10.1863
 30
0.0
 70
    32
  0
VERTEX
  5
2028
330
1ECA
100
AcDbEntity
  8
Centrala
 62
     5
100
AcDbVertex
100
AcDb3dPolylineVertex
 10
11.5953
 20
-10.3395
 30
0.0
 70
    32
  0
VERTEX
  5
2029
330
1ECA
100
AcDbEntity
  8
Centrala
 62
     5
100
AcDbVertex
100
AcDb3dPolylineVertex
 10
11.7039
 20
-10.4919
 30
0.0
 70
    32
  0
VERTEX
  5
202A
330
1ECA
100
AcDbEntity
  8
Centrala
 62
     5
100
AcDbVertex
100
AcDb3dPolylineVertex
 10
11.8192
 20
-10.6436
 30
0.0
 70
    32
  0
VERTEX
  5
202B
330
1ECA
100
AcDbEntity
  8
Centrala
 62
     5
100
AcDbVertex
100
AcDb3dPolylineVertex
 10
11.9413
 20
-10.7945
 30
0.0
 70
    32
  0
VERTEX
  5
202C
330
1ECA
100
AcDbEntity
  8
Centrala
 62
     5
100
AcDbVertex
100
AcDb3dPolylineVertex
 10
12.07
 20
-10.9445
 30
0.0
 70
    32
  0
VERTEX
  5
202D
330
1ECA
100
AcDbEntity
  8
Centrala
 62
     5
100
AcDbVertex
100
AcDb3dPolylineVertex
 10
12.2049
 20
-11.0938
 30
0.0
 70
    32
  0
VERTEX
  5
202E
330
1ECA
100
AcDbEntity
  8
Centrala
 62
     5
100
AcDbVertex
100
AcDb3dPolylineVertex
 10
12.3457
 20
-11.2424
 30
0.0
 70
    32
  0
VERTEX
  5
202F
330
1ECA
100
AcDbEntity
  8
Centrala
 62
     5
100
AcDbVertex
100
AcDb3dPolylineVertex
 10
12.4919
 20
-11.3903
 30
0.0
 70
    32
  0
VERTEX
  5
2030
330
1ECA
100
AcDbEntity
  8
Centrala
 62
     5
100
AcDbVertex
100
AcDb3dPolylineVertex
 10
12.643
 20
-11.5375
 30
0.0
 70
    32
  0
VERTEX
  5
2031
330
1ECA
100
AcDbEntity
  8
Centrala
 62
     5
100
AcDbVertex
100
AcDb3dPolylineVertex
 10
12.7987
 20
-11.684
 30
0.0
 70
    32
  0
VERTEX
  5
2032
330
1ECA
100
AcDbEntity
  8
Centrala
 62
     5
100
AcDbVertex
100
AcDb3dPolylineVertex
 10
12.9585
 20
-11.8299
 30
0.0
 70
    32
  0
VERTEX
  5
2033
330
1ECA
100
AcDbEntity
  8
Centrala
 62
     5
100
AcDbVertex
100
AcDb3dPolylineVertex
 10
13.1221
 20
-11.9752
 30
0.0
 70
    32
  0
VERTEX
  5
2034
330
1ECA
100
AcDbEntity
  8
Centrala
 62
     5
100
AcDbVertex
100
AcDb3dPolylineVertex
 10
13.2889
 20
-12.1199
 30
0.0
 70
    32
  0
VERTEX
  5
2035
330
1ECA
100
AcDbEntity
  8
Centrala
 62
     5
100
AcDbVertex
100
AcDb3dPolylineVertex
 10
13.4586
 20
-12.264
 30
0.0
 70
    32
  0
VERTEX
  5
2036
330
1ECA
100
AcDbEntity
  8
Centrala
 62
     5
100
AcDbVertex
100
AcDb3dPolylineVertex
 10
13.6307
 20
-12.4076
 30
0.0
 70
    32
  0
VERTEX
  5
2037
330
1ECA
100
AcDbEntity
  8
Centrala
 62
     5
100
AcDbVertex
100
AcDb3dPolylineVertex
 10
13.8048
 20
-12.5507
 30
0.0
 70
    32
  0
VERTEX
  5
2038
330
1ECA
100
AcDbEntity
  8
Centrala
 62
     5
100
AcDbVertex
100
AcDb3dPolylineVertex
 10
13.9806
 20
-12.6933
 30
0.0
 70
    32
  0
VERTEX
  5
2039
330
1ECA
100
AcDbEntity
  8
Centrala
 62
     5
100
AcDbVertex
100
AcDb3dPolylineVertex
 10
14.1575
 20
-12.8354
 30
0.0
 70
    32
  0
VERTEX
  5
203A
330
1ECA
100
AcDbEntity
  8
Centrala
 62
     5
100
AcDbVertex
100
AcDb3dPolylineVertex
 10
14.3352
 20
-12.9772
 30
0.0
 70
    32
  0
VERTEX
  5
203B
330
1ECA
100
AcDbEntity
  8
Centrala
 62
     5
100
AcDbVertex
100
AcDb3dPolylineVertex
 10
14.5132
 20
-13.1184
 30
0.0
 70
    32
  0
VERTEX
  5
203C
330
1ECA
100
AcDbEntity
  8
Centrala
 62
     5
100
AcDbVertex
100
AcDb3dPolylineVertex
 10
14.6911
 20
-13.2594
 30
0.0
 70
    32
  0
VERTEX
  5
203D
330
1ECA
100
AcDbEntity
  8
Centrala
 62
     5
100
AcDbVertex
100
AcDb3dPolylineVertex
 10
14.8685
 20
-13.3999
 30
0.0
 70
    32
  0
VERTEX
  5
203E
330
1ECA
100
AcDbEntity
  8
Centrala
 62
     5
100
AcDbVertex
100
AcDb3dPolylineVertex
 10
15.045
 20
-13.5401
 30
0.0
 70
    32
  0
VERTEX
  5
203F
330
1ECA
100
AcDbEntity
  8
Centrala
 62
     5
100
AcDbVertex
100
AcDb3dPolylineVertex
 10
15.2201
 20
-13.68
 30
0.0
 70
    32
  0
VERTEX
  5
2040
330
1ECA
100
AcDbEntity
  8
Centrala
 62
     5
100
AcDbVertex
100
AcDb3dPolylineVertex
 10
15.3935
 20
-13.8196
 30
0.0
 70
    32
  0
VERTEX
  5
2041
330
1ECA
100
AcDbEntity
  8
Centrala
 62
     5
100
AcDbVertex
100
AcDb3dPolylineVertex
 10
15.5646
 20
-13.959
 30
0.0
 70
    32
  0
VERTEX
  5
2042
330
1ECA
100
AcDbEntity
  8
Centrala
 62
     5
100
AcDbVertex
100
AcDb3dPolylineVertex
 10
15.7331
 20
-14.0981
 30
0.0
 70
    32
  0
VERTEX
  5
2043
330
1ECA
100
AcDbEntity
  8
Centrala
 62
     5
100
AcDbVertex
100
AcDb3dPolylineVertex
 10
15.8986
 20
-14.237
 30
0.0
 70
    32
  0
VERTEX
  5
2044
330
1ECA
100
AcDbEntity
  8
Centrala
 62
     5
100
AcDbVertex
100
AcDb3dPolylineVertex
 10
16.0606
 20
-14.3757
 30
0.0
 70
    32
  0
VERTEX
  5
2045
330
1ECA
100
AcDbEntity
  8
Centrala
 62
     5
100
AcDbVertex
100
AcDb3dPolylineVertex
 10
16.2187
 20
-14.5143
 30
0.0
 70
    32
  0
VERTEX
  5
2046
330
1ECA
100
AcDbEntity
  8
Centrala
 62
     5
100
AcDbVertex
100
AcDb3dPolylineVertex
 10
16.3725
 20
-14.6527
 30
0.0
 70
    32
  0
VERTEX
  5
2047
330
1ECA
100
AcDbEntity
  8
Centrala
 62
     5
100
AcDbVertex
100
AcDb3dPolylineVertex
 10
16.5216
 20
-14.791
 30
0.0
 70
    32
  0
VERTEX
  5
2048
330
1ECA
100
AcDbEntity
  8
Centrala
 62
     5
100
AcDbVertex
100
AcDb3dPolylineVertex
 10
16.6655
 20
-14.9292
 30
0.0
 70
    32
  0
VERTEX
  5
2049
330
1ECA
100
AcDbEntity
  8
Centrala
 62
     5
100
AcDbVertex
100
AcDb3dPolylineVertex
 10
16.8039
 20
-15.0673
 30
0.0
 70
    32
  0
VERTEX
  5
204A
330
1ECA
100
AcDbEntity
  8
Centrala
 62
     5
100
AcDbVertex
100
AcDb3dPolylineVertex
 10
16.9362
 20
-15.2055
 30
0.0
 70
    32
  0
VERTEX
  5
204B
330
1ECA
100
AcDbEntity
  8
Centrala
 62
     5
100
AcDbVertex
100
AcDb3dPolylineVertex
 10
16.9141
 20
-15.3009
 30
0.0
 70
    32
  0
VERTEX
  5
204C
330
1ECA
100
AcDbEntity
  8
Centrala
 62
     5
100
AcDbVertex
100
AcDb3dPolylineVertex
 10
16.7422
 20
-15.3537
 30
0.0
 70
    32
  0
VERTEX
  5
204D
330
1ECA
100
AcDbEntity
  8
Centrala
 62
     5
100
AcDbVertex
100
AcDb3dPolylineVertex
 10
16.5704
 20
-15.4064
 30
0.0
 70
    32
  0
VERTEX
  5
204E
330
1ECA
100
AcDbEntity
  8
Centrala
 62
     5
100
AcDbVertex
100
AcDb3dPolylineVertex
 10
16.3985
 20
-15.459
 30
0.0
 70
    32
  0
VERTEX
  5
204F
330
1ECA
100
AcDbEntity
  8
Centrala
 62
     5
100
AcDbVertex
100
AcDb3dPolylineVertex
 10
16.2267
 20
-15.5114
 30
0.0
 70
    32
  0
VERTEX
  5
2050
330
1ECA
100
AcDbEntity
  8
Centrala
 62
     5
100
AcDbVertex
100
AcDb3dPolylineVertex
 10
16.0548
 20
-15.5635
 30
0.0
 70
    32
  0
VERTEX
  5
2051
330
1ECA
100
AcDbEntity
  8
Centrala
 62
     5
100
AcDbVertex
100
AcDb3dPolylineVertex
 10
15.8829
 20
-15.6154
 30
0.0
 70
    32
  0
VERTEX
  5
2052
330
1ECA
100
AcDbEntity
  8
Centrala
 62
     5
100
AcDbVertex
100
AcDb3dPolylineVertex
 10
15.7109
 20
-15.6669
 30
0.0
 70
    32
  0
VERTEX
  5
2053
330
1ECA
100
AcDbEntity
  8
Centrala
 62
     5
100
AcDbVertex
100
AcDb3dPolylineVertex
 10
15.539
 20
-15.718
 30
0.0
 70
    32
  0
VERTEX
  5
2054
330
1ECA
100
AcDbEntity
  8
Centrala
 62
     5
100
AcDbVertex
100
AcDb3dPolylineVertex
 10
15.367
 20
-15.7686
 30
0.0
 70
    32
  0
VERTEX
  5
2055
330
1ECA
100
AcDbEntity
  8
Centrala
 62
     5
100
AcDbVertex
100
AcDb3dPolylineVertex
 10
15.195
 20
-15.8187
 30
0.0
 70
    32
  0
VERTEX
  5
2056
330
1ECA
100
AcDbEntity
  8
Centrala
 62
     5
100
AcDbVertex
100
AcDb3dPolylineVertex
 10
15.0229
 20
-15.8683
 30
0.0
 70
    32
  0
VERTEX
  5
2057
330
1ECA
100
AcDbEntity
  8
Centrala
 62
     5
100
AcDbVertex
100
AcDb3dPolylineVertex
 10
14.8508
 20
-15.9173
 30
0.0
 70
    32
  0
VERTEX
  5
2058
330
1ECA
100
AcDbEntity
  8
Centrala
 62
     5
100
AcDbVertex
100
AcDb3dPolylineVertex
 10
14.6787
 20
-15.9655
 30
0.0
 70
    32
  0
VERTEX
  5
2059
330
1ECA
100
AcDbEntity
  8
Centrala
 62
     5
100
AcDbVertex
100
AcDb3dPolylineVertex
 10
14.5065
 20
-16.0131
 30
0.0
 70
    32
  0
VERTEX
  5
205A
330
1ECA
100
AcDbEntity
  8
Centrala
 62
     5
100
AcDbVertex
100
AcDb3dPolylineVertex
 10
14.3342
 20
-16.0599
 30
0.0
 70
    32
  0
VERTEX
  5
205B
330
1ECA
100
AcDbEntity
  8
Centrala
 62
     5
100
AcDbVertex
100
AcDb3dPolylineVertex
 10
14.1619
 20
-16.1058
 30
0.0
 70
    32
  0
VERTEX
  5
205C
330
1ECA
100
AcDbEntity
  8
Centrala
 62
     5
100
AcDbVertex
100
AcDb3dPolylineVertex
 10
13.9896
 20
-16.1509
 30
0.0
 70
    32
  0
VERTEX
  5
205D
330
1ECA
100
AcDbEntity
  8
Centrala
 62
     5
100
AcDbVertex
100
AcDb3dPolylineVertex
 10
13.8171
 20
-16.195
 30
0.0
 70
    32
  0
VERTEX
  5
205E
330
1ECA
100
AcDbEntity
  8
Centrala
 62
     5
100
AcDbVertex
100
AcDb3dPolylineVertex
 10
13.6446
 20
-16.2381
 30
0.0
 70
    32
  0
VERTEX
  5
205F
330
1ECA
100
AcDbEntity
  8
Centrala
 62
     5
100
AcDbVertex
100
AcDb3dPolylineVertex
 10
13.4721
 20
-16.2802
 30
0.0
 70
    32
  0
VERTEX
  5
2060
330
1ECA
100
AcDbEntity
  8
Centrala
 62
     5
100
AcDbVertex
100
AcDb3dPolylineVertex
 10
13.2994
 20
-16.3212
 30
0.0
 70
    32
  0
VERTEX
  5
2061
330
1ECA
100
AcDbEntity
  8
Centrala
 62
     5
100
AcDbVertex
100
AcDb3dPolylineVertex
 10
13.1267
 20
-16.361
 30
0.0
 70
    32
  0
VERTEX
  5
2062
330
1ECA
100
AcDbEntity
  8
Centrala
 62
     5
100
AcDbVertex
100
AcDb3dPolylineVertex
 10
12.9539
 20
-16.3997
 30
0.0
 70
    32
  0
VERTEX
  5
2063
330
1ECA
100
AcDbEntity
  8
Centrala
 62
     5
100
AcDbVertex
100
AcDb3dPolylineVertex
 10
12.781
 20
-16.437
 30
0.0
 70
    32
  0
VERTEX
  5
2064
330
1ECA
100
AcDbEntity
  8
Centrala
 62
     5
100
AcDbVertex
100
AcDb3dPolylineVertex
 10
12.6081
 20
-16.4731
 30
0.0
 70
    32
  0
VERTEX
  5
2065
330
1ECA
100
AcDbEntity
  8
Centrala
 62
     5
100
AcDbVertex
100
AcDb3dPolylineVertex
 10
12.435
 20
-16.5077
 30
0.0
 70
    32
  0
VERTEX
  5
2066
330
1ECA
100
AcDbEntity
  8
Centrala
 62
     5
100
AcDbVertex
100
AcDb3dPolylineVertex
 10
12.2618
 20
-16.541
 30
0.0
 70
    32
  0
VERTEX
  5
2067
330
1ECA
100
AcDbEntity
  8
Centrala
 62
     5
100
AcDbVertex
100
AcDb3dPolylineVertex
 10
12.0886
 20
-16.5728
 30
0.0
 70
    32
  0
VERTEX
  5
2068
330
1ECA
100
AcDbEntity
  8
Centrala
 62
     5
100
AcDbVertex
100
AcDb3dPolylineVertex
 10
11.9152
 20
-16.603
 30
0.0
 70
    32
  0
VERTEX
  5
2069
330
1ECA
100
AcDbEntity
  8
Centrala
 62
     5
100
AcDbVertex
100
AcDb3dPolylineVertex
 10
11.7417
 20
-16.6317
 30
0.0
 70
    32
  0
VERTEX
  5
206A
330
1ECA
100
AcDbEntity
  8
Centrala
 62
     5
100
AcDbVertex
100
AcDb3dPolylineVertex
 10
11.5682
 20
-16.6587
 30
0.0
 70
    32
  0
VERTEX
  5
206B
330
1ECA
100
AcDbEntity
  8
Centrala
 62
     5
100
AcDbVertex
100
AcDb3dPolylineVertex
 10
11.3945
 20
-16.6841
 30
0.0
 70
    32
  0
VERTEX
  5
206C
330
1ECA
100
AcDbEntity
  8
Centrala
 62
     5
100
AcDbVertex
100
AcDb3dPolylineVertex
 10
11.2206
 20
-16.7077
 30
0.0
 70
    32
  0
VERTEX
  5
206D
330
1ECA
100
AcDbEntity
  8
Centrala
 62
     5
100
AcDbVertex
100
AcDb3dPolylineVertex
 10
11.0467
 20
-16.7295
 30
0.0
 70
    32
  0
VERTEX
  5
206E
330
1ECA
100
AcDbEntity
  8
Centrala
 62
     5
100
AcDbVertex
100
AcDb3dPolylineVertex
 10
10.8726
 20
-16.7494
 30
0.0
 70
    32
  0
VERTEX
  5
206F
330
1ECA
100
AcDbEntity
  8
Centrala
 62
     5
100
AcDbVertex
100
AcDb3dPolylineVertex
 10
10.6985
 20
-16.7675
 30
0.0
 70
    32
  0
VERTEX
  5
2070
330
1ECA
100
AcDbEntity
  8
Centrala
 62
     5
100
AcDbVertex
100
AcDb3dPolylineVertex
 10
10.5241
 20
-16.7835
 30
0.0
 70
    32
  0
VERTEX
  5
2071
330
1ECA
100
AcDbEntity
  8
Centrala
 62
     5
100
AcDbVertex
100
AcDb3dPolylineVertex
 10
10.3497
 20
-16.7976
 30
0.0
 70
    32
  0
VERTEX
  5
2072
330
1ECA
100
AcDbEntity
  8
Centrala
 62
     5
100
AcDbVertex
100
AcDb3dPolylineVertex
 10
10.1751
 20
-16.8096
 30
0.0
 70
    32
  0
VERTEX
  5
2073
330
1ECA
100
AcDbEntity
  8
Centrala
 62
     5
100
AcDbVertex
100
AcDb3dPolylineVertex
 10
10.0003
 20
-16.8195
 30
0.0
 70
    32
  0
VERTEX
  5
2074
330
1ECA
100
AcDbEntity
  8
Centrala
 62
     5
100
AcDbVertex
100
AcDb3dPolylineVertex
 10
9.825439999999996
 20
-16.8272
 30
0.0
 70
    32
  0
VERTEX
  5
2075
330
1ECA
100
AcDbEntity
  8
Centrala
 62
     5
100
AcDbVertex
100
AcDb3dPolylineVertex
 10
9.650399999999999
 20
-16.8327
 30
0.0
 70
    32
  0
VERTEX
  5
2076
330
1ECA
100
AcDbEntity
  8
Centrala
 62
     5
100
AcDbVertex
100
AcDb3dPolylineVertex
 10
9.47521
 20
-16.8359
 30
0.0
 70
    32
  0
VERTEX
  5
2077
330
1ECA
100
AcDbEntity
  8
Centrala
 62
     5
100
AcDbVertex
100
AcDb3dPolylineVertex
 10
9.299849999999999
 20
-16.8368
 30
0.0
 70
    32
  0
VERTEX
  5
2078
330
1ECA
100
AcDbEntity
  8
Centrala
 62
     5
100
AcDbVertex
100
AcDb3dPolylineVertex
 10
9.12434
 20
-16.8352
 30
0.0
 70
    32
  0
VERTEX
  5
2079
330
1ECA
100
AcDbEntity
  8
Centrala
 62
     5
100
AcDbVertex
100
AcDb3dPolylineVertex
 10
8.94866
 20
-16.8313
 30
0.0
 70
    32
  0
VERTEX
  5
207A
330
1ECA
100
AcDbEntity
  8
Centrala
 62
     5
100
AcDbVertex
100
AcDb3dPolylineVertex
 10
8.772819999999999
 20
-16.8248
 30
0.0
 70
    32
  0
VERTEX
  5
207B
330
1ECA
100
AcDbEntity
  8
Centrala
 62
     5
100
AcDbVertex
100
AcDb3dPolylineVertex
 10
8.596799999999998
 20
-16.8158
 30
0.0
 70
    32
  0
VERTEX
  5
207C
330
1ECA
100
AcDbEntity
  8
Centrala
 62
     5
100
AcDbVertex
100
AcDb3dPolylineVertex
 10
8.4206
 20
-16.8042
 30
0.0
 70
    32
  0
VERTEX
  5
207D
330
1ECA
100
AcDbEntity
  8
Centrala
 62
     5
100
AcDbVertex
100
AcDb3dPolylineVertex
 10
8.24422
 20
-16.79
 30
0.0
 70
    32
  0
VERTEX
  5
207E
330
1ECA
100
AcDbEntity
  8
Centrala
 62
     5
100
AcDbVertex
100
AcDb3dPolylineVertex
 10
8.067669999999999
 20
-16.773
 30
0.0
 70
    32
  0
VERTEX
  5
207F
330
1ECA
100
AcDbEntity
  8
Centrala
 62
     5
100
AcDbVertex
100
AcDb3dPolylineVertex
 10
7.890919999999997
 20
-16.7533
 30
0.0
 70
    32
  0
VERTEX
  5
2080
330
1ECA
100
AcDbEntity
  8
Centrala
 62
     5
100
AcDbVertex
100
AcDb3dPolylineVertex
 10
7.713989999999999
 20
-16.7307
 30
0.0
 70
    32
  0
VERTEX
  5
2081
330
1ECA
100
AcDbEntity
  8
Centrala
 62
     5
100
AcDbVertex
100
AcDb3dPolylineVertex
 10
7.53686
 20
-16.7053
 30
0.0
 70
    32
  0
VERTEX
  5
2082
330
1ECA
100
AcDbEntity
  8
Centrala
 62
     5
100
AcDbVertex
100
AcDb3dPolylineVertex
 10
7.35953
 20
-16.6769
 30
0.0
 70
    32
  0
VERTEX
  5
2083
330
1ECA
100
AcDbEntity
  8
Centrala
 62
     5
100
AcDbVertex
100
AcDb3dPolylineVertex
 10
7.182
 20
-16.6456
 30
0.0
 70
    32
  0
VERTEX
  5
2084
330
1ECA
100
AcDbEntity
  8
Centrala
 62
     5
100
AcDbVertex
100
AcDb3dPolylineVertex
 10
7.00426
 20
-16.6112
 30
0.0
 70
    32
  0
VERTEX
  5
2085
330
1ECA
100
AcDbEntity
  8
Centrala
 62
     5
100
AcDbVertex
100
AcDb3dPolylineVertex
 10
6.826319999999999
 20
-16.5738
 30
0.0
 70
    32
  0
VERTEX
  5
2086
330
1ECA
100
AcDbEntity
  8
Centrala
 62
     5
100
AcDbVertex
100
AcDb3dPolylineVertex
 10
6.648169999999997
 20
-16.5332
 30
0.0
 70
    32
  0
VERTEX
  5
2087
330
1ECA
100
AcDbEntity
  8
Centrala
 62
     5
100
AcDbVertex
100
AcDb3dPolylineVertex
 10
6.4698
 20
-16.4894
 30
0.0
 70
    32
  0
VERTEX
  5
2088
330
1ECA
100
AcDbEntity
  8
Centrala
 62
     5
100
AcDbVertex
100
AcDb3dPolylineVertex
 10
6.291209999999997
 20
-16.4424
 30
0.0
 70
    32
  0
VERTEX
  5
2089
330
1ECA
100
AcDbEntity
  8
Centrala
 62
     5
100
AcDbVertex
100
AcDb3dPolylineVertex
 10
6.11239
 20
-16.3921
 30
0.0
 70
    32
  0
VERTEX
  5
208A
330
1ECA
100
AcDbEntity
  8
Centrala
 62
     5
100
AcDbVertex
100
AcDb3dPolylineVertex
 10
5.933359999999997
 20
-16.3385
 30
0.0
 70
    32
  0
VERTEX
  5
208B
330
1ECA
100
AcDbEntity
  8
Centrala
 62
     5
100
AcDbVertex
100
AcDb3dPolylineVertex
 10
5.754129999999999
 20
-16.2819
 30
0.0
 70
    32
  0
VERTEX
  5
208C
330
1ECA
100
AcDbEntity
  8
Centrala
 62
     5
100
AcDbVertex
100
AcDb3dPolylineVertex
 10
5.574699999999999
 20
-16.2222
 30
0.0
 70
    32
  0
VERTEX
  5
208D
330
1ECA
100
AcDbEntity
  8
Centrala
 62
     5
100
AcDbVertex
100
AcDb3dPolylineVertex
 10
5.39508
 20
-16.1595
 30
0.0
 70
    32
  0
VERTEX
  5
208E
330
1ECA
100
AcDbEntity
  8
Centrala
 62
     5
100
AcDbVertex
100
AcDb3dPolylineVertex
 10
5.21529
 20
-16.0941
 30
0.0
 70
    32
  0
VERTEX
  5
208F
330
1ECA
100
AcDbEntity
  8
Centrala
 62
     5
100
AcDbVertex
100
AcDb3dPolylineVertex
 10
5.035339999999997
 20
-16.0259
 30
0.0
 70
    32
  0
VERTEX
  5
2090
330
1ECA
100
AcDbEntity
  8
Centrala
 62
     5
100
AcDbVertex
100
AcDb3dPolylineVertex
 10
4.85523
 20
-15.9551
 30
0.0
 70
    32
  0
VERTEX
  5
2091
330
1ECA
100
AcDbEntity
  8
Centrala
 62
     5
100
AcDbVertex
100
AcDb3dPolylineVertex
 10
4.67498
 20
-15.8818
 30
0.0
 70
    32
  0
VERTEX
  5
2092
330
1ECA
100
AcDbEntity
  8
Centrala
 62
     5
100
AcDbVertex
100
AcDb3dPolylineVertex
 10
4.49459
 20
-15.806
 30
0.0
 70
    32
  0
VERTEX
  5
2093
330
1ECA
100
AcDbEntity
  8
Centrala
 62
     5
100
AcDbVertex
100
AcDb3dPolylineVertex
 10
4.31408
 20
-15.728
 30
0.0
 70
    32
  0
VERTEX
  5
2094
330
1ECA
100
AcDbEntity
  8
Centrala
 62
     5
100
AcDbVertex
100
AcDb3dPolylineVertex
 10
4.133459999999998
 20
-15.6478
 30
0.0
 70
    32
  0
VERTEX
  5
2095
330
1ECA
100
AcDbEntity
  8
Centrala
 62
     5
100
AcDbVertex
100
AcDb3dPolylineVertex
 10
3.95274
 20
-15.5655
 30
0.0
 70
    32
  0
VERTEX
  5
2096
330
1ECA
100
AcDbEntity
  8
Centrala
 62
     5
100
AcDbVertex
100
AcDb3dPolylineVertex
 10
3.77193
 20
-15.4811
 30
0.0
 70
    32
  0
VERTEX
  5
2097
330
1ECA
100
AcDbEntity
  8
Centrala
 62
     5
100
AcDbVertex
100
AcDb3dPolylineVertex
 10
3.59103
 20
-15.3949
 30
0.0
 70
    32
  0
VERTEX
  5
2098
330
1ECA
100
AcDbEntity
  8
Centrala
 62
     5
100
AcDbVertex
100
AcDb3dPolylineVertex
 10
3.410059999999998
 20
-15.3069
 30
0.0
 70
    32
  0
VERTEX
  5
2099
330
1ECA
100
AcDbEntity
  8
Centrala
 62
     5
100
AcDbVertex
100
AcDb3dPolylineVertex
 10
3.22904
 20
-15.2172
 30
0.0
 70
    32
  0
VERTEX
  5
209A
330
1ECA
100
AcDbEntity
  8
Centrala
 62
     5
100
AcDbVertex
100
AcDb3dPolylineVertex
 10
3.047959999999998
 20
-15.1259
 30
0.0
 70
    32
  0
VERTEX
  5
209B
330
1ECA
100
AcDbEntity
  8
Centrala
 62
     5
100
AcDbVertex
100
AcDb3dPolylineVertex
 10
2.86684
 20
-15.0332
 30
0.0
 70
    32
  0
VERTEX
  5
209C
330
1ECA
100
AcDbEntity
  8
Centrala
 62
     5
100
AcDbVertex
100
AcDb3dPolylineVertex
 10
2.68569
 20
-14.939
 30
0.0
 70
    32
  0
VERTEX
  5
209D
330
1ECA
100
AcDbEntity
  8
Centrala
 62
     5
100
AcDbVertex
100
AcDb3dPolylineVertex
 10
2.504529999999999
 20
-14.8436
 30
0.0
 70
    32
  0
VERTEX
  5
209E
330
1ECA
100
AcDbEntity
  8
Centrala
 62
     5
100
AcDbVertex
100
AcDb3dPolylineVertex
 10
2.32335
 20
-14.7471
 30
0.0
 70
    32
  0
VERTEX
  5
209F
330
1ECA
100
AcDbEntity
  8
Centrala
 62
     5
100
AcDbVertex
100
AcDb3dPolylineVertex
 10
2.142179999999999
 20
-14.6494
 30
0.0
 70
    32
  0
VERTEX
  5
20A0
330
1ECA
100
AcDbEntity
  8
Centrala
 62
     5
100
AcDbVertex
100
AcDb3dPolylineVertex
 10
1.961019999999999
 20
-14.5508
 30
0.0
 70
    32
  0
VERTEX
  5
20A1
330
1ECA
100
AcDbEntity
  8
Centrala
 62
     5
100
AcDbVertex
100
AcDb3dPolylineVertex
 10
1.779879999999999
 20
-14.4514
 30
0.0
 70
    32
  0
VERTEX
  5
20A2
330
1ECA
100
AcDbEntity
  8
Centrala
 62
     5
100
AcDbVertex
100
AcDb3dPolylineVertex
 10
1.598779999999999
 20
-14.3511
 30
0.0
 70
    32
  0
VERTEX
  5
20A3
330
1ECA
100
AcDbEntity
  8
Centrala
 62
     5
100
AcDbVertex
100
AcDb3dPolylineVertex
 10
1.41771
 20
-14.2503
 30
0.0
 70
    32
  0
VERTEX
  5
20A4
330
1ECA
100
AcDbEntity
  8
Centrala
 62
     5
100
AcDbVertex
100
AcDb3dPolylineVertex
 10
1.236699999999999
 20
-14.1488
 30
0.0
 70
    32
  0
VERTEX
  5
20A5
330
1ECA
100
AcDbEntity
  8
Centrala
 62
     5
100
AcDbVertex
100
AcDb3dPolylineVertex
 10
1.05576
 20
-14.047
 30
0.0
 70
    32
  0
VERTEX
  5
20A6
330
1ECA
100
AcDbEntity
  8
Centrala
 62
     5
100
AcDbVertex
100
AcDb3dPolylineVertex
 10
0.8748899999999999
 20
-13.9448
 30
0.0
 70
    32
  0
VERTEX
  5
20A7
330
1ECA
100
AcDbEntity
  8
Centrala
 62
     5
100
AcDbVertex
100
AcDb3dPolylineVertex
 10
0.694104
 20
-13.8423
 30
0.0
 70
    32
  0
VERTEX
  5
20A8
330
1ECA
100
AcDbEntity
  8
Centrala
 62
     5
100
AcDbVertex
100
AcDb3dPolylineVertex
 10
0.5134140000000002
 20
-13.7397
 30
0.0
 70
    32
  0
VERTEX
  5
20A9
330
1ECA
100
AcDbEntity
  8
Centrala
 62
     5
100
AcDbVertex
100
AcDb3dPolylineVertex
 10
0.332829
 20
-13.6371
 30
0.0
 70
    32
  0
VERTEX
  5
20AA
330
1ECA
100
AcDbEntity
  8
Centrala
 62
     5
100
AcDbVertex
100
AcDb3dPolylineVertex
 10
0.152361
 20
-13.5346
 30
0.0
 70
    32
  0
VERTEX
  5
20AB
330
1ECA
100
AcDbEntity
  8
Centrala
 62
     5
100
AcDbVertex
100
AcDb3dPolylineVertex
 10
-0.0279816
 20
-13.4322
 30
0.0
 70
    32
  0
VERTEX
  5
20AC
330
1ECA
100
AcDbEntity
  8
Centrala
 62
     5
100
AcDbVertex
100
AcDb3dPolylineVertex
 10
-0.208187
 20
-13.3301
 30
0.0
 70
    32
  0
VERTEX
  5
20AD
330
1ECA
100
AcDbEntity
  8
Centrala
 62
     5
100
AcDbVertex
100
AcDb3dPolylineVertex
 10
-0.388246
 20
-13.2284
 30
0.0
 70
    32
  0
VERTEX
  5
20AE
330
1ECA
100
AcDbEntity
  8
Centrala
 62
     5
100
AcDbVertex
100
AcDb3dPolylineVertex
 10
-0.5681470000000001
 20
-13.1272
 30
0.0
 70
    32
  0
VERTEX
  5
20AF
330
1ECA
100
AcDbEntity
  8
Centrala
 62
     5
100
AcDbVertex
100
AcDb3dPolylineVertex
 10
-0.74788
 20
-13.0265
 30
0.0
 70
    32
  0
VERTEX
  5
20B0
330
1ECA
100
AcDbEntity
  8
Centrala
 62
     5
100
AcDbVertex
100
AcDb3dPolylineVertex
 10
-0.927435
 20
-12.9266
 30
0.0
 70
    32
  0
VERTEX
  5
20B1
330
1ECA
100
AcDbEntity
  8
Centrala
 62
     5
100
AcDbVertex
100
AcDb3dPolylineVertex
 10
-1.1068
 20
-12.8274
 30
0.0
 70
    32
  0
VERTEX
  5
20B2
330
1ECA
100
AcDbEntity
  8
Centrala
 62
     5
100
AcDbVertex
100
AcDb3dPolylineVertex
 10
-1.28597
 20
-12.7292
 30
0.0
 70
    32
  0
VERTEX
  5
20B3
330
1ECA
100
AcDbEntity
  8
Centrala
 62
     5
100
AcDbVertex
100
AcDb3dPolylineVertex
 10
-1.464929999999999
 20
-12.6319
 30
0.0
 70
    32
  0
VERTEX
  5
20B4
330
1ECA
100
AcDbEntity
  8
Centrala
 62
     5
100
AcDbVertex
100
AcDb3dPolylineVertex
 10
-1.64367
 20
-12.5358
 30
0.0
 70
    32
  0
VERTEX
  5
20B5
330
1ECA
100
AcDbEntity
  8
Centrala
 62
     5
100
AcDbVertex
100
AcDb3dPolylineVertex
 10
-1.82217
 20
-12.4408
 30
0.0
 70
    32
  0
VERTEX
  5
20B6
330
1ECA
100
AcDbEntity
  8
Centrala
 62
     5
100
AcDbVertex
100
AcDb3dPolylineVertex
 10
-2.00044
 20
-12.3472
 30
0.0
 70
    32
  0
VERTEX
  5
20B7
330
1ECA
100
AcDbEntity
  8
Centrala
 62
     5
100
AcDbVertex
100
AcDb3dPolylineVertex
 10
-2.178459999999998
 20
-12.255
 30
0.0
 70
    32
  0
VERTEX
  5
20B8
330
1ECA
100
AcDbEntity
  8
Centrala
 62
     5
100
AcDbVertex
100
AcDb3dPolylineVertex
 10
-2.356209999999999
 20
-12.1643
 30
0.0
 70
    32
  0
VERTEX
  5
20B9
330
1ECA
100
AcDbEntity
  8
Centrala
 62
     5
100
AcDbVertex
100
AcDb3dPolylineVertex
 10
-2.5337
 20
-12.0752
 30
0.0
 70
    32
  0
VERTEX
  5
20BA
330
1ECA
100
AcDbEntity
  8
Centrala
 62
     5
100
AcDbVertex
100
AcDb3dPolylineVertex
 10
-2.7109
 20
-11.9879
 30
0.0
 70
    32
  0
VERTEX
  5
20BB
330
1ECA
100
AcDbEntity
  8
Centrala
 62
     5
100
AcDbVertex
100
AcDb3dPolylineVertex
 10
-2.887809999999998
 20
-11.9023
 30
0.0
 70
    32
  0
VERTEX
  5
20BC
330
1ECA
100
AcDbEntity
  8
Centrala
 62
     5
100
AcDbVertex
100
AcDb3dPolylineVertex
 10
-3.064409999999998
 20
-11.8187
 30
0.0
 70
    32
  0
VERTEX
  5
20BD
330
1ECA
100
AcDbEntity
  8
Centrala
 62
     5
100
AcDbVertex
100
AcDb3dPolylineVertex
 10
-3.240709999999998
 20
-11.7372
 30
0.0
 70
    32
  0
VERTEX
  5
20BE
330
1ECA
100
AcDbEntity
  8
Centrala
 62
     5
100
AcDbVertex
100
AcDb3dPolylineVertex
 10
-3.41668
 20
-11.6578
 30
0.0
 70
    32
  0
VERTEX
  5
20BF
330
1ECA
100
AcDbEntity
  8
Centrala
 62
     5
100
AcDbVertex
100
AcDb3dPolylineVertex
 10
-3.592309999999999
 20
-11.5806
 30
0.0
 70
    32
  0
VERTEX
  5
20C0
330
1ECA
100
AcDbEntity
  8
Centrala
 62
     5
100
AcDbVertex
100
AcDb3dPolylineVertex
 10
-3.767599999999998
 20
-11.5057
 30
0.0
 70
    32
  0
VERTEX
  5
20C1
330
1ECA
100
AcDbEntity
  8
Centrala
 62
     5
100
AcDbVertex
100
AcDb3dPolylineVertex
 10
-3.94254
 20
-11.4334
 30
0.0
 70
    32
  0
VERTEX
  5
20C2
330
1ECA
100
AcDbEntity
  8
Centrala
 62
     5
100
AcDbVertex
100
AcDb3dPolylineVertex
 10
-4.11711
 20
-11.3635
 30
0.0
 70
    32
  0
VERTEX
  5
20C3
330
1ECA
100
AcDbEntity
  8
Centrala
 62
     5
100
AcDbVertex
100
AcDb3dPolylineVertex
 10
-4.29131
 20
-11.2964
 30
0.0
 70
    32
  0
VERTEX
  5
20C4
330
1ECA
100
AcDbEntity
  8
Centrala
 62
     5
100
AcDbVertex
100
AcDb3dPolylineVertex
 10
-4.465119999999997
 20
-11.2319
 30
0.0
 70
    32
  0
VERTEX
  5
20C5
330
1ECA
100
AcDbEntity
  8
Centrala
 62
     5
100
AcDbVertex
100
AcDb3dPolylineVertex
 10
-4.63853
 20
-11.1704
 30
0.0
 70
    32
  0
VERTEX
  5
20C6
330
1ECA
100
AcDbEntity
  8
Centrala
 62
     5
100
AcDbVertex
100
AcDb3dPolylineVertex
 10
-4.811539999999999
 20
-11.1118
 30
0.0
 70
    32
  0
VERTEX
  5
20C7
330
1ECA
100
AcDbEntity
  8
Centrala
 62
     5
100
AcDbVertex
100
AcDb3dPolylineVertex
 10
-4.98413
 20
-11.0563
 30
0.0
 70
    32
  0
VERTEX
  5
20C8
330
1ECA
100
AcDbEntity
  8
Centrala
 62
     5
100
AcDbVertex
100
AcDb3dPolylineVertex
 10
-5.15629
 20
-11.0039
 30
0.0
 70
    32
  0
VERTEX
  5
20C9
330
1ECA
100
AcDbEntity
  8
Centrala
 62
     5
100
AcDbVertex
100
AcDb3dPolylineVertex
 10
-5.328019999999998
 20
-10.9548
 30
0.0
 70
    32
  0
VERTEX
  5
20CA
330
1ECA
100
AcDbEntity
  8
Centrala
 62
     5
100
AcDbVertex
100
AcDb3dPolylineVertex
 10
-5.49929
 20
-10.9091
 30
0.0
 70
    32
  0
VERTEX
  5
20CB
330
1ECA
100
AcDbEntity
  8
Centrala
 62
     5
100
AcDbVertex
100
AcDb3dPolylineVertex
 10
-5.67011
 20
-10.8669
 30
0.0
 70
    32
  0
VERTEX
  5
20CC
330
1ECA
100
AcDbEntity
  8
Centrala
 62
     5
100
AcDbVertex
100
AcDb3dPolylineVertex
 10
-5.84046
 20
-10.8283
 30
0.0
 70
    32
  0
VERTEX
  5
20CD
330
1ECA
100
AcDbEntity
  8
Centrala
 62
     5
100
AcDbVertex
100
AcDb3dPolylineVertex
 10
-6.01033
 20
-10.7933
 30
0.0
 70
    32
  0
VERTEX
  5
20CE
330
1ECA
100
AcDbEntity
  8
Centrala
 62
     5
100
AcDbVertex
100
AcDb3dPolylineVertex
 10
-6.17971
 20
-10.7622
 30
0.0
 70
    32
  0
VERTEX
  5
20CF
330
1ECA
100
AcDbEntity
  8
Centrala
 62
     5
100
AcDbVertex
100
AcDb3dPolylineVertex
 10
-6.348589999999997
 20
-10.7349
 30
0.0
 70
    32
  0
VERTEX
  5
20D0
330
1ECA
100
AcDbEntity
  8
Centrala
 62
     5
100
AcDbVertex
100
AcDb3dPolylineVertex
 10
-6.51696
 20
-10.7117
 30
0.0
 70
    32
  0
VERTEX
  5
20D1
330
1ECA
100
AcDbEntity
  8
Centrala
 62
     5
100
AcDbVertex
100
AcDb3dPolylineVertex
 10
-6.68481
 20
-10.6925
 30
0.0
 70
    32
  0
VERTEX
  5
20D2
330
1ECA
100
AcDbEntity
  8
Centrala
 62
     5
100
AcDbVertex
100
AcDb3dPolylineVertex
 10
-6.85213
 20
-10.6776
 30
0.0
 70
    32
  0
VERTEX
  5
20D3
330
1ECA
100
AcDbEntity
  8
Centrala
 62
     5
100
AcDbVertex
100
AcDb3dPolylineVertex
 10
-7.0189
 20
-10.6669
 30
0.0
 70
    32
  0
VERTEX
  5
20D4
330
1ECA
100
AcDbEntity
  8
Centrala
 62
     5
100
AcDbVertex
100
AcDb3dPolylineVertex
 10
-7.18513
 20
-10.6607
 30
0.0
 70
    32
  0
VERTEX
  5
20D5
330
1ECA
100
AcDbEntity
  8
Centrala
 62
     5
100
AcDbVertex
100
AcDb3dPolylineVertex
 10
-7.350789999999999
 20
-10.659
 30
0.0
 70
    32
  0
VERTEX
  5
20D6
330
1ECA
100
AcDbEntity
  8
Centrala
 62
     5
100
AcDbVertex
100
AcDb3dPolylineVertex
 10
-7.51588
 20
-10.6619
 30
0.0
 70
    32
  0
VERTEX
  5
20D7
330
1ECA
100
AcDbEntity
  8
Centrala
 62
     5
100
AcDbVertex
100
AcDb3dPolylineVertex
 10
-7.68038
 20
-10.6695
 30
0.0
 70
    32
  0
VERTEX
  5
20D8
330
1ECA
100
AcDbEntity
  8
Centrala
 62
     5
100
AcDbVertex
100
AcDb3dPolylineVertex
 10
-7.844299999999997
 20
-10.682
 30
0.0
 70
    32
  0
VERTEX
  5
20D9
330
1ECA
100
AcDbEntity
  8
Centrala
 62
     5
100
AcDbVertex
100
AcDb3dPolylineVertex
 10
-8.0076
 20
-10.6993
 30
0.0
 70
    32
  0
VERTEX
  5
20DA
330
1ECA
100
AcDbEntity
  8
Centrala
 62
     5
100
AcDbVertex
100
AcDb3dPolylineVertex
 10
-8.170299999999999
 20
-10.7217
 30
0.0
 70
    32
  0
VERTEX
  5
20DB
330
1ECA
100
AcDbEntity
  8
Centrala
 62
     5
100
AcDbVertex
100
AcDb3dPolylineVertex
 10
-8.332369999999999
 20
-10.7493
 30
0.0
 70
    32
  0
VERTEX
  5
20DC
330
1ECA
100
AcDbEntity
  8
Centrala
 62
     5
100
AcDbVertex
100
AcDb3dPolylineVertex
 10
-8.4938
 20
-10.7821
 30
0.0
 70
    32
  0
VERTEX
  5
20DD
330
1ECA
100
AcDbEntity
  8
Centrala
 62
     5
100
AcDbVertex
100
AcDb3dPolylineVertex
 10
-8.654589999999997
 20
-10.8202
 30
0.0
 70
    32
  0
VERTEX
  5
20DE
330
1ECA
100
AcDbEntity
  8
Centrala
 62
     5
100
AcDbVertex
100
AcDb3dPolylineVertex
 10
-8.814719999999997
 20
-10.8638
 30
0.0
 70
    32
  0
VERTEX
  5
20DF
330
1ECA
100
AcDbEntity
  8
Centrala
 62
     5
100
AcDbVertex
100
AcDb3dPolylineVertex
 10
-8.97419
 20
-10.9129
 30
0.0
 70
    32
  0
VERTEX
  5
20E0
330
1ECA
100
AcDbEntity
  8
Centrala
 62
     5
100
AcDbVertex
100
AcDb3dPolylineVertex
 10
-9.132979999999999
 20
-10.9677
 30
0.0
 70
    32
  0
VERTEX
  5
20E1
330
1ECA
100
AcDbEntity
  8
Centrala
 62
     5
100
AcDbVertex
100
AcDb3dPolylineVertex
 10
-9.29108
 20
-11.0282
 30
0.0
 70
    32
  0
VERTEX
  5
20E2
330
1ECA
100
AcDbEntity
  8
Centrala
 62
     5
100
AcDbVertex
100
AcDb3dPolylineVertex
 10
-9.448489999999999
 20
-11.0946
 30
0.0
 70
    32
  0
VERTEX
  5
20E3
330
1ECA
100
AcDbEntity
  8
Centrala
 62
     5
100
AcDbVertex
100
AcDb3dPolylineVertex
 10
-9.605189999999996
 20
-11.167
 30
0.0
 70
    32
  0
VERTEX
  5
20E4
330
1ECA
100
AcDbEntity
  8
Centrala
 62
     5
100
AcDbVertex
100
AcDb3dPolylineVertex
 10
-9.761169999999999
 20
-11.2454
 30
0.0
 70
    32
  0
VERTEX
  5
20E5
330
1ECA
100
AcDbEntity
  8
Centrala
 62
     5
100
AcDbVertex
100
AcDb3dPolylineVertex
 10
-9.91642
 20
-11.33
 30
0.0
 70
    32
  0
VERTEX
  5
20E6
330
1ECA
100
AcDbEntity
  8
Centrala
 62
     5
100
AcDbVertex
100
AcDb3dPolylineVertex
 10
-10.0709
 20
-11.4209
 30
0.0
 70
    32
  0
VERTEX
  5
20E7
330
1ECA
100
AcDbEntity
  8
Centrala
 62
     5
100
AcDbVertex
100
AcDb3dPolylineVertex
 10
-10.2247
 20
-11.5181
 30
0.0
 70
    32
  0
VERTEX
  5
20E8
330
1ECA
100
AcDbEntity
  8
Centrala
 62
     5
100
AcDbVertex
100
AcDb3dPolylineVertex
 10
-10.3777
 20
-11.6218
 30
0.0
 70
    32
  0
VERTEX
  5
20E9
330
1ECA
100
AcDbEntity
  8
Centrala
 62
     5
100
AcDbVertex
100
AcDb3dPolylineVertex
 10
-10.5299
 20
-11.7321
 30
0.0
 70
    32
  0
VERTEX
  5
20EA
330
1ECA
100
AcDbEntity
  8
Centrala
 62
     5
100
AcDbVertex
100
AcDb3dPolylineVertex
 10
-10.6814
 20
-11.8491
 30
0.0
 70
    32
  0
VERTEX
  5
20EB
330
1ECA
100
AcDbEntity
  8
Centrala
 62
     5
100
AcDbVertex
100
AcDb3dPolylineVertex
 10
-10.832
 20
-11.9729
 30
0.0
 70
    32
  0
VERTEX
  5
20EC
330
1ECA
100
AcDbEntity
  8
Centrala
 62
     5
100
AcDbVertex
100
AcDb3dPolylineVertex
 10
-10.9819
 20
-12.1032
 30
0.0
 70
    32
  0
VERTEX
  5
20ED
330
1ECA
100
AcDbEntity
  8
Centrala
 62
     5
100
AcDbVertex
100
AcDb3dPolylineVertex
 10
-11.1311
 20
-12.2396
 30
0.0
 70
    32
  0
VERTEX
  5
20EE
330
1ECA
100
AcDbEntity
  8
Centrala
 62
     5
100
AcDbVertex
100
AcDb3dPolylineVertex
 10
-11.2795
 20
-12.3818
 30
0.0
 70
    32
  0
VERTEX
  5
20EF
330
1ECA
100
AcDbEntity
  8
Centrala
 62
     5
100
AcDbVertex
100
AcDb3dPolylineVertex
 10
-11.4272
 20
-12.5292
 30
0.0
 70
    32
  0
VERTEX
  5
20F0
330
1ECA
100
AcDbEntity
  8
Centrala
 62
     5
100
AcDbVertex
100
AcDb3dPolylineVertex
 10
-11.5742
 20
-12.6815
 30
0.0
 70
    32
  0
VERTEX
  5
20F1
330
1ECA
100
AcDbEntity
  8
Centrala
 62
     5
100
AcDbVertex
100
AcDb3dPolylineVertex
 10
-11.7205
 20
-12.8383
 30
0.0
 70
    32
  0
VERTEX
  5
20F2
330
1ECA
100
AcDbEntity
  8
Centrala
 62
     5
100
AcDbVertex
100
AcDb3dPolylineVertex
 10
-11.8663
 20
-12.9991
 30
0.0
 70
    32
  0
VERTEX
  5
20F3
330
1ECA
100
AcDbEntity
  8
Centrala
 62
     5
100
AcDbVertex
100
AcDb3dPolylineVertex
 10
-12.0114
 20
-13.1635
 30
0.0
 70
    32
  0
VERTEX
  5
20F4
330
1ECA
100
AcDbEntity
  8
Centrala
 62
     5
100
AcDbVertex
100
AcDb3dPolylineVertex
 10
-12.156
 20
-13.3311
 30
0.0
 70
    32
  0
VERTEX
  5
20F5
330
1ECA
100
AcDbEntity
  8
Centrala
 62
     5
100
AcDbVertex
100
AcDb3dPolylineVertex
 10
-12.3
 20
-13.5014
 30
0.0
 70
    32
  0
VERTEX
  5
20F6
330
1ECA
100
AcDbEntity
  8
Centrala
 62
     5
100
AcDbVertex
100
AcDb3dPolylineVertex
 10
-12.4434
 20
-13.6741
 30
0.0
 70
    32
  0
VERTEX
  5
20F7
330
1ECA
100
AcDbEntity
  8
Centrala
 62
     5
100
AcDbVertex
100
AcDb3dPolylineVertex
 10
-12.5864
 20
-13.8486
 30
0.0
 70
    32
  0
VERTEX
  5
20F8
330
1ECA
100
AcDbEntity
  8
Centrala
 62
     5
100
AcDbVertex
100
AcDb3dPolylineVertex
 10
-12.7289
 20
-14.0247
 30
0.0
 70
    32
  0
VERTEX
  5
20F9
330
1ECA
100
AcDbEntity
  8
Centrala
 62
     5
100
AcDbVertex
100
AcDb3dPolylineVertex
 10
-12.8709
 20
-14.2019
 30
0.0
 70
    32
  0
VERTEX
  5
20FA
330
1ECA
100
AcDbEntity
  8
Centrala
 62
     5
100
AcDbVertex
100
AcDb3dPolylineVertex
 10
-13.0125
 20
-14.3797
 30
0.0
 70
    32
  0
VERTEX
  5
20FB
330
1ECA
100
AcDbEntity
  8
Centrala
 62
     5
100
AcDbVertex
100
AcDb3dPolylineVertex
 10
-13.1537
 20
-14.5577
 30
0.0
 70
    32
  0
VERTEX
  5
20FC
330
1ECA
100
AcDbEntity
  8
Centrala
 62
     5
100
AcDbVertex
100
AcDb3dPolylineVertex
 10
-13.2945
 20
-14.7355
 30
0.0
 70
    32
  0
VERTEX
  5
20FD
330
1ECA
100
AcDbEntity
  8
Centrala
 62
     5
100
AcDbVertex
100
AcDb3dPolylineVertex
 10
-13.435
 20
-14.9128
 30
0.0
 70
    32
  0
VERTEX
  5
20FE
330
1ECA
100
AcDbEntity
  8
Centrala
 62
     5
100
AcDbVertex
100
AcDb3dPolylineVertex
 10
-13.5751
 20
-15.0889
 30
0.0
 70
    32
  0
VERTEX
  5
20FF
330
1ECA
100
AcDbEntity
  8
Centrala
 62
     5
100
AcDbVertex
100
AcDb3dPolylineVertex
 10
-13.7149
 20
-15.2636
 30
0.0
 70
    32
  0
VERTEX
  5
2100
330
1ECA
100
AcDbEntity
  8
Centrala
 62
     5
100
AcDbVertex
100
AcDb3dPolylineVertex
 10
-13.8545
 20
-15.4365
 30
0.0
 70
    32
  0
VERTEX
  5
2101
330
1ECA
100
AcDbEntity
  8
Centrala
 62
     5
100
AcDbVertex
100
AcDb3dPolylineVertex
 10
-13.9938
 20
-15.607
 30
0.0
 70
    32
  0
VERTEX
  5
2102
330
1ECA
100
AcDbEntity
  8
Centrala
 62
     5
100
AcDbVertex
100
AcDb3dPolylineVertex
 10
-14.1328
 20
-15.7748
 30
0.0
 70
    32
  0
VERTEX
  5
2103
330
1ECA
100
AcDbEntity
  8
Centrala
 62
     5
100
AcDbVertex
100
AcDb3dPolylineVertex
 10
-14.2717
 20
-15.9394
 30
0.0
 70
    32
  0
VERTEX
  5
2104
330
1ECA
100
AcDbEntity
  8
Centrala
 62
     5
100
AcDbVertex
100
AcDb3dPolylineVertex
 10
-14.4104
 20
-16.1005
 30
0.0
 70
    32
  0
VERTEX
  5
2105
330
1ECA
100
AcDbEntity
  8
Centrala
 62
     5
100
AcDbVertex
100
AcDb3dPolylineVertex
 10
-14.5489
 20
-16.2576
 30
0.0
 70
    32
  0
VERTEX
  5
2106
330
1ECA
100
AcDbEntity
  8
Centrala
 62
     5
100
AcDbVertex
100
AcDb3dPolylineVertex
 10
-14.6873
 20
-16.4103
 30
0.0
 70
    32
  0
VERTEX
  5
2107
330
1ECA
100
AcDbEntity
  8
Centrala
 62
     5
100
AcDbVertex
100
AcDb3dPolylineVertex
 10
-14.8255
 20
-16.5581
 30
0.0
 70
    32
  0
VERTEX
  5
2108
330
1ECA
100
AcDbEntity
  8
Centrala
 62
     5
100
AcDbVertex
100
AcDb3dPolylineVertex
 10
-14.9637
 20
-16.7006
 30
0.0
 70
    32
  0
VERTEX
  5
2109
330
1ECA
100
AcDbEntity
  8
Centrala
 62
     5
100
AcDbVertex
100
AcDb3dPolylineVertex
 10
-15.1019
 20
-16.8375
 30
0.0
 70
    32
  0
VERTEX
  5
210A
330
1ECA
100
AcDbEntity
  8
Centrala
 62
     5
100
AcDbVertex
100
AcDb3dPolylineVertex
 10
-15.24
 20
-16.9683
 30
0.0
 70
    32
  0
VERTEX
  5
210B
330
1ECA
100
AcDbEntity
  8
Centrala
 62
     5
100
AcDbVertex
100
AcDb3dPolylineVertex
 10
-15.3141
 20
-16.8711
 30
0.0
 70
    32
  0
VERTEX
  5
210C
330
1ECA
100
AcDbEntity
  8
Centrala
 62
     5
100
AcDbVertex
100
AcDb3dPolylineVertex
 10
-15.3669
 20
-16.6993
 30
0.0
 70
    32
  0
VERTEX
  5
210D
330
1ECA
100
AcDbEntity
  8
Centrala
 62
     5
100
AcDbVertex
100
AcDb3dPolylineVertex
 10
-15.4196
 20
-16.5274
 30
0.0
 70
    32
  0
VERTEX
  5
210E
330
1ECA
100
AcDbEntity
  8
Centrala
 62
     5
100
AcDbVertex
100
AcDb3dPolylineVertex
 10
-15.4721
 20
-16.3556
 30
0.0
 70
    32
  0
VERTEX
  5
210F
330
1ECA
100
AcDbEntity
  8
Centrala
 62
     5
100
AcDbVertex
100
AcDb3dPolylineVertex
 10
-15.5244
 20
-16.1837
 30
0.0
 70
    32
  0
VERTEX
  5
2110
330
1ECA
100
AcDbEntity
  8
Centrala
 62
     5
100
AcDbVertex
100
AcDb3dPolylineVertex
 10
-15.5765
 20
-16.0118
 30
0.0
 70
    32
  0
VERTEX
  5
2111
330
1ECA
100
AcDbEntity
  8
Centrala
 62
     5
100
AcDbVertex
100
AcDb3dPolylineVertex
 10
-15.6283
 20
-15.8399
 30
0.0
 70
    32
  0
VERTEX
  5
2112
330
1ECA
100
AcDbEntity
  8
Centrala
 62
     5
100
AcDbVertex
100
AcDb3dPolylineVertex
 10
-15.6797
 20
-15.668
 30
0.0
 70
    32
  0
VERTEX
  5
2113
330
1ECA
100
AcDbEntity
  8
Centrala
 62
     5
100
AcDbVertex
100
AcDb3dPolylineVertex
 10
-15.7307
 20
-15.496
 30
0.0
 70
    32
  0
VERTEX
  5
2114
330
1ECA
100
AcDbEntity
  8
Centrala
 62
     5
100
AcDbVertex
100
AcDb3dPolylineVertex
 10
-15.7812
 20
-15.324
 30
0.0
 70
    32
  0
VERTEX
  5
2115
330
1ECA
100
AcDbEntity
  8
Centrala
 62
     5
100
AcDbVertex
100
AcDb3dPolylineVertex
 10
-15.8312
 20
-15.152
 30
0.0
 70
    32
  0
VERTEX
  5
2116
330
1ECA
100
AcDbEntity
  8
Centrala
 62
     5
100
AcDbVertex
100
AcDb3dPolylineVertex
 10
-15.8806
 20
-14.9799
 30
0.0
 70
    32
  0
VERTEX
  5
2117
330
1ECA
100
AcDbEntity
  8
Centrala
 62
     5
100
AcDbVertex
100
AcDb3dPolylineVertex
 10
-15.9294
 20
-14.8078
 30
0.0
 70
    32
  0
VERTEX
  5
2118
330
1ECA
100
AcDbEntity
  8
Centrala
 62
     5
100
AcDbVertex
100
AcDb3dPolylineVertex
 10
-15.9775
 20
-14.6356
 30
0.0
 70
    32
  0
VERTEX
  5
2119
330
1ECA
100
AcDbEntity
  8
Centrala
 62
     5
100
AcDbVertex
100
AcDb3dPolylineVertex
 10
-16.0249
 20
-14.4634
 30
0.0
 70
    32
  0
VERTEX
  5
211A
330
1ECA
100
AcDbEntity
  8
Centrala
 62
     5
100
AcDbVertex
100
AcDb3dPolylineVertex
 10
-16.0715
 20
-14.2912
 30
0.0
 70
    32
  0
VERTEX
  5
211B
330
1ECA
100
AcDbEntity
  8
Centrala
 62
     5
100
AcDbVertex
100
AcDb3dPolylineVertex
 10
-16.1172
 20
-14.1188
 30
0.0
 70
    32
  0
VERTEX
  5
211C
330
1ECA
100
AcDbEntity
  8
Centrala
 62
     5
100
AcDbVertex
100
AcDb3dPolylineVertex
 10
-16.162
 20
-13.9465
 30
0.0
 70
    32
  0
VERTEX
  5
211D
330
1ECA
100
AcDbEntity
  8
Centrala
 62
     5
100
AcDbVertex
100
AcDb3dPolylineVertex
 10
-16.2059
 20
-13.774
 30
0.0
 70
    32
  0
VERTEX
  5
211E
330
1ECA
100
AcDbEntity
  8
Centrala
 62
     5
100
AcDbVertex
100
AcDb3dPolylineVertex
 10
-16.2488
 20
-13.6015
 30
0.0
 70
    32
  0
VERTEX
  5
211F
330
1ECA
100
AcDbEntity
  8
Centrala
 62
     5
100
AcDbVertex
100
AcDb3dPolylineVertex
 10
-16.2906
 20
-13.4289
 30
0.0
 70
    32
  0
VERTEX
  5
2120
330
1ECA
100
AcDbEntity
  8
Centrala
 62
     5
100
AcDbVertex
100
AcDb3dPolylineVertex
 10
-16.3313
 20
-13.2563
 30
0.0
 70
    32
  0
VERTEX
  5
2121
330
1ECA
100
AcDbEntity
  8
Centrala
 62
     5
100
AcDbVertex
100
AcDb3dPolylineVertex
 10
-16.3708
 20
-13.0835
 30
0.0
 70
    32
  0
VERTEX
  5
2122
330
1ECA
100
AcDbEntity
  8
Centrala
 62
     5
100
AcDbVertex
100
AcDb3dPolylineVertex
 10
-16.4091
 20
-12.9107
 30
0.0
 70
    32
  0
VERTEX
  5
2123
330
1ECA
100
AcDbEntity
  8
Centrala
 62
     5
100
AcDbVertex
100
AcDb3dPolylineVertex
 10
-16.4462
 20
-12.7378
 30
0.0
 70
    32
  0
VERTEX
  5
2124
330
1ECA
100
AcDbEntity
  8
Centrala
 62
     5
100
AcDbVertex
100
AcDb3dPolylineVertex
 10
-16.4819
 20
-12.5648
 30
0.0
 70
    32
  0
VERTEX
  5
2125
330
1ECA
100
AcDbEntity
  8
Centrala
 62
     5
100
AcDbVertex
100
AcDb3dPolylineVertex
 10
-16.5162
 20
-12.3917
 30
0.0
 70
    32
  0
VERTEX
  5
2126
330
1ECA
100
AcDbEntity
  8
Centrala
 62
     5
100
AcDbVertex
100
AcDb3dPolylineVertex
 10
-16.5491
 20
-12.2185
 30
0.0
 70
    32
  0
VERTEX
  5
2127
330
1ECA
100
AcDbEntity
  8
Centrala
 62
     5
100
AcDbVertex
100
AcDb3dPolylineVertex
 10
-16.5805
 20
-12.0452
 30
0.0
 70
    32
  0
VERTEX
  5
2128
330
1ECA
100
AcDbEntity
  8
Centrala
 62
     5
100
AcDbVertex
100
AcDb3dPolylineVertex
 10
-16.6103
 20
-11.8719
 30
0.0
 70
    32
  0
VERTEX
  5
2129
330
1ECA
100
AcDbEntity
  8
Centrala
 62
     5
100
AcDbVertex
100
AcDb3dPolylineVertex
 10
-16.6386
 20
-11.6984
 30
0.0
 70
    32
  0
VERTEX
  5
212A
330
1ECA
100
AcDbEntity
  8
Centrala
 62
     5
100
AcDbVertex
100
AcDb3dPolylineVertex
 10
-16.6652
 20
-11.5247
 30
0.0
 70
    32
  0
VERTEX
  5
212B
330
1ECA
100
AcDbEntity
  8
Centrala
 62
     5
100
AcDbVertex
100
AcDb3dPolylineVertex
 10
-16.6901
 20
-11.351
 30
0.0
 70
    32
  0
VERTEX
  5
212C
330
1ECA
100
AcDbEntity
  8
Centrala
 62
     5
100
AcDbVertex
100
AcDb3dPolylineVertex
 10
-16.7133
 20
-11.1772
 30
0.0
 70
    32
  0
VERTEX
  5
212D
330
1ECA
100
AcDbEntity
  8
Centrala
 62
     5
100
AcDbVertex
100
AcDb3dPolylineVertex
 10
-16.7346
 20
-11.0032
 30
0.0
 70
    32
  0
VERTEX
  5
212E
330
1ECA
100
AcDbEntity
  8
Centrala
 62
     5
100
AcDbVertex
100
AcDb3dPolylineVertex
 10
-16.7541
 20
-10.8291
 30
0.0
 70
    32
  0
VERTEX
  5
212F
330
1ECA
100
AcDbEntity
  8
Centrala
 62
     5
100
AcDbVertex
100
AcDb3dPolylineVertex
 10
-16.7717
 20
-10.6549
 30
0.0
 70
    32
  0
VERTEX
  5
2130
330
1ECA
100
AcDbEntity
  8
Centrala
 62
     5
100
AcDbVertex
100
AcDb3dPolylineVertex
 10
-16.7872
 20
-10.4805
 30
0.0
 70
    32
  0
VERTEX
  5
2131
330
1ECA
100
AcDbEntity
  8
Centrala
 62
     5
100
AcDbVertex
100
AcDb3dPolylineVertex
 10
-16.8008
 20
-10.306
 30
0.0
 70
    32
  0
VERTEX
  5
2132
330
1ECA
100
AcDbEntity
  8
Centrala
 62
     5
100
AcDbVertex
100
AcDb3dPolylineVertex
 10
-16.8123
 20
-10.1314
 30
0.0
 70
    32
  0
VERTEX
  5
2133
330
1ECA
100
AcDbEntity
  8
Centrala
 62
     5
100
AcDbVertex
100
AcDb3dPolylineVertex
 10
-16.8216
 20
-9.956619999999999
 30
0.0
 70
    32
  0
VERTEX
  5
2134
330
1ECA
100
AcDbEntity
  8
Centrala
 62
     5
100
AcDbVertex
100
AcDb3dPolylineVertex
 10
-16.8288
 20
-9.781689999999999
 30
0.0
 70
    32
  0
VERTEX
  5
2135
330
1ECA
100
AcDbEntity
  8
Centrala
 62
     5
100
AcDbVertex
100
AcDb3dPolylineVertex
 10
-16.8337
 20
-9.606619999999999
 30
0.0
 70
    32
  0
VERTEX
  5
2136
330
1ECA
100
AcDbEntity
  8
Centrala
 62
     5
100
AcDbVertex
100
AcDb3dPolylineVertex
 10
-16.8363
 20
-9.43138
 30
0.0
 70
    32
  0
VERTEX
  5
2137
330
1ECA
100
AcDbEntity
  8
Centrala
 62
     5
100
AcDbVertex
100
AcDb3dPolylineVertex
 10
-16.8366
 20
-9.255989999999997
 30
0.0
 70
    32
  0
VERTEX
  5
2138
330
1ECA
100
AcDbEntity
  8
Centrala
 62
     5
100
AcDbVertex
100
AcDb3dPolylineVertex
 10
-16.8345
 20
-9.080439999999999
 30
0.0
 70
    32
  0
VERTEX
  5
2139
330
1ECA
100
AcDbEntity
  8
Centrala
 62
     5
100
AcDbVertex
100
AcDb3dPolylineVertex
 10
-16.8299
 20
-8.904719999999997
 30
0.0
 70
    32
  0
VERTEX
  5
213A
330
1ECA
100
AcDbEntity
  8
Centrala
 62
     5
100
AcDbVertex
100
AcDb3dPolylineVertex
 10
-16.8228
 20
-8.72883
 30
0.0
 70
    32
  0
VERTEX
  5
213B
330
1ECA
100
AcDbEntity
  8
Centrala
 62
     5
100
AcDbVertex
100
AcDb3dPolylineVertex
 10
-16.8132
 20
-8.552760000000001
 30
0.0
 70
    32
  0
VERTEX
  5
213C
330
1ECA
100
AcDbEntity
  8
Centrala
 62
     5
100
AcDbVertex
100
AcDb3dPolylineVertex
 10
-16.8009
 20
-8.376519999999999
 30
0.0
 70
    32
  0
VERTEX
  5
213D
330
1ECA
100
AcDbEntity
  8
Centrala
 62
     5
100
AcDbVertex
100
AcDb3dPolylineVertex
 10
-16.786
 20
-8.2001
 30
0.0
 70
    32
  0
VERTEX
  5
213E
330
1ECA
100
AcDbEntity
  8
Centrala
 62
     5
100
AcDbVertex
100
AcDb3dPolylineVertex
 10
-16.7683
 20
-8.0235
 30
0.0
 70
    32
  0
VERTEX
  5
213F
330
1ECA
100
AcDbEntity
  8
Centrala
 62
     5
100
AcDbVertex
100
AcDb3dPolylineVertex
 10
-16.7479
 20
-7.84671
 30
0.0
 70
    32
  0
VERTEX
  5
2140
330
1ECA
100
AcDbEntity
  8
Centrala
 62
     5
100
AcDbVertex
100
AcDb3dPolylineVertex
 10
-16.7246
 20
-7.669719999999997
 30
0.0
 70
    32
  0
VERTEX
  5
2141
330
1ECA
100
AcDbEntity
  8
Centrala
 62
     5
100
AcDbVertex
100
AcDb3dPolylineVertex
 10
-16.6985
 20
-7.492539999999999
 30
0.0
 70
    32
  0
VERTEX
  5
2142
330
1ECA
100
AcDbEntity
  8
Centrala
 62
     5
100
AcDbVertex
100
AcDb3dPolylineVertex
 10
-16.6694
 20
-7.31516
 30
0.0
 70
    32
  0
VERTEX
  5
2143
330
1ECA
100
AcDbEntity
  8
Centrala
 62
     5
100
AcDbVertex
100
AcDb3dPolylineVertex
 10
-16.6373
 20
-7.13758
 30
0.0
 70
    32
  0
VERTEX
  5
2144
330
1ECA
100
AcDbEntity
  8
Centrala
 62
     5
100
AcDbVertex
100
AcDb3dPolylineVertex
 10
-16.6022
 20
-6.9598
 30
0.0
 70
    32
  0
VERTEX
  5
2145
330
1ECA
100
AcDbEntity
  8
Centrala
 62
     5
100
AcDbVertex
100
AcDb3dPolylineVertex
 10
-16.5639
 20
-6.781799999999997
 30
0.0
 70
    32
  0
VERTEX
  5
2146
330
1ECA
100
AcDbEntity
  8
Centrala
 62
     5
100
AcDbVertex
100
AcDb3dPolylineVertex
 10
-16.5226
 20
-6.603589999999997
 30
0.0
 70
    32
  0
VERTEX
  5
2147
330
1ECA
100
AcDbEntity
  8
Centrala
 62
     5
100
AcDbVertex
100
AcDb3dPolylineVertex
 10
-16.478
 20
-6.425169999999997
 30
0.0
 70
    32
  0
VERTEX
  5
2148
330
1ECA
100
AcDbEntity
  8
Centrala
 62
     5
100
AcDbVertex
100
AcDb3dPolylineVertex
 10
-16.4301
 20
-6.246519999999997
 30
0.0
 70
    32
  0
VERTEX
  5
2149
330
1ECA
100
AcDbEntity
  8
Centrala
 62
     5
100
AcDbVertex
100
AcDb3dPolylineVertex
 10
-16.379
 20
-6.06766
 30
0.0
 70
    32
  0
VERTEX
  5
214A
330
1ECA
100
AcDbEntity
  8
Centrala
 62
     5
100
AcDbVertex
100
AcDb3dPolylineVertex
 10
-16.3247
 20
-5.888569999999997
 30
0.0
 70
    32
  0
VERTEX
  5
214B
330
1ECA
100
AcDbEntity
  8
Centrala
 62
     5
100
AcDbVertex
100
AcDb3dPolylineVertex
 10
-16.2672
 20
-5.70929
 30
0.0
 70
    32
  0
VERTEX
  5
214C
330
1ECA
100
AcDbEntity
  8
Centrala
 62
     5
100
AcDbVertex
100
AcDb3dPolylineVertex
 10
-16.2068
 20
-5.529809999999997
 30
0.0
 70
    32
  0
VERTEX
  5
214D
330
1ECA
100
AcDbEntity
  8
Centrala
 62
     5
100
AcDbVertex
100
AcDb3dPolylineVertex
 10
-16.1434
 20
-5.35015
 30
0.0
 70
    32
  0
VERTEX
  5
214E
330
1ECA
100
AcDbEntity
  8
Centrala
 62
     5
100
AcDbVertex
100
AcDb3dPolylineVertex
 10
-16.0773
 20
-5.170319999999998
 30
0.0
 70
    32
  0
VERTEX
  5
214F
330
1ECA
100
AcDbEntity
  8
Centrala
 62
     5
100
AcDbVertex
100
AcDb3dPolylineVertex
 10
-16.0084
 20
-4.99033
 30
0.0
 70
    32
  0
VERTEX
  5
2150
330
1ECA
100
AcDbEntity
  8
Centrala
 62
     5
100
AcDbVertex
100
AcDb3dPolylineVertex
 10
-15.937
 20
-4.810179999999999
 30
0.0
 70
    32
  0
VERTEX
  5
2151
330
1ECA
100
AcDbEntity
  8
Centrala
 62
     5
100
AcDbVertex
100
AcDb3dPolylineVertex
 10
-15.8631
 20
-4.62989
 30
0.0
 70
    32
  0
VERTEX
  5
2152
330
1ECA
100
AcDbEntity
  8
Centrala
 62
     5
100
AcDbVertex
100
AcDb3dPolylineVertex
 10
-15.7867
 20
-4.44948
 30
0.0
 70
    32
  0
VERTEX
  5
2153
330
1ECA
100
AcDbEntity
  8
Centrala
 62
     5
100
AcDbVertex
100
AcDb3dPolylineVertex
 10
-15.7082
 20
-4.268939999999997
 30
0.0
 70
    32
  0
VERTEX
  5
2154
330
1ECA
100
AcDbEntity
  8
Centrala
 62
     5
100
AcDbVertex
100
AcDb3dPolylineVertex
 10
-15.6274
 20
-4.088289999999997
 30
0.0
 70
    32
  0
VERTEX
  5
2155
330
1ECA
100
AcDbEntity
  8
Centrala
 62
     5
100
AcDbVertex
100
AcDb3dPolylineVertex
 10
-15.5446
 20
-3.90755
 30
0.0
 70
    32
  0
VERTEX
  5
2156
330
1ECA
100
AcDbEntity
  8
Centrala
 62
     5
100
AcDbVertex
100
AcDb3dPolylineVertex
 10
-15.4597
 20
-3.726709999999998
 30
0.0
 70
    32
  0
VERTEX
  5
2157
330
1ECA
100
AcDbEntity
  8
Centrala
 62
     5
100
AcDbVertex
100
AcDb3dPolylineVertex
 10
-15.3731
 20
-3.54579
 30
0.0
 70
    32
  0
VERTEX
  5
2158
330
1ECA
100
AcDbEntity
  8
Centrala
 62
     5
100
AcDbVertex
100
AcDb3dPolylineVertex
 10
-15.2846
 20
-3.364809999999998
 30
0.0
 70
    32
  0
VERTEX
  5
2159
330
1ECA
100
AcDbEntity
  8
Centrala
 62
     5
100
AcDbVertex
100
AcDb3dPolylineVertex
 10
-15.1945
 20
-3.183769999999998
 30
0.0
 70
    32
  0
VERTEX
  5
215A
330
1ECA
100
AcDbEntity
  8
Centrala
 62
     5
100
AcDbVertex
100
AcDb3dPolylineVertex
 10
-15.1029
 20
-3.002679999999998
 30
0.0
 70
    32
  0
VERTEX
  5
215B
330
1ECA
100
AcDbEntity
  8
Centrala
 62
     5
100
AcDbVertex
100
AcDb3dPolylineVertex
 10
-15.0098
 20
-2.821559999999998
 30
0.0
 70
    32
  0
VERTEX
  5
215C
330
1ECA
100
AcDbEntity
  8
Centrala
 62
     5
100
AcDbVertex
100
AcDb3dPolylineVertex
 10
-14.9153
 20
-2.6404
 30
0.0
 70
    32
  0
VERTEX
  5
215D
330
1ECA
100
AcDbEntity
  8
Centrala
 62
     5
100
AcDbVertex
100
AcDb3dPolylineVertex
 10
-14.8196
 20
-2.459229999999998
 30
0.0
 70
    32
  0
VERTEX
  5
215E
330
1ECA
100
AcDbEntity
  8
Centrala
 62
     5
100
AcDbVertex
100
AcDb3dPolylineVertex
 10
-14.7227
 20
-2.278059999999999
 30
0.0
 70
    32
  0
VERTEX
  5
215F
330
1ECA
100
AcDbEntity
  8
Centrala
 62
     5
100
AcDbVertex
100
AcDb3dPolylineVertex
 10
-14.6249
 20
-2.09689
 30
0.0
 70
    32
  0
VERTEX
  5
2160
330
1ECA
100
AcDbEntity
  8
Centrala
 62
     5
100
AcDbVertex
100
AcDb3dPolylineVertex
 10
-14.526
 20
-1.915729999999999
 30
0.0
 70
    32
  0
VERTEX
  5
2161
330
1ECA
100
AcDbEntity
  8
Centrala
 62
     5
100
AcDbVertex
100
AcDb3dPolylineVertex
 10
-14.4264
 20
-1.734599999999999
 30
0.0
 70
    32
  0
VERTEX
  5
2162
330
1ECA
100
AcDbEntity
  8
Centrala
 62
     5
100
AcDbVertex
100
AcDb3dPolylineVertex
 10
-14.326
 20
-1.553509999999999
 30
0.0
 70
    32
  0
VERTEX
  5
2163
330
1ECA
100
AcDbEntity
  8
Centrala
 62
     5
100
AcDbVertex
100
AcDb3dPolylineVertex
 10
-14.225
 20
-1.37246
 30
0.0
 70
    32
  0
VERTEX
  5
2164
330
1ECA
100
AcDbEntity
  8
Centrala
 62
     5
100
AcDbVertex
100
AcDb3dPolylineVertex
 10
-14.1234
 20
-1.191459999999997
 30
0.0
 70
    32
  0
VERTEX
  5
2165
330
1ECA
100
AcDbEntity
  8
Centrala
 62
     5
100
AcDbVertex
100
AcDb3dPolylineVertex
 10
-14.0215
 20
-1.010529999999999
 30
0.0
 70
    32
  0
VERTEX
  5
2166
330
1ECA
100
AcDbEntity
  8
Centrala
 62
     5
100
AcDbVertex
100
AcDb3dPolylineVertex
 10
-13.9192
 20
-0.8296849999999999
 30
0.0
 70
    32
  0
VERTEX
  5
2167
330
1ECA
100
AcDbEntity
  8
Centrala
 62
     5
100
AcDbVertex
100
AcDb3dPolylineVertex
 10
-13.8167
 20
-0.648922
 30
0.0
 70
    32
  0
VERTEX
  5
2168
330
1ECA
100
AcDbEntity
  8
Centrala
 62
     5
100
AcDbVertex
100
AcDb3dPolylineVertex
 10
-13.7141
 20
-0.468258
 30
0.0
 70
    32
  0
VERTEX
  5
2169
330
1ECA
100
AcDbEntity
  8
Centrala
 62
     5
100
AcDbVertex
100
AcDb3dPolylineVertex
 10
-13.6115
 20
-0.287701
 30
0.0
 70
    32
  0
VERTEX
  5
216A
330
1ECA
100
AcDbEntity
  8
Centrala
 62
     5
100
AcDbVertex
100
AcDb3dPolylineVertex
 10
-13.509
 20
-0.107263
 30
0.0
 70
    32
  0
VERTEX
  5
216B
330
1ECA
100
AcDbEntity
  8
Centrala
 62
     5
100
AcDbVertex
100
AcDb3dPolylineVertex
 10
-13.4067
 20
0.0730463
 30
0.0
 70
    32
  0
VERTEX
  5
216C
330
1ECA
100
AcDbEntity
  8
Centrala
 62
     5
100
AcDbVertex
100
AcDb3dPolylineVertex
 10
-13.3046
 20
0.253216
 30
0.0
 70
    32
  0
VERTEX
  5
216D
330
1ECA
100
AcDbEntity
  8
Centrala
 62
     5
100
AcDbVertex
100
AcDb3dPolylineVertex
 10
-13.203
 20
0.433236
 30
0.0
 70
    32
  0
VERTEX
  5
216E
330
1ECA
100
AcDbEntity
  8
Centrala
 62
     5
100
AcDbVertex
100
AcDb3dPolylineVertex
 10
-13.102
 20
0.613096
 30
0.0
 70
    32
  0
VERTEX
  5
216F
330
1ECA
100
AcDbEntity
  8
Centrala
 62
     5
100
AcDbVertex
100
AcDb3dPolylineVertex
 10
-13.0015
 20
0.792786
 30
0.0
 70
    32
  0
VERTEX
  5
2170
330
1ECA
100
AcDbEntity
  8
Centrala
 62
     5
100
AcDbVertex
100
AcDb3dPolylineVertex
 10
-12.9017
 20
0.972295
 30
0.0
 70
    32
  0
VERTEX
  5
2171
330
1ECA
100
AcDbEntity
  8
Centrala
 62
     5
100
AcDbVertex
100
AcDb3dPolylineVertex
 10
-12.8028
 20
1.15161
 30
0.0
 70
    32
  0
VERTEX
  5
2172
330
1ECA
100
AcDbEntity
  8
Centrala
 62
     5
100
AcDbVertex
100
AcDb3dPolylineVertex
 10
-12.7048
 20
1.330729999999997
 30
0.0
 70
    32
  0
VERTEX
  5
2173
330
1ECA
100
AcDbEntity
  8
Centrala
 62
     5
100
AcDbVertex
100
AcDb3dPolylineVertex
 10
-12.6078
 20
1.50963
 30
0.0
 70
    32
  0
VERTEX
  5
2174
330
1ECA
100
AcDbEntity
  8
Centrala
 62
     5
100
AcDbVertex
100
AcDb3dPolylineVertex
 10
-12.5119
 20
1.688309999999999
 30
0.0
 70
    32
  0
VERTEX
  5
2175
330
1ECA
100
AcDbEntity
  8
Centrala
 62
     5
100
AcDbVertex
100
AcDb3dPolylineVertex
 10
-12.4173
 20
1.866759999999999
 30
0.0
 70
    32
  0
VERTEX
  5
2176
330
1ECA
100
AcDbEntity
  8
Centrala
 62
     5
100
AcDbVertex
100
AcDb3dPolylineVertex
 10
-12.324
 20
2.04497
 30
0.0
 70
    32
  0
VERTEX
  5
2177
330
1ECA
100
AcDbEntity
  8
Centrala
 62
     5
100
AcDbVertex
100
AcDb3dPolylineVertex
 10
-12.2322
 20
2.22292
 30
0.0
 70
    32
  0
VERTEX
  5
2178
330
1ECA
100
AcDbEntity
  8
Centrala
 62
     5
100
AcDbVertex
100
AcDb3dPolylineVertex
 10
-12.1419
 20
2.400609999999999
 30
0.0
 70
    32
  0
VERTEX
  5
2179
330
1ECA
100
AcDbEntity
  8
Centrala
 62
     5
100
AcDbVertex
100
AcDb3dPolylineVertex
 10
-12.0532
 20
2.578019999999999
 30
0.0
 70
    32
  0
VERTEX
  5
217A
330
1ECA
100
AcDbEntity
  8
Centrala
 62
     5
100
AcDbVertex
100
AcDb3dPolylineVertex
 10
-11.9663
 20
2.755149999999998
 30
0.0
 70
    32
  0
VERTEX
  5
217B
330
1ECA
100
AcDbEntity
  8
Centrala
 62
     5
100
AcDbVertex
100
AcDb3dPolylineVertex
 10
-11.8812
 20
2.93199
 30
0.0
 70
    32
  0
VERTEX
  5
217C
330
1ECA
100
AcDbEntity
  8
Centrala
 62
     5
100
AcDbVertex
100
AcDb3dPolylineVertex
 10
-11.7982
 20
3.108519999999998
 30
0.0
 70
    32
  0
VERTEX
  5
217D
330
1ECA
100
AcDbEntity
  8
Centrala
 62
     5
100
AcDbVertex
100
AcDb3dPolylineVertex
 10
-11.7171
 20
3.28473
 30
0.0
 70
    32
  0
VERTEX
  5
217E
330
1ECA
100
AcDbEntity
  8
Centrala
 62
     5
100
AcDbVertex
100
AcDb3dPolylineVertex
 10
-11.6383
 20
3.460619999999998
 30
0.0
 70
    32
  0
VERTEX
  5
217F
330
1ECA
100
AcDbEntity
  8
Centrala
 62
     5
100
AcDbVertex
100
AcDb3dPolylineVertex
 10
-11.5616
 20
3.636169999999999
 30
0.0
 70
    32
  0
VERTEX
  5
2180
330
1ECA
100
AcDbEntity
  8
Centrala
 62
     5
100
AcDbVertex
100
AcDb3dPolylineVertex
 10
-11.4874
 20
3.811369999999998
 30
0.0
 70
    32
  0
VERTEX
  5
2181
330
1ECA
100
AcDbEntity
  8
Centrala
 62
     5
100
AcDbVertex
100
AcDb3dPolylineVertex
 10
-11.4157
 20
3.986219999999999
 30
0.0
 70
    32
  0
VERTEX
  5
2182
330
1ECA
100
AcDbEntity
  8
Centrala
 62
     5
100
AcDbVertex
100
AcDb3dPolylineVertex
 10
-11.3465
 20
4.1607
 30
0.0
 70
    32
  0
VERTEX
  5
2183
330
1ECA
100
AcDbEntity
  8
Centrala
 62
     5
100
AcDbVertex
100
AcDb3dPolylineVertex
 10
-11.28
 20
4.3348
 30
0.0
 70
    32
  0
VERTEX
  5
2184
330
1ECA
100
AcDbEntity
  8
Centrala
 62
     5
100
AcDbVertex
100
AcDb3dPolylineVertex
 10
-11.2163
 20
4.50851
 30
0.0
 70
    32
  0
VERTEX
  5
2185
330
1ECA
100
AcDbEntity
  8
Centrala
 62
     5
100
AcDbVertex
100
AcDb3dPolylineVertex
 10
-11.1554
 20
4.68182
 30
0.0
 70
    32
  0
VERTEX
  5
2186
330
1ECA
100
AcDbEntity
  8
Centrala
 62
     5
100
AcDbVertex
100
AcDb3dPolylineVertex
 10
-11.0976
 20
4.854729999999999
 30
0.0
 70
    32
  0
VERTEX
  5
2187
330
1ECA
100
AcDbEntity
  8
Centrala
 62
     5
100
AcDbVertex
100
AcDb3dPolylineVertex
 10
-11.0429
 20
5.02721
 30
0.0
 70
    32
  0
VERTEX
  5
2188
330
1ECA
100
AcDbEntity
  8
Centrala
 62
     5
100
AcDbVertex
100
AcDb3dPolylineVertex
 10
-10.9913
 20
5.199269999999998
 30
0.0
 70
    32
  0
VERTEX
  5
2189
330
1ECA
100
AcDbEntity
  8
Centrala
 62
     5
100
AcDbVertex
100
AcDb3dPolylineVertex
 10
-10.9431
 20
5.37088
 30
0.0
 70
    32
  0
VERTEX
  5
218A
330
1ECA
100
AcDbEntity
  8
Centrala
 62
     5
100
AcDbVertex
100
AcDb3dPolylineVertex
 10
-10.8982
 20
5.54204
 30
0.0
 70
    32
  0
VERTEX
  5
218B
330
1ECA
100
AcDbEntity
  8
Centrala
 62
     5
100
AcDbVertex
100
AcDb3dPolylineVertex
 10
-10.8569
 20
5.71274
 30
0.0
 70
    32
  0
VERTEX
  5
218C
330
1ECA
100
AcDbEntity
  8
Centrala
 62
     5
100
AcDbVertex
100
AcDb3dPolylineVertex
 10
-10.8192
 20
5.882969999999997
 30
0.0
 70
    32
  0
VERTEX
  5
218D
330
1ECA
100
AcDbEntity
  8
Centrala
 62
     5
100
AcDbVertex
100
AcDb3dPolylineVertex
 10
-10.7852
 20
6.052719999999997
 30
0.0
 70
    32
  0
VERTEX
  5
218E
330
1ECA
100
AcDbEntity
  8
Centrala
 62
     5
100
AcDbVertex
100
AcDb3dPolylineVertex
 10
-10.755
 20
6.22198
 30
0.0
 70
    32
  0
VERTEX
  5
218F
330
1ECA
100
AcDbEntity
  8
Centrala
 62
     5
100
AcDbVertex
100
AcDb3dPolylineVertex
 10
-10.7287
 20
6.39073
 30
0.0
 70
    32
  0
VERTEX
  5
2190
330
1ECA
100
AcDbEntity
  8
Centrala
 62
     5
100
AcDbVertex
100
AcDb3dPolylineVertex
 10
-10.7065
 20
6.558969999999997
 30
0.0
 70
    32
  0
VERTEX
  5
2191
330
1ECA
100
AcDbEntity
  8
Centrala
 62
     5
100
AcDbVertex
100
AcDb3dPolylineVertex
 10
-10.6884
 20
6.726689999999997
 30
0.0
 70
    32
  0
VERTEX
  5
2192
330
1ECA
100
AcDbEntity
  8
Centrala
 62
     5
100
AcDbVertex
100
AcDb3dPolylineVertex
 10
-10.6745
 20
6.893869999999997
 30
0.0
 70
    32
  0
VERTEX
  5
2193
330
1ECA
100
AcDbEntity
  8
Centrala
 62
     5
100
AcDbVertex
100
AcDb3dPolylineVertex
 10
-10.6649
 20
7.06051
 30
0.0
 70
    32
  0
VERTEX
  5
2194
330
1ECA
100
AcDbEntity
  8
Centrala
 62
     5
100
AcDbVertex
100
AcDb3dPolylineVertex
 10
-10.6598
 20
7.2266
 30
0.0
 70
    32
  0
VERTEX
  5
2195
330
1ECA
100
AcDbEntity
  8
Centrala
 62
     5
100
AcDbVertex
100
AcDb3dPolylineVertex
 10
-10.6593
 20
7.392119999999997
 30
0.0
 70
    32
  0
VERTEX
  5
2196
330
1ECA
100
AcDbEntity
  8
Centrala
 62
     5
100
AcDbVertex
100
AcDb3dPolylineVertex
 10
-10.6633
 20
7.55706
 30
0.0
 70
    32
  0
VERTEX
  5
2197
330
1ECA
100
AcDbEntity
  8
Centrala
 62
     5
100
AcDbVertex
100
AcDb3dPolylineVertex
 10
-10.6722
 20
7.721419999999997
 30
0.0
 70
    32
  0
VERTEX
  5
2198
330
1ECA
100
AcDbEntity
  8
Centrala
 62
     5
100
AcDbVertex
100
AcDb3dPolylineVertex
 10
-10.6858
 20
7.88518
 30
0.0
 70
    32
  0
VERTEX
  5
2199
330
1ECA
100
AcDbEntity
  8
Centrala
 62
     5
100
AcDbVertex
100
AcDb3dPolylineVertex
 10
-10.7045
 20
8.048339999999999
 30
0.0
 70
    32
  0
VERTEX
  5
219A
330
1ECA
100
AcDbEntity
  8
Centrala
 62
     5
100
AcDbVertex
100
AcDb3dPolylineVertex
 10
-10.7281
 20
8.210869999999998
 30
0.0
 70
    32
  0
VERTEX
  5
219B
330
1ECA
100
AcDbEntity
  8
Centrala
 62
     5
100
AcDbVertex
100
AcDb3dPolylineVertex
 10
-10.757
 20
8.37279
 30
0.0
 70
    32
  0
VERTEX
  5
219C
330
1ECA
100
AcDbEntity
  8
Centrala
 62
     5
100
AcDbVertex
100
AcDb3dPolylineVertex
 10
-10.7911
 20
8.53406
 30
0.0
 70
    32
  0
VERTEX
  5
219D
330
1ECA
100
AcDbEntity
  8
Centrala
 62
     5
100
AcDbVertex
100
AcDb3dPolylineVertex
 10
-10.8306
 20
8.694679999999998
 30
0.0
 70
    32
  0
VERTEX
  5
219E
330
1ECA
100
AcDbEntity
  8
Centrala
 62
     5
100
AcDbVertex
100
AcDb3dPolylineVertex
 10
-10.8755
 20
8.854649999999997
 30
0.0
 70
    32
  0
VERTEX
  5
219F
330
1ECA
100
AcDbEntity
  8
Centrala
 62
     5
100
AcDbVertex
100
AcDb3dPolylineVertex
 10
-10.9261
 20
9.013949999999999
 30
0.0
 70
    32
  0
VERTEX
  5
21A0
330
1ECA
100
AcDbEntity
  8
Centrala
 62
     5
100
AcDbVertex
100
AcDb3dPolylineVertex
 10
-10.9823
 20
9.17257
 30
0.0
 70
    32
  0
VERTEX
  5
21A1
330
1ECA
100
AcDbEntity
  8
Centrala
 62
     5
100
AcDbVertex
100
AcDb3dPolylineVertex
 10
-11.0443
 20
9.3305
 30
0.0
 70
    32
  0
VERTEX
  5
21A2
330
1ECA
100
AcDbEntity
  8
Centrala
 62
     5
100
AcDbVertex
100
AcDb3dPolylineVertex
 10
-11.1121
 20
9.48773
 30
0.0
 70
    32
  0
VERTEX
  5
21A3
330
1ECA
100
AcDbEntity
  8
Centrala
 62
     5
100
AcDbVertex
100
AcDb3dPolylineVertex
 10
-11.186
 20
9.644249999999999
 30
0.0
 70
    32
  0
VERTEX
  5
21A4
330
1ECA
100
AcDbEntity
  8
Centrala
 62
     5
100
AcDbVertex
100
AcDb3dPolylineVertex
 10
-11.266
 20
9.80005
 30
0.0
 70
    32
  0
VERTEX
  5
21A5
330
1ECA
100
AcDbEntity
  8
Centrala
 62
     5
100
AcDbVertex
100
AcDb3dPolylineVertex
 10
-11.3521
 20
9.955109999999999
 30
0.0
 70
    32
  0
VERTEX
  5
21A6
330
1ECA
100
AcDbEntity
  8
Centrala
 62
     5
100
AcDbVertex
100
AcDb3dPolylineVertex
 10
-11.4446
 20
10.1094
 30
0.0
 70
    32
  0
VERTEX
  5
21A7
330
1ECA
100
AcDbEntity
  8
Centrala
 62
     5
100
AcDbVertex
100
AcDb3dPolylineVertex
 10
-11.5434
 20
10.263
 30
0.0
 70
    32
  0
VERTEX
  5
21A8
330
1ECA
100
AcDbEntity
  8
Centrala
 62
     5
100
AcDbVertex
100
AcDb3dPolylineVertex
 10
-11.6488
 20
10.4158
 30
0.0
 70
    32
  0
VERTEX
  5
21A9
330
1ECA
100
AcDbEntity
  8
Centrala
 62
     5
100
AcDbVertex
100
AcDb3dPolylineVertex
 10
-11.7607
 20
10.5679
 30
0.0
 70
    32
  0
VERTEX
  5
21AA
330
1ECA
100
AcDbEntity
  8
Centrala
 62
     5
100
AcDbVertex
100
AcDb3dPolylineVertex
 10
-11.8794
 20
10.7191
 30
0.0
 70
    32
  0
VERTEX
  5
21AB
330
1ECA
100
AcDbEntity
  8
Centrala
 62
     5
100
AcDbVertex
100
AcDb3dPolylineVertex
 10
-12.0048
 20
10.8696
 30
0.0
 70
    32
  0
VERTEX
  5
21AC
330
1ECA
100
AcDbEntity
  8
Centrala
 62
     5
100
AcDbVertex
100
AcDb3dPolylineVertex
 10
-12.1367
 20
11.0193
 30
0.0
 70
    32
  0
VERTEX
  5
21AD
330
1ECA
100
AcDbEntity
  8
Centrala
 62
     5
100
AcDbVertex
100
AcDb3dPolylineVertex
 10
-12.2746
 20
11.1682
 30
0.0
 70
    32
  0
VERTEX
  5
21AE
330
1ECA
100
AcDbEntity
  8
Centrala
 62
     5
100
AcDbVertex
100
AcDb3dPolylineVertex
 10
-12.4181
 20
11.3165
 30
0.0
 70
    32
  0
VERTEX
  5
21AF
330
1ECA
100
AcDbEntity
  8
Centrala
 62
     5
100
AcDbVertex
100
AcDb3dPolylineVertex
 10
-12.5668
 20
11.464
 30
0.0
 70
    32
  0
VERTEX
  5
21B0
330
1ECA
100
AcDbEntity
  8
Centrala
 62
     5
100
AcDbVertex
100
AcDb3dPolylineVertex
 10
-12.7203
 20
11.6108
 30
0.0
 70
    32
  0
VERTEX
  5
21B1
330
1ECA
100
AcDbEntity
  8
Centrala
 62
     5
100
AcDbVertex
100
AcDb3dPolylineVertex
 10
-12.8781
 20
11.757
 30
0.0
 70
    32
  0
VERTEX
  5
21B2
330
1ECA
100
AcDbEntity
  8
Centrala
 62
     5
100
AcDbVertex
100
AcDb3dPolylineVertex
 10
-13.0399
 20
11.9026
 30
0.0
 70
    32
  0
VERTEX
  5
21B3
330
1ECA
100
AcDbEntity
  8
Centrala
 62
     5
100
AcDbVertex
100
AcDb3dPolylineVertex
 10
-13.2051
 20
12.0476
 30
0.0
 70
    32
  0
VERTEX
  5
21B4
330
1ECA
100
AcDbEntity
  8
Centrala
 62
     5
100
AcDbVertex
100
AcDb3dPolylineVertex
 10
-13.3734
 20
12.192
 30
0.0
 70
    32
  0
VERTEX
  5
21B5
330
1ECA
100
AcDbEntity
  8
Centrala
 62
     5
100
AcDbVertex
100
AcDb3dPolylineVertex
 10
-13.5444
 20
12.3359
 30
0.0
 70
    32
  0
VERTEX
  5
21B6
330
1ECA
100
AcDbEntity
  8
Centrala
 62
     5
100
AcDbVertex
100
AcDb3dPolylineVertex
 10
-13.7175
 20
12.4792
 30
0.0
 70
    32
  0
VERTEX
  5
21B7
330
1ECA
100
AcDbEntity
  8
Centrala
 62
     5
100
AcDbVertex
100
AcDb3dPolylineVertex
 10
-13.8925
 20
12.6221
 30
0.0
 70
    32
  0
VERTEX
  5
21B8
330
1ECA
100
AcDbEntity
  8
Centrala
 62
     5
100
AcDbVertex
100
AcDb3dPolylineVertex
 10
-14.0689
 20
12.7644
 30
0.0
 70
    32
  0
VERTEX
  5
21B9
330
1ECA
100
AcDbEntity
  8
Centrala
 62
     5
100
AcDbVertex
100
AcDb3dPolylineVertex
 10
-14.2463
 20
12.9064
 30
0.0
 70
    32
  0
VERTEX
  5
21BA
330
1ECA
100
AcDbEntity
  8
Centrala
 62
     5
100
AcDbVertex
100
AcDb3dPolylineVertex
 10
-14.4242
 20
13.0479
 30
0.0
 70
    32
  0
VERTEX
  5
21BB
330
1ECA
100
AcDbEntity
  8
Centrala
 62
     5
100
AcDbVertex
100
AcDb3dPolylineVertex
 10
-14.6022
 20
13.1889
 30
0.0
 70
    32
  0
VERTEX
  5
21BC
330
1ECA
100
AcDbEntity
  8
Centrala
 62
     5
100
AcDbVertex
100
AcDb3dPolylineVertex
 10
-14.7799
 20
13.3297
 30
0.0
 70
    32
  0
VERTEX
  5
21BD
330
1ECA
100
AcDbEntity
  8
Centrala
 62
     5
100
AcDbVertex
100
AcDb3dPolylineVertex
 10
-14.9569
 20
13.47
 30
0.0
 70
    32
  0
VERTEX
  5
21BE
330
1ECA
100
AcDbEntity
  8
Centrala
 62
     5
100
AcDbVertex
100
AcDb3dPolylineVertex
 10
-15.1328
 20
13.6101
 30
0.0
 70
    32
  0
VERTEX
  5
21BF
330
1ECA
100
AcDbEntity
  8
Centrala
 62
     5
100
AcDbVertex
100
AcDb3dPolylineVertex
 10
-15.307
 20
13.7499
 30
0.0
 70
    32
  0
VERTEX
  5
21C0
330
1ECA
100
AcDbEntity
  8
Centrala
 62
     5
100
AcDbVertex
100
AcDb3dPolylineVertex
 10
-15.4793
 20
13.8893
 30
0.0
 70
    32
  0
VERTEX
  5
21C1
330
1ECA
100
AcDbEntity
  8
Centrala
 62
     5
100
AcDbVertex
100
AcDb3dPolylineVertex
 10
-15.6492
 20
14.0286
 30
0.0
 70
    32
  0
VERTEX
  5
21C2
330
1ECA
100
AcDbEntity
  8
Centrala
 62
     5
100
AcDbVertex
100
AcDb3dPolylineVertex
 10
-15.8163
 20
14.1676
 30
0.0
 70
    32
  0
VERTEX
  5
21C3
330
1ECA
100
AcDbEntity
  8
Centrala
 62
     5
100
AcDbVertex
100
AcDb3dPolylineVertex
 10
-15.9801
 20
14.3064
 30
0.0
 70
    32
  0
VERTEX
  5
21C4
330
1ECA
100
AcDbEntity
  8
Centrala
 62
     5
100
AcDbVertex
100
AcDb3dPolylineVertex
 10
-16.1402
 20
14.445
 30
0.0
 70
    32
  0
VERTEX
  5
21C5
330
1ECA
100
AcDbEntity
  8
Centrala
 62
     5
100
AcDbVertex
100
AcDb3dPolylineVertex
 10
-16.2962
 20
14.5835
 30
0.0
 70
    32
  0
VERTEX
  5
21C6
330
1ECA
100
AcDbEntity
  8
Centrala
 62
     5
100
AcDbVertex
100
AcDb3dPolylineVertex
 10
-16.4477
 20
14.7218
 30
0.0
 70
    32
  0
VERTEX
  5
21C7
330
1ECA
100
AcDbEntity
  8
Centrala
 62
     5
100
AcDbVertex
100
AcDb3dPolylineVertex
 10
-16.5942
 20
14.8601
 30
0.0
 70
    32
  0
VERTEX
  5
21C8
330
1ECA
100
AcDbEntity
  8
Centrala
 62
     5
100
AcDbVertex
100
AcDb3dPolylineVertex
 10
-16.7354
 20
14.9983
 30
0.0
 70
    32
  0
VERTEX
  5
21C9
330
1ECA
100
AcDbEntity
  8
Centrala
 62
     5
100
AcDbVertex
100
AcDb3dPolylineVertex
 10
-16.8708
 20
15.1364
 30
0.0
 70
    32
  0
VERTEX
  5
21CA
330
1ECA
100
AcDbEntity
  8
Centrala
 62
     5
100
AcDbVertex
100
AcDb3dPolylineVertex
 10
-17.0
 20
15.2745
 30
0.0
 70
    32
  0
SEQEND
  5
21CB
330
1ECA
100
AcDbEntity
  8
Centrala
 62
     5
  0
CIRCLE
  5
21CC
330
1EC7
100
AcDbEntity
  8
Centrala
 62
     5
100
AcDbCircle
 10
0.0
 20
0.0
 30
0.0
 40
8.0
1001
AcDbBlockRepETag
1070
     1
1071
        1
1005
21CC
  0
ENDBLK
  5
21CD
330
1EC7
100
AcDbEntity
  8
0
100
AcDbBlockEnd
  0
BLOCK
  5
237B
330
237A
100
AcDbEntity
  8
0
100
AcDbBlockBegin
  2
Galka-bok
 70
     0
 10
0.0
 20
0.0
 30
0.0
  3
Galka-bok
  1

  0
LWPOLYLINE
  5
237C
330
237A
100
AcDbEntity
  8
0
 62
     5
100
AcDbPolyline
 90
        6
 70
     1
 43
0.0
 10
513.6056839983573
 20
-235.7942308135534
 10
531.6056839983573
 20
-235.7942308135534
 42
-0.4142135623730951
 10
539.6056839983573
 20
-243.7942308135534
 10
539.6056839983573
 20
-249.7942308135534
 10
505.6056839983575
 20
-249.7942308135534
 10
505.6056839983575
 20
-243.7942308135534
 42
-0.4142135623730951
  0
LWPOLYLINE
  5
237D
330
237A
100
AcDbEntity
  8
0
 62
     5
100
AcDbPolyline
 90
        4
 70
     1
 43
0.0
 10
513.6056839983573
 20
-249.7942308135534
 10
531.6056839983573
 20
-249.7942308135534
 10
531.6056839983573
 20
-256.7942308135534
 10
513.6056839983573
 20
-256.7942308135534
  0
LWPOLYLINE
  5
237E
330
237A
100
AcDbEntity
  8
0
 62
     5
100
AcDbPolyline
 90
        2
 70
     0
 43
0.0
 10
508.6056839983576
 20
-243.7942308135534
 10
508.6056839983576
 20
-249.7942308135534
  0
SPLINE
  5
237F
330
237A
100
AcDbEntity
  8
0
 62
     5
100
AcDbSpline
210
0.0
220
0.0
230
1.0
 70
     8
 71
     3
 72
     8
 73
     4
 74
     0
 42
0.0000000001
 43
0.0000000001
 40
0.0
 40
0.0
 40
0.0
 40
0.0
 40
10.27785831700127
 40
10.27785831700127
 40
10.27785831700127
 40
10.27785831700127
 10
508.6056839983576
 20
-243.7942308135534
 30
0.0
 10
510.4774416336787
 20
-240.5555129283281
 30
0.0
 10
512.3491992689999
 20
-237.3167950431027
 30
0.0
 10
515.0581541907997
 20
-235.7942308135536
 30
0.0
  0
SPLINE
  5
2380
330
237A
100
AcDbEntity
  8
0
 62
     5
100
AcDbSpline
210
0.0
220
0.0
230
1.0
 70
     8
 71
     3
 72
     9
 73
     5
 74
     0
 42
0.0000000001
 43
0.0000000001
 40
21.36872674825796
 40
21.36872674825796
 40
21.36872674825796
 40
21.36872674825796
 40
29.47355378495695
 40
36.53729761612736
 40
36.53729761612736
 40
36.53729761612736
 40
36.53729761612736
 10
522.6056839983573
 20
-235.7942308135534
 30
0.0
 10
528.5554953708547
 20
-236.778482666917
 30
0.0
 10
533.8867621098529
 20
-239.4278813048076
 30
0.0
 10
537.7886442632815
 20
-242.4069360210562
 30
0.0
 10
539.6056839983573
 20
-243.7942308135534
 30
0.0
  0
SPLINE
  5
2381
330
237A
100
AcDbEntity
  8
0
 62
     5
100
AcDbSpline
210
0.0
220
0.0
230
1.0
 70
     8
 71
     3
 72
     8
 73
     4
 74
     0
 42
0.0000000001
 43
0.0000000001
 40
0.0
 40
0.0
 40
0.0
 40
0.0
 40
10.27785831700127
 40
10.27785831700127
 40
10.27785831700127
 40
10.27785831700127
 10
508.6056839983576
 20
-243.7942308135534
 30
0.0
 10
505.3548139732011
 20
-239.3737001232821
 30
0.0
 10
509.9196336919923
 20
-236.6940172154323
 30
0.0
 10
511.0499731095384
 20
-236.2134431333206
 30
0.0
  0
ENDBLK
  5
2382
330
237A
100
AcDbEntity
  8
0
100
AcDbBlockEnd
  0
BLOCK
  5
2A91
330
2A90
100
AcDbEntity
  8
0
100
AcDbBlockBegin
  2
*D161
 70
     1
 10
0.0
 20
0.0
 30
0.0
  3
*D161
  1

  0
LINE
  5
2A9D
330
2A90
100
AcDbEntity
  8
wymiary
 62
     0
370
    -2
100
AcDbLine
 10
3940.561240433615
 20
4186.859880288952
 30
0.0
 11
3940.561240433615
 21
4316.840919373239
 31
0.0
  0
LINE
  5
2A9E
330
2A90
100
AcDbEntity
  8
wymiary
 62
     0
370
    -2
100
AcDbLine
 10
5430.561240433615
 20
4186.859880288952
 30
0.0
 11
5430.561240433615
 21
4316.840919373239
 31
0.0
  0
LINE
  5
2A9F
330
2A90
100
AcDbEntity
  8
wymiary
 62
     0
370
    -2
100
AcDbLine
 10
3972.561240433615
 20
4315.840919373239
 30
0.0
 11
5398.561240433615
 21
4315.840919373239
 31
0.0
  0
SOLID
  5
2AA0
330
2A90
100
AcDbEntity
  8
wymiary
 62
     0
100
AcDbTrace
 10
3972.561240433615
 20
4321.174252706572
 30
0.0
 11
3972.561240433615
 21
4310.507586039907
 31
0.0
 12
3940.561240433615
 22
4315.840919373239
 32
0.0
 13
3940.561240433615
 23
4315.840919373239
 33
0.0
  0
SOLID
  5
2AA1
330
2A90
100
AcDbEntity
  8
wymiary
 62
     0
100
AcDbTrace
 10
5398.561240433615
 20
4321.174252706572
 30
0.0
 11
5398.561240433615
 21
4310.507586039907
 31
0.0
 12
5430.561240433615
 22
4315.840919373239
 32
0.0
 13
5430.561240433615
 23
4315.840919373239
 33
0.0
  0
MTEXT
  5
2AA2
330
2A90
100
AcDbEntity
  8
wymiary
 62
     0
100
AcDbMText
 10
4685.561240433615
 20
4340.179254980335
 30
0.0
 40
32.0
 41
0.0
 46
0.0
 71
     5
 72
     1
  1
\A1;1490
 73
     1
 44
1.0
  0
POINT
  5
2AA3
330
2A90
100
AcDbEntity
  8
Defpoints
 62
     0
100
AcDbPoint
 10
3940.561240433615
 20
4181.859880288953
 30
0.0
  0
POINT
  5
2AA4
330
2A90
100
AcDbEntity
  8
Defpoints
 62
     0
100
AcDbPoint
 10
5430.561240433615
 20
4181.859880288953
 30
0.0
  0
POINT
  5
2AA5
330
2A90
100
AcDbEntity
  8
Defpoints
 62
     0
100
AcDbPoint
 10
5430.561240433615
 20
4315.840919373239
 30
0.0
  0
ENDBLK
  5
2A92
330
2A90
100
AcDbEntity
  8
0
100
AcDbBlockEnd
  0
BLOCK
  5
2AA9
330
2AA8
100
AcDbEntity
  8
0
100
AcDbBlockBegin
  2
*D162
 70
     1
 10
0.0
 20
0.0
 30
0.0
  3
*D162
  1

  0
LINE
  5
2AB5
330
2AA8
100
AcDbEntity
  8
wymiary
 62
     0
370
    -2
100
AcDbLine
 10
5435.561240433615
 20
3081.859880288953
 30
0.0
 11
5591.25273679219
 21
3081.859880288953
 31
0.0
  0
LINE
  5
2AB6
330
2AA8
100
AcDbEntity
  8
wymiary
 62
     0
370
    -2
100
AcDbLine
 10
5435.561240433615
 20
4181.859880288953
 30
0.0
 11
5591.25273679219
 21
4181.859880288953
 31
0.0
  0
LINE
  5
2AB7
330
2AA8
100
AcDbEntity
  8
wymiary
 62
     0
370
    -2
100
AcDbLine
 10
5590.252736792191
 20
3113.859880288953
 30
0.0
 11
5590.252736792191
 21
4149.859880288953
 31
0.0
  0
SOLID
  5
2AB8
330
2AA8
100
AcDbEntity
  8
wymiary
 62
     0
100
AcDbTrace
 10
5584.919403458857
 20
3113.859880288953
 30
0.0
 11
5595.586070125524
 21
3113.859880288953
 31
0.0
 12
5590.252736792191
 22
3081.859880288953
 32
0.0
 13
5590.252736792191
 23
3081.859880288953
 33
0.0
  0
SOLID
  5
2AB9
330
2AA8
100
AcDbEntity
  8
wymiary
 62
     0
100
AcDbTrace
 10
5584.919403458857
 20
4149.859880288953
 30
0.0
 11
5595.586070125524
 21
4149.859880288953
 31
0.0
 12
5590.252736792191
 22
4181.859880288953
 32
0.0
 13
5590.252736792191
 23
4181.859880288953
 33
0.0
  0
MTEXT
  5
2ABA
330
2AA8
100
AcDbEntity
  8
wymiary
 62
     0
100
AcDbMText
 10
5565.914401185095
 20
3631.859880288953
 30
0.0
 40
32.0
 41
0.0
 46
0.0
 71
     5
 72
     1
  1
\A1;1100
 11
0.0000000000000001
 21
1.0
 31
0.0
 73
     1
 44
1.0
  0
POINT
  5
2ABB
330
2AA8
100
AcDbEntity
  8
Defpoints
 62
     0
100
AcDbPoint
 10
5430.561240433615
 20
3081.859880288953
 30
0.0
  0
POINT
  5
2ABC
330
2AA8
100
AcDbEntity
  8
Defpoints
 62
     0
100
AcDbPoint
 10
5430.561240433615
 20
4181.859880288953
 30
0.0
  0
POINT
  5
2ABD
330
2AA8
100
AcDbEntity
  8
Defpoints
 62
     0
100
AcDbPoint
 10
5590.252736792191
 20
4181.859880288953
 30
0.0
  0
ENDBLK
  5
2AAA
330
2AA8
100
AcDbEntity
  8
0
100
AcDbBlockEnd
  0
BLOCK
  5
2AEF
330
2AEE
100
AcDbEntity
  8
0
100
AcDbBlockBegin
  2
*D164
 70
     1
 10
0.0
 20
0.0
 30
0.0
  3
*D164
  1

  0
LINE
  5
2AF8
330
2AEE
100
AcDbEntity
  8
wymiary
 62
     0
370
    -2
100
AcDbLine
 10
2773.335563538535
 20
4047.402241341607
 30
0.0
 11
2539.296882617853
 21
3806.317410145393
 31
0.0
  0
MTEXT
  5
2AF9
330
2AEE
100
AcDbEntity
  8
wymiary
 62
     0
100
AcDbMText
 10
2635.317292403986
 20
3946.855086362185
 30
0.0
 40
32.0
 41
0.0
 46
0.0
 71
     5
 72
     1
  1
\A1;∅400
 11
0.6965436932163166
 21
0.717514378560161
 31
0.0
 73
     1
 44
1.0
  0
SOLID
  5
2AFA
330
2AEE
100
AcDbEntity
  8
wymiary
 62
     0
100
AcDbTrace
 10
2769.508820186214
 20
4051.11714103876
 30
0.0
 11
2777.162306890856
 21
4043.687341644453
 31
0.0
 12
2795.624961721457
 22
4070.362701455532
 32
0.0
 13
2795.624961721457
 23
4070.362701455532
 33
0.0
  0
SOLID
  5
2AFB
330
2AEE
100
AcDbEntity
  8
wymiary
 62
     0
100
AcDbTrace
 10
2535.470139265532
 20
3810.032309842547
 30
0.0
 11
2543.123625970173
 21
3802.60251044824
 31
0.0
 12
2517.00748443493
 22
3783.35695003147
 32
0.0
 13
2517.00748443493
 23
3783.35695003147
 33
0.0
  0
POINT
  5
2AFC
330
2AEE
100
AcDbEntity
  8
Defpoints
 62
     0
100
AcDbPoint
 10
2517.00748443493
 20
3783.35695003147
 30
0.0
  0
POINT
  5
2AFD
330
2AEE
100
AcDbEntity
  8
Defpoints
 62
     0
100
AcDbPoint
 10
2795.624961721457
 20
4070.362701455532
 30
0.0
  0
ENDBLK
  5
2AF0
330
2AEE
100
AcDbEntity
  8
0
100
AcDbBlockEnd
  0
BLOCK
  5
2B29
330
2B28
100
AcDbEntity
  8
0
100
AcDbBlockBegin
  2
*D167
 70
     1
 10
0.0
 20
0.0
 30
0.0
  3
*D167
  1

  0
LINE
  5
2B32
330
2B28
100
AcDbEntity
  8
wymiary
 62
     0
370
    -2
100
AcDbLine
 10
2922.806236084023
 20
3495.914090341595
 30
0.0
 11
2689.826595526899
 21
3253.805670236315
 31
0.0
  0
MTEXT
  5
2B33
330
2B28
100
AcDbEntity
  8
wymiary
 62
     0
100
AcDbMText
 10
2786.811820116137
 20
3403.898588603933
 30
0.0
 40
32.0
 41
0.0
 46
0.0
 71
     5
 72
     1
  1
\A1;∅400
 11
0.693391787372388
 21
0.720560774122853
 31
0.0
 73
     1
 44
1.0
  0
SOLID
  5
2B34
330
2B28
100
AcDbEntity
  8
wymiary
 62
     0
100
AcDbTrace
 10
2918.9632452887
 20
3499.612179874246
 30
0.0
 11
2926.649226879344
 21
3492.216000808941
 31
0.0
 12
2944.994773279938
 22
3518.972035113525
 32
0.0
 13
2944.994773279938
 23
3518.972035113525
 33
0.0
  0
SOLID
  5
2B35
330
2B28
100
AcDbEntity
  8
wymiary
 62
     0
100
AcDbTrace
 10
2685.983604731577
 20
3257.503759768967
 30
0.0
 11
2693.669586322221
 21
3250.107580703662
 31
0.0
 12
2667.638058330983
 22
3230.747725464385
 32
0.0
 13
2667.638058330983
 23
3230.747725464385
 33
0.0
  0
POINT
  5
2B36
330
2B28
100
AcDbEntity
  8
Defpoints
 62
     0
100
AcDbPoint
 10
2667.638058330983
 20
3230.747725464385
 30
0.0
  0
POINT
  5
2B37
330
2B28
100
AcDbEntity
  8
Defpoints
 62
     0
100
AcDbPoint
 10
2944.994773279938
 20
3518.972035113525
 30
0.0
  0
ENDBLK
  5
2B2A
330
2B28
100
AcDbEntity
  8
0
100
AcDbBlockEnd
  0
BLOCK
  5
2B3B
330
2B3A
100
AcDbEntity
  8
0
100
AcDbBlockBegin
  2
*D168
 70
     1
 10
0.0
 20
0.0
 30
0.0
  3
*D168
  1

  0
LINE
  5
2B44
330
2B3A
100
AcDbEntity
  8
wymiary
 62
     0
370
    -2
100
AcDbLine
 10
6535.376577105343
 20
4043.850477576577
 30
0.0
 11
6294.235953018194
 21
3809.869283001329
 31
0.0
  0
MTEXT
  5
2B45
330
2B3A
100
AcDbEntity
  8
wymiary
 62
     0
100
AcDbMText
 10
6386.224837365047
 20
3947.385756727534
 30
0.0
 40
32.0
 41
0.0
 46
0.0
 71
     5
 72
     1
  1
\A1;∅400
 11
0.7176804288308004
 21
0.6963726029025256
 31
0.0
 73
     1
 44
1.0
  0
SOLID
  5
2B46
330
2B3A
100
AcDbEntity
  8
wymiary
 62
     0
100
AcDbTrace
 10
6531.662589889863
 20
4047.67810653034
 30
0.0
 11
6539.090564320824
 21
4040.022848622812
 31
0.0
 12
6558.342350827928
 22
4066.134400869457
 32
0.0
 13
6558.342350827928
 23
4066.134400869457
 33
0.0
  0
SOLID
  5
2B47
330
2B3A
100
AcDbEntity
  8
wymiary
 62
     0
100
AcDbTrace
 10
6290.521965802714
 20
3813.696911955093
 30
0.0
 11
6297.949940233674
 21
3806.041654047565
 31
0.0
 12
6271.270179295608
 22
3787.585359708448
 32
0.0
 13
6271.270179295608
 23
3787.585359708448
 33
0.0
  0
POINT
  5
2B48
330
2B3A
100
AcDbEntity
  8
Defpoints
 62
     0
100
AcDbPoint
 10
6271.270179295608
 20
3787.585359708448
 30
0.0
  0
POINT
  5
2B49
330
2B3A
100
AcDbEntity
  8
Defpoints
 62
     0
100
AcDbPoint
 10
6558.342350827928
 20
4066.134400869457
 30
0.0
  0
ENDBLK
  5
2B3C
330
2B3A
100
AcDbEntity
  8
0
100
AcDbBlockEnd
  0
BLOCK
  5
2B4D
330
2B4C
100
AcDbEntity
  8
0
100
AcDbBlockBegin
  2
*D169
 70
     1
 10
0.0
 20
0.0
 30
0.0
  3
*D169
  1

  0
LINE
  5
2B56
330
2B4C
100
AcDbEntity
  8
wymiary
 62
     0
370
    -2
100
AcDbLine
 10
6687.432653578436
 20
3489.69332397486
 30
0.0
 11
6442.179476545104
 21
3260.026436603045
 31
0.0
  0
MTEXT
  5
2B57
330
2B4C
100
AcDbEntity
  8
wymiary
 62
     0
100
AcDbMText
 10
6546.243866043714
 20
3393.410202541046
 30
0.0
 40
32.0
 41
0.0
 46
0.0
 71
     5
 72
     1
  1
\A1;∅400
 11
0.7299201697420587
 21
0.6835324028923023
 31
0.0
 73
     1
 44
1.0
  0
SOLID
  5
2B58
330
2B4C
100
AcDbEntity
  8
wymiary
 62
     0
100
AcDbTrace
 10
6683.787147429676
 20
3493.586231546819
 30
0.0
 11
6691.078159727195
 21
3485.800416402903
 31
0.0
 12
6710.790099010181
 22
3511.566360867413
 32
0.0
 13
6710.790099010181
 23
3511.566360867413
 33
0.0
  0
SOLID
  5
2B59
330
2B4C
100
AcDbEntity
  8
wymiary
 62
     0
100
AcDbTrace
 10
6438.533970396346
 20
3263.919344175003
 30
0.0
 11
6445.824982693864
 21
3256.133529031087
 31
0.0
 12
6418.822031113357
 22
3238.153399710491
 32
0.0
 13
6418.822031113357
 23
3238.153399710491
 33
0.0
  0
POINT
  5
2B5A
330
2B4C
100
AcDbEntity
  8
Defpoints
 62
     0
100
AcDbPoint
 10
6418.822031113357
 20
3238.153399710491
 30
0.0
  0
POINT
  5
2B5B
330
2B4C
100
AcDbEntity
  8
Defpoints
 62
     0
100
AcDbPoint
 10
6710.790099010181
 20
3511.566360867413
 30
0.0
  0
ENDBLK
  5
2B4E
330
2B4C
100
AcDbEntity
  8
0
100
AcDbBlockEnd
  0
BLOCK
  5
2B5F
330
2B5E
100
AcDbEntity
  8
0
100
AcDbBlockBegin
  2
*D170
 70
     1
 10
0.0
 20
0.0
 30
0.0
  3
*D170
  1

  0
LINE
  5
2B6B
330
2B5E
100
AcDbEntity
  8
wymiary
 62
     0
370
    -2
100
AcDbLine
 10
2656.316223078193
 20
4186.859880288952
 30
0.0
 11
2656.316223078193
 21
4298.81067835752
 31
0.0
  0
LINE
  5
2B6C
330
2B5E
100
AcDbEntity
  8
wymiary
 62
     0
370
    -2
100
AcDbLine
 10
2316.316215805458
 20
4186.859880288952
 30
0.0
 11
2316.316215805458
 21
4298.81067835752
 31
0.0
  0
LINE
  5
2B6D
330
2B5E
100
AcDbEntity
  8
wymiary
 62
     0
370
    -2
100
AcDbLine
 10
2624.316223078194
 20
4297.81067835752
 30
0.0
 11
2348.316215805458
 21
4297.81067835752
 31
0.0
  0
SOLID
  5
2B6E
330
2B5E
100
AcDbEntity
  8
wymiary
 62
     0
100
AcDbTrace
 10
2624.316223078194
 20
4303.144011690853
 30
0.0
 11
2624.316223078194
 21
4292.477345024187
 31
0.0
 12
2656.316223078193
 22
4297.81067835752
 32
0.0
 13
2656.316223078193
 23
4297.81067835752
 33
0.0
  0
SOLID
  5
2B6F
330
2B5E
100
AcDbEntity
  8
wymiary
 62
     0
100
AcDbTrace
 10
2348.316215805458
 20
4303.144011690853
 30
0.0
 11
2348.316215805458
 21
4292.477345024187
 31
0.0
 12
2316.316215805458
 22
4297.81067835752
 32
0.0
 13
2316.316215805458
 23
4297.81067835752
 33
0.0
  0
MTEXT
  5
2B70
330
2B5E
100
AcDbEntity
  8
wymiary
 62
     0
100
AcDbMText
 10
2486.316219441826
 20
4322.159928016456
 30
0.0
 40
32.0
 41
0.0
 46
0.0
 71
     5
 72
     1
  1
\A1;340
 73
     1
 44
1.0
  0
POINT
  5
2B71
330
2B5E
100
AcDbEntity
  8
Defpoints
 62
     0
100
AcDbPoint
 10
2656.316223078193
 20
4181.859880288953
 30
0.0
  0
POINT
  5
2B72
330
2B5E
100
AcDbEntity
  8
Defpoints
 62
     0
100
AcDbPoint
 10
2316.316215805458
 20
4181.859880288953
 30
0.0
  0
POINT
  5
2B73
330
2B5E
100
AcDbEntity
  8
Defpoints
 62
     0
100
AcDbPoint
 10
2316.316215805458
 20
4297.81067835752
 30
0.0
  0
ENDBLK
  5
2B60
330
2B5E
100
AcDbEntity
  8
0
100
AcDbBlockEnd
  0
BLOCK
  5
2B77
330
2B76
100
AcDbEntity
  8
0
100
AcDbBlockBegin
  2
*D171
 70
     1
 10
0.0
 20
0.0
 30
0.0
  3
*D171
  1

  0
LINE
  5
2B83
330
2B76
100
AcDbEntity
  8
wymiary
 62
     0
370
    -2
100
AcDbLine
 10
2316.316215805458
 20
4186.859880288952
 30
0.0
 11
2316.316215805458
 21
4362.986433020448
 31
0.0
  0
LINE
  5
2B84
330
2B76
100
AcDbEntity
  8
wymiary
 62
     0
370
    -2
100
AcDbLine
 10
3296.31621580546
 20
4186.859880288952
 30
0.0
 11
3296.31621580546
 21
4362.986433020448
 31
0.0
  0
LINE
  5
2B85
330
2B76
100
AcDbEntity
  8
wymiary
 62
     0
370
    -2
100
AcDbLine
 10
2348.316215805458
 20
4361.986433020446
 30
0.0
 11
3264.31621580546
 21
4361.986433020446
 31
0.0
  0
SOLID
  5
2B86
330
2B76
100
AcDbEntity
  8
wymiary
 62
     0
100
AcDbTrace
 10
2348.316215805458
 20
4367.31976635378
 30
0.0
 11
2348.316215805458
 21
4356.653099687114
 31
0.0
 12
2316.316215805458
 22
4361.986433020446
 32
0.0
 13
2316.316215805458
 23
4361.986433020446
 33
0.0
  0
SOLID
  5
2B87
330
2B76
100
AcDbEntity
  8
wymiary
 62
     0
100
AcDbTrace
 10
3264.31621580546
 20
4367.31976635378
 30
0.0
 11
3264.31621580546
 21
4356.653099687114
 31
0.0
 12
3296.31621580546
 22
4361.986433020446
 32
0.0
 13
3296.31621580546
 23
4361.986433020446
 33
0.0
  0
MTEXT
  5
2B88
330
2B76
100
AcDbEntity
  8
wymiary
 62
     0
100
AcDbMText
 10
2806.316215805459
 20
4386.324768627542
 30
0.0
 40
32.0
 41
0.0
 46
0.0
 71
     5
 72
     1
  1
\A1;980
 73
     1
 44
1.0
  0
POINT
  5
2B89
330
2B76
100
AcDbEntity
  8
Defpoints
 62
     0
100
AcDbPoint
 10
2316.316215805458
 20
4181.859880288953
 30
0.0
  0
POINT
  5
2B8A
330
2B76
100
AcDbEntity
  8
Defpoints
 62
     0
100
AcDbPoint
 10
3296.31621580546
 20
4181.859880288953
 30
0.0
  0
POINT
  5
2B8B
330
2B76
100
AcDbEntity
  8
Defpoints
 62
     0
100
AcDbPoint
 10
3296.31621580546
 20
4361.986433020446
 30
0.0
  0
ENDBLK
  5
2B78
330
2B76
100
AcDbEntity
  8
0
100
AcDbBlockEnd
  0
BLOCK
  5
2B8F
330
2B8E
100
AcDbEntity
  8
0
100
AcDbBlockBegin
  2
*D172
 70
     1
 10
0.0
 20
0.0
 30
0.0
  3
*D172
  1

  0
LINE
  5
2B9B
330
2B8E
100
AcDbEntity
  8
wymiary
 62
     0
370
    -2
100
AcDbLine
 10
2441.316223078193
 20
3926.8598257435
 30
0.0
 11
2250.061606551153
 21
3926.8598257435
 31
0.0
  0
LINE
  5
2B9C
330
2B8E
100
AcDbEntity
  8
wymiary
 62
     0
370
    -2
100
AcDbLine
 10
2441.316223078193
 20
4181.859880288953
 30
0.0
 11
2250.061606551153
 21
4181.859880288953
 31
0.0
  0
LINE
  5
2B9D
330
2B8E
100
AcDbEntity
  8
wymiary
 62
     0
370
    -2
100
AcDbLine
 10
2251.061606551153
 20
3958.8598257435
 30
0.0
 11
2251.061606551153
 21
4149.859880288953
 31
0.0
  0
SOLID
  5
2B9E
330
2B8E
100
AcDbEntity
  8
wymiary
 62
     0
100
AcDbTrace
 10
2245.72827321782
 20
3958.8598257435
 30
0.0
 11
2256.394939884486
 21
3958.8598257435
 31
0.0
 12
2251.061606551153
 22
3926.8598257435
 32
0.0
 13
2251.061606551153
 23
3926.8598257435
 33
0.0
  0
SOLID
  5
2B9F
330
2B8E
100
AcDbEntity
  8
wymiary
 62
     0
100
AcDbTrace
 10
2245.72827321782
 20
4149.859880288953
 30
0.0
 11
2256.394939884486
 21
4149.859880288953
 31
0.0
 12
2251.061606551153
 22
4181.859880288953
 32
0.0
 13
2251.061606551153
 23
4181.859880288953
 33
0.0
  0
MTEXT
  5
2BA0
330
2B8E
100
AcDbEntity
  8
wymiary
 62
     0
100
AcDbMText
 10
2226.723270944059
 20
4054.359853016227
 30
0.0
 40
32.0
 41
0.0
 46
0.0
 71
     5
 72
     1
  1
\A1;255
 11
0.0000000000000001
 21
1.0
 31
0.0
 73
     1
 44
1.0
  0
POINT
  5
2BA1
330
2B8E
100
AcDbEntity
  8
Defpoints
 62
     0
100
AcDbPoint
 10
2446.316223078194
 20
3926.8598257435
 30
0.0
  0
POINT
  5
2BA2
330
2B8E
100
AcDbEntity
  8
Defpoints
 62
     0
100
AcDbPoint
 10
2446.316223078194
 20
4181.859880288953
 30
0.0
  0
POINT
  5
2BA3
330
2B8E
100
AcDbEntity
  8
Defpoints
 62
     0
100
AcDbPoint
 10
2251.061606551153
 20
4181.859880288953
 30
0.0
  0
ENDBLK
  5
2B90
330
2B8E
100
AcDbEntity
  8
0
100
AcDbBlockEnd
  0
BLOCK
  5
2BA7
330
2BA6
100
AcDbEntity
  8
0
100
AcDbBlockBegin
  2
*D173
 70
     1
 10
0.0
 20
0.0
 30
0.0
  3
*D173
  1

  0
LINE
  5
2BB3
330
2BA6
100
AcDbEntity
  8
wymiary
 62
     0
370
    -2
100
AcDbLine
 10
2601.31641580546
 20
3374.859880288954
 30
0.0
 11
2247.817818172913
 21
3374.859880288954
 31
0.0
  0
LINE
  5
2BB4
330
2BA6
100
AcDbEntity
  8
wymiary
 62
     0
370
    -2
100
AcDbLine
 10
2601.31641580546
 20
3081.859880288953
 30
0.0
 11
2247.817818172913
 21
3081.859880288953
 31
0.0
  0
LINE
  5
2BB5
330
2BA6
100
AcDbEntity
  8
wymiary
 62
     0
370
    -2
100
AcDbLine
 10
2248.817818172913
 20
3342.859880288953
 30
0.0
 11
2248.817818172913
 21
3113.859880288953
 31
0.0
  0
SOLID
  5
2BB6
330
2BA6
100
AcDbEntity
  8
wymiary
 62
     0
100
AcDbTrace
 10
2243.484484839579
 20
3342.859880288953
 30
0.0
 11
2254.151151506246
 21
3342.859880288953
 31
0.0
 12
2248.817818172913
 22
3374.859880288954
 32
0.0
 13
2248.817818172913
 23
3374.859880288954
 33
0.0
  0
SOLID
  5
2BB7
330
2BA6
100
AcDbEntity
  8
wymiary
 62
     0
100
AcDbTrace
 10
2243.484484839579
 20
3113.859880288953
 30
0.0
 11
2254.151151506246
 21
3113.859880288953
 31
0.0
 12
2248.817818172913
 22
3081.859880288953
 32
0.0
 13
2248.817818172913
 23
3081.859880288953
 33
0.0
  0
MTEXT
  5
2BB8
330
2BA6
100
AcDbEntity
  8
wymiary
 62
     0
100
AcDbMText
 10
2224.468568513976
 20
3228.359880288954
 30
0.0
 40
32.0
 41
0.0
 46
0.0
 71
     5
 72
     1
  1
\A1;293
 11
0.0000000000000001
 21
1.0
 31
0.0
 73
     1
 44
1.0
  0
POINT
  5
2BB9
330
2BA6
100
AcDbEntity
  8
Defpoints
 62
     0
100
AcDbPoint
 10
2606.316415805459
 20
3374.859880288954
 30
0.0
  0
POINT
  5
2BBA
330
2BA6
100
AcDbEntity
  8
Defpoints
 62
     0
100
AcDbPoint
 10
2606.316415805459
 20
3081.859880288953
 30
0.0
  0
POINT
  5
2BBB
330
2BA6
100
AcDbEntity
  8
Defpoints
 62
     0
100
AcDbPoint
 10
2248.817818172913
 20
3081.859880288953
 30
0.0
  0
ENDBLK
  5
2BA8
330
2BA6
100
AcDbEntity
  8
0
100
AcDbBlockEnd
  0
BLOCK
  5
2BBF
330
2BBE
100
AcDbEntity
  8
0
100
AcDbBlockBegin
  2
*D174
 70
     1
 10
0.0
 20
0.0
 30
0.0
  3
*D174
  1

  0
LINE
  5
2BCB
330
2BBE
100
AcDbEntity
  8
wymiary
 62
     0
370
    -2
100
AcDbLine
 10
2806.31641580546
 20
3159.859880288954
 30
0.0
 11
2806.31641580546
 21
3023.591218526981
 31
0.0
  0
LINE
  5
2BCC
330
2BBE
100
AcDbEntity
  8
wymiary
 62
     0
370
    -2
100
AcDbLine
 10
2316.316215805458
 20
3159.859880288954
 30
0.0
 11
2316.316215805458
 21
3023.591218526981
 31
0.0
  0
LINE
  5
2BCD
330
2BBE
100
AcDbEntity
  8
wymiary
 62
     0
370
    -2
100
AcDbLine
 10
2774.31641580546
 20
3024.591218526981
 30
0.0
 11
2348.316215805458
 21
3024.591218526981
 31
0.0
  0
SOLID
  5
2BCE
330
2BBE
100
AcDbEntity
  8
wymiary
 62
     0
100
AcDbTrace
 10
2774.31641580546
 20
3029.924551860315
 30
0.0
 11
2774.31641580546
 21
3019.257885193648
 31
0.0
 12
2806.31641580546
 22
3024.591218526981
 32
0.0
 13
2806.31641580546
 23
3024.591218526981
 33
0.0
  0
SOLID
  5
2BCF
330
2BBE
100
AcDbEntity
  8
wymiary
 62
     0
100
AcDbTrace
 10
2348.316215805458
 20
3029.924551860315
 30
0.0
 11
2348.316215805458
 21
3019.257885193648
 31
0.0
 12
2316.316215805458
 22
3024.591218526981
 32
0.0
 13
2316.316215805458
 23
3024.591218526981
 33
0.0
  0
MTEXT
  5
2BD0
330
2BBE
100
AcDbEntity
  8
wymiary
 62
     0
100
AcDbMText
 10
2561.316315805459
 20
3048.929554134075
 30
0.0
 40
32.0
 41
0.0
 46
0.0
 71
     5
 72
     1
  1
\A1;490
 73
     1
 44
1.0
  0
POINT
  5
2BD1
330
2BBE
100
AcDbEntity
  8
Defpoints
 62
     0
100
AcDbPoint
 10
2806.31641580546
 20
3164.859880288954
 30
0.0
  0
POINT
  5
2BD2
330
2BBE
100
AcDbEntity
  8
Defpoints
 62
     0
100
AcDbPoint
 10
2316.316215805458
 20
3164.859880288954
 30
0.0
  0
POINT
  5
2BD3
330
2BBE
100
AcDbEntity
  8
Defpoints
 62
     0
100
AcDbPoint
 10
2316.316215805458
 20
3024.591218526981
 30
0.0
  0
ENDBLK
  5
2BC0
330
2BBE
100
AcDbEntity
  8
0
100
AcDbBlockEnd
  0
BLOCK
  5
2BD7
330
2BD6
100
AcDbEntity
  8
0
100
AcDbBlockBegin
  2
*D175
 70
     1
 10
0.0
 20
0.0
 30
0.0
  3
*D175
  1

  0
LINE
  5
2BD9
330
2BD6
100
AcDbEntity
  8
wymiary
 62
     0
370
    -2
100
AcDbLine
 10
2311.731196125486
 20
3081.859880288953
 30
0.0
 11
2178.026786617222
 21
3081.859880288953
 31
0.0
  0
LINE
  5
2BDA
330
2BD6
100
AcDbEntity
  8
wymiary
 62
     0
370
    -2
100
AcDbLine
 10
2311.316215805458
 20
4181.859880288953
 30
0.0
 11
2178.026786617222
 21
4181.859880288953
 31
0.0
  0
LINE
  5
2BDB
330
2BD6
100
AcDbEntity
  8
wymiary
 62
     0
370
    -2
100
AcDbLine
 10
2179.026786617222
 20
3113.859880288953
 30
0.0
 11
2179.026786617222
 21
4149.859880288953
 31
0.0
  0
SOLID
  5
2BDC
330
2BD6
100
AcDbEntity
  8
wymiary
 62
     0
100
AcDbTrace
 10
2173.693453283888
 20
3113.859880288953
 30
0.0
 11
2184.360119950556
 21
3113.859880288953
 31
0.0
 12
2179.026786617222
 22
3081.859880288953
 32
0.0
 13
2179.026786617222
 23
3081.859880288953
 33
0.0
  0
SOLID
  5
2BDD
330
2BD6
100
AcDbEntity
  8
wymiary
 62
     0
100
AcDbTrace
 10
2173.693453283888
 20
4149.859880288953
 30
0.0
 11
2184.360119950556
 21
4149.859880288953
 31
0.0
 12
2179.026786617222
 22
4181.859880288953
 32
0.0
 13
2179.026786617222
 23
4181.859880288953
 33
0.0
  0
MTEXT
  5
2BDE
330
2BD6
100
AcDbEntity
  8
wymiary
 62
     0
100
AcDbMText
 10
2154.688451010127
 20
3631.859880288954
 30
0.0
 40
32.0
 41
0.0
 46
0.0
 71
     5
 72
     1
  1
\A1;1100
 11
0.0000000000000001
 21
1.0
 31
0.0
 73
     1
 44
1.0
  0
POINT
  5
2BDF
330
2BD6
100
AcDbEntity
  8
Defpoints
 62
     0
100
AcDbPoint
 10
2316.731196125485
 20
3081.859880288953
 30
0.0
  0
POINT
  5
2BE0
330
2BD6
100
AcDbEntity
  8
Defpoints
 62
     0
100
AcDbPoint
 10
2316.316215805458
 20
4181.859880288953
 30
0.0
  0
POINT
  5
2BE1
330
2BD6
100
AcDbEntity
  8
Defpoints
 62
     0
100
AcDbPoint
 10
2179.026786617222
 20
4181.859880288953
 30
0.0
  0
ENDBLK
  5
2BD8
330
2BD6
100
AcDbEntity
  8
0
100
AcDbBlockEnd
  0
BLOCK
  5
2BF1
330
2BF0
100
AcDbEntity
  8
0
100
AcDbBlockBegin
  2
*D176
 70
     1
 10
0.0
 20
0.0
 30
0.0
  3
*D176
  1

  0
LINE
  5
2BFD
330
2BF0
100
AcDbEntity
  8
wymiary
 62
     0
370
    -2
100
AcDbLine
 10
6415.090307500159
 20
4198.859880288952
 30
0.0
 11
6415.090307500159
 21
4303.961852380122
 31
0.0
  0
LINE
  5
2BFE
330
2BF0
100
AcDbEntity
  8
wymiary
 62
     0
370
    -2
100
AcDbLine
 10
7054.806265061768
 20
4186.859880288952
 30
0.0
 11
7054.806265061768
 21
4303.961852380122
 31
0.0
  0
LINE
  5
2BFF
330
2BF0
100
AcDbEntity
  8
wymiary
 62
     0
370
    -2
100
AcDbLine
 10
6447.090307500158
 20
4302.96185238012
 30
0.0
 11
7022.806265061769
 21
4302.96185238012
 31
0.0
  0
SOLID
  5
2C00
330
2BF0
100
AcDbEntity
  8
wymiary
 62
     0
100
AcDbTrace
 10
6447.090307500158
 20
4308.295185713455
 30
0.0
 11
6447.090307500158
 21
4297.628519046789
 31
0.0
 12
6415.090307500159
 22
4302.96185238012
 32
0.0
 13
6415.090307500159
 23
4302.96185238012
 33
0.0
  0
SOLID
  5
2C01
330
2BF0
100
AcDbEntity
  8
wymiary
 62
     0
100
AcDbTrace
 10
7022.806265061769
 20
4308.295185713455
 30
0.0
 11
7022.806265061769
 21
4297.628519046789
 31
0.0
 12
7054.806265061768
 22
4302.96185238012
 32
0.0
 13
7054.806265061768
 23
4302.96185238012
 33
0.0
  0
MTEXT
  5
2C02
330
2BF0
100
AcDbEntity
  8
wymiary
 62
     0
100
AcDbMText
 10
6734.948286280965
 20
4327.300187987216
 30
0.0
 40
32.0
 41
0.0
 46
0.0
 71
     5
 72
     1
  1
\A1;640
 73
     1
 44
1.0
  0
POINT
  5
2C03
330
2BF0
100
AcDbEntity
  8
Defpoints
 62
     0
100
AcDbPoint
 10
6415.090307500159
 20
4193.859880288953
 30
0.0
  0
POINT
  5
2C04
330
2BF0
100
AcDbEntity
  8
Defpoints
 62
     0
100
AcDbPoint
 10
7054.806265061768
 20
4181.859880288953
 30
0.0
  0
POINT
  5
2C05
330
2BF0
100
AcDbEntity
  8
Defpoints
 62
     0
100
AcDbPoint
 10
7054.806265061768
 20
4302.96185238012
 30
0.0
  0
ENDBLK
  5
2BF2
330
2BF0
100
AcDbEntity
  8
0
100
AcDbBlockEnd
  0
BLOCK
  5
2C09
330
2C08
100
AcDbEntity
  8
0
100
AcDbBlockBegin
  2
*D177
 70
     1
 10
0.0
 20
0.0
 30
0.0
  3
*D177
  1

  0
LINE
  5
2C15
330
2C08
100
AcDbEntity
  8
wymiary
 62
     0
370
    -2
100
AcDbLine
 10
6074.806265061767
 20
4186.859880288952
 30
0.0
 11
6074.806265061767
 21
4366.487797877448
 31
0.0
  0
LINE
  5
2C16
330
2C08
100
AcDbEntity
  8
wymiary
 62
     0
370
    -2
100
AcDbLine
 10
7054.806265061768
 20
4191.859880288951
 30
0.0
 11
7054.806265061768
 21
4366.487797877448
 31
0.0
  0
LINE
  5
2C17
330
2C08
100
AcDbEntity
  8
wymiary
 62
     0
370
    -2
100
AcDbLine
 10
6106.806265061767
 20
4365.487797877448
 30
0.0
 11
7022.806265061769
 21
4365.487797877448
 31
0.0
  0
SOLID
  5
2C18
330
2C08
100
AcDbEntity
  8
wymiary
 62
     0
100
AcDbTrace
 10
6106.806265061767
 20
4370.821131210781
 30
0.0
 11
6106.806265061767
 21
4360.154464544116
 31
0.0
 12
6074.806265061767
 22
4365.487797877448
 32
0.0
 13
6074.806265061767
 23
4365.487797877448
 33
0.0
  0
SOLID
  5
2C19
330
2C08
100
AcDbEntity
  8
wymiary
 62
     0
100
AcDbTrace
 10
7022.806265061769
 20
4370.821131210781
 30
0.0
 11
7022.806265061769
 21
4360.154464544116
 31
0.0
 12
7054.806265061768
 22
4365.487797877448
 32
0.0
 13
7054.806265061768
 23
4365.487797877448
 33
0.0
  0
MTEXT
  5
2C1A
330
2C08
100
AcDbEntity
  8
wymiary
 62
     0
100
AcDbMText
 10
6564.806265061768
 20
4389.826133484542
 30
0.0
 40
32.0
 41
0.0
 46
0.0
 71
     5
 72
     1
  1
\A1;980
 73
     1
 44
1.0
  0
POINT
  5
2C1B
330
2C08
100
AcDbEntity
  8
Defpoints
 62
     0
100
AcDbPoint
 10
6074.806265061767
 20
4181.859880288953
 30
0.0
  0
POINT
  5
2C1C
330
2C08
100
AcDbEntity
  8
Defpoints
 62
     0
100
AcDbPoint
 10
7054.806265061768
 20
4186.859880288952
 30
0.0
  0
POINT
  5
2C1D
330
2C08
100
AcDbEntity
  8
Defpoints
 62
     0
100
AcDbPoint
 10
7054.806265061768
 20
4365.487797877448
 30
0.0
  0
ENDBLK
  5
2C0A
330
2C08
100
AcDbEntity
  8
0
100
AcDbBlockEnd
  0
BLOCK
  5
2C21
330
2C20
100
AcDbEntity
  8
0
100
AcDbBlockBegin
  2
*D178
 70
     1
 10
0.0
 20
0.0
 30
0.0
  3
*D178
  1

  0
LINE
  5
2C2D
330
2C20
100
AcDbEntity
  8
wymiary
 62
     0
370
    -2
100
AcDbLine
 10
6619.806265061767
 20
3926.859880288954
 30
0.0
 11
7125.061191278347
 21
3926.859880288954
 31
0.0
  0
LINE
  5
2C2E
330
2C20
100
AcDbEntity
  8
wymiary
 62
     0
370
    -2
100
AcDbLine
 10
6619.806265061767
 20
4181.859880288953
 30
0.0
 11
7125.061191278347
 21
4181.859880288953
 31
0.0
  0
LINE
  5
2C2F
330
2C20
100
AcDbEntity
  8
wymiary
 62
     0
370
    -2
100
AcDbLine
 10
7124.061191278348
 20
3958.859880288954
 30
0.0
 11
7124.061191278348
 21
4149.859880288953
 31
0.0
  0
SOLID
  5
2C30
330
2C20
100
AcDbEntity
  8
wymiary
 62
     0
100
AcDbTrace
 10
7118.727857945014
 20
3958.859880288954
 30
0.0
 11
7129.394524611678
 21
3958.859880288954
 31
0.0
 12
7124.061191278348
 22
3926.859880288954
 32
0.0
 13
7124.061191278348
 23
3926.859880288954
 33
0.0
  0
SOLID
  5
2C31
330
2C20
100
AcDbEntity
  8
wymiary
 62
     0
100
AcDbTrace
 10
7118.727857945014
 20
4149.859880288953
 30
0.0
 11
7129.394524611678
 21
4149.859880288953
 31
0.0
 12
7124.061191278348
 22
4181.859880288953
 32
0.0
 13
7124.061191278348
 23
4181.859880288953
 33
0.0
  0
MTEXT
  5
2C32
330
2C20
100
AcDbEntity
  8
wymiary
 62
     0
100
AcDbMText
 10
7099.722855671251
 20
4054.359880288954
 30
0.0
 40
32.0
 41
0.0
 46
0.0
 71
     5
 72
     1
  1
\A1;255
 11
0.0000000000000001
 21
1.0
 31
0.0
 73
     1
 44
1.0
  0
POINT
  5
2C33
330
2C20
100
AcDbEntity
  8
Defpoints
 62
     0
100
AcDbPoint
 10
6614.806265061769
 20
3926.859880288954
 30
0.0
  0
POINT
  5
2C34
330
2C20
100
AcDbEntity
  8
Defpoints
 62
     0
100
AcDbPoint
 10
6614.806265061769
 20
4181.859880288953
 30
0.0
  0
POINT
  5
2C35
330
2C20
100
AcDbEntity
  8
Defpoints
 62
     0
100
AcDbPoint
 10
7124.061191278348
 20
4181.859880288953
 30
0.0
  0
ENDBLK
  5
2C22
330
2C20
100
AcDbEntity
  8
0
100
AcDbBlockEnd
  0
BLOCK
  5
2C51
330
2C50
100
AcDbEntity
  8
0
100
AcDbBlockBegin
  2
*D180
 70
     1
 10
0.0
 20
0.0
 30
0.0
  3
*D180
  1

  0
LINE
  5
2C5D
330
2C50
100
AcDbEntity
  8
wymiary
 62
     0
370
    -2
100
AcDbLine
 10
6779.806065061769
 20
3374.859880288954
 30
0.0
 11
7126.818357235298
 21
3374.859880288954
 31
0.0
  0
LINE
  5
2C5E
330
2C50
100
AcDbEntity
  8
wymiary
 62
     0
370
    -2
100
AcDbLine
 10
6779.806065061769
 20
3081.859880288953
 30
0.0
 11
7126.818357235298
 21
3081.859880288953
 31
0.0
  0
LINE
  5
2C5F
330
2C50
100
AcDbEntity
  8
wymiary
 62
     0
370
    -2
100
AcDbLine
 10
7125.818357235296
 20
3342.859880288953
 30
0.0
 11
7125.818357235296
 21
3113.859880288953
 31
0.0
  0
SOLID
  5
2C60
330
2C50
100
AcDbEntity
  8
wymiary
 62
     0
100
AcDbTrace
 10
7120.485023901965
 20
3342.859880288953
 30
0.0
 11
7131.151690568628
 21
3342.859880288953
 31
0.0
 12
7125.818357235296
 22
3374.859880288954
 32
0.0
 13
7125.818357235296
 23
3374.859880288954
 33
0.0
  0
SOLID
  5
2C61
330
2C50
100
AcDbEntity
  8
wymiary
 62
     0
100
AcDbTrace
 10
7120.485023901965
 20
3113.859880288953
 30
0.0
 11
7131.151690568628
 21
3113.859880288953
 31
0.0
 12
7125.818357235296
 22
3081.859880288953
 32
0.0
 13
7125.818357235296
 23
3081.859880288953
 33
0.0
  0
MTEXT
  5
2C62
330
2C50
100
AcDbEntity
  8
wymiary
 62
     0
100
AcDbMText
 10
7101.46910757636
 20
3228.359880288954
 30
0.0
 40
32.0
 41
0.0
 46
0.0
 71
     5
 72
     1
  1
\A1;293
 11
0.0000000000000001
 21
1.0
 31
0.0
 73
     1
 44
1.0
  0
POINT
  5
2C63
330
2C50
100
AcDbEntity
  8
Defpoints
 62
     0
100
AcDbPoint
 10
6774.80606506177
 20
3374.859880288954
 30
0.0
  0
POINT
  5
2C64
330
2C50
100
AcDbEntity
  8
Defpoints
 62
     0
100
AcDbPoint
 10
6774.80606506177
 20
3081.859880288953
 30
0.0
  0
POINT
  5
2C65
330
2C50
100
AcDbEntity
  8
Defpoints
 62
     0
100
AcDbPoint
 10
7125.818357235296
 20
3081.859880288953
 30
0.0
  0
ENDBLK
  5
2C52
330
2C50
100
AcDbEntity
  8
0
100
AcDbBlockEnd
  0
BLOCK
  5
2C69
330
2C68
100
AcDbEntity
  8
0
100
AcDbBlockBegin
  2
*D181
 70
     1
 10
0.0
 20
0.0
 30
0.0
  3
*D181
  1

  0
LINE
  5
2C75
330
2C68
100
AcDbEntity
  8
wymiary
 62
     0
370
    -2
100
AcDbLine
 10
6564.80606506177
 20
3159.859880288954
 30
0.0
 11
6564.80606506177
 21
3007.739963193886
 31
0.0
  0
LINE
  5
2C76
330
2C68
100
AcDbEntity
  8
wymiary
 62
     0
370
    -2
100
AcDbLine
 10
7054.806265061768
 20
3159.859880288954
 30
0.0
 11
7054.806265061768
 21
3007.739963193886
 31
0.0
  0
LINE
  5
2C77
330
2C68
100
AcDbEntity
  8
wymiary
 62
     0
370
    -2
100
AcDbLine
 10
6596.80606506177
 20
3008.739963193886
 30
0.0
 11
7022.806265061769
 21
3008.739963193886
 31
0.0
  0
SOLID
  5
2C78
330
2C68
100
AcDbEntity
  8
wymiary
 62
     0
100
AcDbTrace
 10
6596.80606506177
 20
3014.07329652722
 30
0.0
 11
6596.80606506177
 21
3003.406629860553
 31
0.0
 12
6564.80606506177
 22
3008.739963193886
 32
0.0
 13
6564.80606506177
 23
3008.739963193886
 33
0.0
  0
SOLID
  5
2C79
330
2C68
100
AcDbEntity
  8
wymiary
 62
     0
100
AcDbTrace
 10
7022.806265061769
 20
3014.07329652722
 30
0.0
 11
7022.806265061769
 21
3003.406629860553
 31
0.0
 12
7054.806265061768
 22
3008.739963193886
 32
0.0
 13
7054.806265061768
 23
3008.739963193886
 33
0.0
  0
MTEXT
  5
2C7A
330
2C68
100
AcDbEntity
  8
wymiary
 62
     0
100
AcDbMText
 10
6809.806165061769
 20
3033.07829880098
 30
0.0
 40
32.0
 41
0.0
 46
0.0
 71
     5
 72
     1
  1
\A1;490
 73
     1
 44
1.0
  0
POINT
  5
2C7B
330
2C68
100
AcDbEntity
  8
Defpoints
 62
     0
100
AcDbPoint
 10
6564.80606506177
 20
3164.859880288954
 30
0.0
  0
POINT
  5
2C7C
330
2C68
100
AcDbEntity
  8
Defpoints
 62
     0
100
AcDbPoint
 10
7054.806265061768
 20
3164.859880288954
 30
0.0
  0
POINT
  5
2C7D
330
2C68
100
AcDbEntity
  8
Defpoints
 62
     0
100
AcDbPoint
 10
7054.806265061768
 20
3008.739963193886
 30
0.0
  0
ENDBLK
  5
2C6A
330
2C68
100
AcDbEntity
  8
0
100
AcDbBlockEnd
  0
BLOCK
  5
2C8E
330
2C8D
100
AcDbEntity
  8
0
100
AcDbBlockBegin
  2
*D182
 70
     1
 10
0.0
 20
0.0
 30
0.0
  3
*D182
  1

  0
LINE
  5
2C9A
330
2C8D
100
AcDbEntity
  8
wymiary
 62
     0
370
    -2
100
AcDbLine
 10
4195.561390433613
 20
2405.892416250742
 30
0.0
 11
4195.561390433613
 21
2582.400641650009
 31
0.0
  0
LINE
  5
2C9B
330
2C8D
100
AcDbEntity
  8
wymiary
 62
     0
370
    -2
100
AcDbLine
 10
3940.561290433613
 20
2405.892416250742
 30
0.0
 11
3940.561290433613
 21
2582.400641650009
 31
0.0
  0
LINE
  5
2C9C
330
2C8D
100
AcDbEntity
  8
wymiary
 62
     0
370
    -2
100
AcDbLine
 10
4163.561390433613
 20
2581.400641650009
 30
0.0
 11
3972.561290433613
 21
2581.400641650009
 31
0.0
  0
SOLID
  5
2C9D
330
2C8D
100
AcDbEntity
  8
wymiary
 62
     0
100
AcDbTrace
 10
4163.561390433613
 20
2586.733974983343
 30
0.0
 11
4163.561390433613
 21
2576.067308316675
 31
0.0
 12
4195.561390433613
 22
2581.400641650009
 32
0.0
 13
4195.561390433613
 23
2581.400641650009
 33
0.0
  0
SOLID
  5
2C9E
330
2C8D
100
AcDbEntity
  8
wymiary
 62
     0
100
AcDbTrace
 10
3972.561290433613
 20
2586.733974983343
 30
0.0
 11
3972.561290433613
 21
2576.067308316675
 31
0.0
 12
3940.561290433613
 22
2581.400641650009
 32
0.0
 13
3940.561290433613
 23
2581.400641650009
 33
0.0
  0
MTEXT
  5
2C9F
330
2C8D
100
AcDbEntity
  8
wymiary
 62
     0
100
AcDbMText
 10
4068.061340433613
 20
2605.738977257103
 30
0.0
 40
32.0
 41
0.0
 46
0.0
 71
     5
 72
     1
  1
\A1;255
 73
     1
 44
1.0
  0
POINT
  5
2CA0
330
2C8D
100
AcDbEntity
  8
Defpoints
 62
     0
100
AcDbPoint
 10
4195.561390433613
 20
2400.892416250742
 30
0.0
  0
POINT
  5
2CA1
330
2C8D
100
AcDbEntity
  8
Defpoints
 62
     0
100
AcDbPoint
 10
3940.561290433613
 20
2400.892416250742
 30
0.0
  0
POINT
  5
2CA2
330
2C8D
100
AcDbEntity
  8
Defpoints
 62
     0
100
AcDbPoint
 10
3940.561290433613
 20
2581.400641650009
 30
0.0
  0
ENDBLK
  5
2C8F
330
2C8D
100
AcDbEntity
  8
0
100
AcDbBlockEnd
  0
BLOCK
  5
2CA6
330
2CA5
100
AcDbEntity
  8
0
100
AcDbBlockBegin
  2
*D183
 70
     1
 10
0.0
 20
0.0
 30
0.0
  3
*D183
  1

  0
LINE
  5
2CB2
330
2CA5
100
AcDbEntity
  8
wymiary
 62
     0
370
    -2
100
AcDbLine
 10
5175.561190433612
 20
2105.892416250742
 30
0.0
 11
5175.561190433612
 21
2585.949193633347
 31
0.0
  0
LINE
  5
2CB3
330
2CA5
100
AcDbEntity
  8
wymiary
 62
     0
370
    -2
100
AcDbLine
 10
5430.561190433613
 20
2105.892416250742
 30
0.0
 11
5430.561190433613
 21
2585.949193633347
 31
0.0
  0
LINE
  5
2CB4
330
2CA5
100
AcDbEntity
  8
wymiary
 62
     0
370
    -2
100
AcDbLine
 10
5207.561190433612
 20
2584.949193633347
 30
0.0
 11
5398.561190433613
 21
2584.949193633347
 31
0.0
  0
SOLID
  5
2CB5
330
2CA5
100
AcDbEntity
  8
wymiary
 62
     0
100
AcDbTrace
 10
5207.561190433612
 20
2590.282526966681
 30
0.0
 11
5207.561190433612
 21
2579.615860300014
 31
0.0
 12
5175.561190433612
 22
2584.949193633347
 32
0.0
 13
5175.561190433612
 23
2584.949193633347
 33
0.0
  0
SOLID
  5
2CB6
330
2CA5
100
AcDbEntity
  8
wymiary
 62
     0
100
AcDbTrace
 10
5398.561190433613
 20
2590.282526966681
 30
0.0
 11
5398.561190433613
 21
2579.615860300014
 31
0.0
 12
5430.561190433613
 22
2584.949193633347
 32
0.0
 13
5430.561190433613
 23
2584.949193633347
 33
0.0
  0
MTEXT
  5
2CB7
330
2CA5
100
AcDbEntity
  8
wymiary
 62
     0
100
AcDbMText
 10
5303.061190433613
 20
2609.287529240441
 30
0.0
 40
32.0
 41
0.0
 46
0.0
 71
     5
 72
     1
  1
\A1;255
 73
     1
 44
1.0
  0
POINT
  5
2CB8
330
2CA5
100
AcDbEntity
  8
Defpoints
 62
     0
100
AcDbPoint
 10
5175.561190433612
 20
2100.892416250742
 30
0.0
  0
POINT
  5
2CB9
330
2CA5
100
AcDbEntity
  8
Defpoints
 62
     0
100
AcDbPoint
 10
5430.561190433613
 20
2100.892416250742
 30
0.0
  0
POINT
  5
2CBA
330
2CA5
100
AcDbEntity
  8
Defpoints
 62
     0
100
AcDbPoint
 10
5430.561190433613
 20
2584.949193633347
 30
0.0
  0
ENDBLK
  5
2CA7
330
2CA5
100
AcDbEntity
  8
0
100
AcDbBlockEnd
  0
BLOCK
  5
2CBE
330
2CBD
100
AcDbEntity
  8
0
100
AcDbBlockBegin
  2
*D184
 70
     1
 10
0.0
 20
0.0
 30
0.0
  3
*D184
  1

  0
LINE
  5
2CCA
330
2CBD
100
AcDbEntity
  8
wymiary
 62
     0
370
    -2
100
AcDbLine
 10
3935.561290433613
 20
2190.892416250742
 30
0.0
 11
3814.039050317875
 21
2190.892416250742
 31
0.0
  0
LINE
  5
2CCB
330
2CBD
100
AcDbEntity
  8
wymiary
 62
     0
370
    -2
100
AcDbLine
 10
3935.561290433613
 20
1550.892416250742
 30
0.0
 11
3814.039050317875
 21
1550.892416250742
 31
0.0
  0
LINE
  5
2CCC
330
2CBD
100
AcDbEntity
  8
wymiary
 62
     0
370
    -2
100
AcDbLine
 10
3815.039050317875
 20
2158.892416250742
 30
0.0
 11
3815.039050317875
 21
1582.892416250742
 31
0.0
  0
SOLID
  5
2CCD
330
2CBD
100
AcDbEntity
  8
wymiary
 62
     0
100
AcDbTrace
 10
3809.705716984542
 20
2158.892416250742
 30
0.0
 11
3820.372383651209
 21
2158.892416250742
 31
0.0
 12
3815.039050317875
 22
2190.892416250742
 32
0.0
 13
3815.039050317875
 23
2190.892416250742
 33
0.0
  0
SOLID
  5
2CCE
330
2CBD
100
AcDbEntity
  8
wymiary
 62
     0
100
AcDbTrace
 10
3809.705716984542
 20
1582.892416250742
 30
0.0
 11
3820.372383651209
 21
1582.892416250742
 31
0.0
 12
3815.039050317875
 22
1550.892416250742
 32
0.0
 13
3815.039050317875
 23
1550.892416250742
 33
0.0
  0
MTEXT
  5
2CCF
330
2CBD
100
AcDbEntity
  8
wymiary
 62
     0
100
AcDbMText
 10
3790.700714710779
 20
1870.892416250742
 30
0.0
 40
32.0
 41
0.0
 46
0.0
 71
     5
 72
     1
  1
\A1;640
 11
0.0000000000000001
 21
1.0
 31
0.0
 73
     1
 44
1.0
  0
POINT
  5
2CD0
330
2CBD
100
AcDbEntity
  8
Defpoints
 62
     0
100
AcDbPoint
 10
3940.561290433613
 20
2190.892416250742
 30
0.0
  0
POINT
  5
2CD1
330
2CBD
100
AcDbEntity
  8
Defpoints
 62
     0
100
AcDbPoint
 10
3940.561290433613
 20
1550.892416250742
 30
0.0
  0
POINT
  5
2CD2
330
2CBD
100
AcDbEntity
  8
Defpoints
 62
     0
100
AcDbPoint
 10
3815.039050317875
 20
1550.892416250742
 30
0.0
  0
ENDBLK
  5
2CBF
330
2CBD
100
AcDbEntity
  8
0
100
AcDbBlockEnd
  0
BLOCK
  5
2CD6
330
2CD5
100
AcDbEntity
  8
0
100
AcDbBlockBegin
  2
*D185
 70
     1
 10
0.0
 20
0.0
 30
0.0
  3
*D185
  1

  0
LINE
  5
2CE2
330
2CD5
100
AcDbEntity
  8
wymiary
 62
     0
370
    -2
100
AcDbLine
 10
5390.561190433611
 20
1890.892416250742
 30
0.0
 11
5569.940210238641
 21
1890.892416250742
 31
0.0
  0
LINE
  5
2CE3
330
2CD5
100
AcDbEntity
  8
wymiary
 62
     0
370
    -2
100
AcDbLine
 10
5390.561190433611
 20
1550.892416250742
 30
0.0
 11
5569.940210238641
 21
1550.892416250742
 31
0.0
  0
LINE
  5
2CE4
330
2CD5
100
AcDbEntity
  8
wymiary
 62
     0
370
    -2
100
AcDbLine
 10
5568.940210238641
 20
1858.892416250742
 30
0.0
 11
5568.940210238641
 21
1582.892416250742
 31
0.0
  0
SOLID
  5
2CE5
330
2CD5
100
AcDbEntity
  8
wymiary
 62
     0
100
AcDbTrace
 10
5563.606876905307
 20
1858.892416250742
 30
0.0
 11
5574.273543571974
 21
1858.892416250742
 31
0.0
 12
5568.940210238641
 22
1890.892416250742
 32
0.0
 13
5568.940210238641
 23
1890.892416250742
 33
0.0
  0
SOLID
  5
2CE6
330
2CD5
100
AcDbEntity
  8
wymiary
 62
     0
100
AcDbTrace
 10
5563.606876905307
 20
1582.892416250742
 30
0.0
 11
5574.273543571974
 21
1582.892416250742
 31
0.0
 12
5568.940210238641
 22
1550.892416250742
 32
0.0
 13
5568.940210238641
 23
1550.892416250742
 33
0.0
  0
MTEXT
  5
2CE7
330
2CD5
100
AcDbEntity
  8
wymiary
 62
     0
100
AcDbMText
 10
5544.590960579704
 20
1720.892416250743
 30
0.0
 40
32.0
 41
0.0
 46
0.0
 71
     5
 72
     1
  1
\A1;340
 11
0.0000000000000001
 21
1.0
 31
0.0
 73
     1
 44
1.0
  0
POINT
  5
2CE8
330
2CD5
100
AcDbEntity
  8
Defpoints
 62
     0
100
AcDbPoint
 10
5385.561190433612
 20
1890.892416250742
 30
0.0
  0
POINT
  5
2CE9
330
2CD5
100
AcDbEntity
  8
Defpoints
 62
     0
100
AcDbPoint
 10
5385.561190433612
 20
1550.892416250742
 30
0.0
  0
POINT
  5
2CEA
330
2CD5
100
AcDbEntity
  8
Defpoints
 62
     0
100
AcDbPoint
 10
5568.940210238641
 20
1550.892416250742
 30
0.0
  0
ENDBLK
  5
2CD7
330
2CD5
100
AcDbEntity
  8
0
100
AcDbBlockEnd
  0
ENDSEC
  0
SECTION
  2
ENTITIES
  0
MTEXT
  5
24F5
330
1F
100
AcDbEntity
  8
WARSTWA_1
100
AcDbMText
 10
6174.866644247071
 20
2548.742324638434
 30
0.0
 40
50.0
 41
945.2375667665146
 46
0.0
 71
     1
 72
     5
  1
{\Fsimplex|c238;MISTRAL PRO 2000EC}
 73
     1
 44
1.0
1001
ACAD
1000
MTEXTBEGIN
1070
    73
1070
     1
1070
    44
1040
1.0
1070
    74
1070
     0
1000
MTEXTEND
  0
LWPOLYLINE
  5
24F6
330
1F
100
AcDbEntity
  8
WARSTWA_1
100
AcDbPolyline
 90
        5
 70
     0
 43
0.0
 10
3618.637265414546
 20
4596.487104501959
 10
3618.637265414546
 20
2865.614889060156
 10
5752.485215452685
 20
2865.614889060156
 10
5752.485215452685
 20
4596.487104501959
 10
3618.637265414546
 20
4596.487104501959
  0
LWPOLYLINE
  5
24F7
330
1F
100
AcDbEntity
  8
WARSTWA_1
100
AcDbPolyline
 90
        5
 70
     0
 43
0.0
 10
1993.995166196372
 20
4596.487104501959
 10
1993.995166196372
 20
2865.614889060156
 10
3618.637265414546
 20
2865.614889060156
 10
3618.637265414546
 20
4596.487104501959
 10
1993.995166196372
 20
4596.487104501959
  0
LWPOLYLINE
  5
24F8
330
1F
100
AcDbEntity
  8
WARSTWA_1
100
AcDbPolyline
 90
        5
 70
     0
 43
0.0
 10
3618.637265414546
 20
2865.614889060156
 10
3618.637265414546
 20
1285.048389803563
 10
5752.485215452679
 20
1285.048389803563
 10
5752.485215452679
 20
2865.614889060156
 10
3618.637265414546
 20
2865.614889060156
  0
LWPOLYLINE
  5
24F9
330
1F
100
AcDbEntity
  8
WARSTWA_1
100
AcDbPolyline
 90
        5
 70
     0
 43
0.0
 10
1993.995166196372
 20
2865.614889060156
 10
1993.99516619637
 20
1285.048389803565
 10
3618.637265414546
 20
1285.048389803563
 10
3618.637265414546
 20
2865.614889060156
 10
1993.995166196372
 20
2865.614889060156
  0
LWPOLYLINE
  5
24FA
330
1F
100
AcDbEntity
  8
WARSTWA_1
100
AcDbPolyline
 90
        5
 70
     0
 43
0.0
 10
5752.485215452685
 20
4596.487104501959
 10
5752.485215452679
 20
2865.614889060156
 10
7377.127314670855
 20
2865.614889060156
 10
7377.127314670855
 20
4596.487104501959
 10
5752.485215452685
 20
4596.487104501959
  0
LWPOLYLINE
  5
24FB
330
1F
100
AcDbEntity
  8
WARSTWA_1
100
AcDbPolyline
 90
        5
 70
     0
 43
0.0
 10
5752.485215452679
 20
2865.614889060156
 10
5752.485215452679
 20
1285.048389803565
 10
7377.127314670855
 20
1285.048389803563
 10
7377.127314670855
 20
2865.614889060156
 10
5752.485215452679
 20
2865.614889060156
  0
MTEXT
  5
24FC
330
1F
100
AcDbEntity
  8
WARSTWA_1
100
AcDbMText
 10
4585.761088938173
 20
4521.072552649768
 30
0.0
 40
30.0
 41
601.5642491672515
 46
0.0
 71
     1
 72
     5
  1
{\Fsimplex|c0;Rzut od \Fsimplex|c238;przodu}
 73
     1
 44
1.0
1001
ACAD
1000
MTEXTBEGIN
1070
    73
1070
     1
1070
    44
1040
1.0
1070
    74
1070
     0
1000
MTEXTEND
  0
MTEXT
  5
24FD
330
1F
100
AcDbEntity
  8
WARSTWA_1
100
AcDbMText
 10
6320.224608623968
 20
4518.449629553262
 30
0.0
 40
30.0
 41
758.9358550674551
 46
0.0
 71
     1
 72
     5
  1
{\Fsimplex|c0;Rzut od\Fsimplex|c238; prawej strony}
 73
     1
 44
1.0
1001
ACAD
1000
MTEXTBEGIN
1070
    73
1070
     1
1070
    44
1040
1.0
1070
    74
1070
     0
1000
MTEXTEND
  0
MTEXT
  5
24FE
330
1F
100
AcDbEntity
  8
WARSTWA_1
100
AcDbMText
 10
2480.023189296884
 20
4521.035192699604
 30
0.0
 40
30.0
 41
728.4336130918635
 46
0.0
 71
     1
 72
     5
  1
{\Fsimplex|c0;Rzut od \Fsimplex|c238;lewej strony}
 73
     1
 44
1.0
1001
ACAD
1000
MTEXTBEGIN
1070
    73
1070
     1
1070
    44
1040
1.0
1070
    74
1070
     0
1000
MTEXTEND
  0
MTEXT
  5
24FF
330
1F
100
AcDbEntity
  8
WARSTWA_1
100
AcDbMText
 10
4528.303652202573
 20
2800.943748386061
 30
0.0
 40
30.0
 41
601.5642491672515
 46
0.0
 71
     1
 72
     5
  1
{\Fsimplex|c0;Rzut od \Fsimplex|c238;góry}
 73
     1
 44
1.0
1001
ACAD
1000
MTEXTBEGIN
1070
    73
1070
     1
1070
    44
1040
1.0
1070
    74
1070
     0
1000
MTEXTEND
  0
MTEXT
  5
2504
330
1F
100
AcDbEntity
  8
WARSTWA_1
100
AcDbMText
 10
4171.429586076018
 20
2690.213861171076
 30
0.0
 40
30.0
 41
601.5642491672515
 46
0.0
 71
     1
 72
     5
  1
{\Fsimplex|c238;Odpływ skroplin}
 73
     1
 44
1.0
1001
ACAD
1000
MTEXTBEGIN
1070
    73
1070
     1
1070
    44
1040
1.0
1070
    74
1070
     0
1000
MTEXTEND
  0
LINE
  5
2505
330
1F
100
AcDbEntity
  8
WARSTWA_1
  6
Continuous
100
AcDbLine
 10
4527.430542146682
 20
2649.628245761729
 30
0.0
 11
4171.429586076018
 21
2650.213861171077
 31
0.0
  0
LINE
  5
2506
330
1F
100
AcDbEntity
  8
WARSTWA_1
  6
Continuous
100
AcDbLine
 10
4527.430542146682
 20
2649.628245761729
 30
0.0
 11
4674.561240433614
 21
2552.892416250742
 31
0.0
  0
MTEXT
  5
250A
102
{ACAD_XDICTIONARY
360
2D57
102
}
330
1F
100
AcDbEntity
  8
WARSTWA_1
100
AcDbMText
 10
6226.764258782851
 20
2345.487082265189
 30
0.0
 40
40.0
 41
678.5838236776007
 46
0.0
 71
     1
 72
     5
  3
\pi160.24;{\Fsimplex|c238;Możliwe jest \P\pi11.673;wykorzystanie również \P\pi34.53;otworów pod króćce \P\pi53.578;oznaczone kolorem \P\pi173.58;czerwonym. \P\pi68.816;Dodatkowe króćce \P\pi104.05;instalator może \P\pi119.29;zamontować w \P\pi22.149;
  1
dowolnym momencie.}
 73
     1
 44
1.0
1001
ACAD
1000
MTEXTBEGIN
1070
    73
1070
     1
1070
    44
1040
1.0
1070
    74
1070
     0
1000
MTEXTEND
  0
LWPOLYLINE
  5
2817
102
{ACAD_REACTORS
330
2AA6
330
2ABE
102
}
330
1F
100
AcDbEntity
  8
0
100
AcDbPolyline
 90
        5
 70
     0
 43
0.0
 39
5.0
 10
3940.561240433615
 20
4181.859880288953
 10
5430.561240433615
 20
4181.859880288953
 10
5430.561240433615
 20
3081.859880288953
 10
3940.561240433615
 20
3081.859880288953
 10
3940.561240433615
 20
4181.859880288953
  0
LWPOLYLINE
  5
2818
330
1F
100
AcDbEntity
  8
0
  6
Continuous
 62
     5
100
AcDbPolyline
 90
        4
 70
     1
 43
0.0
 10
5200.560989910083
 20
4039.359880288952
 10
4170.560989910079
 20
4039.359880288952
 10
4170.560989910079
 20
3179.359880288953
 10
5200.560989910083
 20
3179.359880288953
  0
LWPOLYLINE
  5
2819
330
1F
100
AcDbEntity
  8
0
  6
Continuous
 62
     5
100
AcDbPolyline
 90
        4
 70
     1
 43
0.0
 10
4031.061290433614
 20
3659.359980288954
 10
4149.061290433613
 20
3659.359980288954
 10
4149.061290433613
 20
3082.359980288952
 10
4031.061290433614
 20
3082.359980288952
  0
LWPOLYLINE
  5
281A
330
1F
100
AcDbEntity
  8
0
  6
Continuous
 62
     5
100
AcDbPolyline
 90
        4
 70
     1
 43
0.0
 10
5222.061190433613
 20
3659.359980288954
 10
5340.061190433615
 20
3659.359980288954
 10
5340.061190433615
 20
3082.359980288952
 10
5222.061190433613
 20
3082.359980288952
  0
LWPOLYLINE
  5
281B
330
1F
100
AcDbEntity
  8
0
 62
     5
100
AcDbPolyline
 90
        4
 70
     1
 43
0.0
 10
3992.561340433613
 20
3874.998354530795
 10
4167.561340433612
 20
3874.998354530795
 10
4167.561340433612
 20
3659.998354530796
 10
3992.561340433613
 20
3659.998354530796
  0
INSERT
  5
281C
330
1F
100
AcDbEntity
  8
0
 62
     5
100
AcDbBlockReference
  2
GALKA
 10
4320.56098991008
 20
3889.359880288953
 30
0.0
  0
INSERT
  5
281D
330
1F
100
AcDbEntity
  8
0
 62
     5
100
AcDbBlockReference
  2
GALKA
 10
5050.560989910081
 20
3889.359880288953
 30
0.0
  0
INSERT
  5
281E
330
1F
100
AcDbEntity
  8
0
 62
     5
100
AcDbBlockReference
  2
GALKA
 10
5160.560989910082
 20
3539.359880288954
 30
0.0
  0
INSERT
  5
281F
330
1F
100
AcDbEntity
  8
0
 62
     5
100
AcDbBlockReference
  2
GALKA
 10
4975.560989910085
 20
3304.359880288953
 30
0.0
  0
INSERT
  5
2820
330
1F
100
AcDbEntity
  8
0
 62
     5
100
AcDbBlockReference
  2
GALKA
 10
4395.560989910079
 20
3304.359880288953
 30
0.0
  0
INSERT
  5
2821
330
1F
100
AcDbEntity
  8
0
 62
     5
100
AcDbBlockReference
  2
GALKA
 10
4210.56098991008
 20
3539.359880288954
 30
0.0
  0
INSERT
  5
2822
330
1F
100
AcDbEntity
  8
0
 62
     5
100
AcDbBlockReference
  2
GALKA
 10
4090.061340433615
 20
3637.360030288954
 30
0.0
  0
INSERT
  5
2823
330
1F
100
AcDbEntity
  8
0
 62
     5
100
AcDbBlockReference
  2
GALKA
 10
4090.061340433615
 20
3104.359930288954
 30
0.0
  0
INSERT
  5
2824
330
1F
100
AcDbEntity
  8
0
 62
     5
100
AcDbBlockReference
  2
GALKA
 10
5281.061240433615
 20
3104.359930288954
 30
0.0
  0
INSERT
  5
2825
330
1F
100
AcDbEntity
  8
0
 62
     5
100
AcDbBlockReference
  2
GALKA
 10
5281.061240433615
 20
3637.360030288954
 30
0.0
  0
CIRCLE
  5
2826
330
1F
100
AcDbEntity
  8
0
 62
     5
100
AcDbCircle
 10
3998.561340433614
 20
3868.998354530795
 30
0.0
 40
1.5
  0
CIRCLE
  5
2827
330
1F
100
AcDbEntity
  8
0
 62
     5
100
AcDbCircle
 10
4161.561340433615
 20
3868.998354530795
 30
0.0
 40
1.5
  0
CIRCLE
  5
2828
330
1F
100
AcDbEntity
  8
0
 62
     5
100
AcDbCircle
 10
4161.561340433615
 20
3665.998354530796
 30
0.0
 40
1.5
  0
CIRCLE
  5
2829
330
1F
100
AcDbEntity
  8
0
 62
     5
100
AcDbCircle
 10
3998.561340433614
 20
3665.998354530796
 30
0.0
 40
1.5
  0
LWPOLYLINE
  5
282A
330
1F
100
AcDbEntity
  8
0
  6
Continuous
100
AcDbPolyline
 90
        4
 70
     1
 43
0.0
 10
5295.561240433615
 20
3081.859880288953
 10
5420.561240433615
 20
3081.859880288953
 10
5420.561240433615
 20
3069.859880288954
 10
5295.561240433615
 20
3069.859880288954
  0
LWPOLYLINE
  5
282B
330
1F
100
AcDbEntity
  8
0
  6
Continuous
100
AcDbPolyline
 90
        4
 70
     1
 43
0.0
 10
5295.561240433615
 20
3069.859880288954
 10
5420.561240433615
 20
3069.859880288954
 10
5414.561240433616
 20
3049.859880288953
 10
5301.561240433619
 20
3049.859880288953
  0
LWPOLYLINE
  5
282C
330
1F
100
AcDbEntity
  8
0
  6
Continuous
100
AcDbPolyline
 90
        4
 70
     1
 43
0.0
 10
3950.561240433616
 20
3081.859880288953
 10
4075.561240433615
 20
3081.859880288953
 10
4075.561240433615
 20
3069.859880288954
 10
3950.561240433616
 20
3069.859880288954
  0
LWPOLYLINE
  5
282D
330
1F
100
AcDbEntity
  8
0
  6
Continuous
100
AcDbPolyline
 90
        4
 70
     1
 43
0.0
 10
3950.561240433616
 20
3069.859880288954
 10
4075.561240433615
 20
3069.859880288954
 10
4069.561240433615
 20
3049.859880288953
 10
3956.561240433615
 20
3049.859880288953
  0
LWPOLYLINE
  5
282E
102
{ACAD_REACTORS
330
2C06
330
2C1E
330
2C66
330
2C7E
102
}
330
1F
100
AcDbEntity
  8
0
100
AcDbPolyline
 90
        5
 70
     0
 43
0.0
 39
5.0
 10
6074.806265061767
 20
4181.859880288953
 10
7054.806265061768
 20
4181.859880288953
 10
7054.806265061768
 20
3081.859880288953
 10
6074.806265061767
 20
3081.859880288953
 10
6074.806265061767
 20
4181.859880288953
  0
LWPOLYLINE
  5
282F
102
{ACAD_REACTORS
330
2B74
330
2B8C
330
2BBC
330
2BD4
102
}
330
1F
100
AcDbEntity
  8
0
100
AcDbPolyline
 90
        5
 70
     0
 43
0.0
 39
5.0
 10
3296.31621580546
 20
4181.859880288953
 10
2316.316215805458
 20
4181.859880288953
 10
2316.316215805458
 20
3081.859880288953
 10
3296.31621580546
 20
3081.859880288953
 10
3296.31621580546
 20
4181.859880288953
  0
LWPOLYLINE
  5
2830
330
1F
100
AcDbEntity
  8
0
100
AcDbPolyline
 90
        5
 70
     1
 43
0.0
 39
4.999999999999999
 10
3235.016509805431
 20
3648.360036179934
 10
3261.316509805431
 20
3648.360045743571
 10
3261.316503150879
 20
3666.660045743569
 10
3235.016503150879
 20
3666.660036179933
 10
3235.016509805431
 20
3648.360036179934
  0
CIRCLE
  5
2831
102
{ACAD_REACTORS
330
2B38
330
2BBC
102
}
330
1F
100
AcDbEntity
  8
0
  6
Continuous
100
AcDbCircle
 10
2806.31641580546
 20
3374.859880288954
 30
0.0
 40
200.0
  0
CIRCLE
  5
2832
102
{ACAD_REACTORS
330
2B5C
102
}
330
1F
100
AcDbEntity
  8
0
  6
Continuous
100
AcDbCircle
 10
6564.80606506177
 20
3374.859880288954
 30
0.0
 40
200.0
  0
LWPOLYLINE
  5
2833
330
1F
100
AcDbEntity
  8
0
100
AcDbPolyline
 90
        8
 70
     1
 43
0.0
 10
2424.316223078193
 20
4161.859825743499
 10
2888.316223078193
 20
4161.859825743499
 42
-0.4142135623730951
 10
2891.316223078193
 20
4158.859825743498
 10
2891.316223078193
 20
3694.859825743499
 42
-0.4142135623730951
 10
2888.316223078193
 20
3691.8598257435
 10
2424.316223078193
 20
3691.8598257435
 42
-0.4142135623730951
 10
2421.316223078193
 20
3694.859825743499
 10
2421.316223078193
 20
4158.859825743498
 42
-0.4142135623730951
  0
CIRCLE
  5
2834
330
1F
100
AcDbEntity
  8
0
100
AcDbCircle
 10
2433.316223078194
 20
4149.8598257435
 30
0.0
 40
2.0
  0
CIRCLE
  5
2835
330
1F
100
AcDbEntity
  8
0
100
AcDbCircle
 10
2581.982889744859
 20
4149.8598257435
 30
0.0
 40
2.0
  0
CIRCLE
  5
2836
330
1F
100
AcDbEntity
  8
0
100
AcDbCircle
 10
2730.649556411526
 20
4149.8598257435
 30
0.0
 40
2.0
  0
CIRCLE
  5
2837
330
1F
100
AcDbEntity
  8
0
100
AcDbCircle
 10
2879.316223078193
 20
4149.8598257435
 30
0.0
 40
2.0
  0
CIRCLE
  5
2838
330
1F
100
AcDbEntity
  8
0
100
AcDbCircle
 10
2433.316223078194
 20
3703.8598257435
 30
0.0
 40
2.0
  0
CIRCLE
  5
2839
330
1F
100
AcDbEntity
  8
0
100
AcDbCircle
 10
2581.982889744859
 20
3703.8598257435
 30
0.0
 40
2.0
  0
CIRCLE
  5
283A
330
1F
100
AcDbEntity
  8
0
100
AcDbCircle
 10
2730.649556411526
 20
3703.8598257435
 30
0.0
 40
2.0
  0
CIRCLE
  5
283B
330
1F
100
AcDbEntity
  8
0
100
AcDbCircle
 10
2879.316223078193
 20
3703.8598257435
 30
0.0
 40
2.0
  0
CIRCLE
  5
283C
330
1F
100
AcDbEntity
  8
0
100
AcDbCircle
 10
2433.316223078194
 20
3703.8598257435
 30
0.0
 40
2.0
  0
CIRCLE
  5
283D
330
1F
100
AcDbEntity
  8
0
100
AcDbCircle
 10
2433.316223078194
 20
3852.526492410166
 30
0.0
 40
2.0
  0
CIRCLE
  5
283E
330
1F
100
AcDbEntity
  8
0
100
AcDbCircle
 10
2433.316223078194
 20
4001.193159076833
 30
0.0
 40
2.0
  0
CIRCLE
  5
283F
330
1F
100
AcDbEntity
  8
0
100
AcDbCircle
 10
2879.316223078193
 20
4001.193159076833
 30
0.0
 40
2.0
  0
CIRCLE
  5
2840
330
1F
100
AcDbEntity
  8
0
100
AcDbCircle
 10
2879.316223078193
 20
3852.526492410166
 30
0.0
 40
2.0
  0
CIRCLE
  5
2841
330
1F
100
AcDbEntity
  8
0
100
AcDbCircle
 10
2879.316223078193
 20
3703.859825743499
 30
0.0
 40
2.0
  0
LWPOLYLINE
  5
2842
330
1F
100
AcDbEntity
  8
0
100
AcDbPolyline
 90
        8
 70
     1
 43
0.0
 10
6182.806265061769
 20
4161.859880288953
 10
6646.806265061768
 20
4161.859880288953
 42
-0.4142135623730951
 10
6649.806265061768
 20
4158.859880288953
 10
6649.806265061768
 20
3694.859880288954
 42
-0.4142135623730951
 10
6646.806265061768
 20
3691.859880288954
 10
6182.806265061769
 20
3691.859880288954
 42
-0.4142135623730951
 10
6179.806265061769
 20
3694.859880288954
 10
6179.806265061769
 20
4158.859880288953
 42
-0.4142135623730951
  0
CIRCLE
  5
2843
330
1F
100
AcDbEntity
  8
0
100
AcDbCircle
 10
6191.806265061767
 20
4149.859880288953
 30
0.0
 40
2.0
  0
CIRCLE
  5
2844
330
1F
100
AcDbEntity
  8
0
100
AcDbCircle
 10
6340.472931728434
 20
4149.859880288953
 30
0.0
 40
2.0
  0
CIRCLE
  5
2845
330
1F
100
AcDbEntity
  8
0
100
AcDbCircle
 10
6489.139598395103
 20
4149.859880288953
 30
0.0
 40
2.0
  0
CIRCLE
  5
2846
330
1F
100
AcDbEntity
  8
0
100
AcDbCircle
 10
6637.806265061769
 20
4149.859880288953
 30
0.0
 40
2.0
  0
CIRCLE
  5
2847
330
1F
100
AcDbEntity
  8
0
100
AcDbCircle
 10
6191.806265061767
 20
3703.859880288953
 30
0.0
 40
2.0
  0
CIRCLE
  5
2848
330
1F
100
AcDbEntity
  8
0
100
AcDbCircle
 10
6340.472931728434
 20
3703.859880288953
 30
0.0
 40
2.0
  0
CIRCLE
  5
2849
330
1F
100
AcDbEntity
  8
0
100
AcDbCircle
 10
6489.139598395103
 20
3703.859880288953
 30
0.0
 40
2.0
  0
CIRCLE
  5
284A
330
1F
100
AcDbEntity
  8
0
100
AcDbCircle
 10
6637.806265061769
 20
3703.859880288953
 30
0.0
 40
2.0
  0
CIRCLE
  5
284B
330
1F
100
AcDbEntity
  8
0
100
AcDbCircle
 10
6191.806265061767
 20
3703.859880288953
 30
0.0
 40
2.0
  0
CIRCLE
  5
284C
330
1F
100
AcDbEntity
  8
0
100
AcDbCircle
 10
6191.806265061767
 20
3852.526546955619
 30
0.0
 40
2.0
  0
CIRCLE
  5
284D
330
1F
100
AcDbEntity
  8
0
100
AcDbCircle
 10
6191.806265061767
 20
4001.193213622285
 30
0.0
 40
2.0
  0
CIRCLE
  5
284E
330
1F
100
AcDbEntity
  8
0
100
AcDbCircle
 10
6637.806265061769
 20
4001.193213622285
 30
0.0
 40
2.0
  0
CIRCLE
  5
284F
330
1F
100
AcDbEntity
  8
0
100
AcDbCircle
 10
6637.806265061769
 20
3852.526546955619
 30
0.0
 40
2.0
  0
CIRCLE
  5
2850
330
1F
100
AcDbEntity
  8
0
100
AcDbCircle
 10
6637.806265061769
 20
3703.859880288952
 30
0.0
 40
2.0
  0
CIRCLE
  5
2851
102
{ACAD_REACTORS
330
2AFE
102
}
330
1F
100
AcDbEntity
  8
0
  6
Continuous
100
AcDbCircle
 10
2656.316223078193
 20
3926.8598257435
 30
0.0
 40
200.0
  0
CIRCLE
  5
2852
102
{ACAD_REACTORS
330
2B4A
330
2C36
102
}
330
1F
100
AcDbEntity
  8
0
  6
Continuous
100
AcDbCircle
 10
6414.806265061769
 20
3926.859880288954
 30
0.0
 40
200.0
  0
LWPOLYLINE
  5
2853
330
1F
100
AcDbEntity
  8
0
  6
Continuous
100
AcDbPolyline
 90
        4
 70
     1
 43
0.0
 10
6084.806265061768
 20
3081.859880288953
 10
6164.806265061769
 20
3081.859880288953
 10
6164.806265061769
 20
3069.859880288954
 10
6084.806265061768
 20
3069.859880288954
  0
LWPOLYLINE
  5
2854
330
1F
100
AcDbEntity
  8
0
  6
Continuous
100
AcDbPolyline
 90
        4
 70
     1
 43
0.0
 10
6084.806265061768
 20
3069.859880288954
 10
6164.806265061769
 20
3069.859880288954
 10
6158.806265061769
 20
3049.859880288954
 10
6090.806265061768
 20
3049.859880288954
  0
LWPOLYLINE
  5
2855
330
1F
100
AcDbEntity
  8
0
  6
Continuous
100
AcDbPolyline
 90
        4
 70
     1
 43
0.0
 10
6964.806265061769
 20
3081.859880288953
 10
7044.806265061769
 20
3081.859880288953
 10
7038.806265061769
 20
3061.859880288953
 10
6970.806265061772
 20
3061.859880288953
  0
LWPOLYLINE
  5
2856
330
1F
100
AcDbEntity
  8
0
  6
Continuous
100
AcDbPolyline
 90
        4
 70
     1
 43
0.0
 10
3286.31621580546
 20
3081.859880288953
 10
3206.31621580546
 20
3081.859880288953
 10
3206.31621580546
 20
3069.859880288954
 10
3286.31621580546
 20
3069.859880288954
  0
LWPOLYLINE
  5
2857
330
1F
100
AcDbEntity
  8
0
  6
Continuous
100
AcDbPolyline
 90
        4
 70
     1
 43
0.0
 10
3286.31621580546
 20
3069.859880288954
 10
3206.31621580546
 20
3069.859880288954
 10
3212.316215805461
 20
3049.859880288954
 10
3280.316215805461
 20
3049.859880288954
  0
LWPOLYLINE
  5
2858
330
1F
100
AcDbEntity
  8
0
  6
Continuous
100
AcDbPolyline
 90
        4
 70
     1
 43
0.0
 10
2406.31621580546
 20
3081.859880288953
 10
2326.31621580546
 20
3081.859880288953
 10
2332.316215805458
 20
3061.859880288953
 10
2400.316215805458
 20
3061.859880288953
  0
LWPOLYLINE
  5
2859
330
1F
100
AcDbEntity
  8
0
100
AcDbPolyline
 90
        4
 70
     1
 43
0.0
 10
7054.806265061768
 20
3112.859880288953
 10
7076.806265061769
 20
3112.859880288953
 10
7076.806265061769
 20
3090.859880288953
 10
7054.806265061768
 20
3090.859880288953
  0
LWPOLYLINE
  5
285A
330
1F
100
AcDbEntity
  8
0
100
AcDbPolyline
 90
        4
 70
     1
 43
0.0
 10
2316.31621580546
 20
3112.859880288953
 10
2294.31621580546
 20
3112.859880288953
 10
2294.31621580546
 20
3090.859880288953
 10
2316.31621580546
 20
3090.859880288953
  0
LWPOLYLINE
  5
285B
330
1F
100
AcDbEntity
  8
0
 62
     5
100
AcDbPolyline
 90
        4
 70
     1
 43
0.0
 10
6049.806265061768
 20
4039.359880288952
 10
6074.806265061767
 20
4039.359880288952
 10
6074.806265061767
 20
3179.359880288953
 10
6049.806265061768
 20
3179.359880288953
  0
INSERT
  5
285C
330
1F
100
AcDbEntity
  8
0
100
AcDbBlockReference
  2
Galka-bok
 10
5793.012034248215
 20
2781.754196290596
 30
0.0
 50
90.0
1001
AcDbBlockRepETag
1070
     1
1071
       42
1005
0
  0
INSERT
  5
285D
330
1F
100
AcDbEntity
  8
0
100
AcDbBlockReference
  2
Galka-bok
 10
5793.012034248215
 20
3016.754196290596
 30
0.0
 50
90.0
1001
AcDbBlockRepETag
1070
     1
1071
       42
1005
0
  0
INSERT
  5
285E
330
1F
100
AcDbEntity
  8
0
100
AcDbBlockReference
  2
Galka-bok
 10
5793.012034248215
 20
3366.754196290596
 30
0.0
 50
90.0
1001
AcDbBlockRepETag
1070
     1
1071
       42
1005
0
  0
LWPOLYLINE
  5
285F
330
1F
100
AcDbEntity
  8
0
 62
     5
100
AcDbPolyline
 90
        4
 70
     1
 43
0.0
 10
3321.31621580546
 20
4039.359880288952
 10
3296.31621580546
 20
4039.359880288952
 10
3296.31621580546
 20
3179.359880288953
 10
3321.31621580546
 20
3179.359880288953
  0
INSERT
  5
2860
330
1F
100
AcDbEntity
  8
0
100
AcDbBlockReference
  2
Galka-bok
 10
3578.110446619013
 20
2781.754196290596
 30
0.0
 41
-1.0
 50
270.0
1001
AcDbBlockRepETag
1070
     1
1071
       42
1005
0
  0
INSERT
  5
2861
330
1F
100
AcDbEntity
  8
0
100
AcDbBlockReference
  2
Galka-bok
 10
3578.110446619013
 20
3016.754196290596
 30
0.0
 41
-1.0
 50
270.0
1001
AcDbBlockRepETag
1070
     1
1071
       42
1005
0
  0
INSERT
  5
2862
330
1F
100
AcDbEntity
  8
0
100
AcDbBlockReference
  2
Galka-bok
 10
3578.110446619013
 20
3366.754196290596
 30
0.0
 41
-1.0
 50
270.0
1001
AcDbBlockRepETag
1070
     1
1071
       42
1005
0
  0
LWPOLYLINE
  5
2863
330
1F
100
AcDbEntity
  8
0
100
AcDbPolyline
 90
        4
 70
     1
 43
0.0
 10
3928.561240433614
 20
4161.859825743499
 10
3940.561240433615
 20
4161.859825743499
 10
3940.561240433615
 20
3691.8598257435
 10
3928.561240433614
 20
3691.8598257435
  0
LWPOLYLINE
  5
2864
330
1F
100
AcDbEntity
  8
0
100
AcDbPolyline
 90
        4
 70
     1
 43
0.0
 10
5430.561240433615
 20
4161.859825743499
 10
5442.561240433615
 20
4161.859825743499
 10
5442.561240433615
 20
3691.8598257435
 10
5430.561240433615
 20
3691.8598257435
  0
LWPOLYLINE
  5
2865
102
{ACAD_REACTORS
330
2B74
330
2BA4
102
}
330
1F
100
AcDbEntity
  8
0
100
AcDbPolyline
 90
        4
 70
     1
 43
0.0
 10
2421.316223078193
 20
4181.859880288953
 10
2421.316223078193
 20
4193.859880288953
 10
2891.316223078193
 20
4193.859880288953
 10
2891.316223078193
 20
4181.859880288953
  0
LWPOLYLINE
  5
2866
330
1F
100
AcDbEntity
  8
0
100
AcDbPolyline
 90
        4
 70
     1
 43
0.0
 10
3960.561340433614
 20
4181.859880288953
 10
3960.561340433614
 20
4193.859880288953
 10
4430.561340433613
 20
4193.859880288953
 10
4430.561340433613
 20
4181.859880288953
  0
LWPOLYLINE
  5
2867
330
1F
100
AcDbEntity
  8
0
100
AcDbPolyline
 90
        4
 70
     1
 43
0.0
 10
4940.561140433614
 20
4181.859880288953
 10
4940.561140433614
 20
4193.859880288953
 10
5410.561140433614
 20
4193.859880288953
 10
5410.561140433614
 20
4181.859880288953
  0
LWPOLYLINE
  5
2868
102
{ACAD_REACTORS
330
2C36
102
}
330
1F
100
AcDbEntity
  8
0
100
AcDbPolyline
 90
        4
 70
     1
 43
0.0
 10
6179.806265061769
 20
4181.859880288953
 10
6179.806265061769
 20
4193.859880288953
 10
6649.806265061768
 20
4193.859880288953
 10
6649.806265061768
 20
4181.859880288953
  0
LWPOLYLINE
  5
2869
330
1F
100
AcDbEntity
  8
0
100
AcDbPolyline
 90
        4
 70
     1
 43
0.0
 10
3868.561240433616
 20
4126.859825743498
 10
3928.561240433614
 20
4126.859825743498
 10
3928.561240433614
 20
3726.859825743499
 10
3868.561240433616
 20
3726.859825743499
  0
LWPOLYLINE
  5
286A
330
1F
100
AcDbEntity
  8
0
100
AcDbPolyline
 90
        4
 70
     1
 43
0.0
 10
3880.561240433614
 20
3574.859880288953
 10
3940.561240433615
 20
3574.859880288953
 10
3940.561240433615
 20
3174.859880288953
 10
3880.561240433614
 20
3174.859880288953
  0
LWPOLYLINE
  5
286B
330
1F
100
AcDbEntity
  8
0
100
AcDbPolyline
 90
        4
 70
     1
 43
0.0
 10
5442.561240433615
 20
4126.859825743498
 10
5502.561240433614
 20
4126.859825743498
 10
5502.561240433614
 20
3726.859825743499
 10
5442.561240433615
 20
3726.859825743499
  0
LWPOLYLINE
  5
286C
330
1F
100
AcDbEntity
  8
0
100
AcDbPolyline
 90
        4
 70
     1
 43
0.0
 10
5430.561240433615
 20
3574.859880288953
 10
5490.561240433615
 20
3574.859880288953
 10
5490.561240433615
 20
3174.859880288953
 10
5430.561240433615
 20
3174.859880288953
  0
LWPOLYLINE
  5
286D
330
1F
100
AcDbEntity
  8
0
 62
     1
100
AcDbPolyline
 90
        4
 70
     1
 43
0.0
 10
2456.316223078193
 20
4193.859880288953
 10
2456.316223078193
 20
4253.859880288953
 10
2856.316223078193
 20
4253.859880288953
 10
2856.316223078193
 20
4193.859880288953
  0
LWPOLYLINE
  5
286E
330
1F
100
AcDbEntity
  8
0
 62
     1
100
AcDbPolyline
 90
        4
 70
     1
 43
0.0
 10
3995.561340433614
 20
4193.859880288953
 10
3995.561340433614
 20
4253.859880288953
 10
4395.561340433613
 20
4253.859880288953
 10
4395.561340433613
 20
4193.859880288953
  0
LWPOLYLINE
  5
286F
330
1F
100
AcDbEntity
  8
0
 62
     1
100
AcDbPolyline
 90
        4
 70
     1
 43
0.0
 10
4975.561140433614
 20
4193.859880288953
 10
4975.561140433614
 20
4253.859880288953
 10
5375.561140433614
 20
4253.859880288953
 10
5375.561140433614
 20
4193.859880288953
  0
LWPOLYLINE
  5
2870
102
{ACAD_REACTORS
330
2C06
102
}
330
1F
100
AcDbEntity
  8
0
 62
     1
100
AcDbPolyline
 90
        4
 70
     1
 43
0.0
 10
6214.806265061769
 20
4193.859880288953
 10
6214.806265061769
 20
4253.859880288953
 10
6614.806265061769
 20
4253.859880288953
 10
6614.806265061769
 20
4193.859880288953
  0
LWPOLYLINE
  5
2871
330
1F
100
AcDbEntity
  8
0
100
AcDbPolyline
 90
        4
 70
     1
 43
0.0
 10
2891.316223078193
 20
4181.859880288953
 10
2891.316223078193
 20
4193.859880288953
 10
3191.316223078193
 20
4193.859880288953
 10
3191.316223078193
 20
4181.859880288953
  0
LWPOLYLINE
  5
2872
330
1F
100
AcDbEntity
  8
0
 62
     1
100
AcDbPolyline
 90
        4
 70
     1
 43
0.0
 10
2856.316223078193
 20
4193.859880288953
 10
2856.316223078193
 20
4253.859880288953
 10
3156.316223078193
 20
4253.859880288953
 10
3156.316223078193
 20
4193.859880288953
  0
LWPOLYLINE
  5
2873
330
1F
100
AcDbEntity
  8
0
100
AcDbPolyline
 90
        4
 70
     1
 43
0.0
 10
6649.806265061768
 20
4181.859880288953
 10
6649.806265061768
 20
4193.859880288953
 10
6949.806265061768
 20
4193.859880288953
 10
6949.806265061768
 20
4181.859880288953
  0
LWPOLYLINE
  5
2874
330
1F
100
AcDbEntity
  8
0
 62
     1
100
AcDbPolyline
 90
        4
 70
     1
 43
0.0
 10
6614.806265061769
 20
4193.859880288953
 10
6614.806265061769
 20
4253.859880288953
 10
6914.806265061769
 20
4253.859880288953
 10
6914.806265061769
 20
4193.859880288953
  0
LINE
  5
2875
102
{ACAD_REACTORS
330
2BD4
102
}
330
1F
100
AcDbEntity
  8
osie
 48
80.0
100
AcDbLine
 10
2806.31641580546
 20
3164.859880288954
 30
0.0
 11
2806.31641580546
 21
3584.859880288953
 31
0.0
  0
LINE
  5
2876
330
1F
100
AcDbEntity
  8
osie
 48
80.0
100
AcDbLine
 10
2596.316415805459
 20
3374.859880288954
 30
0.0
 11
3016.316415805459
 21
3374.859880288954
 31
0.0
  0
LINE
  5
2877
330
1F
100
AcDbEntity
  8
osie
 48
80.0
100
AcDbLine
 10
2656.316223078193
 20
3716.8598257435
 30
0.0
 11
2656.316223078193
 21
4136.859825743498
 31
0.0
  0
LINE
  5
2878
102
{ACAD_REACTORS
330
2BA4
102
}
330
1F
100
AcDbEntity
  8
osie
 48
80.0
100
AcDbLine
 10
2446.316223078194
 20
3926.8598257435
 30
0.0
 11
2866.316223078193
 21
3926.8598257435
 31
0.0
  0
LINE
  5
2879
330
1F
100
AcDbEntity
  8
osie
 48
80.0
100
AcDbLine
 10
6414.806265061769
 20
3716.859880288954
 30
0.0
 11
6414.806265061769
 21
4136.859880288953
 31
0.0
  0
LINE
  5
287A
330
1F
100
AcDbEntity
  8
osie
 48
80.0
100
AcDbLine
 10
6204.806265061769
 20
3926.859880288954
 30
0.0
 11
6624.806265061768
 21
3926.859880288954
 31
0.0
  0
LINE
  5
287B
102
{ACAD_REACTORS
330
2C7E
102
}
330
1F
100
AcDbEntity
  8
osie
 48
80.0
100
AcDbLine
 10
6564.80606506177
 20
3164.859880288954
 30
0.0
 11
6564.80606506177
 21
3584.859880288953
 31
0.0
  0
LINE
  5
287C
102
{ACAD_REACTORS
330
2C66
102
}
330
1F
100
AcDbEntity
  8
osie
 48
80.0
100
AcDbLine
 10
6354.80606506177
 20
3374.859880288954
 30
0.0
 11
6774.80606506177
 21
3374.859880288954
 31
0.0
  0
LINE
  5
287D
330
1F
100
AcDbEntity
  8
osie
 48
80.0
100
AcDbLine
 10
5431.361993758046
 20
3926.8598257435
 30
0.0
 11
5511.86702300377
 21
3926.8598257435
 31
0.0
  0
LINE
  5
287E
330
1F
100
AcDbEntity
  8
osie
 48
80.0
100
AcDbLine
 10
5419.361993758046
 20
3374.859880288954
 30
0.0
 11
5499.867023003769
 21
3374.859880288954
 31
0.0
  0
LINE
  5
287F
102
{ACAD_REACTORS
330
2C06
102
}
330
1F
100
AcDbEntity
  8
osie
 48
80.0
100
AcDbLine
 10
6415.090307500159
 20
4262.645493819254
 30
0.0
 11
6415.090307500159
 21
4182.140464573531
 31
0.0
  0
LINE
  5
2880
330
1F
100
AcDbEntity
  8
osie
 48
80.0
100
AcDbLine
 10
6714.806265061769
 20
4262.645493819254
 30
0.0
 11
6714.806265061769
 21
4182.140464573531
 31
0.0
  0
LINE
  5
2881
330
1F
100
AcDbEntity
  8
osie
 48
80.0
100
AcDbLine
 10
5175.845182872006
 20
4262.645493819254
 30
0.0
 11
5175.845182872006
 21
4182.140464573531
 31
0.0
  0
LINE
  5
2882
330
1F
100
AcDbEntity
  8
osie
 48
80.0
100
AcDbLine
 10
4195.845382872003
 20
4262.645493819254
 30
0.0
 11
4195.845382872003
 21
4182.140464573531
 31
0.0
  0
LINE
  5
2883
330
1F
100
AcDbEntity
  8
osie
 48
80.0
100
AcDbLine
 10
2656.600265516584
 20
4262.645493819254
 30
0.0
 11
2656.600265516584
 21
4182.140464573531
 31
0.0
  0
LINE
  5
2884
330
1F
100
AcDbEntity
  8
osie
 48
80.0
100
AcDbLine
 10
2956.316223078193
 20
4262.645493819254
 30
0.0
 11
2956.316223078193
 21
4182.140464573531
 31
0.0
  0
LINE
  5
2885
330
1F
100
AcDbEntity
  8
osie
 48
80.0
100
AcDbLine
 10
3939.760487109185
 20
3928.025357409654
 30
0.0
 11
3859.25545786346
 21
3928.025357409654
 31
0.0
  0
LINE
  5
2886
330
1F
100
AcDbEntity
  8
osie
 48
80.0
100
AcDbLine
 10
3951.760487109183
 20
3376.025411955107
 30
0.0
 11
3871.25545786346
 21
3376.025411955107
 31
0.0
  0
LWPOLYLINE
  5
28B4
102
{ACAD_REACTORS
330
2CD3
330
2CEB
102
}
330
1F
100
AcDbEntity
  8
0
100
AcDbPolyline
 90
        5
 70
     0
 43
0.0
 39
5.0
 10
5430.561190433613
 20
1550.892416250742
 10
3940.561290433613
 20
1550.892416250742
 10
3940.561290433613
 20
2530.892416250742
 10
5430.561190433613
 20
2530.892416250742
 10
5430.561190433613
 20
1550.892416250742
  0
LWPOLYLINE
  5
28B5
330
1F
100
AcDbEntity
  8
0
100
AcDbPolyline
 90
        4
 70
     1
 43
0.0
 10
4674.561240433614
 20
2552.892416250742
 10
4696.561240433613
 20
2552.892416250742
 10
4696.561240433613
 20
2530.892416250742
 10
4674.561240433614
 20
2530.892416250742
  0
LWPOLYLINE
  5
28B6
330
1F
100
AcDbEntity
  8
0
100
AcDbPolyline
 90
        8
 70
     1
 43
0.0
 10
3963.561390433613
 20
2425.892416250742
 10
4427.561390433612
 20
2425.892416250742
 42
-0.4142135623730951
 10
4430.561390433612
 20
2422.892416250742
 10
4430.561390433612
 20
1958.892416250742
 42
-0.4142135623730951
 10
4427.561390433612
 20
1955.892416250742
 10
3963.561390433613
 20
1955.892416250742
 42
-0.4142135623730951
 10
3960.561390433613
 20
1958.892416250742
 10
3960.561390433613
 20
2422.892416250742
 42
-0.4142135623730951
  0
CIRCLE
  5
28B7
330
1F
100
AcDbEntity
  8
0
100
AcDbCircle
 10
3972.561390433612
 20
2413.892416250742
 30
0.0
 40
2.0
  0
CIRCLE
  5
28B8
330
1F
100
AcDbEntity
  8
0
100
AcDbCircle
 10
4121.228057100277
 20
2413.892416250742
 30
0.0
 40
2.0
  0
CIRCLE
  5
28B9
330
1F
100
AcDbEntity
  8
0
100
AcDbCircle
 10
4269.894723766945
 20
2413.892416250742
 30
0.0
 40
2.0
  0
CIRCLE
  5
28BA
330
1F
100
AcDbEntity
  8
0
100
AcDbCircle
 10
4418.561390433612
 20
2413.892416250742
 30
0.0
 40
2.0
  0
CIRCLE
  5
28BB
330
1F
100
AcDbEntity
  8
0
100
AcDbCircle
 10
3972.561390433612
 20
1967.892416250742
 30
0.0
 40
2.0
  0
CIRCLE
  5
28BC
330
1F
100
AcDbEntity
  8
0
100
AcDbCircle
 10
4121.228057100277
 20
1967.892416250742
 30
0.0
 40
2.0
  0
CIRCLE
  5
28BD
330
1F
100
AcDbEntity
  8
0
100
AcDbCircle
 10
4269.894723766945
 20
1967.892416250742
 30
0.0
 40
2.0
  0
CIRCLE
  5
28BE
330
1F
100
AcDbEntity
  8
0
100
AcDbCircle
 10
4418.561390433612
 20
1967.892416250742
 30
0.0
 40
2.0
  0
CIRCLE
  5
28BF
330
1F
100
AcDbEntity
  8
0
100
AcDbCircle
 10
3972.561390433612
 20
1967.892416250742
 30
0.0
 40
2.0
  0
CIRCLE
  5
28C0
330
1F
100
AcDbEntity
  8
0
100
AcDbCircle
 10
3972.561390433612
 20
2116.559082917408
 30
0.0
 40
2.0
  0
CIRCLE
  5
28C1
330
1F
100
AcDbEntity
  8
0
100
AcDbCircle
 10
3972.561390433612
 20
2265.225749584075
 30
0.0
 40
2.0
  0
CIRCLE
  5
28C2
330
1F
100
AcDbEntity
  8
0
100
AcDbCircle
 10
4418.561390433612
 20
2265.225749584075
 30
0.0
 40
2.0
  0
CIRCLE
  5
28C3
330
1F
100
AcDbEntity
  8
0
100
AcDbCircle
 10
4418.561390433612
 20
2116.559082917408
 30
0.0
 40
2.0
  0
CIRCLE
  5
28C4
330
1F
100
AcDbEntity
  8
0
100
AcDbCircle
 10
4418.561390433612
 20
1967.892416250741
 30
0.0
 40
2.0
  0
LWPOLYLINE
  5
28C5
330
1F
100
AcDbEntity
  8
0
100
AcDbPolyline
 90
        8
 70
     1
 43
0.0
 10
4943.561190433612
 20
2125.892416250742
 10
5407.561190433613
 20
2125.892416250742
 42
-0.4142135623730951
 10
5410.561190433613
 20
2122.892416250742
 10
5410.561190433613
 20
1658.892416250742
 42
-0.4142135623730951
 10
5407.561190433613
 20
1655.892416250742
 10
4943.561190433612
 20
1655.892416250742
 42
-0.4142135623730951
 10
4940.561190433612
 20
1658.892416250742
 10
4940.561190433612
 20
2122.892416250742
 42
-0.4142135623730951
  0
CIRCLE
  5
28C6
330
1F
100
AcDbEntity
  8
0
100
AcDbCircle
 10
4952.561190433613
 20
2113.892416250742
 30
0.0
 40
2.0
  0
CIRCLE
  5
28C7
330
1F
100
AcDbEntity
  8
0
100
AcDbCircle
 10
5101.227857100277
 20
2113.892416250742
 30
0.0
 40
2.0
  0
CIRCLE
  5
28C8
330
1F
100
AcDbEntity
  8
0
100
AcDbCircle
 10
5249.894523766945
 20
2113.892416250742
 30
0.0
 40
2.0
  0
CIRCLE
  5
28C9
330
1F
100
AcDbEntity
  8
0
100
AcDbCircle
 10
5398.561190433613
 20
2113.892416250742
 30
0.0
 40
2.0
  0
CIRCLE
  5
28CA
330
1F
100
AcDbEntity
  8
0
100
AcDbCircle
 10
4952.561190433613
 20
1667.892416250742
 30
0.0
 40
2.0
  0
CIRCLE
  5
28CB
330
1F
100
AcDbEntity
  8
0
100
AcDbCircle
 10
5101.227857100277
 20
1667.892416250742
 30
0.0
 40
2.0
  0
CIRCLE
  5
28CC
330
1F
100
AcDbEntity
  8
0
100
AcDbCircle
 10
5249.894523766945
 20
1667.892416250742
 30
0.0
 40
2.0
  0
CIRCLE
  5
28CD
330
1F
100
AcDbEntity
  8
0
100
AcDbCircle
 10
5398.561190433613
 20
1667.892416250742
 30
0.0
 40
2.0
  0
CIRCLE
  5
28CE
330
1F
100
AcDbEntity
  8
0
100
AcDbCircle
 10
4952.561190433613
 20
1667.892416250742
 30
0.0
 40
2.0
  0
CIRCLE
  5
28CF
330
1F
100
AcDbEntity
  8
0
100
AcDbCircle
 10
4952.561190433613
 20
1816.559082917408
 30
0.0
 40
2.0
  0
CIRCLE
  5
28D0
330
1F
100
AcDbEntity
  8
0
100
AcDbCircle
 10
4952.561190433613
 20
1965.225749584075
 30
0.0
 40
2.0
  0
CIRCLE
  5
28D1
330
1F
100
AcDbEntity
  8
0
100
AcDbCircle
 10
5398.561190433613
 20
1965.225749584075
 30
0.0
 40
2.0
  0
CIRCLE
  5
28D2
330
1F
100
AcDbEntity
  8
0
100
AcDbCircle
 10
5398.561190433613
 20
1816.559082917408
 30
0.0
 40
2.0
  0
CIRCLE
  5
28D3
330
1F
100
AcDbEntity
  8
0
100
AcDbCircle
 10
5398.561190433613
 20
1667.892416250741
 30
0.0
 40
2.0
  0
CIRCLE
  5
28D4
330
1F
100
AcDbEntity
  8
0
  6
Continuous
 62
     1
100
AcDbCircle
 10
4195.561390433613
 20
2190.892416250742
 30
0.0
 40
200.0
  0
CIRCLE
  5
28D5
330
1F
100
AcDbEntity
  8
0
  6
Continuous
 62
     1
100
AcDbCircle
 10
5175.561190433612
 20
1890.892416250742
 30
0.0
 40
200.0
  0
LWPOLYLINE
  5
28D6
102
{ACAD_REACTORS
330
2CA3
330
2CD3
102
}
330
1F
100
AcDbEntity
  8
0
100
AcDbPolyline
 90
        4
 70
     1
 43
0.0
 10
3928.561290433613
 20
2425.892416250742
 10
3940.561290433613
 20
2425.892416250742
 10
3940.561290433613
 20
1955.892416250742
 10
3928.561290433613
 20
1955.892416250742
  0
LWPOLYLINE
  5
28D7
330
1F
100
AcDbEntity
  8
0
100
AcDbPolyline
 90
        4
 70
     1
 43
0.0
 10
5430.561190433613
 20
2125.892416250742
 10
5442.561190433613
 20
2125.892416250742
 10
5442.561190433613
 20
1655.892416250742
 10
5430.561190433613
 20
1655.892416250742
  0
LWPOLYLINE
  5
28D8
330
1F
100
AcDbEntity
  8
0
100
AcDbPolyline
 90
        4
 70
     1
 43
0.0
 10
3868.561290433613
 20
2390.892416250742
 10
3928.561290433613
 20
2390.892416250742
 10
3928.561290433613
 20
1990.892416250742
 10
3868.561290433613
 20
1990.892416250742
  0
LWPOLYLINE
  5
28D9
330
1F
100
AcDbEntity
  8
0
100
AcDbPolyline
 90
        5
 70
     0
 43
0.0
 10
3940.561290433613
 20
2240.892416250742
 10
3940.561290433613
 20
2240.892416250742
 10
3940.561290433613
 20
1840.892416250742
 10
3880.561290433613
 20
1840.892416250742
 10
3880.561290433613
 20
1990.892416250742
  0
LWPOLYLINE
  5
28DA
330
1F
100
AcDbEntity
  8
0
100
AcDbPolyline
 90
        4
 70
     1
 43
0.0
 10
5442.561190433613
 20
2090.892416250742
 10
5502.561190433613
 20
2090.892416250742
 10
5502.561190433613
 20
1690.892416250742
 10
5442.561190433613
 20
1690.892416250742
  0
LWPOLYLINE
  5
28DB
102
{ACAD_REACTORS
330
2CBB
102
}
330
1F
100
AcDbEntity
  8
0
100
AcDbPolyline
 90
        5
 70
     0
 43
0.0
 10
5430.561190433613
 20
1840.892416250742
 10
5430.561190433613
 20
1840.892416250742
 10
5430.561190433613
 20
2240.892416250742
 10
5490.561190433613
 20
2240.892416250742
 10
5490.561190433613
 20
2090.892416250742
  0
LWPOLYLINE
  5
28DC
330
1F
100
AcDbEntity
  8
0
 62
     5
100
AcDbPolyline
 90
        4
 70
     1
 43
0.0
 10
4170.561240433613
 20
1550.892416250742
 10
5200.561240433613
 20
1550.892416250742
 10
5200.561240433613
 20
1525.892416250742
 10
4170.561240433613
 20
1525.892416250742
  0
INSERT
  5
28DD
330
1F
100
AcDbEntity
  8
0
100
AcDbBlockReference
  2
Galka-bok
 10
3687.955355911721
 20
1269.098185437188
 30
0.0
 41
-1.0
 50
180.0
1001
AcDbBlockRepETag
1070
     1
1071
       42
1005
0
  0
INSERT
  5
28DE
330
1F
100
AcDbEntity
  8
0
100
AcDbBlockReference
  2
Galka-bok
 10
3797.955355911721
 20
1269.098185437188
 30
0.0
 41
-1.0
 50
180.0
1001
AcDbBlockRepETag
1070
     1
1071
       42
1005
0
  0
INSERT
  5
28DF
330
1F
100
AcDbEntity
  8
0
100
AcDbBlockReference
  2
Galka-bok
 10
3872.955355911722
 20
1269.098185437188
 30
0.0
 41
-1.0
 50
180.0
1001
AcDbBlockRepETag
1070
     1
1071
       42
1005
0
  0
INSERT
  5
28E0
330
1F
100
AcDbEntity
  8
0
100
AcDbBlockReference
  2
Galka-bok
 10
4452.955355911725
 20
1269.098185437188
 30
0.0
 41
-1.0
 50
180.0
1001
AcDbBlockRepETag
1070
     1
1071
       42
1005
0
  0
INSERT
  5
28E1
330
1F
100
AcDbEntity
  8
0
100
AcDbBlockReference
  2
Galka-bok
 10
4527.955355911724
 20
1269.098185437188
 30
0.0
 41
-1.0
 50
180.0
1001
AcDbBlockRepETag
1070
     1
1071
       42
1005
0
  0
INSERT
  5
28E2
330
1F
100
AcDbEntity
  8
0
100
AcDbBlockReference
  2
Galka-bok
 10
4637.955355911723
 20
1269.098185437188
 30
0.0
 41
-1.0
 50
180.0
1001
AcDbBlockRepETag
1070
     1
1071
       42
1005
0
  0
LWPOLYLINE
  5
28E3
330
1F
100
AcDbEntity
  8
0
 62
     5
100
AcDbPolyline
 90
        4
 70
     1
 43
0.0
 10
4047.561390433613
 20
1550.892416250742
 10
4132.561390433613
 20
1550.892416250742
 10
4132.561390433613
 20
1538.892416250742
 10
4047.561390433613
 20
1538.892416250742
  0
LWPOLYLINE
  5
28E4
330
1F
100
AcDbEntity
  8
0
 62
     5
100
AcDbPolyline
 90
        4
 70
     1
 43
0.0
 10
5238.561290433614
 20
1550.892416250742
 10
5323.561290433614
 20
1550.892416250742
 10
5323.561290433614
 20
1538.892416250742
 10
5238.561290433614
 20
1538.892416250742
  0
INSERT
  5
28E5
330
1F
100
AcDbEntity
  8
0
100
AcDbBlockReference
  2
Galka-bok
 10
3567.455706435256
 20
1282.098185437188
 30
0.0
 41
-1.0
 50
180.0
1001
AcDbBlockRepETag
1070
     1
1071
       42
1005
0
  0
INSERT
  5
28E6
330
1F
100
AcDbEntity
  8
0
100
AcDbBlockReference
  2
Galka-bok
 10
4758.455606435255
 20
1282.098185437188
 30
0.0
 41
-1.0
 50
180.0
1001
AcDbBlockRepETag
1070
     1
1071
       42
1005
0
  0
LINE
  5
28E7
102
{ACAD_REACTORS
330
2CBB
102
}
330
1F
100
AcDbEntity
  8
osie
 48
80.0
100
AcDbLine
 10
5175.561190433612
 20
1680.892416250742
 30
0.0
 11
5175.561190433612
 21
2100.892416250742
 31
0.0
  0
LINE
  5
28E8
102
{ACAD_REACTORS
330
2CEB
102
}
330
1F
100
AcDbEntity
  8
osie
 48
80.0
100
AcDbLine
 10
4965.561190433612
 20
1890.892416250742
 30
0.0
 11
5385.561190433612
 21
1890.892416250742
 31
0.0
  0
LINE
  5
28E9
102
{ACAD_REACTORS
330
2CA3
102
}
330
1F
100
AcDbEntity
  8
osie
 48
80.0
100
AcDbLine
 10
4195.561390433613
 20
1980.892416250742
 30
0.0
 11
4195.561390433613
 21
2400.892416250742
 31
0.0
  0
LINE
  5
28EA
330
1F
100
AcDbEntity
  8
osie
 48
80.0
100
AcDbLine
 10
3985.561390433613
 20
2190.892416250742
 30
0.0
 11
4405.561390433613
 21
2190.892416250742
 31
0.0
  0
LINE
  5
28EB
330
1F
100
AcDbEntity
  8
osie
 48
80.0
100
AcDbLine
 10
3939.760537109182
 20
2192.057947916896
 30
0.0
 11
3859.255507863459
 21
2192.057947916896
 31
0.0
  0
LINE
  5
28EC
330
1F
100
AcDbEntity
  8
osie
 48
80.0
100
AcDbLine
 10
3951.760537109183
 20
2040.892416250742
 30
0.0
 11
3871.255507863459
 21
2040.892416250742
 31
0.0
  0
LINE
  5
28ED
330
1F
100
AcDbEntity
  8
osie
 48
80.0
100
AcDbLine
 10
5430.561190433613
 20
1890.892416250742
 30
0.0
 11
5511.066219679335
 21
1890.892416250742
 31
0.0
  0
LINE
  5
28EE
330
1F
100
AcDbEntity
  8
osie
 48
80.0
100
AcDbLine
 10
5419.361943758044
 20
2040.892416250742
 30
0.0
 11
5499.866973003769
 21
2040.892416250742
 31
0.0
  0
MTEXT
  5
2997
330
1F
100
AcDbEntity
  8
WARSTWA_1
100
AcDbMText
 10
6832.440981394718
 20
2967.63462680525
 30
0.0
 40
30.0
 41
601.5642491672515
 46
0.0
 71
     1
 72
     5
  1
{\Fsimplex|c238;Odpływ skroplin}
 73
     1
 44
1.0
1001
ACAD
1000
MTEXTBEGIN
1070
    73
1070
     1
1070
    44
1040
1.0
1070
    74
1070
     0
1000
MTEXTEND
  0
LWPOLYLINE
  5
2998
330
1F
100
AcDbEntity
  8
WARSTWA_1
  6
Continuous
100
AcDbPolyline
 90
        3
 70
   128
 43
0.0
 10
6843.295095318244
 20
2927.5984241675
 10
7213.942226477981
 20
2927.5984241675
 10
7076.806265061769
 20
3090.859880288953
  0
DIMENSION
  5
2A8F
102
{ACAD_XDICTIONARY
360
2A9C
102
}
102
{ACAD_REACTORS
330
2AA6
102
}
330
1F
100
AcDbEntity
  8
wymiary
100
AcDbDimension
  2
*D161
 10
5430.561240433615
 20
4315.840919373239
 30
0.0
 11
4685.561240433615
 21
4340.179254980335
 31
0.0
 70
    32
 71
     5
 42
1490.000000000001
 73
     0
 74
     0
 75
     0
  3
CENTRALA
100
AcDbAlignedDimension
 13
3940.561240433615
 23
4181.859880288953
 33
0.0
 14
5430.561240433615
 24
4181.859880288953
 34
0.0
100
AcDbRotatedDimension
  0
DIMENSION
  5
2AA7
102
{ACAD_XDICTIONARY
360
2AB4
102
}
102
{ACAD_REACTORS
330
2ABE
102
}
330
1F
100
AcDbEntity
  8
wymiary
100
AcDbDimension
  2
*D162
 10
5590.252736792191
 20
4181.859880288953
 30
0.0
 11
5565.914401185095
 21
3631.859880288953
 31
0.0
 70
    32
 71
     5
 42
1099.999999999999
 73
     0
 74
     0
 75
     0
  3
CENTRALA
100
AcDbAlignedDimension
 13
5430.561240433615
 23
3081.859880288953
 33
0.0
 14
5430.561240433615
 24
4181.859880288953
 34
0.0
 50
90.0
100
AcDbRotatedDimension
  0
DIMENSION
  5
2AED
102
{ACAD_XDICTIONARY
360
2AF7
102
}
102
{ACAD_REACTORS
330
2AFE
102
}
330
1F
100
AcDbEntity
  8
wymiary
100
AcDbDimension
  2
*D164
 10
2795.624961721457
 20
4070.362701455532
 30
0.0
 11
2635.317292403986
 21
3946.855086362185
 31
0.0
 70
   163
 71
     5
 42
399.9999999999992
 73
     0
 74
     0
 75
     0
  3
CENTRALA
100
AcDbDiametricDimension
 15
2517.00748443493
 25
3783.35695003147
 35
0.0
 40
0.0
1001
ACAD
1000
DSTYLE
1002
{
1070
   288
1070
     1
1002
}
1001
ACAD_DSTYLE_DIMRADIAL_EXTENSION
1070
   387
1070
     1
1070
   388
1040
0.0
1070
   390
1040
0.0
  0
DIMENSION
  5
2B27
102
{ACAD_XDICTIONARY
360
2B31
102
}
102
{ACAD_REACTORS
330
2B38
102
}
330
1F
100
AcDbEntity
  8
wymiary
100
AcDbDimension
  2
*D167
 10
2944.994773279938
 20
3518.972035113525
 30
0.0
 11
2786.811820116137
 21
3403.898588603933
 31
0.0
 70
   163
 71
     5
 42
400.0
 73
     0
 74
     0
 75
     0
  3
CENTRALA
100
AcDbDiametricDimension
 15
2667.638058330983
 25
3230.747725464385
 35
0.0
 40
0.0
1001
ACAD
1000
DSTYLE
1002
{
1070
   288
1070
     1
1002
}
1001
ACAD_DSTYLE_DIMRADIAL_EXTENSION
1070
   387
1070
     1
1070
   388
1040
0.0
1070
   390
1040
0.0
  0
DIMENSION
  5
2B39
102
{ACAD_XDICTIONARY
360
2B43
102
}
102
{ACAD_REACTORS
330
2B4A
102
}
330
1F
100
AcDbEntity
  8
wymiary
100
AcDbDimension
  2
*D168
 10
6558.342350827928
 20
4066.134400869457
 30
0.0
 11
6386.224837365047
 21
3947.385756727534
 31
0.0
 70
   163
 71
     5
 42
400.0
 73
     0
 74
     0
 75
     0
  3
CENTRALA
100
AcDbDiametricDimension
 15
6271.270179295608
 25
3787.585359708448
 35
0.0
 40
0.0
1001
ACAD
1000
DSTYLE
1002
{
1070
   288
1070
     1
1002
}
1001
ACAD_DSTYLE_DIMRADIAL_EXTENSION
1070
   387
1070
     1
1070
   388
1040
0.0
1070
   390
1040
0.0
  0
DIMENSION
  5
2B4B
102
{ACAD_XDICTIONARY
360
2B55
102
}
102
{ACAD_REACTORS
330
2B5C
102
}
330
1F
100
AcDbEntity
  8
wymiary
100
AcDbDimension
  2
*D169
 10
6710.790099010181
 20
3511.566360867413
 30
0.0
 11
6546.243866043714
 21
3393.410202541046
 31
0.0
 70
   163
 71
     5
 42
400.0000000000018
 73
     0
 74
     0
 75
     0
  3
CENTRALA
100
AcDbDiametricDimension
 15
6418.822031113357
 25
3238.153399710491
 35
0.0
 40
0.0
1001
ACAD
1000
DSTYLE
1002
{
1070
   288
1070
     1
1002
}
1001
ACAD_DSTYLE_DIMRADIAL_EXTENSION
1070
   387
1070
     1
1070
   388
1040
0.0
1070
   390
1040
0.0
  0
DIMENSION
  5
2B5D
102
{ACAD_XDICTIONARY
360
2B6A
102
}
102
{ACAD_REACTORS
330
2B74
102
}
330
1F
100
AcDbEntity
  8
wymiary
100
AcDbDimension
  2
*D170
 10
2316.316215805458
 20
4297.81067835752
 30
0.0
 11
2486.316219441826
 21
4322.159928016456
 31
0.0
 70
    32
 71
     5
 42
340.0000072727353
 73
     0
 74
     0
 75
     0
  3
CENTRALA
100
AcDbAlignedDimension
 13
2656.316223078193
 23
4181.859880288953
 33
0.0
 14
2316.316215805458
 24
4181.859880288953
 34
0.0
100
AcDbRotatedDimension
  0
DIMENSION
  5
2B75
102
{ACAD_XDICTIONARY
360
2B82
102
}
102
{ACAD_REACTORS
330
2B8C
102
}
330
1F
100
AcDbEntity
  8
wymiary
100
AcDbDimension
  2
*D171
 10
3296.31621580546
 20
4361.986433020446
 30
0.0
 11
2806.316215805459
 21
4386.324768627542
 31
0.0
 70
    32
 71
     5
 42
980.0000000000016
 73
     0
 74
     0
 75
     0
  3
CENTRALA
100
AcDbAlignedDimension
 13
2316.316215805458
 23
4181.859880288953
 33
0.0
 14
3296.31621580546
 24
4181.859880288953
 34
0.0
100
AcDbRotatedDimension
  0
DIMENSION
  5
2B8D
102
{ACAD_XDICTIONARY
360
2B9A
102
}
102
{ACAD_REACTORS
330
2BA4
102
}
330
1F
100
AcDbEntity
  8
wymiary
100
AcDbDimension
  2
*D172
 10
2251.061606551153
 20
4181.859880288953
 30
0.0
 11
2226.723270944059
 21
4054.359853016227
 31
0.0
 70
    32
 71
     5
 42
255.0000545454536
 73
     0
 74
     0
 75
     0
  3
CENTRALA
100
AcDbAlignedDimension
 13
2446.316223078194
 23
3926.8598257435
 33
0.0
 14
2446.316223078194
 24
4181.859880288953
 34
0.0
 50
90.0
100
AcDbRotatedDimension
  0
DIMENSION
  5
2BA5
102
{ACAD_XDICTIONARY
360
2BB2
102
}
102
{ACAD_REACTORS
330
2BBC
102
}
330
1F
100
AcDbEntity
  8
wymiary
100
AcDbDimension
  2
*D173
 10
2248.817818172913
 20
3081.859880288953
 30
0.0
 11
2224.468568513976
 21
3228.359880288954
 31
0.0
 70
    32
 71
     5
 42
293.0
 73
     0
 74
     0
 75
     0
  3
CENTRALA
100
AcDbAlignedDimension
 13
2606.316415805459
 23
3374.859880288954
 33
0.0
 14
2606.316415805459
 24
3081.859880288953
 34
0.0
 50
90.0
100
AcDbRotatedDimension
  0
DIMENSION
  5
2BBD
102
{ACAD_XDICTIONARY
360
2BCA
102
}
102
{ACAD_REACTORS
330
2BD4
102
}
330
1F
100
AcDbEntity
  8
wymiary
100
AcDbDimension
  2
*D174
 10
2316.316215805458
 20
3024.591218526981
 30
0.0
 11
2561.316315805459
 21
3048.929554134075
 31
0.0
 70
    32
 71
     5
 42
490.0002000000013
 73
     0
 74
     0
 75
     0
  3
CENTRALA
100
AcDbAlignedDimension
 13
2806.31641580546
 23
3164.859880288954
 33
0.0
 14
2316.316215805458
 24
3164.859880288954
 34
0.0
100
AcDbRotatedDimension
  0
DIMENSION
  5
2BD5
330
1F
100
AcDbEntity
  8
wymiary
100
AcDbDimension
  2
*D175
 10
2179.026786617222
 20
4181.859880288953
 30
0.0
 11
2154.688451010127
 21
3631.859880288954
 31
0.0
 70
    32
 71
     5
 42
1100.0
 73
     0
 74
     0
 75
     0
  3
CENTRALA
100
AcDbAlignedDimension
 13
2316.731196125485
 23
3081.859880288953
 33
0.0
 14
2316.316215805458
 24
4181.859880288953
 34
0.0
 50
90.0
100
AcDbRotatedDimension
  0
DIMENSION
  5
2BEF
102
{ACAD_XDICTIONARY
360
2BFC
102
}
102
{ACAD_REACTORS
330
2C06
102
}
330
1F
100
AcDbEntity
  8
wymiary
100
AcDbDimension
  2
*D176
 10
7054.806265061768
 20
4302.96185238012
 30
0.0
 11
6734.948286280965
 21
4327.300187987216
 31
0.0
 70
    32
 71
     5
 42
639.7159575616097
 73
     0
 74
     0
 75
     0
  3
CENTRALA
100
AcDbAlignedDimension
 13
6415.090307500159
 23
4193.859880288953
 33
0.0
 14
7054.806265061768
 24
4181.859880288953
 34
0.0
100
AcDbRotatedDimension
  0
DIMENSION
  5
2C07
102
{ACAD_XDICTIONARY
360
2C14
102
}
102
{ACAD_REACTORS
330
2C1E
102
}
330
1F
100
AcDbEntity
  8
wymiary
100
AcDbDimension
  2
*D177
 10
7054.806265061768
 20
4365.487797877448
 30
0.0
 11
6564.806265061768
 21
4389.826133484542
 31
0.0
 70
    32
 71
     5
 42
980.0
 73
     0
 74
     0
 75
     0
  3
CENTRALA
100
AcDbAlignedDimension
 13
6074.806265061767
 23
4181.859880288953
 33
0.0
 14
7054.806265061768
 24
4186.859880288952
 34
0.0
100
AcDbRotatedDimension
  0
DIMENSION
  5
2C1F
102
{ACAD_XDICTIONARY
360
2C2C
102
}
102
{ACAD_REACTORS
330
2C36
102
}
330
1F
100
AcDbEntity
  8
wymiary
100
AcDbDimension
  2
*D178
 10
7124.061191278348
 20
4181.859880288953
 30
0.0
 11
7099.722855671251
 21
4054.359880288954
 31
0.0
 70
    32
 71
     5
 42
255.0000000000005
 73
     0
 74
     0
 75
     0
  3
CENTRALA
100
AcDbAlignedDimension
 13
6614.806265061769
 23
3926.859880288954
 33
0.0
 14
6614.806265061769
 24
4181.859880288953
 34
0.0
 50
90.0
100
AcDbRotatedDimension
  0
DIMENSION
  5
2C4F
102
{ACAD_XDICTIONARY
360
2C5C
102
}
102
{ACAD_REACTORS
330
2C66
102
}
330
1F
100
AcDbEntity
  8
wymiary
100
AcDbDimension
  2
*D180
 10
7125.818357235296
 20
3081.859880288953
 30
0.0
 11
7101.46910757636
 21
3228.359880288954
 31
0.0
 70
    32
 71
     5
 42
293.0
 73
     0
 74
     0
 75
     0
  3
CENTRALA
100
AcDbAlignedDimension
 13
6774.80606506177
 23
3374.859880288954
 33
0.0
 14
6774.80606506177
 24
3081.859880288953
 34
0.0
 50
90.0
100
AcDbRotatedDimension
  0
DIMENSION
  5
2C67
102
{ACAD_XDICTIONARY
360
2C74
102
}
102
{ACAD_REACTORS
330
2C7E
102
}
330
1F
100
AcDbEntity
  8
wymiary
100
AcDbDimension
  2
*D181
 10
7054.806265061768
 20
3008.739963193886
 30
0.0
 11
6809.806165061769
 21
3033.07829880098
 31
0.0
 70
    32
 71
     5
 42
490.0001999999984
 73
     0
 74
     0
 75
     0
  3
CENTRALA
100
AcDbAlignedDimension
 13
6564.80606506177
 23
3164.859880288954
 33
0.0
 14
7054.806265061768
 24
3164.859880288954
 34
0.0
100
AcDbRotatedDimension
  0
DIMENSION
  5
2C8C
102
{ACAD_XDICTIONARY
360
2C99
102
}
102
{ACAD_REACTORS
330
2CA3
102
}
330
1F
100
AcDbEntity
  8
wymiary
100
AcDbDimension
  2
*D182
 10
3940.561290433613
 20
2581.400641650009
 30
0.0
 11
4068.061340433613
 21
2605.738977257103
 31
0.0
 70
    32
 71
     5
 42
255.0000999999993
 73
     0
 74
     0
 75
     0
  3
CENTRALA
100
AcDbAlignedDimension
 13
4195.561390433613
 23
2400.892416250742
 33
0.0
 14
3940.561290433613
 24
2400.892416250742
 34
0.0
100
AcDbRotatedDimension
  0
DIMENSION
  5
2CA4
102
{ACAD_XDICTIONARY
360
2CB1
102
}
102
{ACAD_REACTORS
330
2CBB
102
}
330
1F
100
AcDbEntity
  8
wymiary
100
AcDbDimension
  2
*D183
 10
5430.561190433613
 20
2584.949193633347
 30
0.0
 11
5303.061190433613
 21
2609.287529240441
 31
0.0
 70
    32
 71
     5
 42
255.0
 73
     0
 74
     0
 75
     0
  3
CENTRALA
100
AcDbAlignedDimension
 13
5175.561190433612
 23
2100.892416250742
 33
0.0
 14
5430.561190433613
 24
2100.892416250742
 34
0.0
100
AcDbRotatedDimension
  0
DIMENSION
  5
2CBC
102
{ACAD_XDICTIONARY
360
2CC9
102
}
102
{ACAD_REACTORS
330
2CD3
102
}
330
1F
100
AcDbEntity
  8
wymiary
100
AcDbDimension
  2
*D184
 10
3815.039050317875
 20
1550.892416250742
 30
0.0
 11
3790.700714710779
 21
1870.892416250742
 31
0.0
 70
    32
 71
     5
 42
640.0
 73
     0
 74
     0
 75
     0
  3
CENTRALA
100
AcDbAlignedDimension
 13
3940.561290433613
 23
2190.892416250742
 33
0.0
 14
3940.561290433613
 24
1550.892416250742
 34
0.0
 50
90.0
100
AcDbRotatedDimension
  0
DIMENSION
  5
2CD4
102
{ACAD_XDICTIONARY
360
2CE1
102
}
102
{ACAD_REACTORS
330
2CEB
102
}
330
1F
100
AcDbEntity
  8
wymiary
100
AcDbDimension
  2
*D185
 10
5568.940210238641
 20
1550.892416250742
 30
0.0
 11
5544.590960579704
 21
1720.892416250743
 31
0.0
 70
    32
 71
     5
 42
340.0
 73
     0
 74
     0
 75
     0
  3
CENTRALA
100
AcDbAlignedDimension
 13
5385.561190433612
 23
1890.892416250742
 33
0.0
 14
5385.561190433612
 24
1550.892416250742
 34
0.0
 50
90.0
100
AcDbRotatedDimension
  0
TEXT
  5
2D0D
330
1F
100
AcDbEntity
  8
Centrala
100
AcDbText
 10
4518.380575397634
 20
3919.24393335644
 30
0.0
 40
38.100024
  1
PRO 2000 EC
 51
359.999998
  7
ARIAL
100
AcDbText
  0
ENDSEC
  0
SECTION
  2
OBJECTS
  0
DICTIONARY
  5
C
330
0
100
AcDbDictionary
281
     1
  3
ACAD_COLOR
350
6B
  3
ACAD_GROUP
350
D
  3
ACAD_LAYOUT
350
1A
  3
ACAD_MATERIAL
350
6A
  3
ACAD_MLEADERSTYLE
350
12D
  3
ACAD_MLINESTYLE
350
17
  3
ACAD_PLOTSETTINGS
350
19
  3
ACAD_PLOTSTYLENAME
350
E
  3
ACAD_SCALELIST
350
10C
  3
ACAD_TABLESTYLE
350
7E
  3
ACAD_VISUALSTYLE
350
EF
  3
ACDB_RECOMPOSE_DATA
350
1CC8
  3
AcDbVariableDictionary
350
5E
  3
AEC_PROPERTY_SET_DEFS
350
5A9
  0
DICTIONARY
  5
34D
330
8
100
AcDbDictionary
280
     1
281
     1
  0
DICTIONARY
  5
579
330
2
100
AcDbDictionary
280
     1
281
     1
  3
ACAD_LAYERSTATES
360
57A
  0
DICTIONARY
  5
13C
330
10
100
AcDbDictionary
280
     1
281
     1
  0
DICTIONARY
  5
56E
330
56D
100
AcDbDictionary
280
     1
281
     1
  0
DICTIONARY
  5
570
330
56F
100
AcDbDictionary
280
     1
281
     1
  0
DICTIONARY
  5
572
330
571
100
AcDbDictionary
280
     1
281
     1
  0
DICTIONARY
  5
574
330
573
100
AcDbDictionary
280
     1
281
     1
  0
DICTIONARY
  5
1CE
330
1F
100
AcDbDictionary
280
     1
281
     1
  3
ACAD_SORTENTS
360
3FD
  0
DICTIONARY
  5
1EC8
330
1EC7
100
AcDbDictionary
280
     1
281
     1
  0
DICTIONARY
  5
2D57
330
250A
100
AcDbDictionary
280
     1
281
     1
  3
ACAD_MTEXT_2008_RT
360
2D58
  0
DICTIONARY
  5
2A9C
330
2A8F
100
AcDbDictionary
280
     1
281
     1
  3
ACAD_DIMASSOC
360
2AA6
  0
DICTIONARY
  5
2AB4
330
2AA7
100
AcDbDictionary
280
     1
281
     1
  3
ACAD_DIMASSOC
360
2ABE
  0
DICTIONARY
  5
2AF7
330
2AED
100
AcDbDictionary
280
     1
281
     1
  3
ACAD_DIMASSOC
360
2AFE
  0
DICTIONARY
  5
2B31
330
2B27
100
AcDbDictionary
280
     1
281
     1
  3
ACAD_DIMASSOC
360
2B38
  0
DICTIONARY
  5
2B43
330
2B39
100
AcDbDictionary
280
     1
281
     1
  3
ACAD_DIMASSOC
360
2B4A
  0
DICTIONARY
  5
2B55
330
2B4B
100
AcDbDictionary
280
     1
281
     1
  3
ACAD_DIMASSOC
360
2B5C
  0
DICTIONARY
  5
2B6A
330
2B5D
100
AcDbDictionary
280
     1
281
     1
  3
ACAD_DIMASSOC
360
2B74
  0
DICTIONARY
  5
2B82
330
2B75
100
AcDbDictionary
280
     1
281
     1
  3
ACAD_DIMASSOC
360
2B8C
  0
DICTIONARY
  5
2B9A
330
2B8D
100
AcDbDictionary
280
     1
281
     1
  3
ACAD_DIMASSOC
360
2BA4
  0
DICTIONARY
  5
2BB2
330
2BA5
100
AcDbDictionary
280
     1
281
     1
  3
ACAD_DIMASSOC
360
2BBC
  0
DICTIONARY
  5
2BCA
330
2BBD
100
AcDbDictionary
280
     1
281
     1
  3
ACAD_DIMASSOC
360
2BD4
  0
DICTIONARY
  5
2BFC
330
2BEF
100
AcDbDictionary
280
     1
281
     1
  3
ACAD_DIMASSOC
360
2C06
  0
DICTIONARY
  5
2C14
330
2C07
100
AcDbDictionary
280
     1
281
     1
  3
ACAD_DIMASSOC
360
2C1E
  0
DICTIONARY
  5
2C2C
330
2C1F
100
AcDbDictionary
280
     1
281
     1
  3
ACAD_DIMASSOC
360
2C36
  0
DICTIONARY
  5
2C5C
330
2C4F
100
AcDbDictionary
280
     1
281
     1
  3
ACAD_DIMASSOC
360
2C66
  0
DICTIONARY
  5
2C74
330
2C67
100
AcDbDictionary
280
     1
281
     1
  3
ACAD_DIMASSOC
360
2C7E
  0
DICTIONARY
  5
2C99
330
2C8C
100
AcDbDictionary
280
     1
281
     1
  3
ACAD_DIMASSOC
360
2CA3
  0
DICTIONARY
  5
2CB1
330
2CA4
100
AcDbDictionary
280
     1
281
     1
  3
ACAD_DIMASSOC
360
2CBB
  0
DICTIONARY
  5
2CC9
330
2CBC
100
AcDbDictionary
280
     1
281
     1
  3
ACAD_DIMASSOC
360
2CD3
  0
DICTIONARY
  5
2CE1
330
2CD4
100
AcDbDictionary
280
     1
281
     1
  3
ACAD_DIMASSOC
360
2CEB
  0
DICTIONARY
  5
6B
102
{ACAD_REACTORS
330
C
102
}
330
C
100
AcDbDictionary
281
     1
  0
DICTIONARY
  5
D
102
{ACAD_REACTORS
330
C
102
}
330
C
100
AcDbDictionary
281
     1
  0
DICTIONARY
  5
1A
102
{ACAD_REACTORS
330
C
102
}
330
C
100
AcDbDictionary
281
     1
  3
Model
350
22
  3
Układ1
350
D3
  3
Układ2
350
D7
  0
DICTIONARY
  5
6A
102
{ACAD_REACTORS
330
C
102
}
330
C
100
AcDbDictionary
281
     1
  3
ByBlock
350
ED
  3
ByLayer
350
EC
  3
Global
350
EE
  0
DICTIONARY
  5
12D
102
{ACAD_REACTORS
330
C
102
}
330
C
100
AcDbDictionary
281
     1
  3
Standard
350
12E
  0
DICTIONARY
  5
17
102
{ACAD_REACTORS
330
C
102
}
330
C
100
AcDbDictionary
281
     1
  3
Standard
350
18
  0
DICTIONARY
  5
19
102
{ACAD_REACTORS
330
C
102
}
330
C
100
AcDbDictionary
281
     1
  0
ACDBDICTIONARYWDFLT
  5
E
102
{ACAD_REACTORS
330
C
102
}
330
C
100
AcDbDictionary
281
     1
  3
Normal
350
F
100
AcDbDictionaryWithDefault
340
F
  0
DICTIONARY
  5
10C
102
{ACAD_REACTORS
330
C
102
}
330
C
100
AcDbDictionary
281
     1
  3
A0
350
10D
  3
A1
350
1BE
  3
A2
350
1BF
  3
A3
350
1C0
  3
A4
350
1C1
  3
A5
350
1C2
  3
A6
350
1C3
  3
A7
350
1C4
  3
A8
350
1C5
  3
A9
350
1C6
  3
B0
350
1C7
  3
B1
350
1C8
  3
B2
350
1C9
  3
B3
350
1CA
  3
B4
350
1CB
  3
B5
350
1CC
  3
B6
350
1CD
  0
DICTIONARY
  5
7E
102
{ACAD_REACTORS
330
C
102
}
330
C
100
AcDbDictionary
281
     1
  3
Standard
350
7F
  0
DICTIONARY
  5
EF
102
{ACAD_REACTORS
330
C
102
}
330
C
100
AcDbDictionary
281
     1
  3
2dWireframe
350
F5
  3
3D Hidden
350
F7
  3
3dWireframe
350
F6
  3
Basic
350
F4
  3
Brighten
350
FB
  3
ColorChange
350
FF
  3
Conceptual
350
F8
  3
Dim
350
FA
  3
EdgeColorOff
350
1E6
  3
Facepattern
350
FE
  3
Flat
350
F0
  3
FlatWithEdges
350
F1
  3
Gouraud
350
F2
  3
GouraudWithEdges
350
F3
  3
JitterOff
350
1E4
  3
Linepattern
350
FD
  3
OverhangOff
350
1E5
  3
Realistic
350
F9
  3
Thicken
350
FC
  0
XRECORD
  5
1CC8
102
{ACAD_REACTORS
330
C
102
}
330
C
100
AcDbXrecord
280
     1
 90
        1
330
7F
330
250A
  0
DICTIONARY
  5
5E
102
{ACAD_REACTORS
330
C
102
}
330
C
100
AcDbDictionary
281
     1
  3
CANNOSCALE
350
146
  3
CMLEADERSTYLE
350
145
  3
CTABLESTYLE
350
84
  3
DIMASSOC
350
5F
  3
HIDETEXT
350
63
  3
INDEXCTL
350
390
  3
LAYEREVAL
350
1AE
  3
LAYERNOTIFY
350
1AF
  3
LIGHTINGUNITS
350
38E
  3
MSLTSCALE
350
38D
  3
SORTENTS
350
38F
  3
XCLIPFRAME
350
1CBC
  0
DICTIONARY
  5
5A9
102
{ACAD_REACTORS
330
C
102
}
330
C
100
AcDbDictionary
281
     1
  0
DICTIONARY
  5
57A
102
{ACAD_REACTORS
330
579
102
}
330
579
100
AcDbDictionary
281
     1
  0
SORTENTSTABLE
  5
3FD
102
{ACAD_REACTORS
330
1CE
102
}
330
1CE
100
AcDbSortentsTable
330
1F
331
282C
  5
284C
331
287B
  5
28C8
331
28EA
  5
2D0A
331
2834
  5
2854
331
2883
  5
28D0
331
283C
  5
285C
331
2844
  5
2864
331
281A
  5
283A
331
2865
  5
2885
331
2822
  5
2842
331
28DD
  5
2BEF
331
28E5
  5
2CD4
331
284C
  5
286C
331
28BB
  5
28DB
331
24F5
  5
21FF
331
2854
  5
2874
331
28C3
  5
28E3
331
24FD
  5
2334
331
2505
  5
233C
331
286C
  5
28B9
331
28CB
  5
28EB
331
28D3
  5
2AED
331
2874
  5
28C1
331
2AED
  5
2D13
331
285A
  5
287A
331
28EB
  5
2D0B
331
282D
  5
284D
331
287C
  5
28C9
331
2884
  5
28D1
331
2835
  5
2855
331
283D
  5
285D
331
28B4
  5
28D4
331
2845
  5
2865
331
2B5D
  5
2D17
331
2B75
  5
2D18
331
2B8D
  5
2D19
331
281B
  5
283B
331
2866
  5
2886
331
2823
  5
2843
331
2BA5
  5
2D1A
331
28DE
  5
2C07
331
28E6
  5
2D06
331
24F6
  5
2200
331
284D
  5
286D
331
28BC
  5
28DC
331
28C4
  5
28E4
331
24FE
  5
2335
331
2855
  5
2875
331
286D
  5
28BA
331
28CC
  5
28EC
331
2506
  5
233D
331
2875
  5
28C2
331
28D4
  5
2B27
331
2BBD
  5
2D1B
331
2BD5
  5
2D1C
331
285B
  5
287B
331
282E
  5
284E
331
287D
  5
28CA
331
28EC
  5
2D0C
331
2836
  5
2856
331
2885
  5
28D2
331
283E
  5
285E
331
28B5
  5
28D5
331
2846
  5
2866
331
281C
  5
283C
331
2A8F
  5
2D11
331
2AA7
  5
2D12
331
2867
  5
28B4
331
2824
  5
2844
331
28DF
  5
2C1F
331
28E7
  5
2D07
331
284E
  5
286E
331
28BD
  5
28DD
331
24F7
  5
2201
331
2856
  5
2876
331
28C5
  5
28E5
331
24FF
  5
2336
331
286E
  5
28BB
331
28CD
  5
28ED
331
28D5
  5
2B39
331
2817
  5
2837
331
2876
  5
28C3
331
2B27
  5
2D14
331
285C
  5
287C
331
287E
  5
28CB
331
28ED
  5
2D0D
331
282F
  5
284F
331
2886
  5
28D3
331
2837
  5
2857
331
283F
  5
285F
331
28B6
  5
28D6
331
2D0D
  5
234D
331
2847
  5
2867
331
2860
  5
2880
331
281D
  5
283D
331
28D8
  5
2B75
331
2825
  5
2845
331
28E0
  5
2C4F
331
24F8
  5
2202
331
284F
  5
286F
331
28BE
  5
28DE
331
28C6
  5
28E6
331
2857
  5
2877
331
286F
  5
28BC
331
28CE
  5
28EE
331
2877
  5
28C4
331
28D6
  5
2B4B
331
2C8C
  5
2D22
331
2CA4
  5
2D23
331
2CBC
  5
2D24
331
2CD4
  5
2D25
331
2BEF
  5
2D1D
331
285D
  5
287D
331
2828
  5
2848
331
2830
  5
2850
331
287F
  5
28CC
331
28EE
  5
2D0E
331
2838
  5
2858
331
28B7
  5
28D7
331
2840
  5
2860
331
2861
  5
2881
331
281E
  5
283E
331
28D9
  5
2B8D
331
2826
  5
2846
331
28E1
  5
2C67
331
2848
  5
2868
331
2850
  5
2870
331
28BF
  5
28DF
331
24F9
  5
226B
331
2868
  5
28B5
331
28C7
  5
28E7
331
2870
  5
28BD
331
28CF
  5
2997
331
28D7
  5
2B5D
331
2B39
  5
2D15
331
285E
  5
287E
331
2829
  5
2849
331
2878
  5
28C5
331
2880
  5
28CD
331
2831
  5
2851
331
2997
  5
2D0F
331
2839
  5
2859
331
2841
  5
2861
331
281F
  5
283F
331
2862
  5
2882
331
28DA
  5
2BA5
331
2827
  5
2847
331
28E2
  5
2C8C
331
2849
  5
2869
331
28B8
  5
28D8
331
28C0
  5
28E0
331
24FA
  5
226E
331
2851
  5
2871
331
28C8
  5
28E8
331
2869
  5
28B6
331
2871
  5
28BE
331
28D0
  5
2998
331
250A
  5
2341
331
285F
  5
287F
331
282A
  5
284A
331
2879
  5
28C6
331
28E8
  5
2D08
331
2832
  5
2852
331
2881
  5
28CE
331
2998
  5
2D10
331
283A
  5
285A
331
2842
  5
2862
331
2C07
  5
2D1E
331
2C1F
  5
2D1F
331
2C4F
  5
2D20
331
2C67
  5
2D21
331
2818
  5
2838
331
2863
  5
2883
331
2820
  5
2840
331
28DB
  5
2BBD
331
28E3
  5
2CA4
331
28B9
  5
28D9
331
284A
  5
286A
331
2852
  5
2872
331
28C1
  5
28E1
331
24FB
  5
2270
331
286A
  5
28B7
331
28C9
  5
28E9
331
28D1
  5
2A8F
331
2872
  5
28BF
331
2B4B
  5
2D16
331
2858
  5
2878
331
28E9
  5
2D09
331
282B
  5
284B
331
287A
  5
28C7
331
2882
  5
28CF
331
2833
  5
2853
331
283B
  5
285B
331
2843
  5
2863
331
2819
  5
2839
331
2864
  5
2884
331
2821
  5
2841
331
28DC
  5
2BD5
331
28E4
  5
2CBC
331
284B
  5
286B
331
28BA
  5
28DA
331
28C2
  5
28E2
331
24FC
  5
22AD
331
2853
  5
2873
331
28CA
  5
28EA
331
2504
  5
233B
331
286B
  5
28B8
331
2873
  5
28C0
331
28D2
  5
2AA7
331
2859
  5
2879
  0
XRECORD
  5
2D58
102
{ACAD_REACTORS
330
2D57
102
}
330
2D57
100
AcDbXrecord
280
     1
 40
3408168.0
  1
\pxqc;{\Fsimplex|c238;Możliwe jest wykorzystanie również otworów pod króćce oznaczone kolorem czerwonym. Dodatkowe króćce instalator może zamontować w dowolnym momencie.}
  0
DIMASSOC
  5
2AA6
102
{ACAD_REACTORS
330
2A9C
102
}
330
2A9C
100
AcDbDimAssoc
330
2A8F
 90
        3
 70
     0
 71
     0
  1
AcDbOsnapPointRef
 72
    13
331
2817
 73
     2
 91
        1
 40
0.0
 10
0.0
 20
0.0
 30
2.000000000000000E+50
 75
     0
  1
AcDbOsnapPointRef
 72
     1
331
2817
 73
     2
 91
        1
 40
1.0
 10
0.0
 20
0.0
 30
2.000000000000000E+50
 75
     0
  0
DIMASSOC
  5
2ABE
102
{ACAD_REACTORS
330
2AB4
102
}
330
2AB4
100
AcDbDimAssoc
330
2AA7
 90
        1
 70
     0
 71
     0
  1
AcDbOsnapPointRef
 72
     1
331
2817
 73
     2
 91
        2
 40
1.0
 10
0.0
 20
0.0
 30
2.000000000000000E+50
 75
     0
  0
DIMASSOC
  5
2AFE
102
{ACAD_REACTORS
330
2AF7
102
}
330
2AF7
100
AcDbDimAssoc
330
2AED
 90
        2
 70
     0
 71
     0
  1
AcDbOsnapPointRef
 72
     3
331
2851
 73
     2
 91
        0
 40
0.0
 10
0.0
 20
0.0
 30
0.0
 75
     0
  0
DIMASSOC
  5
2B38
102
{ACAD_REACTORS
330
2B31
102
}
330
2B31
100
AcDbDimAssoc
330
2B27
 90
        2
 70
     0
 71
     0
  1
AcDbOsnapPointRef
 72
     3
331
2831
 73
     2
 91
        0
 40
0.0
 10
0.0
 20
0.0
 30
0.0
 75
     0
  0
DIMASSOC
  5
2B4A
102
{ACAD_REACTORS
330
2B43
102
}
330
2B43
100
AcDbDimAssoc
330
2B39
 90
        2
 70
     0
 71
     0
  1
AcDbOsnapPointRef
 72
     3
331
2852
 73
     2
 91
        0
 40
0.0
 10
0.0
 20
0.0
 30
0.0
 75
     0
  0
DIMASSOC
  5
2B5C
102
{ACAD_REACTORS
330
2B55
102
}
330
2B55
100
AcDbDimAssoc
330
2B4B
 90
        2
 70
     0
 71
     0
  1
AcDbOsnapPointRef
 72
     3
331
2832
 73
     2
 91
        0
 40
0.0
 10
0.0
 20
0.0
 30
0.0
 75
     0
  0
DIMASSOC
  5
2B74
102
{ACAD_REACTORS
330
2B6A
102
}
330
2B6A
100
AcDbDimAssoc
330
2B5D
 90
        3
 70
     0
 71
     0
  1
AcDbOsnapPointRef
 72
     2
331
2865
 73
     2
 91
        4
 40
0.5
 10
0.0
 20
0.0
 30
0.0
 75
     0
  1
AcDbOsnapPointRef
 72
     1
331
282F
 73
     2
 91
        1
 40
1.0
 10
0.0
 20
0.0
 30
2.000000000000000E+50
 75
     0
  0
DIMASSOC
  5
2B8C
102
{ACAD_REACTORS
330
2B82
102
}
330
2B82
100
AcDbDimAssoc
330
2B75
 90
        2
 70
     0
 71
     0
  1
AcDbOsnapPointRef
 72
    13
331
282F
 73
     2
 91
        1
 40
0.0
 10
0.0
 20
0.0
 30
2.000000000000000E+50
 75
     0
  0
DIMASSOC
  5
2BA4
102
{ACAD_REACTORS
330
2B9A
102
}
330
2B9A
100
AcDbDimAssoc
330
2B8D
 90
        3
 70
     0
 71
     0
  1
AcDbOsnapPointRef
 72
    13
331
2878
 73
     2
 91
        0
 40
0.0
 10
0.0
 20
0.0
 30
2.000000000000000E+50
 75
     0
  1
AcDbOsnapPointRef
 72
     8
331
2865
 73
     2
 91
        4
 40
0.9468085106382979
 10
0.0
 20
0.0
 30
0.0
 75
     1
  1
AcDbOsnapPointRef
 72
    13
331
2878
 73
     2
 91
        0
 40
0.0
 10
0.0
 20
0.0
 30
2.000000000000000E+50
 75
     0
  0
DIMASSOC
  5
2BBC
102
{ACAD_REACTORS
330
2BB2
102
}
330
2BB2
100
AcDbDimAssoc
330
2BA5
 90
        3
 70
     0
 71
     0
  1
AcDbOsnapPointRef
 72
     5
331
2831
 73
     2
 91
        0
 40
3.141592653589792
 10
0.0
 20
0.0
 30
0.0
 75
     0
  1
AcDbOsnapPointRef
 72
     8
331
282F
 73
     2
 91
        3
 40
0.2959185714285722
 10
0.0
 20
0.0
 30
0.0
 75
     1
  1
AcDbOsnapPointRef
 72
     5
331
2831
 73
     2
 91
        0
 40
3.141592653589792
 10
0.0
 20
0.0
 30
0.0
 75
     0
  0
DIMASSOC
  5
2BD4
102
{ACAD_REACTORS
330
2BCA
102
}
330
2BCA
100
AcDbDimAssoc
330
2BBD
 90
        3
 70
     0
 71
     0
  1
AcDbOsnapPointRef
 72
    13
331
2875
 73
     2
 91
        0
 40
0.0
 10
0.0
 20
0.0
 30
2.000000000000000E+50
 75
     0
  1
AcDbOsnapPointRef
 72
     8
331
282F
 73
     2
 91
        2
 40
0.9245454545454546
 10
0.0
 20
0.0
 30
0.0
 75
     1
  1
AcDbOsnapPointRef
 72
    13
331
2875
 73
     2
 91
        0
 40
0.0
 10
0.0
 20
0.0
 30
2.000000000000000E+50
 75
     0
  0
DIMASSOC
  5
2C06
102
{ACAD_REACTORS
330
2BFC
102
}
330
2BFC
100
AcDbDimAssoc
330
2BEF
 90
        3
 70
     0
 71
     0
  1
AcDbOsnapPointRef
 72
    11
331
287F
 73
     2
 91
        0
 40
0.8544262908140717
 10
0.0
 20
0.0
 30
0.0
332
2870
 74
     2
 92
        0
 75
     0
  1
AcDbOsnapPointRef
 72
     1
331
282E
 73
     2
 91
        1
 40
1.0
 10
0.0
 20
0.0
 30
2.000000000000000E+50
 75
     0
  0
DIMASSOC
  5
2C1E
102
{ACAD_REACTORS
330
2C14
102
}
330
2C14
100
AcDbDimAssoc
330
2C07
 90
        1
 70
     0
 71
     0
  1
AcDbOsnapPointRef
 72
    13
331
282E
 73
     2
 91
        1
 40
0.0
 10
0.0
 20
0.0
 30
2.000000000000000E+50
 75
     0
  0
DIMASSOC
  5
2C36
102
{ACAD_REACTORS
330
2C2C
102
}
330
2C2C
100
AcDbDimAssoc
330
2C1F
 90
        3
 70
     0
 71
     0
  1
AcDbOsnapPointRef
 72
     5
331
2852
 73
     2
 91
        0
 40
0.0
 10
0.0
 20
0.0
 30
0.0
 75
     0
  1
AcDbOsnapPointRef
 72
     8
331
2868
 73
     2
 91
        4
 40
0.074468085106383
 10
0.0
 20
0.0
 30
0.0
 75
     1
  1
AcDbOsnapPointRef
 72
     5
331
2852
 73
     2
 91
        0
 40
0.0
 10
0.0
 20
0.0
 30
0.0
 75
     0
  0
DIMASSOC
  5
2C66
102
{ACAD_REACTORS
330
2C5C
102
}
330
2C5C
100
AcDbDimAssoc
330
2C4F
 90
        3
 70
     0
 71
     0
  1
AcDbOsnapPointRef
 72
     1
331
287C
 73
     2
 91
        0
 40
1.0
 10
0.0
 20
0.0
 30
2.000000000000000E+50
 75
     0
  1
AcDbOsnapPointRef
 72
     8
331
282E
 73
     2
 91
        3
 40
0.2857144897959169
 10
0.0
 20
0.0
 30
0.0
 75
     1
  1
AcDbOsnapPointRef
 72
     1
331
287C
 73
     2
 91
        0
 40
1.0
 10
0.0
 20
0.0
 30
2.000000000000000E+50
 75
     0
  0
DIMASSOC
  5
2C7E
102
{ACAD_REACTORS
330
2C74
102
}
330
2C74
100
AcDbDimAssoc
330
2C67
 90
        3
 70
     0
 71
     0
  1
AcDbOsnapPointRef
 72
    13
331
287B
 73
     2
 91
        0
 40
0.0
 10
0.0
 20
0.0
 30
2.000000000000000E+50
 75
     0
  1
AcDbOsnapPointRef
 72
     8
331
282E
 73
     2
 91
        2
 40
0.9245454545454546
 10
0.0
 20
0.0
 30
0.0
 75
     1
  1
AcDbOsnapPointRef
 72
    13
331
287B
 73
     2
 91
        0
 40
0.0
 10
0.0
 20
0.0
 30
2.000000000000000E+50
 75
     0
  0
DIMASSOC
  5
2CA3
102
{ACAD_REACTORS
330
2C99
102
}
330
2C99
100
AcDbDimAssoc
330
2C8C
 90
        3
 70
     0
 71
     0
  1
AcDbOsnapPointRef
 72
     1
331
28E9
 73
     2
 91
        0
 40
1.0
 10
0.0
 20
0.0
 30
2.000000000000000E+50
 75
     0
  1
AcDbOsnapPointRef
 72
     8
331
28D6
 73
     2
 91
        2
 40
0.0531914893617021
 10
0.0
 20
0.0
 30
0.0
 75
     1
  1
AcDbOsnapPointRef
 72
     1
331
28E9
 73
     2
 91
        0
 40
1.0
 10
0.0
 20
0.0
 30
2.000000000000000E+50
 75
     0
  0
DIMASSOC
  5
2CBB
102
{ACAD_REACTORS
330
2CB1
102
}
330
2CB1
100
AcDbDimAssoc
330
2CA4
 90
        3
 70
     0
 71
     0
  1
AcDbOsnapPointRef
 72
     1
331
28E7
 73
     2
 91
        0
 40
1.0
 10
0.0
 20
0.0
 30
2.000000000000000E+50
 75
     0
  1
AcDbOsnapPointRef
 72
     8
331
28DB
 73
     2
 91
        2
 40
0.65
 10
0.0
 20
0.0
 30
0.0
 75
     1
  1
AcDbOsnapPointRef
 72
     1
331
28E7
 73
     2
 91
        0
 40
1.0
 10
0.0
 20
0.0
 30
2.000000000000000E+50
 75
     0
  0
DIMASSOC
  5
2CD3
102
{ACAD_REACTORS
330
2CC9
102
}
330
2CC9
100
AcDbDimAssoc
330
2CBC
 90
        3
 70
     0
 71
     0
  1
AcDbOsnapPointRef
 72
     2
331
28D6
 73
     2
 91
        2
 40
0.5
 10
0.0
 20
0.0
 30
0.0
 75
     0
  1
AcDbOsnapPointRef
 72
     1
331
28B4
 73
     2
 91
        1
 40
1.0
 10
0.0
 20
0.0
 30
2.000000000000000E+50
 75
     0
  0
DIMASSOC
  5
2CEB
102
{ACAD_REACTORS
330
2CE1
102
}
330
2CE1
100
AcDbDimAssoc
330
2CD4
 90
        3
 70
     0
 71
     0
  1
AcDbOsnapPointRef
 72
     1
331
28E8
 73
     2
 91
        0
 40
1.0
 10
0.0
 20
0.0
 30
2.000000000000000E+50
 75
     0
  1
AcDbOsnapPointRef
 72
     8
331
28B4
 73
     2
 91
        1
 40
0.0302013443088151
 10
0.0
 20
0.0
 30
0.0
 75
     1
  1
AcDbOsnapPointRef
 72
     1
331
28E8
 73
     2
 91
        0
 40
1.0
 10
0.0
 20
0.0
 30
2.000000000000000E+50
 75
     0
  0
LAYOUT
  5
22
102
{ACAD_REACTORS
330
1A
102
}
330
1A
100
AcDbPlotSettings
  1

  2
none_device
  4
ISO_A4_(210.00_x_297.00_MM)
  6

 40
7.5
 41
20.0
 42
7.5
 43
20.0
 44
210.0
 45
297.0
 46
11.54999923706054
 47
-13.65000009536743
 48
0.0
 49
0.0
140
0.0
141
0.0
142
1.0
143
8.704084754739808
 70
 11952
 72
     1
 73
     0
 74
     0
  7

 75
     0
147
0.1148885871608098
 76
     0
 77
     2
 78
   300
148
0.0
149
0.0
100
AcDbLayout
  1
Model
 70
     1
 71
     0
 10
0.0
 20
0.0
 11
12.0
 21
9.0
 12
0.0
 22
0.0
 32
0.0
 14
0.0
 24
0.0
 34
0.0
 15
0.0
 25
0.0
 35
0.0
146
0.0
 13
0.0
 23
0.0
 33
0.0
 16
1.0
 26
0.0
 36
0.0
 17
0.0
 27
1.0
 37
0.0
 76
     0
330
1F
331
EA
1001
ACAD_PSEXT
1000
None
1000
None
1000
Not applicable
1000
The layout will not be plotted unless a new plotter configuration name is selected.
1070
     0
  0
LAYOUT
  5
D3
102
{ACAD_REACTORS
330
1A
102
}
330
1A
100
AcDbPlotSettings
  1

  2
C:\Documents and Settings\basas\Application Data\Autodesk\AutoCAD 2005\R16.1\enu\plotters\Default Windows System Printer.pc3
  4

  6

 40
0.0
 41
0.0
 42
0.0
 43
0.0
 44
0.0
 45
0.0
 46
0.0
 47
0.0
 48
0.0
 49
0.0
140
0.0
141
0.0
142
1.0
143
1.0
 70
   688
 72
     0
 73
     0
 74
     5
  7

 75
    16
147
1.0
 76
     0
 77
     2
 78
   300
148
0.0
149
0.0
100
AcDbLayout
  1
Układ1
 70
     1
 71
     1
 10
0.0
 20
0.0
 11
12.0
 21
9.0
 12
0.0
 22
0.0
 32
0.0
 14
0.0
 24
0.0
 34
0.0
 15
0.0
 25
0.0
 35
0.0
146
0.0
 13
0.0
 23
0.0
 33
0.0
 16
1.0
 26
0.0
 36
0.0
 17
0.0
 27
1.0
 37
0.0
 76
     0
330
D2
  0
LAYOUT
  5
D7
102
{ACAD_REACTORS
330
1A
102
}
330
1A
100
AcDbPlotSettings
  1

  2
C:\Documents and Settings\basas\Application Data\Autodesk\AutoCAD 2005\R16.1\enu\plotters\Default Windows System Printer.pc3
  4

  6

 40
0.0
 41
0.0
 42
0.0
 43
0.0
 44
0.0
 45
0.0
 46
0.0
 47
0.0
 48
0.0
 49
0.0
140
0.0
141
0.0
142
1.0
143
1.0
 70
   688
 72
     0
 73
     0
 74
     5
  7

 75
    16
147
1.0
 76
     0
 77
     2
 78
   300
148
0.0
149
0.0
100
AcDbLayout
  1
Układ2
 70
     1
 71
     2
 10
0.0
 20
0.0
 11
12.0
 21
9.0
 12
0.0
 22
0.0
 32
0.0
 14
0.0
 24
0.0
 34
0.0
 15
0.0
 25
0.0
 35
0.0
146
0.0
 13
0.0
 23
0.0
 33
0.0
 16
1.0
 26
0.0
 36
0.0
 17
0.0
 27
1.0
 37
0.0
 76
     0
330
D6
  0
MATERIAL
  5
ED
102
{ACAD_XDICTIONARY
360
43B
102
}
102
{ACAD_REACTORS
330
6A
102
}
330
6A
100
AcDbMaterial
  1
ByBlock
  0
MATERIAL
  5
EC
102
{ACAD_XDICTIONARY
360
439
102
}
102
{ACAD_REACTORS
330
6A
102
}
330
6A
100
AcDbMaterial
  1
ByLayer
  0
MATERIAL
  5
EE
102
{ACAD_XDICTIONARY
360
173
102
}
102
{ACAD_REACTORS
330
6A
102
}
330
6A
100
AcDbMaterial
  1
Global
 43
0.0007999999797903
 43
0.0
 43
0.0
 43
0.0
 43
0.0
 43
0.0007999999797903
 43
0.0
 43
0.0
 43
0.0
 43
0.0
 43
1.0
 43
0.0
 43
0.0
 43
0.0
 43
0.0
 43
1.0
 49
0.0007999999797903
 49
0.0
 49
0.0
 49
0.0
 49
0.0
 49
0.0007999999797903
 49
0.0
 49
0.0
 49
0.0
 49
0.0
 49
1.0
 49
0.0
 49
0.0
 49
0.0
 49
0.0
 49
1.0
142
0.0007999999797903
142
0.0
142
0.0
142
0.0
142
0.0
142
0.0007999999797903
142
0.0
142
0.0
142
0.0
142
0.0
142
1.0
142
0.0
142
0.0
142
0.0
142
0.0
142
1.0
144
0.0007999999797903
144
0.0
144
0.0
144
0.0
144
0.0
144
0.0007999999797903
144
0.0
144
0.0
144
0.0
144
0.0
144
1.0
144
0.0
144
0.0
144
0.0
144
0.0
144
1.0
1001
ACAD
1070
    -1
1070
     3
1070
     0
1000

1071
        0
1070
     0
  0
MLEADERSTYLE
  5
12E
102
{ACAD_REACTORS
330
12D
102
}
330
12D
100
AcDbMLeaderStyle
170
     2
171
     1
172
     0
 90
        2
 40
0.0
 41
0.0
173
     1
 91
-1056964608
340
14
 92
       -2
290
     1
 42
2.0
291
     1
 43
8.0
  3
Standard
 44
4.0
300

342
11
174
     1
178
     1
175
     1
176
     0
 93
-1056964608
 45
4.0
292
     0
297
     0
 46
4.0
 94
-1056964608
 47
1.0
 49
1.0
140
1.0
293
     1
141
0.0
294
     1
177
     0
142
1.0
295
     0
296
     0
143
3.75
1001
ACAD_MLEADERVER
1070
     2
  0
MLINESTYLE
  5
18
102
{ACAD_REACTORS
330
17
102
}
330
17
100
AcDbMlineStyle
  2
STANDARD
 70
     0
  3

 62
   256
 51
90.0
 52
90.0
 71
     2
 49
0.5
 62
   256
  6
BYLAYER
 49
-0.5
 62
   256
  6
BYLAYER
  0
ACDBPLACEHOLDER
  5
F
102
{ACAD_REACTORS
330
E
102
}
330
E
  0
SCALE
  5
10D
102
{ACAD_REACTORS
330
10C
102
}
330
10C
100
AcDbScale
 70
     0
300
1:1
140
1.0
141
1.0
290
     1
  0
SCALE
  5
1BE
102
{ACAD_REACTORS
330
10C
102
}
330
10C
100
AcDbScale
 70
     0
300
1:2
140
1.0
141
2.0
290
     0
  0
SCALE
  5
1BF
102
{ACAD_REACTORS
330
10C
102
}
330
10C
100
AcDbScale
 70
     0
300
1:4
140
1.0
141
4.0
290
     0
  0
SCALE
  5
1C0
102
{ACAD_REACTORS
330
10C
102
}
330
10C
100
AcDbScale
 70
     0
300
1:5
140
1.0
141
5.0
290
     0
  0
SCALE
  5
1C1
102
{ACAD_REACTORS
330
10C
102
}
330
10C
100
AcDbScale
 70
     0
300
1:8
140
1.0
141
8.0
290
     0
  0
SCALE
  5
1C2
102
{ACAD_REACTORS
330
10C
102
}
330
10C
100
AcDbScale
 70
     0
300
1:10
140
1.0
141
10.0
290
     0
  0
SCALE
  5
1C3
102
{ACAD_REACTORS
330
10C
102
}
330
10C
100
AcDbScale
 70
     0
300
1:16
140
1.0
141
16.0
290
     0
  0
SCALE
  5
1C4
102
{ACAD_REACTORS
330
10C
102
}
330
10C
100
AcDbScale
 70
     0
300
1:20
140
1.0
141
20.0
290
     0
  0
SCALE
  5
1C5
102
{ACAD_REACTORS
330
10C
102
}
330
10C
100
AcDbScale
 70
     0
300
1:30
140
1.0
141
30.0
290
     0
  0
SCALE
  5
1C6
102
{ACAD_REACTORS
330
10C
102
}
330
10C
100
AcDbScale
 70
     0
300
1:40
140
1.0
141
40.0
290
     0
  0
SCALE
  5
1C7
102
{ACAD_REACTORS
330
10C
102
}
330
10C
100
AcDbScale
 70
     0
300
1:50
140
1.0
141
50.0
290
     0
  0
SCALE
  5
1C8
102
{ACAD_REACTORS
330
10C
102
}
330
10C
100
AcDbScale
 70
     0
300
1:100
140
1.0
141
100.0
290
     0
  0
SCALE
  5
1C9
102
{ACAD_REACTORS
330
10C
102
}
330
10C
100
AcDbScale
 70
     0
300
2:1
140
2.0
141
1.0
290
     0
  0
SCALE
  5
1CA
102
{ACAD_REACTORS
330
10C
102
}
330
10C
100
AcDbScale
 70
     0
300
4:1
140
4.0
141
1.0
290
     0
  0
SCALE
  5
1CB
102
{ACAD_REACTORS
330
10C
102
}
330
10C
100
AcDbScale
 70
     0
300
8:1
140
8.0
141
1.0
290
     0
  0
SCALE
  5
1CC
102
{ACAD_REACTORS
330
10C
102
}
330
10C
100
AcDbScale
 70
     0
300
10:1
140
10.0
141
1.0
290
     0
  0
SCALE
  5
1CD
102
{ACAD_REACTORS
330
10C
102
}
330
10C
100
AcDbScale
 70
     0
300
100:1
140
100.0
141
1.0
290
     0
  0
TABLESTYLE
  5
7F
102
{ACAD_XDICTIONARY
360
162
102
}
102
{ACAD_REACTORS
330
7E
102
}
330
7E
100
AcDbTableStyle
  3
Standard
 70
     0
 71
     0
 40
1.5
 41
1.5
280
     0
281
     0
  7
Standard
140
4.5
170
     2
 62
     0
 63
     7
283
     0
 90
      512
 91
        0
  1

274
    -2
284
     1
 64
     0
275
    -2
285
     1
 65
     0
276
    -2
286
     1
 66
     0
277
    -2
287
     1
 67
     0
278
    -2
288
     1
 68
     0
279
    -2
289
     1
 69
     0
  7
Standard
140
6.0
170
     5
 62
     0
 63
     7
283
     0
 90
      512
 91
        0
  1

274
    -2
284
     1
 64
     0
275
    -2
285
     1
 65
     0
276
    -2
286
     1
 66
     0
277
    -2
287
     1
 67
     0
278
    -2
288
     1
 68
     0
279
    -2
289
     1
 69
     0
  7
Standard
140
4.5
170
     5
 62
     0
 63
     7
283
     0
 90
      512
 91
        0
  1

274
    -2
284
     1
 64
     0
275
    -2
285
     1
 65
     0
276
    -2
286
     1
 66
     0
277
    -2
287
     1
 67
     0
278
    -2
288
     1
 68
     0
279
    -2
289
     1
 69
     0
  0
VISUALSTYLE
  5
F5
102
{ACAD_XDICTIONARY
360
1CDD
102
}
102
{ACAD_REACTORS
330
EF
102
}
330
EF
100
AcDbVisualStyle
  2

 70
     4
 71
     0
 72
     2
 73
     1
 90
        0
 40
-0.6
 41
-30.0
 62
     5
 63
     7
 74
     1
 91
        4
 64
     7
 65
   257
 75
     1
175
     1
 42
1.0
 92
        0
 66
   257
 43
1.0
 76
     1
 77
     6
 78
     2
 67
     7
 79
     5
170
     0
171
     0
290
     0
174
     0
 93
        1
 44
0.0
173
     0
291
     0
 45
0.0
1001
ACAD
1000
AcDbSavedByObjectVersion
1070
     0
  0
VISUALSTYLE
  5
F7
102
{ACAD_XDICTIONARY
360
1CE1
102
}
102
{ACAD_REACTORS
330
EF
102
}
330
EF
100
AcDbVisualStyle
  2

 70
     6
 71
     1
 72
     2
 73
     2
 90
        0
 40
-0.6
 41
-30.0
 62
     5
 63
     7
 74
     2
 91
        2
 64
     7
 65
   257
 75
     2
175
     1
 42
40.0
 92
        0
 66
   257
 43
1.0
 76
     1
 77
     6
 78
     2
 67
     7
 79
     3
170
     0
171
     0
290
     0
174
     0
 93
        1
 44
0.0
173
     0
291
     0
 45
0.0
1001
ACAD
1000
AcDbSavedByObjectVersion
1070
     0
  0
VISUALSTYLE
  5
F6
102
{ACAD_XDICTIONARY
360
1CDF
102
}
102
{ACAD_REACTORS
330
EF
102
}
330
EF
100
AcDbVisualStyle
  2

 70
     5
 71
     0
 72
     2
 73
     1
 90
        0
 40
-0.6
 41
-30.0
 62
     5
 63
     7
 74
     1
 91
        4
 64
     7
 65
   257
 75
     1
175
     1
 42
1.0
 92
        0
 66
   257
 43
1.0
 76
     1
 77
     6
 78
     2
 67
     7
 79
     5
170
     0
171
     0
290
     0
174
     0
 93
        1
 44
0.0
173
     0
291
     0
 45
0.0
1001
ACAD
1000
AcDbSavedByObjectVersion
1070
     0
  0
VISUALSTYLE
  5
F4
102
{ACAD_XDICTIONARY
360
1CDB
102
}
102
{ACAD_REACTORS
330
EF
102
}
330
EF
100
AcDbVisualStyle
  2

 70
     7
 71
     1
 72
     0
 73
     1
 90
        0
 40
-0.6
 41
-30.0
 62
     5
 63
     7
 74
     0
 91
        4
 64
     7
 65
   257
 75
     1
175
     1
 42
1.0
 92
        8
 66
     7
 43
1.0
 76
     1
 77
     6
 78
     2
 67
     7
 79
     5
170
     0
171
     0
290
     0
174
     0
 93
        1
 44
0.0
173
     0
291
     1
 45
0.0
1001
ACAD
1000
AcDbSavedByObjectVersion
1070
     0
  0
VISUALSTYLE
  5
FB
102
{ACAD_XDICTIONARY
360
1CE9
102
}
102
{ACAD_REACTORS
330
EF
102
}
330
EF
100
AcDbVisualStyle
  2

 70
    12
 71
     2
 72
     2
 73
     1
 90
        0
 40
-0.6
 41
-30.0
 62
     5
 63
     7
 74
     1
 91
        4
 64
     7
 65
   257
 75
     1
175
     1
 42
1.0
 92
        8
 66
     7
 43
1.0
 76
     1
 77
     6
 78
     2
 67
     7
 79
     5
170
     0
171
     0
290
     0
174
     0
 93
        1
 44
50.0
173
     0
291
     1
 45
0.0
1001
ACAD
1000
AcDbSavedByObjectVersion
1070
     0
  0
VISUALSTYLE
  5
FF
102
{ACAD_XDICTIONARY
360
1CF1
102
}
102
{ACAD_REACTORS
330
EF
102
}
330
EF
100
AcDbVisualStyle
  2

 70
    16
 71
     2
 72
     2
 73
     3
 90
        0
 40
-0.6
 41
-30.0
 62
     5
 63
     8
 74
     1
 91
        4
 64
     7
 65
   257
 75
     1
175
     1
 42
1.0
 92
        8
 66
     8
 43
1.0
 76
     1
 77
     6
 78
     2
 67
     7
 79
     5
170
     0
171
     0
290
     0
174
     0
 93
        1
 44
0.0
173
     0
291
     1
 45
0.0
1001
ACAD
1000
AcDbSavedByObjectVersion
1070
     0
  0
VISUALSTYLE
  5
F8
102
{ACAD_XDICTIONARY
360
1CE3
102
}
102
{ACAD_REACTORS
330
EF
102
}
330
EF
100
AcDbVisualStyle
  2

 70
     9
 71
     3
 72
     2
 73
     1
 90
        0
 40
-0.6
 41
-30.0
 62
     5
 63
     7
 74
     2
 91
        2
 64
     7
 65
   257
 75
     1
175
     1
 42
40.0
 92
        8
 66
     7
 43
1.0
 76
     1
 77
     6
 78
     2
 67
     7
 79
     3
170
     0
171
     0
290
     0
174
     0
 93
        1
 44
0.0
173
     0
291
     0
 45
0.0
1001
ACAD
1000
AcDbSavedByObjectVersion
1070
     0
  0
VISUALSTYLE
  5
FA
102
{ACAD_XDICTIONARY
360
1CE7
102
}
102
{ACAD_REACTORS
330
EF
102
}
330
EF
100
AcDbVisualStyle
  2

 70
    11
 71
     2
 72
     2
 73
     1
 90
        0
 40
-0.6
 41
-30.0
 62
     5
 63
     7
 74
     1
 91
        4
 64
     7
 65
   257
 75
     1
175
     1
 42
1.0
 92
        8
 66
     7
 43
1.0
 76
     1
 77
     6
 78
     2
 67
     7
 79
     5
170
     0
171
     0
290
     0
174
     0
 93
        1
 44
-50.0
173
     0
291
     1
 45
0.0
1001
ACAD
1000
AcDbSavedByObjectVersion
1070
     0
  0
VISUALSTYLE
  5
1E6
102
{ACAD_XDICTIONARY
360
1CF7
102
}
102
{ACAD_REACTORS
330
EF
102
}
330
EF
100
AcDbVisualStyle
  2

 70
    22
 71
     2
 72
     2
 73
     0
 90
        0
 40
-0.6
 41
-30.0
 62
     5
 63
     7
 74
     1
 91
        4
 64
     7
 65
   257
 75
     1
175
     1
 42
1.0
 92
        8
 66
     7
 43
1.0
 76
     1
 77
     6
 78
     2
 67
     7
 79
     5
170
     0
171
     0
290
     0
174
     0
 93
        1
 44
0.0
173
     0
291
     1
 45
0.0
1001
ACAD
1000
AcDbSavedByObjectVersion
1070
     0
  0
VISUALSTYLE
  5
FE
102
{ACAD_XDICTIONARY
360
1CEF
102
}
102
{ACAD_REACTORS
330
EF
102
}
330
EF
100
AcDbVisualStyle
  2

 70
    15
 71
     2
 72
     2
 73
     1
 90
        0
 40
-0.6
 41
-30.0
 62
     5
 63
     7
 74
     1
 91
        4
 64
     7
 65
   257
 75
     1
175
     1
 42
1.0
 92
        8
 66
     7
 43
1.0
 76
     1
 77
     6
 78
     2
 67
     7
 79
     5
170
     0
171
     0
290
     0
174
     0
 93
        1
 44
0.0
173
     0
291
     1
 45
0.0
1001
ACAD
1000
AcDbSavedByObjectVersion
1070
     0
  0
VISUALSTYLE
  5
F0
102
{ACAD_XDICTIONARY
360
1CD3
102
}
102
{ACAD_REACTORS
330
EF
102
}
330
EF
100
AcDbVisualStyle
  2

 70
     0
 71
     2
 72
     1
 73
     1
 90
        2
 40
-0.6
 41
30.0
 62
     5
 63
     7
 74
     0
 91
        4
 64
     7
 65
   257
 75
     1
175
     1
 42
1.0
 92
        8
 66
     7
 43
1.0
 76
     1
 77
     6
 78
     2
 67
     7
 79
     5
170
     0
171
     0
290
     0
174
     0
 93
        1
 44
0.0
173
     0
291
     1
 45
0.0
1001
ACAD
1000
AcDbSavedByObjectVersion
1070
     0
  0
VISUALSTYLE
  5
F1
102
{ACAD_XDICTIONARY
360
1CD5
102
}
102
{ACAD_REACTORS
330
EF
102
}
330
EF
100
AcDbVisualStyle
  2

 70
     1
 71
     2
 72
     1
 73
     1
 90
        2
 40
-0.6
 41
30.0
 62
     5
 63
     7
 74
     1
 91
        4
 64
     7
 65
   257
 75
     1
175
     1
 42
1.0
 92
        0
 66
   257
 43
1.0
 76
     1
 77
     6
 78
     2
 67
     7
 79
     5
170
     0
171
     0
290
     0
174
     0
 93
        1
 44
0.0
173
     0
291
     1
 45
0.0
1001
ACAD
1000
AcDbSavedByObjectVersion
1070
     0
  0
VISUALSTYLE
  5
F2
102
{ACAD_XDICTIONARY
360
1CD7
102
}
102
{ACAD_REACTORS
330
EF
102
}
330
EF
100
AcDbVisualStyle
  2

 70
     2
 71
     2
 72
     2
 73
     1
 90
        2
 40
-0.6
 41
30.0
 62
     5
 63
     7
 74
     0
 91
        4
 64
     7
 65
   257
 75
     1
175
     1
 42
1.0
 92
        0
 66
     7
 43
1.0
 76
     1
 77
     6
 78
     2
 67
     7
 79
     5
170
     0
171
     0
290
     0
174
     0
 93
        1
 44
0.0
173
     0
291
     1
 45
0.0
1001
ACAD
1000
AcDbSavedByObjectVersion
1070
     0
  0
VISUALSTYLE
  5
F3
102
{ACAD_XDICTIONARY
360
1CD9
102
}
102
{ACAD_REACTORS
330
EF
102
}
330
EF
100
AcDbVisualStyle
  2

 70
     3
 71
     2
 72
     2
 73
     1
 90
        2
 40
-0.6
 41
30.0
 62
     5
 63
     7
 74
     1
 91
        4
 64
     7
 65
   257
 75
     1
175
     1
 42
1.0
 92
        0
 66
   257
 43
1.0
 76
     1
 77
     6
 78
     2
 67
     7
 79
     5
170
     0
171
     0
290
     0
174
     0
 93
        1
 44
0.0
173
     0
291
     1
 45
0.0
1001
ACAD
1000
AcDbSavedByObjectVersion
1070
     0
  0
VISUALSTYLE
  5
1E4
102
{ACAD_XDICTIONARY
360
1CF3
102
}
102
{ACAD_REACTORS
330
EF
102
}
330
EF
100
AcDbVisualStyle
  2

 70
    20
 71
     2
 72
     2
 73
     0
 90
        0
 40
-0.6
 41
-30.0
 62
     5
 63
     7
 74
     1
 91
        4
 64
     7
 65
   257
 75
     1
175
     1
 42
1.0
 92
       10
 66
     7
 43
1.0
 76
     1
 77
     6
 78
     2
 67
     7
 79
     5
170
     0
171
     0
290
     0
174
     0
 93
        1
 44
0.0
173
     0
291
     1
 45
0.0
1001
ACAD
1000
AcDbSavedByObjectVersion
1070
     0
  0
VISUALSTYLE
  5
FD
102
{ACAD_XDICTIONARY
360
1CED
102
}
102
{ACAD_REACTORS
330
EF
102
}
330
EF
100
AcDbVisualStyle
  2

 70
    14
 71
     2
 72
     2
 73
     1
 90
        0
 40
-0.6
 41
-30.0
 62
     5
 63
     7
 74
     1
 91
        4
 64
     7
 65
   257
 75
     7
175
     7
 42
1.0
 92
        8
 66
     7
 43
1.0
 76
     1
 77
     6
 78
     2
 67
     7
 79
     5
170
     0
171
     0
290
     0
174
     0
 93
        1
 44
0.0
173
     0
291
     1
 45
0.0
1001
ACAD
1000
AcDbSavedByObjectVersion
1070
     0
  0
VISUALSTYLE
  5
1E5
102
{ACAD_XDICTIONARY
360
1CF5
102
}
102
{ACAD_REACTORS
330
EF
102
}
330
EF
100
AcDbVisualStyle
  2

 70
    21
 71
     2
 72
     2
 73
     0
 90
        0
 40
-0.6
 41
-30.0
 62
     5
 63
     7
 74
     1
 91
        4
 64
     7
 65
   257
 75
     1
175
     1
 42
1.0
 92
        9
 66
     7
 43
1.0
 76
     1
 77
     6
 78
     2
 67
     7
 79
     5
170
     0
171
     0
290
     0
174
     0
 93
        1
 44
0.0
173
     0
291
     1
 45
0.0
1001
ACAD
1000
AcDbSavedByObjectVersion
1070
     0
  0
VISUALSTYLE
  5
F9
102
{ACAD_XDICTIONARY
360
1CE5
102
}
102
{ACAD_REACTORS
330
EF
102
}
330
EF
100
AcDbVisualStyle
  2

 70
     8
 71
     2
 72
     2
 73
     1
 90
        0
 40
-0.6
 41
-30.0
 62
     5
 63
     7
 74
     1
 91
        0
 64
     7
 65
   257
 75
     1
175
     1
 42
1.0
 92
        8
 66
     8
 43
1.0
 76
     1
 77
     6
 78
     2
 67
     7
 79
     5
170
     0
171
     0
290
     0
174
     0
 93
       13
 44
0.0
173
     0
291
     0
 45
0.0
1001
ACAD
1000
AcDbSavedByObjectVersion
1070
     0
  0
VISUALSTYLE
  5
FC
102
{ACAD_XDICTIONARY
360
1CEB
102
}
102
{ACAD_REACTORS
330
EF
102
}
330
EF
100
AcDbVisualStyle
  2

 70
    13
 71
     2
 72
     2
 73
     1
 90
        0
 40
-0.6
 41
-30.0
 62
     5
 63
     7
 74
     1
 91
        4
 64
     7
 65
   257
 75
     1
175
     1
 42
1.0
 92
       12
 66
     7
 43
1.0
 76
     1
 77
     6
 78
     2
 67
     7
 79
     5
170
     0
171
     0
290
     0
174
     0
 93
        1
 44
0.0
173
     0
291
     1
 45
0.0
1001
ACAD
1000
AcDbSavedByObjectVersion
1070
     0
  0
DICTIONARYVAR
  5
146
102
{ACAD_REACTORS
330
5E
102
}
330
5E
100
DictionaryVariables
280
     0
  1
1:1
  0
DICTIONARYVAR
  5
145
102
{ACAD_REACTORS
330
5E
102
}
330
5E
100
DictionaryVariables
280
     0
  1
STANDARD
  0
DICTIONARYVAR
  5
84
102
{ACAD_REACTORS
330
5E
102
}
330
5E
100
DictionaryVariables
280
     0
  1
STANDARD
  0
DICTIONARYVAR
  5
5F
102
{ACAD_REACTORS
330
5E
102
}
330
5E
100
DictionaryVariables
280
     0
  1
2
  0
DICTIONARYVAR
  5
63
102
{ACAD_REACTORS
330
5E
102
}
330
5E
100
DictionaryVariables
280
     0
  1
1
  0
DICTIONARYVAR
  5
390
102
{ACAD_REACTORS
330
5E
102
}
330
5E
100
DictionaryVariables
280
     0
  1
0
  0
DICTIONARYVAR
  5
1AE
102
{ACAD_REACTORS
330
5E
102
}
330
5E
100
DictionaryVariables
280
     0
  1
0
  0
DICTIONARYVAR
  5
1AF
102
{ACAD_REACTORS
330
5E
102
}
330
5E
100
DictionaryVariables
280
     0
  1
0
  0
DICTIONARYVAR
  5
38E
102
{ACAD_REACTORS
330
5E
102
}
330
5E
100
DictionaryVariables
280
     0
  1
2
  0
DICTIONARYVAR
  5
38D
102
{ACAD_REACTORS
330
5E
102
}
330
5E
100
DictionaryVariables
280
     0
  1
1
  0
DICTIONARYVAR
  5
38F
102
{ACAD_REACTORS
330
5E
102
}
330
5E
100
DictionaryVariables
280
     0
  1
127
  0
DICTIONARYVAR
  5
1CBC
102
{ACAD_REACTORS
330
5E
102
}
330
5E
100
DictionaryVariables
280
     0
  1
2
  0
DICTIONARY
  5
43B
330
ED
100
AcDbDictionary
280
     1
281
     1
  3
ACAD_XREC_ROUNDTRIP
360
43C
  0
DICTIONARY
  5
439
330
EC
100
AcDbDictionary
280
     1
281
     1
  3
ACAD_XREC_ROUNDTRIP
360
43A
  0
DICTIONARY
  5
173
330
EE
100
AcDbDictionary
280
     1
281
     1
  3
ACAD_XREC_ROUNDTRIP
360
43D
  3
BUMPTILE
360
175
  3
DIFFUSETILE
360
174
  3
OPACITYTILE
360
176
  3
REFLECTIONTILE
360
177
  0
DICTIONARY
  5
162
330
7F
100
AcDbDictionary
280
     1
281
     1
  3
ACAD_ROUNDTRIP_2008_TABLESTYLE_CELLSTYLEMAP
360
2D56
  0
DICTIONARY
  5
1CDD
330
F5
100
AcDbDictionary
280
     1
281
     1
  3
ACAD_XREC_ROUNDTRIP
360
1CDE
  0
DICTIONARY
  5
1CE1
330
F7
100
AcDbDictionary
280
     1
281
     1
  3
ACAD_XREC_ROUNDTRIP
360
1CE2
  0
DICTIONARY
  5
1CDF
330
F6
100
AcDbDictionary
280
     1
281
     1
  3
ACAD_XREC_ROUNDTRIP
360
1CE0
  0
DICTIONARY
  5
1CDB
330
F4
100
AcDbDictionary
280
     1
281
     1
  3
ACAD_XREC_ROUNDTRIP
360
1CDC
  0
DICTIONARY
  5
1CE9
330
FB
100
AcDbDictionary
280
     1
281
     1
  3
ACAD_XREC_ROUNDTRIP
360
1CEA
  0
DICTIONARY
  5
1CF1
330
FF
100
AcDbDictionary
280
     1
281
     1
  3
ACAD_XREC_ROUNDTRIP
360
1CF2
  0
DICTIONARY
  5
1CE3
330
F8
100
AcDbDictionary
280
     1
281
     1
  3
ACAD_XREC_ROUNDTRIP
360
1CE4
  0
DICTIONARY
  5
1CE7
330
FA
100
AcDbDictionary
280
     1
281
     1
  3
ACAD_XREC_ROUNDTRIP
360
1CE8
  0
DICTIONARY
  5
1CF7
330
1E6
100
AcDbDictionary
280
     1
281
     1
  3
ACAD_XREC_ROUNDTRIP
360
1CF8
  0
DICTIONARY
  5
1CEF
330
FE
100
AcDbDictionary
280
     1
281
     1
  3
ACAD_XREC_ROUNDTRIP
360
1CF0
  0
DICTIONARY
  5
1CD3
330
F0
100
AcDbDictionary
280
     1
281
     1
  3
ACAD_XREC_ROUNDTRIP
360
1CD4
  0
DICTIONARY
  5
1CD5
330
F1
100
AcDbDictionary
280
     1
281
     1
  3
ACAD_XREC_ROUNDTRIP
360
1CD6
  0
DICTIONARY
  5
1CD7
330
F2
100
AcDbDictionary
280
     1
281
     1
  3
ACAD_XREC_ROUNDTRIP
360
1CD8
  0
DICTIONARY
  5
1CD9
330
F3
100
AcDbDictionary
280
     1
281
     1
  3
ACAD_XREC_ROUNDTRIP
360
1CDA
  0
DICTIONARY
  5
1CF3
330
1E4
100
AcDbDictionary
280
     1
281
     1
  3
ACAD_XREC_ROUNDTRIP
360
1CF4
  0
DICTIONARY
  5
1CED
330
FD
100
AcDbDictionary
280
     1
281
     1
  3
ACAD_XREC_ROUNDTRIP
360
1CEE
  0
DICTIONARY
  5
1CF5
330
1E5
100
AcDbDictionary
280
     1
281
     1
  3
ACAD_XREC_ROUNDTRIP
360
1CF6
  0
DICTIONARY
  5
1CE5
330
F9
100
AcDbDictionary
280
     1
281
     1
  3
ACAD_XREC_ROUNDTRIP
360
1CE6
  0
DICTIONARY
  5
1CEB
330
FC
100
AcDbDictionary
280
     1
281
     1
  3
ACAD_XREC_ROUNDTRIP
360
1CEC
  0
XRECORD
  5
43C
102
{ACAD_REACTORS
330
43B
102
}
330
43B
100
AcDbXrecord
280
     1
102
MATERIAL
148
0.0
149
0.0
149
0.0
 93
        0
 94
      127
282
     0
 72
     1
 77
     1
171
     1
175
     1
179
     1
273
     0
  0
XRECORD
  5
43A
102
{ACAD_REACTORS
330
439
102
}
330
439
100
AcDbXrecord
280
     1
102
MATERIAL
148
0.0
149
0.0
149
0.0
 93
        0
 94
      127
282
     0
 72
     1
 77
     1
171
     1
175
     1
179
     1
273
     0
  0
XRECORD
  5
43D
102
{ACAD_REACTORS
330
173
102
}
330
173
100
AcDbXrecord
280
     1
102
MATERIAL
148
0.0
149
0.0
149
0.0
 93
        0
 94
      127
282
     0
 72
     1
 77
     1
171
     1
175
     1
179
     1
273
     0
  0
XRECORD
  5
175
102
{ACAD_REACTORS
330
173
102
}
330
173
100
AcDbXrecord
280
     1
270
     1
271
     1
  0
XRECORD
  5
174
102
{ACAD_REACTORS
330
173
102
}
330
173
100
AcDbXrecord
280
     1
270
     1
271
     1
  0
XRECORD
  5
176
102
{ACAD_REACTORS
330
173
102
}
330
173
100
AcDbXrecord
280
     1
270
     1
271
     1
  0
XRECORD
  5
177
102
{ACAD_REACTORS
330
173
102
}
330
173
100
AcDbXrecord
280
     1
270
     1
271
     1
  0
CELLSTYLEMAP
  5
2D56
102
{ACAD_REACTORS
330
162
102
}
330
162
100
AcDbCellStyleMap
 90
        3
300
CELLSTYLE
  1
TABLEFORMAT_BEGIN
 90
        5
170
     1
 91
        0
 92
    32768
 62
   257
 93
        1
300
CONTENTFORMAT
  1
CONTENTFORMAT_BEGIN
 90
        0
 91
        0
 92
      512
 93
        0
300

 40
0.0
140
1.0
 94
        5
 62
     0
340
11
144
6.0
309
CONTENTFORMAT_END
171
     1
301
MARGIN
  1
CELLMARGIN_BEGIN
 40
1.5
 40
1.5
 40
1.5
 40
1.5
 40
0.18
 40
0.18
309
CELLMARGIN_END
 94
        6
 95
        1
302
GRIDFORMAT
  1
GRIDFORMAT_BEGIN
 90
        0
 91
        1
 62
     0
 92
       -2
340
14
 93
        0
 40
1.125
309
GRIDFORMAT_END
 95
        2
302
GRIDFORMAT
  1
GRIDFORMAT_BEGIN
 90
        0
 91
        1
 62
     0
 92
       -2
340
14
 93
        0
 40
1.125
309
GRIDFORMAT_END
 95
        4
302
GRIDFORMAT
  1
GRIDFORMAT_BEGIN
 90
        0
 91
        1
 62
     0
 92
       -2
340
14
 93
        0
 40
1.125
309
GRIDFORMAT_END
 95
        8
302
GRIDFORMAT
  1
GRIDFORMAT_BEGIN
 90
        0
 91
        1
 62
     0
 92
       -2
340
14
 93
        0
 40
1.125
309
GRIDFORMAT_END
 95
       16
302
GRIDFORMAT
  1
GRIDFORMAT_BEGIN
 90
        0
 91
        1
 62
     0
 92
       -2
340
14
 93
        0
 40
1.125
309
GRIDFORMAT_END
 95
       32
302
GRIDFORMAT
  1
GRIDFORMAT_BEGIN
 90
        0
 91
        1
 62
     0
 92
       -2
340
14
 93
        0
 40
1.125
309
GRIDFORMAT_END
309
TABLEFORMAT_END
  1
CELLSTYLE_BEGIN
 90
        1
 91
        1
300
_TITLE
309
CELLSTYLE_END
300
CELLSTYLE
  1
TABLEFORMAT_BEGIN
 90
        5
170
     1
 91
        0
 92
        0
 62
   257
 93
        1
300
CONTENTFORMAT
  1
CONTENTFORMAT_BEGIN
 90
        0
 91
        0
 92
      512
 93
        0
300

 40
0.0
140
1.0
 94
        5
 62
     0
340
11
144
4.5
309
CONTENTFORMAT_END
171
     1
301
MARGIN
  1
CELLMARGIN_BEGIN
 40
1.5
 40
1.5
 40
1.5
 40
1.5
 40
0.18
 40
0.18
309
CELLMARGIN_END
 94
        6
 95
        1
302
GRIDFORMAT
  1
GRIDFORMAT_BEGIN
 90
        0
 91
        1
 62
     0
 92
       -2
340
14
 93
        0
 40
1.125
309
GRIDFORMAT_END
 95
        2
302
GRIDFORMAT
  1
GRIDFORMAT_BEGIN
 90
        0
 91
        1
 62
     0
 92
       -2
340
14
 93
        0
 40
1.125
309
GRIDFORMAT_END
 95
        4
302
GRIDFORMAT
  1
GRIDFORMAT_BEGIN
 90
        0
 91
        1
 62
     0
 92
       -2
340
14
 93
        0
 40
1.125
309
GRIDFORMAT_END
 95
        8
302
GRIDFORMAT
  1
GRIDFORMAT_BEGIN
 90
        0
 91
        1
 62
     0
 92
       -2
340
14
 93
        0
 40
1.125
309
GRIDFORMAT_END
 95
       16
302
GRIDFORMAT
  1
GRIDFORMAT_BEGIN
 90
        0
 91
        1
 62
     0
 92
       -2
340
14
 93
        0
 40
1.125
309
GRIDFORMAT_END
 95
       32
302
GRIDFORMAT
  1
GRIDFORMAT_BEGIN
 90
        0
 91
        1
 62
     0
 92
       -2
340
14
 93
        0
 40
1.125
309
GRIDFORMAT_END
309
TABLEFORMAT_END
  1
CELLSTYLE_BEGIN
 90
        2
 91
        1
300
_HEADER
309
CELLSTYLE_END
300
CELLSTYLE
  1
TABLEFORMAT_BEGIN
 90
        5
170
     1
 91
        0
 92
        0
 62
   257
 93
        1
300
CONTENTFORMAT
  1
CONTENTFORMAT_BEGIN
 90
        0
 91
        0
 92
      512
 93
        0
300

 40
0.0
140
1.0
 94
        2
 62
     0
340
11
144
4.5
309
CONTENTFORMAT_END
171
     1
301
MARGIN
  1
CELLMARGIN_BEGIN
 40
1.5
 40
1.5
 40
1.5
 40
1.5
 40
0.18
 40
0.18
309
CELLMARGIN_END
 94
        6
 95
        1
302
GRIDFORMAT
  1
GRIDFORMAT_BEGIN
 90
        0
 91
        1
 62
     0
 92
       -2
340
14
 93
        0
 40
1.125
309
GRIDFORMAT_END
 95
        2
302
GRIDFORMAT
  1
GRIDFORMAT_BEGIN
 90
        0
 91
        1
 62
     0
 92
       -2
340
14
 93
        0
 40
1.125
309
GRIDFORMAT_END
 95
        4
302
GRIDFORMAT
  1
GRIDFORMAT_BEGIN
 90
        0
 91
        1
 62
     0
 92
       -2
340
14
 93
        0
 40
1.125
309
GRIDFORMAT_END
 95
        8
302
GRIDFORMAT
  1
GRIDFORMAT_BEGIN
 90
        0
 91
        1
 62
     0
 92
       -2
340
14
 93
        0
 40
1.125
309
GRIDFORMAT_END
 95
       16
302
GRIDFORMAT
  1
GRIDFORMAT_BEGIN
 90
        0
 91
        1
 62
     0
 92
       -2
340
14
 93
        0
 40
1.125
309
GRIDFORMAT_END
 95
       32
302
GRIDFORMAT
  1
GRIDFORMAT_BEGIN
 90
        0
 91
        1
 62
     0
 92
       -2
340
14
 93
        0
 40
1.125
309
GRIDFORMAT_END
309
TABLEFORMAT_END
  1
CELLSTYLE_BEGIN
 90
        3
 91
        2
300
_DATA
309
CELLSTYLE_END
  0
XRECORD
  5
1CDE
102
{ACAD_REACTORS
330
1CDD
102
}
330
1CDD
100
AcDbXrecord
280
     1
102
RTVSPropertyOp0
 70
     1
102
RTVSPropertyOp1
 70
     1
102
RTVSPropertyOp2
 70
     1
102
RTVSPropertyOp3
 70
     1
102
RTVSPropertyOp4
 70
     1
102
RTVSPropertyOp5
 70
     1
102
RTVSPropertyOp6
 70
     1
102
RTVSPropertyOp7
 70
     1
102
RTVSPropertyOp8
 70
     1
102
RTVSPropertyOp9
 70
     1
102
RTVSPropertyOp10
 70
     1
102
RTVSPropertyOp11
 70
     1
102
RTVSPropertyOp12
 70
     1
102
RTVSPropertyOp13
 70
     1
102
RTVSPropertyOp14
 70
     1
102
RTVSPropertyOp15
 70
     1
102
RTVSPropertyOp16
 70
     1
102
RTVSPropertyOp17
 70
     1
102
RTVSPropertyOp18
 70
     1
102
RTVSPropertyOp19
 70
     1
102
RTVSPropertyOp20
 70
     1
102
RTVSPropertyOp21
 70
     1
102
RTVSPropertyOp22
 70
     1
102
RTVSPropertyOp23
 70
     1
102
RTVSPropertyOp24
 70
     1
102
RTVSPropertyOp25
 70
     1
102
RTVSPropertyOp26
 70
     1
102
RTVSPropertyOp27
 70
     1
  0
XRECORD
  5
1CE2
102
{ACAD_REACTORS
330
1CE1
102
}
330
1CE1
100
AcDbXrecord
280
     1
102
RTVSPropertyOp0
 70
     1
102
RTVSPropertyOp1
 70
     1
102
RTVSPropertyOp2
 70
     1
102
RTVSPropertyOp3
 70
     1
102
RTVSPropertyOp4
 70
     1
102
RTVSPropertyOp5
 70
     1
102
RTVSPropertyOp6
 70
     1
102
RTVSPropertyOp7
 70
     1
102
RTVSPropertyOp8
 70
     1
102
RTVSPropertyOp9
 70
     1
102
RTVSPropertyOp10
 70
     1
102
RTVSPropertyOp11
 70
     1
102
RTVSPropertyOp12
 70
     1
102
RTVSPropertyOp13
 70
     1
102
RTVSPropertyOp14
 70
     1
102
RTVSPropertyOp15
 70
     1
102
RTVSPropertyOp16
 70
     1
102
RTVSPropertyOp17
 70
     1
102
RTVSPropertyOp18
 70
     1
102
RTVSPropertyOp19
 70
     1
102
RTVSPropertyOp20
 70
     1
102
RTVSPropertyOp21
 70
     1
102
RTVSPropertyOp22
 70
     1
102
RTVSPropertyOp23
 70
     1
102
RTVSPropertyOp24
 70
     1
102
RTVSPropertyOp25
 70
     1
102
RTVSPropertyOp26
 70
     1
102
RTVSPropertyOp27
 70
     1
  0
XRECORD
  5
1CE0
102
{ACAD_REACTORS
330
1CDF
102
}
330
1CDF
100
AcDbXrecord
280
     1
102
RTVSPropertyOp0
 70
     1
102
RTVSPropertyOp1
 70
     1
102
RTVSPropertyOp2
 70
     1
102
RTVSPropertyOp3
 70
     1
102
RTVSPropertyOp4
 70
     1
102
RTVSPropertyOp5
 70
     1
102
RTVSPropertyOp6
 70
     1
102
RTVSPropertyOp7
 70
     1
102
RTVSPropertyOp8
 70
     1
102
RTVSPropertyOp9
 70
     1
102
RTVSPropertyOp10
 70
     1
102
RTVSPropertyOp11
 70
     1
102
RTVSPropertyOp12
 70
     1
102
RTVSPropertyOp13
 70
     1
102
RTVSPropertyOp14
 70
     1
102
RTVSPropertyOp15
 70
     1
102
RTVSPropertyOp16
 70
     1
102
RTVSPropertyOp17
 70
     1
102
RTVSPropertyOp18
 70
     1
102
RTVSPropertyOp19
 70
     1
102
RTVSPropertyOp20
 70
     1
102
RTVSPropertyOp21
 70
     1
102
RTVSPropertyOp22
 70
     1
102
RTVSPropertyOp23
 70
     1
102
RTVSPropertyOp24
 70
     1
102
RTVSPropertyOp25
 70
     1
102
RTVSPropertyOp26
 70
     1
102
RTVSPropertyOp27
 70
     1
  0
XRECORD
  5
1CDC
102
{ACAD_REACTORS
330
1CDB
102
}
330
1CDB
100
AcDbXrecord
280
     1
102
RTVSPropertyOp0
 70
     1
102
RTVSPropertyOp1
 70
     1
102
RTVSPropertyOp2
 70
     1
102
RTVSPropertyOp3
 70
     1
102
RTVSPropertyOp4
 70
     1
102
RTVSPropertyOp5
 70
     1
102
RTVSPropertyOp6
 70
     1
102
RTVSPropertyOp7
 70
     1
102
RTVSPropertyOp8
 70
     1
102
RTVSPropertyOp9
 70
     1
102
RTVSPropertyOp10
 70
     1
102
RTVSPropertyOp11
 70
     1
102
RTVSPropertyOp12
 70
     1
102
RTVSPropertyOp13
 70
     1
102
RTVSPropertyOp14
 70
     1
102
RTVSPropertyOp15
 70
     1
102
RTVSPropertyOp16
 70
     1
102
RTVSPropertyOp17
 70
     1
102
RTVSPropertyOp18
 70
     1
102
RTVSPropertyOp19
 70
     1
102
RTVSPropertyOp20
 70
     1
102
RTVSPropertyOp21
 70
     1
102
RTVSPropertyOp22
 70
     1
102
RTVSPropertyOp23
 70
     1
102
RTVSPropertyOp24
 70
     1
102
RTVSPropertyOp25
 70
     1
102
RTVSPropertyOp26
 70
     1
102
RTVSPropertyOp27
 70
     1
  0
XRECORD
  5
1CEA
102
{ACAD_REACTORS
330
1CE9
102
}
330
1CE9
100
AcDbXrecord
280
     1
102
RTVSPropertyOp0
 70
     1
102
RTVSPropertyOp1
 70
     1
102
RTVSPropertyOp2
 70
     1
102
RTVSPropertyOp3
 70
     1
102
RTVSPropertyOp4
 70
     1
102
RTVSPropertyOp5
 70
     1
102
RTVSPropertyOp6
 70
     1
102
RTVSPropertyOp7
 70
     1
102
RTVSPropertyOp8
 70
     1
102
RTVSPropertyOp9
 70
     1
102
RTVSPropertyOp10
 70
     1
102
RTVSPropertyOp11
 70
     1
102
RTVSPropertyOp12
 70
     1
102
RTVSPropertyOp13
 70
     1
102
RTVSPropertyOp14
 70
     1
102
RTVSPropertyOp15
 70
     1
102
RTVSPropertyOp16
 70
     1
102
RTVSPropertyOp17
 70
     1
102
RTVSPropertyOp18
 70
     1
102
RTVSPropertyOp19
 70
     1
102
RTVSPropertyOp20
 70
     1
102
RTVSPropertyOp21
 70
     1
102
RTVSPropertyOp22
 70
     1
102
RTVSPropertyOp23
 70
     1
102
RTVSPropertyOp24
 70
     1
102
RTVSPropertyOp25
 70
     1
102
RTVSPropertyOp26
 70
     1
102
RTVSPropertyOp27
 70
     1
  0
XRECORD
  5
1CF2
102
{ACAD_REACTORS
330
1CF1
102
}
330
1CF1
100
AcDbXrecord
280
     1
102
RTVSPropertyOp0
 70
     1
102
RTVSPropertyOp1
 70
     1
102
RTVSPropertyOp2
 70
     1
102
RTVSPropertyOp3
 70
     1
102
RTVSPropertyOp4
 70
     1
102
RTVSPropertyOp5
 70
     1
102
RTVSPropertyOp6
 70
     1
102
RTVSPropertyOp7
 70
     1
102
RTVSPropertyOp8
 70
     1
102
RTVSPropertyOp9
 70
     1
102
RTVSPropertyOp10
 70
     1
102
RTVSPropertyOp11
 70
     1
102
RTVSPropertyOp12
 70
     1
102
RTVSPropertyOp13
 70
     1
102
RTVSPropertyOp14
 70
     1
102
RTVSPropertyOp15
 70
     1
102
RTVSPropertyOp16
 70
     1
102
RTVSPropertyOp17
 70
     1
102
RTVSPropertyOp18
 70
     1
102
RTVSPropertyOp19
 70
     1
102
RTVSPropertyOp20
 70
     1
102
RTVSPropertyOp21
 70
     1
102
RTVSPropertyOp22
 70
     1
102
RTVSPropertyOp23
 70
     1
102
RTVSPropertyOp24
 70
     1
102
RTVSPropertyOp25
 70
     1
102
RTVSPropertyOp26
 70
     1
102
RTVSPropertyOp27
 70
     1
  0
XRECORD
  5
1CE4
102
{ACAD_REACTORS
330
1CE3
102
}
330
1CE3
100
AcDbXrecord
280
     1
102
RTVSPropertyOp0
 70
     1
102
RTVSPropertyOp1
 70
     1
102
RTVSPropertyOp2
 70
     1
102
RTVSPropertyOp3
 70
     1
102
RTVSPropertyOp4
 70
     1
102
RTVSPropertyOp5
 70
     1
102
RTVSPropertyOp6
 70
     1
102
RTVSPropertyOp7
 70
     1
102
RTVSPropertyOp8
 70
     1
102
RTVSPropertyOp9
 70
     1
102
RTVSPropertyOp10
 70
     1
102
RTVSPropertyOp11
 70
     1
102
RTVSPropertyOp12
 70
     1
102
RTVSPropertyOp13
 70
     1
102
RTVSPropertyOp14
 70
     1
102
RTVSPropertyOp15
 70
     1
102
RTVSPropertyOp16
 70
     1
102
RTVSPropertyOp17
 70
     1
102
RTVSPropertyOp18
 70
     1
102
RTVSPropertyOp19
 70
     1
102
RTVSPropertyOp20
 70
     1
102
RTVSPropertyOp21
 70
     1
102
RTVSPropertyOp22
 70
     1
102
RTVSPropertyOp23
 70
     1
102
RTVSPropertyOp24
 70
     1
102
RTVSPropertyOp25
 70
     1
102
RTVSPropertyOp26
 70
     1
102
RTVSPropertyOp27
 70
     1
  0
XRECORD
  5
1CE8
102
{ACAD_REACTORS
330
1CE7
102
}
330
1CE7
100
AcDbXrecord
280
     1
102
RTVSPropertyOp0
 70
     1
102
RTVSPropertyOp1
 70
     1
102
RTVSPropertyOp2
 70
     1
102
RTVSPropertyOp3
 70
     1
102
RTVSPropertyOp4
 70
     1
102
RTVSPropertyOp5
 70
     1
102
RTVSPropertyOp6
 70
     1
102
RTVSPropertyOp7
 70
     1
102
RTVSPropertyOp8
 70
     1
102
RTVSPropertyOp9
 70
     1
102
RTVSPropertyOp10
 70
     1
102
RTVSPropertyOp11
 70
     1
102
RTVSPropertyOp12
 70
     1
102
RTVSPropertyOp13
 70
     1
102
RTVSPropertyOp14
 70
     1
102
RTVSPropertyOp15
 70
     1
102
RTVSPropertyOp16
 70
     1
102
RTVSPropertyOp17
 70
     1
102
RTVSPropertyOp18
 70
     1
102
RTVSPropertyOp19
 70
     1
102
RTVSPropertyOp20
 70
     1
102
RTVSPropertyOp21
 70
     1
102
RTVSPropertyOp22
 70
     1
102
RTVSPropertyOp23
 70
     1
102
RTVSPropertyOp24
 70
     1
102
RTVSPropertyOp25
 70
     1
102
RTVSPropertyOp26
 70
     1
102
RTVSPropertyOp27
 70
     1
  0
XRECORD
  5
1CF8
102
{ACAD_REACTORS
330
1CF7
102
}
330
1CF7
100
AcDbXrecord
280
     1
102
RTVSPropertyOp0
 70
     0
102
RTVSPropertyOp1
 70
     0
102
RTVSPropertyOp2
 70
     0
102
RTVSPropertyOp3
 70
     0
102
RTVSPropertyOp4
 70
     0
102
RTVSPropertyOp5
 70
     0
102
RTVSPropertyOp6
 70
     0
102
RTVSPropertyOp7
 70
     0
102
RTVSPropertyOp8
 70
     0
102
RTVSPropertyOp9
 70
     0
102
RTVSPropertyOp10
 70
     0
102
RTVSPropertyOp11
 70
     0
102
RTVSPropertyOp12
 70
     0
102
RTVSPropertyOp13
 70
     0
102
RTVSPropertyOp14
 70
     2
102
RTVSPropertyOp15
 70
     0
102
RTVSPropertyOp16
 70
     0
102
RTVSPropertyOp17
 70
     0
102
RTVSPropertyOp18
 70
     0
102
RTVSPropertyOp19
 70
     0
102
RTVSPropertyOp20
 70
     0
102
RTVSPropertyOp21
 70
     0
102
RTVSPropertyOp22
 70
     0
102
RTVSPropertyOp23
 70
     0
102
RTVSPropertyOp24
 70
     0
102
RTVSPropertyOp25
 70
     0
102
RTVSPropertyOp26
 70
     0
102
RTVSPropertyOp27
 70
     0
  0
XRECORD
  5
1CF0
102
{ACAD_REACTORS
330
1CEF
102
}
330
1CEF
100
AcDbXrecord
280
     1
102
RTVSPropertyOp0
 70
     1
102
RTVSPropertyOp1
 70
     1
102
RTVSPropertyOp2
 70
     1
102
RTVSPropertyOp3
 70
     1
102
RTVSPropertyOp4
 70
     1
102
RTVSPropertyOp5
 70
     1
102
RTVSPropertyOp6
 70
     1
102
RTVSPropertyOp7
 70
     1
102
RTVSPropertyOp8
 70
     1
102
RTVSPropertyOp9
 70
     1
102
RTVSPropertyOp10
 70
     1
102
RTVSPropertyOp11
 70
     1
102
RTVSPropertyOp12
 70
     1
102
RTVSPropertyOp13
 70
     1
102
RTVSPropertyOp14
 70
     1
102
RTVSPropertyOp15
 70
     1
102
RTVSPropertyOp16
 70
     1
102
RTVSPropertyOp17
 70
     1
102
RTVSPropertyOp18
 70
     1
102
RTVSPropertyOp19
 70
     1
102
RTVSPropertyOp20
 70
     1
102
RTVSPropertyOp21
 70
     1
102
RTVSPropertyOp22
 70
     1
102
RTVSPropertyOp23
 70
     1
102
RTVSPropertyOp24
 70
     1
102
RTVSPropertyOp25
 70
     1
102
RTVSPropertyOp26
 70
     1
102
RTVSPropertyOp27
 70
     1
  0
XRECORD
  5
1CD4
102
{ACAD_REACTORS
330
1CD3
102
}
330
1CD3
100
AcDbXrecord
280
     1
102
RTVSPropertyOp0
 70
     1
102
RTVSPropertyOp1
 70
     1
102
RTVSPropertyOp2
 70
     1
102
RTVSPropertyOp3
 70
     1
102
RTVSPropertyOp4
 70
     1
102
RTVSPropertyOp5
 70
     1
102
RTVSPropertyOp6
 70
     1
102
RTVSPropertyOp7
 70
     1
102
RTVSPropertyOp8
 70
     1
102
RTVSPropertyOp9
 70
     1
102
RTVSPropertyOp10
 70
     1
102
RTVSPropertyOp11
 70
     1
102
RTVSPropertyOp12
 70
     1
102
RTVSPropertyOp13
 70
     1
102
RTVSPropertyOp14
 70
     1
102
RTVSPropertyOp15
 70
     1
102
RTVSPropertyOp16
 70
     1
102
RTVSPropertyOp17
 70
     1
102
RTVSPropertyOp18
 70
     1
102
RTVSPropertyOp19
 70
     1
102
RTVSPropertyOp20
 70
     1
102
RTVSPropertyOp21
 70
     1
102
RTVSPropertyOp22
 70
     1
102
RTVSPropertyOp23
 70
     1
102
RTVSPropertyOp24
 70
     1
102
RTVSPropertyOp25
 70
     1
102
RTVSPropertyOp26
 70
     1
102
RTVSPropertyOp27
 70
     1
  0
XRECORD
  5
1CD6
102
{ACAD_REACTORS
330
1CD5
102
}
330
1CD5
100
AcDbXrecord
280
     1
102
RTVSPropertyOp0
 70
     1
102
RTVSPropertyOp1
 70
     1
102
RTVSPropertyOp2
 70
     1
102
RTVSPropertyOp3
 70
     1
102
RTVSPropertyOp4
 70
     1
102
RTVSPropertyOp5
 70
     1
102
RTVSPropertyOp6
 70
     1
102
RTVSPropertyOp7
 70
     1
102
RTVSPropertyOp8
 70
     1
102
RTVSPropertyOp9
 70
     1
102
RTVSPropertyOp10
 70
     1
102
RTVSPropertyOp11
 70
     1
102
RTVSPropertyOp12
 70
     1
102
RTVSPropertyOp13
 70
     1
102
RTVSPropertyOp14
 70
     1
102
RTVSPropertyOp15
 70
     1
102
RTVSPropertyOp16
 70
     1
102
RTVSPropertyOp17
 70
     1
102
RTVSPropertyOp18
 70
     1
102
RTVSPropertyOp19
 70
     1
102
RTVSPropertyOp20
 70
     1
102
RTVSPropertyOp21
 70
     1
102
RTVSPropertyOp22
 70
     1
102
RTVSPropertyOp23
 70
     1
102
RTVSPropertyOp24
 70
     1
102
RTVSPropertyOp25
 70
     1
102
RTVSPropertyOp26
 70
     1
102
RTVSPropertyOp27
 70
     1
  0
XRECORD
  5
1CD8
102
{ACAD_REACTORS
330
1CD7
102
}
330
1CD7
100
AcDbXrecord
280
     1
102
RTVSPropertyOp0
 70
     1
102
RTVSPropertyOp1
 70
     1
102
RTVSPropertyOp2
 70
     1
102
RTVSPropertyOp3
 70
     1
102
RTVSPropertyOp4
 70
     1
102
RTVSPropertyOp5
 70
     1
102
RTVSPropertyOp6
 70
     1
102
RTVSPropertyOp7
 70
     1
102
RTVSPropertyOp8
 70
     1
102
RTVSPropertyOp9
 70
     1
102
RTVSPropertyOp10
 70
     1
102
RTVSPropertyOp11
 70
     1
102
RTVSPropertyOp12
 70
     1
102
RTVSPropertyOp13
 70
     1
102
RTVSPropertyOp14
 70
     1
102
RTVSPropertyOp15
 70
     1
102
RTVSPropertyOp16
 70
     1
102
RTVSPropertyOp17
 70
     1
102
RTVSPropertyOp18
 70
     1
102
RTVSPropertyOp19
 70
     1
102
RTVSPropertyOp20
 70
     1
102
RTVSPropertyOp21
 70
     1
102
RTVSPropertyOp22
 70
     1
102
RTVSPropertyOp23
 70
     1
102
RTVSPropertyOp24
 70
     1
102
RTVSPropertyOp25
 70
     1
102
RTVSPropertyOp26
 70
     1
102
RTVSPropertyOp27
 70
     1
  0
XRECORD
  5
1CDA
102
{ACAD_REACTORS
330
1CD9
102
}
330
1CD9
100
AcDbXrecord
280
     1
102
RTVSPropertyOp0
 70
     1
102
RTVSPropertyOp1
 70
     1
102
RTVSPropertyOp2
 70
     1
102
RTVSPropertyOp3
 70
     1
102
RTVSPropertyOp4
 70
     1
102
RTVSPropertyOp5
 70
     1
102
RTVSPropertyOp6
 70
     1
102
RTVSPropertyOp7
 70
     1
102
RTVSPropertyOp8
 70
     1
102
RTVSPropertyOp9
 70
     1
102
RTVSPropertyOp10
 70
     1
102
RTVSPropertyOp11
 70
     1
102
RTVSPropertyOp12
 70
     1
102
RTVSPropertyOp13
 70
     1
102
RTVSPropertyOp14
 70
     1
102
RTVSPropertyOp15
 70
     1
102
RTVSPropertyOp16
 70
     1
102
RTVSPropertyOp17
 70
     1
102
RTVSPropertyOp18
 70
     1
102
RTVSPropertyOp19
 70
     1
102
RTVSPropertyOp20
 70
     1
102
RTVSPropertyOp21
 70
     1
102
RTVSPropertyOp22
 70
     1
102
RTVSPropertyOp23
 70
     1
102
RTVSPropertyOp24
 70
     1
102
RTVSPropertyOp25
 70
     1
102
RTVSPropertyOp26
 70
     1
102
RTVSPropertyOp27
 70
     1
  0
XRECORD
  5
1CF4
102
{ACAD_REACTORS
330
1CF3
102
}
330
1CF3
100
AcDbXrecord
280
     1
102
RTVSPropertyOp0
 70
     0
102
RTVSPropertyOp1
 70
     0
102
RTVSPropertyOp2
 70
     0
102
RTVSPropertyOp3
 70
     0
102
RTVSPropertyOp4
 70
     0
102
RTVSPropertyOp5
 70
     0
102
RTVSPropertyOp6
 70
     0
102
RTVSPropertyOp7
 70
     0
102
RTVSPropertyOp8
 70
     0
102
RTVSPropertyOp9
 70
     0
102
RTVSPropertyOp10
 70
     0
102
RTVSPropertyOp11
 70
     0
102
RTVSPropertyOp12
 70
     0
102
RTVSPropertyOp13
 70
     0
102
RTVSPropertyOp14
 70
     2
102
RTVSPropertyOp15
 70
     0
102
RTVSPropertyOp16
 70
     0
102
RTVSPropertyOp17
 70
     0
102
RTVSPropertyOp18
 70
     0
102
RTVSPropertyOp19
 70
     0
102
RTVSPropertyOp20
 70
     0
102
RTVSPropertyOp21
 70
     0
102
RTVSPropertyOp22
 70
     0
102
RTVSPropertyOp23
 70
     0
102
RTVSPropertyOp24
 70
     0
102
RTVSPropertyOp25
 70
     0
102
RTVSPropertyOp26
 70
     0
102
RTVSPropertyOp27
 70
     0
  0
XRECORD
  5
1CEE
102
{ACAD_REACTORS
330
1CED
102
}
330
1CED
100
AcDbXrecord
280
     1
102
RTVSPropertyOp0
 70
     1
102
RTVSPropertyOp1
 70
     1
102
RTVSPropertyOp2
 70
     1
102
RTVSPropertyOp3
 70
     1
102
RTVSPropertyOp4
 70
     1
102
RTVSPropertyOp5
 70
     1
102
RTVSPropertyOp6
 70
     1
102
RTVSPropertyOp7
 70
     1
102
RTVSPropertyOp8
 70
     1
102
RTVSPropertyOp9
 70
     1
102
RTVSPropertyOp10
 70
     1
102
RTVSPropertyOp11
 70
     1
102
RTVSPropertyOp12
 70
     1
102
RTVSPropertyOp13
 70
     1
102
RTVSPropertyOp14
 70
     1
102
RTVSPropertyOp15
 70
     1
102
RTVSPropertyOp16
 70
     1
102
RTVSPropertyOp17
 70
     1
102
RTVSPropertyOp18
 70
     1
102
RTVSPropertyOp19
 70
     1
102
RTVSPropertyOp20
 70
     1
102
RTVSPropertyOp21
 70
     1
102
RTVSPropertyOp22
 70
     1
102
RTVSPropertyOp23
 70
     1
102
RTVSPropertyOp24
 70
     1
102
RTVSPropertyOp25
 70
     1
102
RTVSPropertyOp26
 70
     1
102
RTVSPropertyOp27
 70
     1
  0
XRECORD
  5
1CF6
102
{ACAD_REACTORS
330
1CF5
102
}
330
1CF5
100
AcDbXrecord
280
     1
102
RTVSPropertyOp0
 70
     0
102
RTVSPropertyOp1
 70
     0
102
RTVSPropertyOp2
 70
     0
102
RTVSPropertyOp3
 70
     0
102
RTVSPropertyOp4
 70
     0
102
RTVSPropertyOp5
 70
     0
102
RTVSPropertyOp6
 70
     0
102
RTVSPropertyOp7
 70
     0
102
RTVSPropertyOp8
 70
     0
102
RTVSPropertyOp9
 70
     0
102
RTVSPropertyOp10
 70
     0
102
RTVSPropertyOp11
 70
     0
102
RTVSPropertyOp12
 70
     0
102
RTVSPropertyOp13
 70
     0
102
RTVSPropertyOp14
 70
     2
102
RTVSPropertyOp15
 70
     0
102
RTVSPropertyOp16
 70
     0
102
RTVSPropertyOp17
 70
     0
102
RTVSPropertyOp18
 70
     0
102
RTVSPropertyOp19
 70
     0
102
RTVSPropertyOp20
 70
     0
102
RTVSPropertyOp21
 70
     0
102
RTVSPropertyOp22
 70
     0
102
RTVSPropertyOp23
 70
     0
102
RTVSPropertyOp24
 70
     0
102
RTVSPropertyOp25
 70
     0
102
RTVSPropertyOp26
 70
     0
102
RTVSPropertyOp27
 70
     0
  0
XRECORD
  5
1CE6
102
{ACAD_REACTORS
330
1CE5
102
}
330
1CE5
100
AcDbXrecord
280
     1
102
RTVSPropertyOp0
 70
     1
102
RTVSPropertyOp1
 70
     1
102
RTVSPropertyOp2
 70
     1
102
RTVSPropertyOp3
 70
     1
102
RTVSPropertyOp4
 70
     1
102
RTVSPropertyOp5
 70
     1
102
RTVSPropertyOp6
 70
     1
102
RTVSPropertyOp7
 70
     1
102
RTVSPropertyOp8
 70
     1
102
RTVSPropertyOp9
 70
     1
102
RTVSPropertyOp10
 70
     1
102
RTVSPropertyOp11
 70
     1
102
RTVSPropertyOp12
 70
     1
102
RTVSPropertyOp13
 70
     1
102
RTVSPropertyOp14
 70
     1
102
RTVSPropertyOp15
 70
     1
102
RTVSPropertyOp16
 70
     1
102
RTVSPropertyOp17
 70
     1
102
RTVSPropertyOp18
 70
     1
102
RTVSPropertyOp19
 70
     1
102
RTVSPropertyOp20
 70
     1
102
RTVSPropertyOp21
 70
     1
102
RTVSPropertyOp22
 70
     1
102
RTVSPropertyOp23
 70
     1
102
RTVSPropertyOp24
 70
     1
102
RTVSPropertyOp25
 70
     1
102
RTVSPropertyOp26
 70
     1
102
RTVSPropertyOp27
 70
     1
  0
XRECORD
  5
1CEC
102
{ACAD_REACTORS
330
1CEB
102
}
330
1CEB
100
AcDbXrecord
280
     1
102
RTVSPropertyOp0
 70
     1
102
RTVSPropertyOp1
 70
     1
102
RTVSPropertyOp2
 70
     1
102
RTVSPropertyOp3
 70
     1
102
RTVSPropertyOp4
 70
     1
102
RTVSPropertyOp5
 70
     1
102
RTVSPropertyOp6
 70
     1
102
RTVSPropertyOp7
 70
     1
102
RTVSPropertyOp8
 70
     1
102
RTVSPropertyOp9
 70
     1
102
RTVSPropertyOp10
 70
     1
102
RTVSPropertyOp11
 70
     1
102
RTVSPropertyOp12
 70
     1
102
RTVSPropertyOp13
 70
     1
102
RTVSPropertyOp14
 70
     1
102
RTVSPropertyOp15
 70
     1
102
RTVSPropertyOp16
 70
     1
102
RTVSPropertyOp17
 70
     1
102
RTVSPropertyOp18
 70
     1
102
RTVSPropertyOp19
 70
     1
102
RTVSPropertyOp20
 70
     1
102
RTVSPropertyOp21
 70
     1
102
RTVSPropertyOp22
 70
     1
102
RTVSPropertyOp23
 70
     1
102
RTVSPropertyOp24
 70
     1
102
RTVSPropertyOp25
 70
     1
102
RTVSPropertyOp26
 70
     1
102
RTVSPropertyOp27
 70
     1
  0
ENDSEC
  0
EOF
