  0
SECTION
  2
HEADER
  9
$ACADVER
  1
AC1009
  9
$INSBASE
 10
0.0
 20
0.0
 30
0.0
  9
$EXTMIN
 10
-6633.9137675321208
 20
193.61431550413471
 30
0.0
  9
$EXTMAX
 10
-3778.472381734824
 20
1963.2863367357161
 30
5.0
  9
$LIMMIN
 10
0.0
 20
0.0
  9
$LIMMAX
 10
0.0
 20
0.0
  9
$ORTHOMODE
 70
     0
  9
$REGENMODE
 70
     1
  9
$FILLMODE
 70
     1
  9
$QTEXTMODE
 70
     0
  9
$MIRRTEXT
 70
     1
  9
$DRAGMODE
 70
     2
  9
$LTSCALE
 40
1.0
  9
$OSMODE
 70
  2239
  9
$ATTMODE
 70
     1
  9
$TEXTSIZE
 40
0.0
  9
$TRACEWID
 40
0.05
  9
$TEXTSTYLE
  7
STANDARD
  9
$CLAYER
  8
0
  9
$CELTYPE
  6
BYLAYER
  9
$CECOLOR
 62
   256
  9
$DIMSCALE
 40
1.0
  9
$DIMASZ
 40
18.0
  9
$DIMEXO
 40
3.0
  9
$DIMDLI
 40
0.38
  9
$DIMRND
 40
0.0
  9
$DIMDLE
 40
0.0
  9
$DIMEXE
 40
0.18
  9
$DIMTP
 40
0.0
  9
$DIMTM
 40
0.0
  9
$DIMTXT
 40
18.0
  9
$DIMCEN
 40
0.09
  9
$DIMTSZ
 40
0.0
  9
$DIMTOL
 70
     0
  9
$DIMLIM
 70
     0
  9
$DIMTIH
 70
     0
  9
$DIMTOH
 70
     1
  9
$DIMSE1
 70
     0
  9
$DIMSE2
 70
     0
  9
$DIMTAD
 70
     1
  9
$DIMZIN
 70
     0
  9
$DIMBLK
  1

  9
$DIMASO
 70
     1
  9
$DIMSHO
 70
     1
  9
$DIMPOST
  1

  9
$DIMAPOST
  1

  9
$DIMALT
 70
     0
  9
$DIMALTD
 70
     2
  9
$DIMALTF
 40
25.399999999999999
  9
$DIMLFAC
 40
1.0
  9
$DIMTOFL
 70
     0
  9
$DIMTVP
 40
0.0
  9
$DIMTIX
 70
     0
  9
$DIMSOXD
 70
     0
  9
$DIMSAH
 70
     0
  9
$DIMBLK1
  1

  9
$DIMBLK2
  1

  9
$DIMSTYLE
  2
CENTRALA
  9
$DIMCLRD
 70
     0
  9
$DIMCLRE
 70
     0
  9
$DIMCLRT
 70
     0
  9
$DIMTFAC
 40
1.0
  9
$DIMGAP
 40
8.0
  9
$LUNITS
 70
     2
  9
$LUPREC
 70
     4
  9
$SKETCHINC
 40
0.1
  9
$FILLETRAD
 40
0.0
  9
$AUNITS
 70
     0
  9
$AUPREC
 70
     0
  9
$MENU
  1
acad
  9
$ELEVATION
 40
0.0
  9
$PELEVATION
 40
0.0
  9
$THICKNESS
 40
0.0
  9
$LIMCHECK
 70
     0
  9
$BLIPMODE
 70
     0
  9
$CHAMFERA
 40
0.0
  9
$CHAMFERB
 40
0.0
  9
$SKPOLY
 70
     0
  9
$TDCREATE
 40
2305814.041992743
  9
$TDUPDATE
 40
2458137.9159181481
  9
$TDINDWG
 40
0.9604035069
  9
$TDUSRTIMER
 40
0.9604029861
  9
$USRTIMER
 70
     1
  9
$ANGBASE
 50
0.0
  9
$ANGDIR
 70
     0
  9
$PDMODE
 70
     0
  9
$PDSIZE
 40
0.0
  9
$PLINEWID
 40
0.0
  9
$COORDS
 70
     1
  9
$SPLFRAME
 70
     0
  9
$SPLINETYPE
 70
     6
  9
$SPLINESEGS
 70
     8
  9
$ATTDIA
 70
     0
  9
$ATTREQ
 70
     1
  9
$HANDLING
 70
     1
  9
$HANDSEED
  5
3833
  9
$SURFTAB1
 70
     6
  9
$SURFTAB2
 70
     6
  9
$SURFTYPE
 70
     6
  9
$SURFU
 70
     6
  9
$SURFV
 70
     6
  9
$UCSNAME
  2

  9
$UCSORG
 10
0.0
 20
0.0
 30
0.0
  9
$UCSXDIR
 10
1.0
 20
0.0
 30
0.0
  9
$UCSYDIR
 10
0.0
 20
1.0
 30
0.0
  9
$PUCSNAME
  2

  9
$PUCSORG
 10
0.0
 20
0.0
 30
0.0
  9
$PUCSXDIR
 10
1.0
 20
0.0
 30
0.0
  9
$PUCSYDIR
 10
0.0
 20
1.0
 30
0.0
  9
$USERI1
 70
     0
  9
$USERI2
 70
     0
  9
$USERI3
 70
     0
  9
$USERI4
 70
     0
  9
$USERI5
 70
     0
  9
$USERR1
 40
0.0
  9
$USERR2
 40
0.0
  9
$USERR3
 40
0.0
  9
$USERR4
 40
0.0
  9
$USERR5
 40
0.0
  9
$WORLDVIEW
 70
     1
  9
$SHADEDGE
 70
     3
  9
$SHADEDIF
 70
    70
  9
$TILEMODE
 70
     1
  9
$MAXACTVP
 70
    16
  9
$PLIMCHECK
 70
     0
  9
$PEXTMIN
 10
1.0000000000000000E+020
 20
1.0000000000000000E+020
 30
1.0000000000000000E+020
  9
$PEXTMAX
 10
-1.0000000000000000E+020
 20
-1.0000000000000000E+020
 30
-1.0000000000000000E+020
  9
$PLIMMIN
 10
0.0
 20
0.0
  9
$PLIMMAX
 10
12.0
 20
9.0
  9
$UNITMODE
 70
     0
  9
$VISRETAIN
 70
     0
  9
$PLINEGEN
 70
     1
  9
$PSLTSCALE
 70
     0
  0
ENDSEC
  0
SECTION
  2
TABLES
  0
TABLE
  2
VPORT
 70
     1
  0
VPORT
  2
*ACTIVE
 70
     0
 10
0.0
 20
0.0
 11
1.0
 21
1.0
 12
-4786.2460774369647
 22
1127.984879851183
 13
0.0
 23
0.0
 14
1.0
 24
1.0
 15
0.0
 25
0.0
 16
0.0
 26
0.0
 36
1.0
 17
0.0
 27
0.0
 37
0.0
 40
2446.760297414763
 41
2.0409463148316651
 42
50.0
 43
0.0
 44
0.0
 50
0.0
 51
0.0
 71
     0
 72
   100
 73
     1
 74
     1
 75
     0
 76
     0
 77
     0
 78
     0
  0
ENDTAB
  0
TABLE
  2
LTYPE
 70
     3
  0
LTYPE
  2
CONTINUOUS
 70
     0
  3
Solid line
 72
    65
 73
     0
 40
0.0
  0
LTYPE
  2
DASHDOT
 70
     0
  3
Dash dot __ . __ . __ . __ . __ . __ . __ . __
 72
    65
 73
     4
 40
1.0
 49
0.5
 49
-0.25
 49
0.0
 49
-0.25
  0
ENDTAB
  0
TABLE
  2
LAYER
 70
     7
  0
LAYER
  2
0
 70
     0
 62
     7
  6
CONTINUOUS
  0
LAYER
  2
WARSTWA_1
 70
     0
 62
     1
  6
CONTINUOUS
  0
LAYER
  2
DEFPOINTS
 70
     0
 62
     7
  6
CONTINUOUS
  0
LAYER
  2
WYMIARY
 70
     0
 62
     1
  6
CONTINUOUS
  0
LAYER
  2
CENTRALA
 70
     0
 62
     7
  6
CONTINUOUS
  0
LAYER
  2
OSIE
 70
     0
 62
     2
  6
DASHDOT
  0
LAYER
  2
POMOCNICZE
 70
     0
 62
     9
  6
CONTINUOUS
  0
ENDTAB
  0
TABLE
  2
STYLE
 70
     2
  0
STYLE
  2
STANDARD
 70
     0
 40
0.0
 41
1.0
 50
0.0
 71
     0
 42
0.0
  3
txt
  4

  0
STYLE
  2
ARIAL
 70
     0
 40
1.0
 41
1.0
 50
0.0
 71
     0
 42
1.0
  3
Arial
  4

  0
ENDTAB
  0
TABLE
  2
VIEW
 70
     0
  0
ENDTAB
  0
TABLE
  2
UCS
 70
     0
  0
ENDTAB
  0
TABLE
  2
APPID
 70
    17
  0
APPID
  2
ACAD
 70
     0
  0
APPID
  2
ACADANNOTATIVE
 70
     0
  0
APPID
  2
ACAD_EXEMPT_FROM_CAD_STANDARDS
 70
     0
  0
APPID
  2
ACAD_DSTYLE_DIMRADIAL_EXTENSION
 70
     0
  0
APPID
  2
ACAD_PSEXT
 70
     0
  0
APPID
  2
ACAD_DSTYLE_DIMJAG
 70
     0
  0
APPID
  2
ACAD_DSTYLE_DIMTALN
 70
     0
  0
APPID
  2
ACAD_DSTYLE_DIMBREAK
 70
     0
  0
APPID
  2
ACAD_MLEADERVER
 70
     0
  0
APPID
  2
ACAECLAYERSTANDARD
 70
     0
  0
APPID
  2
ACAD_DSTYLE_DIMARC_LENGTH_
 70
     0
  0
APPID
  2
ACAUTHENVIRON
 70
     0
  0
APPID
  2
ACDBDYNAMICBLOCKTRUENAME
 70
     0
  0
APPID
  2
ACDBDYNAMICBLOCKGUID
 70
     0
  0
APPID
  2
ACDBBLOCKREPETAG
 70
     0
  0
APPID
  2
ACDBBLOCKREPBTAG
 70
     0
  0
APPID
  2
CONTENTBLOCKICON
 70
     0
  0
ENDTAB
  0
TABLE
  2
DIMSTYLE
 70
     2
  0
DIMSTYLE
  2
STANDARD
 70
     0
  3

  4

  5

  6

  7

 40
1.0
 41
0.18
 42
0.0625
 43
0.38
 44
0.18
 45
0.0
 46
0.0
 47
0.0
 48
0.0
140
0.18
141
0.09
142
0.0
143
25.399999999999999
144
1.0
145
0.0
146
1.0
147
0.09
 71
     0
 72
     0
 73
     1
 74
     1
 75
     0
 76
     0
 77
     0
 78
     0
170
     0
171
     2
172
     0
173
     0
174
     0
175
     0
176
     0
177
     0
178
     0
  0
DIMSTYLE
  2
CENTRALA
 70
     0
  3

  4

  5

  6

  7

 40
1.0
 41
18.0
 42
3.0
 43
0.38
 44
0.18
 45
0.0
 46
0.0
 47
0.0
 48
0.0
140
18.0
141
0.09
142
0.0
143
25.399999999999999
144
1.0
145
0.0
146
1.0
147
8.0
 71
     0
 72
     0
 73
     0
 74
     1
 75
     0
 76
     0
 77
     1
 78
     0
170
     0
171
     2
172
     0
173
     0
174
     0
175
     0
176
     0
177
     0
178
     0
  0
ENDTAB
  0
ENDSEC
  0
SECTION
  2
BLOCKS
  0
BLOCK
  8
0
  2
$MODEL_SPACE
 70
     0
 10
0.0
 20
0.0
 30
0.0
  3
$MODEL_SPACE
  1

  0
ENDBLK
  5
5AB
  8
0
  0
BLOCK
 67
     1
  8
0
  2
$PAPER_SPACE
 70
     0
 10
0.0
 20
0.0
 30
0.0
  3
$PAPER_SPACE
  1

  0
ENDBLK
  5
5A7
 67
     1
  8
0
  0
BLOCK
  8
0
  2
*D0
 70
     1
 10
0.0
 20
0.0
 30
0.0
  3
*D0
  1

  0
LINE
  5
3007
  8
WYMIARY
  6
CONTINUOUS
 62
     0
 10
-5673.7252724229056
 20
1727.173006940295
 30
0.0
 11
-5673.7252724229056
 21
1812.244112510183
 31
0.0
  0
LINE
  5
3008
  8
WYMIARY
  6
CONTINUOUS
 62
     0
 10
-4733.7252724229056
 20
1727.173006940295
 30
0.0
 11
-4733.7252724229056
 21
1812.244112510183
 31
0.0
  0
LINE
  5
3009
  8
WYMIARY
  6
CONTINUOUS
 62
     0
 10
-5655.7252724229047
 20
1812.0641125101829
 30
0.0
 11
-4751.7252724229047
 21
1812.0641125101829
 31
0.0
  0
SOLID
  5
300A
  8
WYMIARY
  6
CONTINUOUS
 62
     0
 10
-5655.7252724229047
 20
1815.0641125101829
 30
0.0
 11
-5655.7252724229047
 21
1809.0641125101829
 31
0.0
 12
-5673.7252724229056
 22
1812.0641125101829
 32
0.0
 13
-5673.7252724229056
 23
1812.0641125101829
 33
0.0
  0
SOLID
  5
300B
  8
WYMIARY
  6
CONTINUOUS
 62
     0
 10
-4751.7252724229047
 20
1815.0641125101829
 30
0.0
 11
-4751.7252724229047
 21
1809.0641125101829
 31
0.0
 12
-4733.7252724229056
 22
1812.0641125101829
 32
0.0
 13
-4733.7252724229056
 23
1812.0641125101829
 33
0.0
  0
INSERT
  5
300C
  8
0
  2
*U32
 10
0.0
 20
0.0
 30
0.0
  0
POINT
  5
300D
  8
DEFPOINTS
  6
CONTINUOUS
 62
     0
 10
-5673.7252724229056
 20
1724.1730069402961
 30
0.0
  0
POINT
  5
300E
  8
DEFPOINTS
  6
CONTINUOUS
 62
     0
 10
-4733.7252724229056
 20
1724.1730069402961
 30
0.0
  0
POINT
  5
300F
  8
DEFPOINTS
  6
CONTINUOUS
 62
     0
 10
-4733.7252724229056
 20
1812.0641125101829
 30
0.0
  0
ENDBLK
  5
22BB
  8
0
  0
BLOCK
  8
0
  2
*D1
 70
     1
 10
0.0
 20
0.0
 30
0.0
  3
*D1
  1

  0
LINE
  5
3010
  8
WYMIARY
  6
CONTINUOUS
 62
     0
 10
-5676.7252724229056
 20
1724.1730069402961
 30
0.0
 11
-5753.3081950969163
 21
1724.1730069402961
 31
0.0
  0
LINE
  5
3011
  8
WYMIARY
  6
CONTINUOUS
 62
     0
 10
-5676.7252724229056
 20
1184.173006940295
 30
0.0
 11
-5753.3081950969163
 21
1184.173006940295
 31
0.0
  0
LINE
  5
3012
  8
WYMIARY
  6
CONTINUOUS
 62
     0
 10
-5753.1281950969151
 20
1706.173006940295
 30
0.0
 11
-5753.1281950969151
 21
1202.173006940295
 31
0.0
  0
SOLID
  5
3013
  8
WYMIARY
  6
CONTINUOUS
 62
     0
 10
-5756.1281950969151
 20
1706.173006940295
 30
0.0
 11
-5750.1281950969151
 21
1706.173006940295
 31
0.0
 12
-5753.1281950969151
 22
1724.1730069402961
 32
0.0
 13
-5753.1281950969151
 23
1724.1730069402961
 33
0.0
  0
SOLID
  5
3014
  8
WYMIARY
  6
CONTINUOUS
 62
     0
 10
-5756.1281950969151
 20
1202.173006940295
 30
0.0
 11
-5750.1281950969151
 21
1202.173006940295
 31
0.0
 12
-5753.1281950969151
 22
1184.173006940295
 32
0.0
 13
-5753.1281950969151
 23
1184.173006940295
 33
0.0
  0
INSERT
  5
3015
  8
0
  2
*U33
 10
0.0
 20
0.0
 30
0.0
  0
POINT
  5
3016
  8
DEFPOINTS
  6
CONTINUOUS
 62
     0
 10
-5673.7252724229056
 20
1724.1730069402961
 30
0.0
  0
POINT
  5
3017
  8
DEFPOINTS
  6
CONTINUOUS
 62
     0
 10
-5673.7252724229056
 20
1184.173006940295
 30
0.0
  0
POINT
  5
3018
  8
DEFPOINTS
  6
CONTINUOUS
 62
     0
 10
-5753.1281950969151
 20
1184.173006940295
 30
0.0
  0
ENDBLK
  5
22C7
  8
0
  0
BLOCK
  8
0
  2
*D2
 70
     1
 10
0.0
 20
0.0
 30
0.0
  3
*D2
  1

  0
LINE
  5
314B
  8
WYMIARY
  6
CONTINUOUS
 62
     0
 10
-6472.971045460039
 20
1724.1730069402961
 30
0.0
 11
-6513.5365783464622
 21
1724.1730069402961
 31
0.0
  0
LINE
  5
314C
  8
WYMIARY
  6
CONTINUOUS
 62
     0
 10
-6485.971045460039
 20
1582.173006940295
 30
0.0
 11
-6513.5365783464622
 21
1582.173006940295
 31
0.0
  0
LINE
  5
314D
  8
WYMIARY
  6
CONTINUOUS
 62
     0
 10
-6513.3565783464628
 20
1706.173006940295
 30
0.0
 11
-6513.3565783464628
 21
1600.1730069402961
 31
0.0
  0
SOLID
  5
314E
  8
WYMIARY
  6
CONTINUOUS
 62
     0
 10
-6516.3565783464637
 20
1706.173006940295
 30
0.0
 11
-6510.3565783464628
 21
1706.173006940295
 31
0.0
 12
-6513.3565783464628
 22
1724.1730069402961
 32
0.0
 13
-6513.3565783464628
 23
1724.1730069402961
 33
0.0
  0
SOLID
  5
314F
  8
WYMIARY
  6
CONTINUOUS
 62
     0
 10
-6516.3565783464637
 20
1600.1730069402961
 30
0.0
 11
-6510.3565783464628
 21
1600.1730069402961
 31
0.0
 12
-6513.3565783464628
 22
1582.173006940295
 32
0.0
 13
-6513.3565783464628
 23
1582.173006940295
 33
0.0
  0
INSERT
  5
3150
  8
0
  2
*U39
 10
0.0
 20
0.0
 30
0.0
  0
POINT
  5
3151
  8
DEFPOINTS
  6
CONTINUOUS
 62
     0
 10
-6469.971045460039
 20
1724.1730069402961
 30
0.0
  0
POINT
  5
3152
  8
DEFPOINTS
  6
CONTINUOUS
 62
     0
 10
-6482.971045460039
 20
1582.173006940295
 30
0.0
  0
POINT
  5
3153
  8
DEFPOINTS
  6
CONTINUOUS
 62
     0
 10
-6513.3565783464628
 20
1582.173006940295
 30
0.0
  0
ENDBLK
  5
22DF
  8
0
  0
BLOCK
  8
0
  2
*D3
 70
     1
 10
0.0
 20
0.0
 30
0.0
  3
*D3
  1

  0
LINE
  5
3138
  8
WYMIARY
  6
CONTINUOUS
 62
     0
 10
-6485.971045460039
 20
1184.173006940295
 30
0.0
 11
-6513.5365783464622
 21
1184.173006940295
 31
0.0
  0
LINE
  5
3139
  8
WYMIARY
  6
CONTINUOUS
 62
     0
 10
-6485.971045460039
 20
1318.1534507945021
 30
0.0
 11
-6513.5365783464622
 21
1318.1534507945021
 31
0.0
  0
LINE
  5
313A
  8
WYMIARY
  6
CONTINUOUS
 62
     0
 10
-6513.3565783464628
 20
1202.173006940295
 30
0.0
 11
-6513.3565783464628
 21
1300.1534507945021
 31
0.0
  0
SOLID
  5
313B
  8
WYMIARY
  6
CONTINUOUS
 62
     0
 10
-6516.3565783464637
 20
1202.173006940295
 30
0.0
 11
-6510.3565783464628
 21
1202.173006940295
 31
0.0
 12
-6513.3565783464628
 22
1184.173006940295
 32
0.0
 13
-6513.3565783464628
 23
1184.173006940295
 33
0.0
  0
SOLID
  5
313C
  8
WYMIARY
  6
CONTINUOUS
 62
     0
 10
-6516.3565783464637
 20
1300.1534507945021
 30
0.0
 11
-6510.3565783464628
 21
1300.1534507945021
 31
0.0
 12
-6513.3565783464628
 22
1318.1534507945021
 32
0.0
 13
-6513.3565783464628
 23
1318.1534507945021
 33
0.0
  0
INSERT
  5
313D
  8
0
  2
*U37
 10
0.0
 20
0.0
 30
0.0
  0
POINT
  5
313E
  8
DEFPOINTS
  6
CONTINUOUS
 62
     0
 10
-6482.971045460039
 20
1184.173006940295
 30
0.0
  0
POINT
  5
313F
  8
DEFPOINTS
  6
CONTINUOUS
 62
     0
 10
-6482.971045460039
 20
1318.1534507945021
 30
0.0
  0
POINT
  5
3140
  8
DEFPOINTS
  6
CONTINUOUS
 62
     0
 10
-6513.3565783464628
 20
1318.1534507945021
 30
0.0
  0
ENDBLK
  5
22EB
  8
0
  0
BLOCK
  8
0
  2
*D4
 70
     1
 10
0.0
 20
0.0
 30
0.0
  3
*D4
  1

  0
LINE
  5
3141
  8
WYMIARY
  6
CONTINUOUS
 62
     0
 10
-6482.971045460039
 20
1181.173006940295
 30
0.0
 11
-6482.971045460039
 21
1117.72329695848
 31
0.0
  0
LINE
  5
3142
  8
WYMIARY
  6
CONTINUOUS
 62
     0
 10
-6225.971045460039
 20
1181.173006940295
 30
0.0
 11
-6225.971045460039
 21
1117.72329695848
 31
0.0
  0
LINE
  5
3143
  8
WYMIARY
  6
CONTINUOUS
 62
     0
 10
-6464.971045460039
 20
1117.90329695848
 30
0.0
 11
-6243.971045460039
 21
1117.90329695848
 31
0.0
  0
SOLID
  5
3144
  8
WYMIARY
  6
CONTINUOUS
 62
     0
 10
-6464.971045460039
 20
1120.90329695848
 30
0.0
 11
-6464.971045460039
 21
1114.90329695848
 31
0.0
 12
-6482.971045460039
 22
1117.90329695848
 32
0.0
 13
-6482.971045460039
 23
1117.90329695848
 33
0.0
  0
SOLID
  5
3145
  8
WYMIARY
  6
CONTINUOUS
 62
     0
 10
-6243.971045460039
 20
1120.90329695848
 30
0.0
 11
-6243.971045460039
 21
1114.90329695848
 31
0.0
 12
-6225.971045460039
 22
1117.90329695848
 32
0.0
 13
-6225.971045460039
 23
1117.90329695848
 33
0.0
  0
INSERT
  5
3146
  8
0
  2
*U38
 10
0.0
 20
0.0
 30
0.0
  0
POINT
  5
3147
  8
DEFPOINTS
  6
CONTINUOUS
 62
     0
 10
-6482.971045460039
 20
1184.173006940295
 30
0.0
  0
POINT
  5
3148
  8
DEFPOINTS
  6
CONTINUOUS
 62
     0
 10
-6225.971045460039
 20
1184.173006940295
 30
0.0
  0
POINT
  5
3149
  8
DEFPOINTS
  6
CONTINUOUS
 62
     0
 10
-6225.971045460039
 20
1117.90329695848
 30
0.0
  0
ENDBLK
  5
22F7
  8
0
  0
BLOCK
  8
0
  2
*D5
 70
     1
 10
0.0
 20
0.0
 30
0.0
  3
*D5
  1

  0
LINE
  5
355D
  8
WARSTWA_1
 62
     0
 10
-6261.0883622053898
 20
1523.9657099424689
 30
0.0
 11
-6146.8537287146883
 21
1640.560303938121
 31
0.0
  0
SOLID
  5
355E
  8
WARSTWA_1
 62
     0
 10
-6263.2312585911814
 20
1526.0652325262399
 30
0.0
 11
-6258.9454658195991
 21
1521.8661873586991
 31
0.0
 12
-6273.685497708012
 22
1511.1083316277211
 32
0.0
 13
-6273.685497708012
 23
1511.1083316277211
 33
0.0
  0
SOLID
  5
355F
  8
WARSTWA_1
 62
     0
 10
-6148.9966251004789
 20
1642.6598265218911
 30
0.0
 11
-6144.7108323288967
 21
1638.46078135435
 31
0.0
 12
-6134.2565932120642
 22
1653.4176822528691
 32
0.0
 13
-6134.2565932120642
 23
1653.4176822528691
 33
0.0
  0
TEXT
  8
WARSTWA_1
  40
18
  5
3689
  62
0
  72
0
  71
0
 10
-6216.47
 20
1598.68
 30
0.000000
  1
%%C200
  0
POINT
  5
3561
  8
DEFPOINTS
 62
     0
 10
-6134.2565932120642
 20
1653.4176822528691
 30
0.0
  0
POINT
  5
3562
  8
DEFPOINTS
 62
     0
 10
-6273.685497708012
 20
1511.1083316277211
 30
0.0
  0
ENDBLK
  5
233C
  8
0
  0
BLOCK
  8
0
  2
*D6
 70
     1
 10
0.0
 20
0.0
 30
0.0
  3
*D6
  1

  0
LINE
  5
3563
  8
WARSTWA_1
 62
     0
 10
-6283.088362205398
 20
1259.856153796675
 30
0.0
 11
-6168.8537287146937
 21
1376.4507477923271
 31
0.0
  0
SOLID
  5
3564
  8
WARSTWA_1
 62
     0
 10
-6285.2312585911886
 20
1261.955676380446
 30
0.0
 11
-6280.9454658196064
 21
1257.756631212904
 31
0.0
 12
-6295.6854977080211
 22
1246.9987754819281
 32
0.0
 13
-6295.6854977080211
 23
1246.9987754819281
 33
0.0
  0
SOLID
  5
3565
  8
WARSTWA_1
 62
     0
 10
-6170.9966251004853
 20
1378.5502703760969
 30
0.0
 11
-6166.7108323289031
 21
1374.3512252085559
 31
0.0
 12
-6156.2565932120697
 22
1389.308126107074
 32
0.0
 13
-6156.2565932120697
 23
1389.308126107074
 33
0.0
  0
TEXT
  8
WARSTWA_1
  40
18
  5
368A
  62
0
  72
0
  71
0
 10
-6238.47
 20
1334.57
 30
0.000000
  1
%%C200
  0
POINT
  5
3567
  8
DEFPOINTS
 62
     0
 10
-6156.2565932120697
 20
1389.308126107074
 30
0.0
  0
POINT
  5
3568
  8
DEFPOINTS
 62
     0
 10
-6295.6854977080211
 20
1246.9987754819281
 30
0.0
  0
ENDBLK
  5
2345
  8
0
  0
BLOCK
  8
0
  2
*D7
 70
     1
 10
0.0
 20
0.0
 30
0.0
  3
*D7
  1

  0
LINE
  5
31FD
  8
WYMIARY
  6
CONTINUOUS
 62
     0
 10
-3929.4151038069072
 20
1727.173006940295
 30
0.0
 11
-3929.4151038069072
 21
1828.18757612324
 31
0.0
  0
LINE
  5
31FE
  8
WYMIARY
  6
CONTINUOUS
 62
     0
 10
-4436.4151038069067
 20
1727.173006940295
 30
0.0
 11
-4436.4151038069067
 21
1828.18757612324
 31
0.0
  0
LINE
  5
31FF
  8
WYMIARY
  6
CONTINUOUS
 62
     0
 10
-3947.4151038069072
 20
1828.007576123239
 30
0.0
 11
-4418.4151038069058
 21
1828.007576123239
 31
0.0
  0
INSERT
  5
3200
  8
0
  2
*U44
 10
0.0
 20
0.0
 30
0.0
  0
SOLID
  5
3201
  8
WYMIARY
  6
CONTINUOUS
 62
     0
 10
-3947.4151038069072
 20
1831.0075761232399
 30
0.0
 11
-3947.4151038069072
 21
1825.0075761232399
 31
0.0
 12
-3929.4151038069072
 22
1828.007576123239
 32
0.0
 13
-3929.4151038069072
 23
1828.007576123239
 33
0.0
  0
SOLID
  5
3202
  8
WYMIARY
  6
CONTINUOUS
 62
     0
 10
-4418.4151038069058
 20
1831.0075761232399
 30
0.0
 11
-4418.4151038069058
 21
1825.0075761232399
 31
0.0
 12
-4436.4151038069067
 22
1828.007576123239
 32
0.0
 13
-4436.4151038069067
 23
1828.007576123239
 33
0.0
  0
POINT
  5
3203
  8
DEFPOINTS
  6
CONTINUOUS
 62
     0
 10
-3929.4151038069072
 20
1724.1730069402961
 30
0.0
  0
POINT
  5
3204
  8
DEFPOINTS
  6
CONTINUOUS
 62
     0
 10
-4436.4151038069067
 20
1724.1730069402961
 30
0.0
  0
POINT
  5
3205
  8
DEFPOINTS
  6
CONTINUOUS
 62
     0
 10
-4436.4151038069067
 20
1828.007576123239
 30
0.0
  0
ENDBLK
  5
235A
  8
0
  0
BLOCK
  8
0
  2
*D8
 70
     1
 10
0.0
 20
0.0
 30
0.0
  3
*D8
  1

  0
LINE
  5
30EE
  8
WYMIARY
  6
CONTINUOUS
 62
     0
 10
-3926.4151038069058
 20
1724.1730069402961
 30
0.0
 11
-3898.849570920484
 21
1724.1730069402961
 31
0.0
  0
LINE
  5
30EF
  8
WYMIARY
  6
CONTINUOUS
 62
     0
 10
-3926.4151038069058
 20
1582.173006940295
 30
0.0
 11
-3898.849570920484
 21
1582.173006940295
 31
0.0
  0
LINE
  5
30F0
  8
WYMIARY
  6
CONTINUOUS
 62
     0
 10
-3899.0295709204838
 20
1706.173006940295
 30
0.0
 11
-3899.0295709204838
 21
1600.1730069402961
 31
0.0
  0
SOLID
  5
30F1
  8
WYMIARY
  6
CONTINUOUS
 62
     0
 10
-3902.0295709204838
 20
1706.173006940295
 30
0.0
 11
-3896.0295709204838
 21
1706.173006940295
 31
0.0
 12
-3899.0295709204838
 22
1724.1730069402961
 32
0.0
 13
-3899.0295709204838
 23
1724.1730069402961
 33
0.0
  0
SOLID
  5
30F2
  8
WYMIARY
  6
CONTINUOUS
 62
     0
 10
-3902.0295709204838
 20
1600.1730069402961
 30
0.0
 11
-3896.0295709204838
 21
1600.1730069402961
 31
0.0
 12
-3899.0295709204838
 22
1582.173006940295
 32
0.0
 13
-3899.0295709204838
 23
1582.173006940295
 33
0.0
  0
INSERT
  5
30F3
  8
0
  2
*U34
 10
0.0
 20
0.0
 30
0.0
  0
POINT
  5
30F4
  8
DEFPOINTS
  6
CONTINUOUS
 62
     0
 10
-3929.4151038069072
 20
1724.1730069402961
 30
0.0
  0
POINT
  5
30F5
  8
DEFPOINTS
  6
CONTINUOUS
 62
     0
 10
-3929.4151038069058
 20
1582.173006940295
 30
0.0
  0
POINT
  5
30F6
  8
DEFPOINTS
  6
CONTINUOUS
 62
     0
 10
-3899.0295709204838
 20
1582.173006940295
 30
0.0
  0
ENDBLK
  5
2366
  8
0
  0
BLOCK
  8
0
  2
*D9
 70
     1
 10
0.0
 20
0.0
 30
0.0
  3
*D9
  1

  0
LINE
  5
3101
  8
WYMIARY
  6
CONTINUOUS
 62
     0
 10
-3926.4151038069058
 20
1184.173006940295
 30
0.0
 11
-3898.849570920484
 21
1184.173006940295
 31
0.0
  0
LINE
  5
3102
  8
WYMIARY
  6
CONTINUOUS
 62
     0
 10
-3926.4151038069058
 20
1318.0367302098739
 30
0.0
 11
-3898.849570920484
 21
1318.0367302098739
 31
0.0
  0
LINE
  5
3103
  8
WYMIARY
  6
CONTINUOUS
 62
     0
 10
-3899.0295709204838
 20
1202.173006940295
 30
0.0
 11
-3899.0295709204838
 21
1300.0367302098739
 31
0.0
  0
SOLID
  5
3104
  8
WYMIARY
  6
CONTINUOUS
 62
     0
 10
-3902.0295709204838
 20
1202.173006940295
 30
0.0
 11
-3896.0295709204838
 21
1202.173006940295
 31
0.0
 12
-3899.0295709204838
 22
1184.173006940295
 32
0.0
 13
-3899.0295709204838
 23
1184.173006940295
 33
0.0
  0
SOLID
  5
3105
  8
WYMIARY
  6
CONTINUOUS
 62
     0
 10
-3902.0295709204838
 20
1300.0367302098739
 30
0.0
 11
-3896.0295709204838
 21
1300.0367302098739
 31
0.0
 12
-3899.0295709204838
 22
1318.0367302098739
 32
0.0
 13
-3899.0295709204838
 23
1318.0367302098739
 33
0.0
  0
INSERT
  5
3106
  8
0
  2
*U35
 10
0.0
 20
0.0
 30
0.0
  0
POINT
  5
3107
  8
DEFPOINTS
  6
CONTINUOUS
 62
     0
 10
-3929.4151038069072
 20
1184.173006940295
 30
0.0
  0
POINT
  5
3108
  8
DEFPOINTS
  6
CONTINUOUS
 62
     0
 10
-3929.4151038069072
 20
1318.0367302098739
 30
0.0
  0
POINT
  5
3109
  8
DEFPOINTS
  6
CONTINUOUS
 62
     0
 10
-3899.0295709204838
 20
1318.0367302098739
 30
0.0
  0
ENDBLK
  5
2372
  8
0
  0
BLOCK
  8
0
  2
*D10
 70
     1
 10
0.0
 20
0.0
 30
0.0
  3
*D10
  1

  0
LINE
  5
311D
  8
WYMIARY
  6
CONTINUOUS
 62
     0
 10
-3929.4151038069072
 20
1181.173006940295
 30
0.0
 11
-3929.4151038069072
 21
1120.4499013912809
 31
0.0
  0
LINE
  5
311E
  8
WYMIARY
  6
CONTINUOUS
 62
     0
 10
-4186.4151038069067
 20
1181.173006940295
 30
0.0
 11
-4186.4151038069067
 21
1120.4499013912809
 31
0.0
  0
LINE
  5
311F
  8
WYMIARY
  6
CONTINUOUS
 62
     0
 10
-3947.4151038069072
 20
1120.629901391281
 30
0.0
 11
-4168.4151038069058
 21
1120.629901391281
 31
0.0
  0
SOLID
  5
3120
  8
WYMIARY
  6
CONTINUOUS
 62
     0
 10
-3947.4151038069072
 20
1123.629901391281
 30
0.0
 11
-3947.4151038069072
 21
1117.629901391281
 31
0.0
 12
-3929.4151038069072
 22
1120.629901391281
 32
0.0
 13
-3929.4151038069072
 23
1120.629901391281
 33
0.0
  0
SOLID
  5
3121
  8
WYMIARY
  6
CONTINUOUS
 62
     0
 10
-4168.4151038069058
 20
1123.629901391281
 30
0.0
 11
-4168.4151038069058
 21
1117.629901391281
 31
0.0
 12
-4186.4151038069067
 22
1120.629901391281
 32
0.0
 13
-4186.4151038069067
 23
1120.629901391281
 33
0.0
  0
INSERT
  5
3122
  8
0
  2
*U36
 10
0.0
 20
0.0
 30
0.0
  0
POINT
  5
3123
  8
DEFPOINTS
  6
CONTINUOUS
 62
     0
 10
-3929.4151038069072
 20
1184.173006940295
 30
0.0
  0
POINT
  5
3124
  8
DEFPOINTS
  6
CONTINUOUS
 62
     0
 10
-4186.4151038069067
 20
1184.173006940295
 30
0.0
  0
POINT
  5
3125
  8
DEFPOINTS
  6
CONTINUOUS
 62
     0
 10
-4186.4151038069067
 20
1120.629901391281
 30
0.0
  0
ENDBLK
  5
237E
  8
0
  0
BLOCK
  8
0
  2
*D11
 70
     1
 10
0.0
 20
0.0
 30
0.0
  3
*D11
  1

  0
LINE
  5
3206
  8
WYMIARY
 62
     0
 10
-4208.4151038069049
 20
1779.1730069402961
 30
0.0
 11
-4208.4151038069049
 21
1791.0754786125001
 31
0.0
  0
LINE
  5
3207
  8
WYMIARY
 62
     0
 10
-3929.4151038069072
 20
1727.173006940295
 30
0.0
 11
-3929.4151038069072
 21
1791.0754786125001
 31
0.0
  0
LINE
  5
3208
  8
WYMIARY
 62
     0
 10
-4190.4151038069049
 20
1790.8954786124989
 30
0.0
 11
-3947.4151038069072
 21
1790.8954786124989
 31
0.0
  0
SOLID
  5
3209
  8
WYMIARY
 62
     0
 10
-4190.4151038069049
 20
1793.8954786124989
 30
0.0
 11
-4190.4151038069049
 21
1787.8954786124989
 31
0.0
 12
-4208.4151038069049
 22
1790.8954786124989
 32
0.0
 13
-4208.4151038069049
 23
1790.8954786124989
 33
0.0
  0
SOLID
  5
320A
  8
WYMIARY
 62
     0
 10
-3947.4151038069072
 20
1793.8954786124989
 30
0.0
 11
-3947.4151038069072
 21
1787.8954786124989
 31
0.0
 12
-3929.4151038069072
 22
1790.8954786124989
 32
0.0
 13
-3929.4151038069072
 23
1790.8954786124989
 33
0.0
  0
INSERT
  5
320B
  8
0
  2
*U45
 10
0.0
 20
0.0
 30
0.0
  0
POINT
  5
320C
  8
DEFPOINTS
 62
     0
 10
-4208.4151038069049
 20
1776.1730069402961
 30
0.0
  0
POINT
  5
320D
  8
DEFPOINTS
 62
     0
 10
-3929.4151038069072
 20
1724.1730069402961
 30
0.0
  0
POINT
  5
320E
  8
DEFPOINTS
 62
     0
 10
-3929.4151038069072
 20
1790.8954786124989
 30
0.0
  0
ENDBLK
  5
239C
  8
0
  0
BLOCK
  8
0
  2
A$C5F6C7F99
 70
     0
 10
0.0
 20
0.0
 30
0.0
  3
A$C5F6C7F99
  1

  0
POLYLINE
  5
2FCB
  8
0
 66
     1
 10
0.0
 20
0.0
 30
0.0
 70
     1
1001
ACDBBLOCKREPETAG
1070
     1
1071
        0
1005
2FCB
  0
VERTEX
  5
3622
  8
0
 10
139.5
 20
-122.5
 30
0.0
  0
VERTEX
  5
3623
  8
0
 10
-139.5
 20
-122.5
 30
0.0
 42
-0.4142135623730951
  0
VERTEX
  5
3624
  8
0
 10
-142.5
 20
-119.5000000000009
 30
0.0
  0
VERTEX
  5
3625
  8
0
 10
-142.5
 20
119.5
 30
0.0
 42
-0.4142135623730951
  0
VERTEX
  5
3626
  8
0
 10
-139.5
 20
122.5
 30
0.0
  0
VERTEX
  5
3627
  8
0
 10
139.5
 20
122.5
 30
0.0
 42
-0.4142135623730951
  0
VERTEX
  5
3628
  8
0
 10
142.5
 20
119.5
 30
0.0
  0
VERTEX
  5
3629
  8
0
 10
142.5
 20
-119.5000000000009
 30
0.0
 42
-0.4142135623730951
  0
SEQEND
  5
362A
  8
0
  0
CIRCLE
  5
2FCC
  8
0
 10
72.5
 20
-117.5
 30
0.0
 40
2.5
1001
ACDBBLOCKREPETAG
1070
     1
1071
        1
1005
2FCC
  0
CIRCLE
  5
2FCD
  8
0
 10
137.5
 20
-52.5
 30
0.0
 40
2.5
1001
ACDBBLOCKREPETAG
1070
     1
1071
        2
1005
2FCD
  0
CIRCLE
  5
2FCE
  8
0
 10
-72.5
 20
-117.5
 30
0.0
 40
2.5
1001
ACDBBLOCKREPETAG
1070
     1
1071
        3
1005
2FCE
  0
CIRCLE
  5
2FCF
  8
0
 10
-137.5
 20
-52.5
 30
0.0
 40
2.5
1001
ACDBBLOCKREPETAG
1070
     1
1071
        4
1005
2FCF
  0
CIRCLE
  5
2FD0
  8
0
 10
72.5
 20
117.5
 30
0.0
 40
2.5
1001
ACDBBLOCKREPETAG
1070
     1
1071
        5
1005
2FD0
  0
CIRCLE
  5
2FD1
  8
0
 10
137.5
 20
52.5
 30
0.0
 40
2.5
1001
ACDBBLOCKREPETAG
1070
     1
1071
        6
1005
2FD1
  0
CIRCLE
  5
2FD2
  8
0
 10
-72.5
 20
117.5
 30
0.0
 40
2.5
1001
ACDBBLOCKREPETAG
1070
     1
1071
        7
1005
2FD2
  0
CIRCLE
  5
2FD3
  8
0
 10
-137.5
 20
52.5
 30
0.0
 40
2.5
1001
ACDBBLOCKREPETAG
1070
     1
1071
        8
1005
2FD3
  0
CIRCLE
  5
2FD4
  8
0
 10
127.5
 20
-107.5000000000009
 30
0.0
 40
2.5
1001
ACDBBLOCKREPETAG
1070
     1
1071
        9
1005
2FD4
  0
CIRCLE
  5
2FD5
  8
0
 10
-127.5
 20
-107.5000000000009
 30
0.0
 40
2.5
1001
ACDBBLOCKREPETAG
1070
     1
1071
       10
1005
2FD5
  0
CIRCLE
  5
2FD6
  8
0
 10
127.5
 20
107.5
 30
0.0
 40
2.5
1001
ACDBBLOCKREPETAG
1070
     1
1071
       11
1005
2FD6
  0
CIRCLE
  5
2FD7
  8
0
 10
-127.5
 20
107.5
 30
0.0
 40
2.5
1001
ACDBBLOCKREPETAG
1070
     1
1071
       12
1005
2FD7
  0
ENDBLK
  5
2510
  8
0
  0
BLOCK
  8
0
  2
NÓŻKA_53
 70
     0
 10
0.0
 20
0.0
 30
0.0
  3
NÓŻKA_53
  1

  0
POLYLINE
  5
25E9
  8
0
 66
     1
 10
0.0
 20
0.0
 30
0.0
 70
     1
  0
VERTEX
  5
3575
  8
0
 10
-6995.8296774364744
 20
1211.189029333347
 30
0.0
  0
VERTEX
  5
3576
  8
0
 10
-6915.8296774364744
 20
1211.189029333347
 30
0.0
  0
VERTEX
  5
3577
  8
0
 10
-6915.8296774364744
 20
1199.189029333347
 30
0.0
  0
VERTEX
  5
3578
  8
0
 10
-6995.8296774364744
 20
1199.189029333347
 30
0.0
  0
SEQEND
  5
3579
  8
0
  0
POLYLINE
  5
25EA
  8
0
 66
     1
 10
0.0
 20
0.0
 30
0.0
 70
   128
  0
VERTEX
  5
357A
  8
0
 10
-6929.3296774364744
 20
1199.189029333347
 30
0.0
  0
VERTEX
  5
357B
  8
0
 10
-6929.3296774364744
 20
1155.189029333347
 30
0.0
  0
VERTEX
  5
357C
  8
0
 10
-6982.3296774364744
 20
1155.189029333347
 30
0.0
  0
VERTEX
  5
357D
  8
0
 10
-6982.3296774364744
 20
1199.189029333347
 30
0.0
  0
SEQEND
  5
357E
  8
0
  0
ENDBLK
  5
25E8
  8
0
  0
BLOCK
  8
0
  2
GNIAZDO_ZASILANIA_20_A
 70
     0
 10
0.0
 20
0.0
 30
0.0
  3
GNIAZDO_ZASILANIA_20_A
  1

  0
POLYLINE
  5
2633
  8
POMOCNICZE
  6
CONTINUOUS
 66
     1
 10
0.0
 20
0.0
 30
0.0
 70
     1
  0
VERTEX
  5
357F
  8
POMOCNICZE
  6
CONTINUOUS
 10
-21.5
 20
14.99999999999998
 30
0.0
  0
VERTEX
  5
3580
  8
POMOCNICZE
  6
CONTINUOUS
 10
21.5
 20
14.99999999999998
 30
0.0
 42
-0.4142135623730951
  0
VERTEX
  5
3581
  8
POMOCNICZE
  6
CONTINUOUS
 10
26.5
 20
9.999999999999984
 30
0.0
  0
VERTEX
  5
3582
  8
POMOCNICZE
  6
CONTINUOUS
 10
26.5
 20
-10.000000000000011
 30
0.0
 42
-0.4142135623730951
  0
VERTEX
  5
3583
  8
POMOCNICZE
  6
CONTINUOUS
 10
21.5
 20
-15.000000000000011
 30
0.0
  0
VERTEX
  5
3584
  8
POMOCNICZE
  6
CONTINUOUS
 10
-21.5
 20
-15.000000000000011
 30
0.0
 42
-0.4142135623730951
  0
VERTEX
  5
3585
  8
POMOCNICZE
  6
CONTINUOUS
 10
-26.5
 20
-10.000000000000011
 30
0.0
  0
VERTEX
  5
3586
  8
POMOCNICZE
  6
CONTINUOUS
 10
-26.5
 20
9.999999999999984
 30
0.0
 42
-0.4142135623730951
  0
SEQEND
  5
3587
  8
POMOCNICZE
  6
CONTINUOUS
  0
POLYLINE
  5
2634
  8
POMOCNICZE
  6
CONTINUOUS
 66
     1
 10
0.0
 20
0.0
 30
0.0
 70
     1
  0
VERTEX
  5
3588
  8
POMOCNICZE
  6
CONTINUOUS
 10
-11.5
 20
10.49999999999998
 30
0.0
  0
VERTEX
  5
3589
  8
POMOCNICZE
  6
CONTINUOUS
 10
11.5
 20
10.49999999999998
 30
0.0
 42
-0.4142135623730951
  0
VERTEX
  5
358A
  8
POMOCNICZE
  6
CONTINUOUS
 10
14.5
 20
7.4999999999999849
 30
0.0
  0
VERTEX
  5
358B
  8
POMOCNICZE
  6
CONTINUOUS
 10
14.5
 20
-7.5000000000000133
 30
0.0
 42
-0.4142135623730951
  0
VERTEX
  5
358C
  8
POMOCNICZE
  6
CONTINUOUS
 10
11.5
 20
-10.500000000000011
 30
0.0
  0
VERTEX
  5
358D
  8
POMOCNICZE
  6
CONTINUOUS
 10
-11.5
 20
-10.500000000000011
 30
0.0
 42
-0.4142135623730951
  0
VERTEX
  5
358E
  8
POMOCNICZE
  6
CONTINUOUS
 10
-14.5
 20
-7.5000000000000133
 30
0.0
  0
VERTEX
  5
358F
  8
POMOCNICZE
  6
CONTINUOUS
 10
-14.5
 20
7.4999999999999849
 30
0.0
 42
-0.4142135623730951
  0
SEQEND
  5
3590
  8
POMOCNICZE
  6
CONTINUOUS
  0
CIRCLE
  5
2635
  8
POMOCNICZE
  6
CONTINUOUS
 10
-21.5
 20
-0.0000000000000142
 30
0.0
 40
1.5
  0
CIRCLE
  5
2636
  8
POMOCNICZE
  6
CONTINUOUS
 10
21.5
 20
-0.0000000000000142
 30
0.0
 40
1.5
  0
ENDBLK
  5
2637
  8
0
  0
BLOCK
  8
0
  2
GALKA-BOK
 70
     0
 10
0.0
 20
0.0
 30
0.0
  3
GALKA-BOK
  1

  0
POLYLINE
  5
2866
  8
0
 62
     5
 66
     1
 10
0.0
 20
0.0
 30
0.0
 70
     1
  0
VERTEX
  5
3592
  8
0
 62
     5
 10
513.60568399835734
 20
-235.79423081355341
 30
0.0
  0
VERTEX
  5
3593
  8
0
 62
     5
 10
531.60568399835734
 20
-235.79423081355341
 30
0.0
 42
-0.4142135623730951
  0
VERTEX
  5
3594
  8
0
 62
     5
 10
539.60568399835734
 20
-243.79423081355341
 30
0.0
  0
VERTEX
  5
3595
  8
0
 62
     5
 10
539.60568399835734
 20
-249.79423081355341
 30
0.0
  0
VERTEX
  5
3596
  8
0
 62
     5
 10
505.60568399835751
 20
-249.79423081355341
 30
0.0
  0
VERTEX
  5
3597
  8
0
 62
     5
 10
505.60568399835751
 20
-243.79423081355341
 30
0.0
 42
-0.4142135623730951
  0
SEQEND
  5
3598
  8
0
 62
     5
  0
POLYLINE
  5
2867
  8
0
 62
     5
 66
     1
 10
0.0
 20
0.0
 30
0.0
 70
     1
  0
VERTEX
  5
3599
  8
0
 62
     5
 10
513.60568399835734
 20
-249.79423081355341
 30
0.0
  0
VERTEX
  5
359A
  8
0
 62
     5
 10
531.60568399835734
 20
-249.79423081355341
 30
0.0
  0
VERTEX
  5
359B
  8
0
 62
     5
 10
531.60568399835734
 20
-256.79423081355338
 30
0.0
  0
VERTEX
  5
359C
  8
0
 62
     5
 10
513.60568399835734
 20
-256.79423081355338
 30
0.0
  0
SEQEND
  5
359D
  8
0
 62
     5
  0
POLYLINE
  5
2868
  8
0
 62
     5
 66
     1
 10
0.0
 20
0.0
 30
0.0
  0
VERTEX
  5
359E
  8
0
 62
     5
 10
508.60568399835762
 20
-243.79423081355341
 30
0.0
  0
VERTEX
  5
359F
  8
0
 62
     5
 10
508.60568399835762
 20
-249.79423081355341
 30
0.0
  0
SEQEND
  5
35A0
  8
0
 62
     5
  0
POLYLINE
  8
0
  5
368B
  62
5
  66
     1
 10
0.000000
 20
0.000000
 30
0.000000
  70
     8
  0
VERTEX
  8
0
  5
368C
 10
508.606
 20
-243.794
 30
0.000000
  70
    32
  0
VERTEX
  8
0
  5
368D
 10
508.650
 20
-243.718
 30
0.000000
  70
    32
  0
VERTEX
  8
0
  5
368E
 10
508.694
 20
-243.641
 30
0.000000
  70
    32
  0
VERTEX
  8
0
  5
368F
 10
508.738
 20
-243.565
 30
0.000000
  70
    32
  0
VERTEX
  8
0
  5
3690
 10
508.783
 20
-243.488
 30
0.000000
  70
    32
  0
VERTEX
  8
0
  5
3691
 10
508.827
 20
-243.412
 30
0.000000
  70
    32
  0
VERTEX
  8
0
  5
3692
 10
508.871
 20
-243.335
 30
0.000000
  70
    32
  0
VERTEX
  8
0
  5
3693
 10
508.915
 20
-243.259
 30
0.000000
  70
    32
  0
VERTEX
  8
0
  5
3694
 10
508.960
 20
-243.183
 30
0.000000
  70
    32
  0
VERTEX
  8
0
  5
3695
 10
509.004
 20
-243.106
 30
0.000000
  70
    32
  0
VERTEX
  8
0
  5
3696
 10
509.048
 20
-243.030
 30
0.000000
  70
    32
  0
VERTEX
  8
0
  5
3697
 10
509.093
 20
-242.954
 30
0.000000
  70
    32
  0
VERTEX
  8
0
  5
3698
 10
509.137
 20
-242.878
 30
0.000000
  70
    32
  0
VERTEX
  8
0
  5
3699
 10
509.181
 20
-242.802
 30
0.000000
  70
    32
  0
VERTEX
  8
0
  5
369A
 10
509.226
 20
-242.725
 30
0.000000
  70
    32
  0
VERTEX
  8
0
  5
369B
 10
509.270
 20
-242.649
 30
0.000000
  70
    32
  0
VERTEX
  8
0
  5
369C
 10
509.315
 20
-242.574
 30
0.000000
  70
    32
  0
VERTEX
  8
0
  5
369D
 10
509.359
 20
-242.498
 30
0.000000
  70
    32
  0
VERTEX
  8
0
  5
369E
 10
509.404
 20
-242.422
 30
0.000000
  70
    32
  0
VERTEX
  8
0
  5
369F
 10
509.449
 20
-242.346
 30
0.000000
  70
    32
  0
VERTEX
  8
0
  5
36A0
 10
509.493
 20
-242.271
 30
0.000000
  70
    32
  0
VERTEX
  8
0
  5
36A1
 10
509.538
 20
-242.195
 30
0.000000
  70
    32
  0
VERTEX
  8
0
  5
36A2
 10
509.583
 20
-242.120
 30
0.000000
  70
    32
  0
VERTEX
  8
0
  5
36A3
 10
509.628
 20
-242.045
 30
0.000000
  70
    32
  0
VERTEX
  8
0
  5
36A4
 10
509.672
 20
-241.970
 30
0.000000
  70
    32
  0
VERTEX
  8
0
  5
36A5
 10
509.717
 20
-241.895
 30
0.000000
  70
    32
  0
VERTEX
  8
0
  5
36A6
 10
509.762
 20
-241.820
 30
0.000000
  70
    32
  0
VERTEX
  8
0
  5
36A7
 10
509.808
 20
-241.745
 30
0.000000
  70
    32
  0
VERTEX
  8
0
  5
36A8
 10
509.853
 20
-241.670
 30
0.000000
  70
    32
  0
VERTEX
  8
0
  5
36A9
 10
509.898
 20
-241.596
 30
0.000000
  70
    32
  0
VERTEX
  8
0
  5
36AA
 10
509.943
 20
-241.522
 30
0.000000
  70
    32
  0
VERTEX
  8
0
  5
36AB
 10
509.989
 20
-241.448
 30
0.000000
  70
    32
  0
VERTEX
  8
0
  5
36AC
 10
510.034
 20
-241.374
 30
0.000000
  70
    32
  0
VERTEX
  8
0
  5
36AD
 10
510.079
 20
-241.300
 30
0.000000
  70
    32
  0
VERTEX
  8
0
  5
36AE
 10
510.125
 20
-241.226
 30
0.000000
  70
    32
  0
VERTEX
  8
0
  5
36AF
 10
510.171
 20
-241.152
 30
0.000000
  70
    32
  0
VERTEX
  8
0
  5
36B0
 10
510.216
 20
-241.079
 30
0.000000
  70
    32
  0
VERTEX
  8
0
  5
36B1
 10
510.262
 20
-241.006
 30
0.000000
  70
    32
  0
VERTEX
  8
0
  5
36B2
 10
510.308
 20
-240.933
 30
0.000000
  70
    32
  0
VERTEX
  8
0
  5
36B3
 10
510.354
 20
-240.860
 30
0.000000
  70
    32
  0
VERTEX
  8
0
  5
36B4
 10
510.400
 20
-240.788
 30
0.000000
  70
    32
  0
VERTEX
  8
0
  5
36B5
 10
510.447
 20
-240.715
 30
0.000000
  70
    32
  0
VERTEX
  8
0
  5
36B6
 10
510.493
 20
-240.643
 30
0.000000
  70
    32
  0
VERTEX
  8
0
  5
36B7
 10
510.539
 20
-240.571
 30
0.000000
  70
    32
  0
VERTEX
  8
0
  5
36B8
 10
510.586
 20
-240.499
 30
0.000000
  70
    32
  0
VERTEX
  8
0
  5
36B9
 10
510.633
 20
-240.428
 30
0.000000
  70
    32
  0
VERTEX
  8
0
  5
36BA
 10
510.679
 20
-240.357
 30
0.000000
  70
    32
  0
VERTEX
  8
0
  5
36BB
 10
510.726
 20
-240.285
 30
0.000000
  70
    32
  0
VERTEX
  8
0
  5
36BC
 10
510.773
 20
-240.215
 30
0.000000
  70
    32
  0
VERTEX
  8
0
  5
36BD
 10
510.820
 20
-240.144
 30
0.000000
  70
    32
  0
VERTEX
  8
0
  5
36BE
 10
510.868
 20
-240.074
 30
0.000000
  70
    32
  0
VERTEX
  8
0
  5
36BF
 10
510.915
 20
-240.004
 30
0.000000
  70
    32
  0
VERTEX
  8
0
  5
36C0
 10
510.962
 20
-239.934
 30
0.000000
  70
    32
  0
VERTEX
  8
0
  5
36C1
 10
511.010
 20
-239.864
 30
0.000000
  70
    32
  0
VERTEX
  8
0
  5
36C2
 10
511.058
 20
-239.795
 30
0.000000
  70
    32
  0
VERTEX
  8
0
  5
36C3
 10
511.105
 20
-239.726
 30
0.000000
  70
    32
  0
VERTEX
  8
0
  5
36C4
 10
511.153
 20
-239.657
 30
0.000000
  70
    32
  0
VERTEX
  8
0
  5
36C5
 10
511.202
 20
-239.589
 30
0.000000
  70
    32
  0
VERTEX
  8
0
  5
36C6
 10
511.250
 20
-239.520
 30
0.000000
  70
    32
  0
VERTEX
  8
0
  5
36C7
 10
511.298
 20
-239.452
 30
0.000000
  70
    32
  0
VERTEX
  8
0
  5
36C8
 10
511.347
 20
-239.385
 30
0.000000
  70
    32
  0
VERTEX
  8
0
  5
36C9
 10
511.396
 20
-239.318
 30
0.000000
  70
    32
  0
VERTEX
  8
0
  5
36CA
 10
511.444
 20
-239.251
 30
0.000000
  70
    32
  0
VERTEX
  8
0
  5
36CB
 10
511.493
 20
-239.184
 30
0.000000
  70
    32
  0
VERTEX
  8
0
  5
36CC
 10
511.543
 20
-239.118
 30
0.000000
  70
    32
  0
VERTEX
  8
0
  5
36CD
 10
511.592
 20
-239.051
 30
0.000000
  70
    32
  0
VERTEX
  8
0
  5
36CE
 10
511.641
 20
-238.986
 30
0.000000
  70
    32
  0
VERTEX
  8
0
  5
36CF
 10
511.691
 20
-238.920
 30
0.000000
  70
    32
  0
VERTEX
  8
0
  5
36D0
 10
511.741
 20
-238.855
 30
0.000000
  70
    32
  0
VERTEX
  8
0
  5
36D1
 10
511.791
 20
-238.791
 30
0.000000
  70
    32
  0
VERTEX
  8
0
  5
36D2
 10
511.841
 20
-238.726
 30
0.000000
  70
    32
  0
VERTEX
  8
0
  5
36D3
 10
511.891
 20
-238.662
 30
0.000000
  70
    32
  0
VERTEX
  8
0
  5
36D4
 10
511.942
 20
-238.599
 30
0.000000
  70
    32
  0
VERTEX
  8
0
  5
36D5
 10
511.992
 20
-238.535
 30
0.000000
  70
    32
  0
VERTEX
  8
0
  5
36D6
 10
512.043
 20
-238.472
 30
0.000000
  70
    32
  0
VERTEX
  8
0
  5
36D7
 10
512.094
 20
-238.410
 30
0.000000
  70
    32
  0
VERTEX
  8
0
  5
36D8
 10
512.145
 20
-238.348
 30
0.000000
  70
    32
  0
VERTEX
  8
0
  5
36D9
 10
512.197
 20
-238.286
 30
0.000000
  70
    32
  0
VERTEX
  8
0
  5
36DA
 10
512.248
 20
-238.224
 30
0.000000
  70
    32
  0
VERTEX
  8
0
  5
36DB
 10
512.300
 20
-238.163
 30
0.000000
  70
    32
  0
VERTEX
  8
0
  5
36DC
 10
512.352
 20
-238.103
 30
0.000000
  70
    32
  0
VERTEX
  8
0
  5
36DD
 10
512.404
 20
-238.043
 30
0.000000
  70
    32
  0
VERTEX
  8
0
  5
36DE
 10
512.457
 20
-237.983
 30
0.000000
  70
    32
  0
VERTEX
  8
0
  5
36DF
 10
512.509
 20
-237.923
 30
0.000000
  70
    32
  0
VERTEX
  8
0
  5
36E0
 10
512.562
 20
-237.864
 30
0.000000
  70
    32
  0
VERTEX
  8
0
  5
36E1
 10
512.615
 20
-237.806
 30
0.000000
  70
    32
  0
VERTEX
  8
0
  5
36E2
 10
512.668
 20
-237.748
 30
0.000000
  70
    32
  0
VERTEX
  8
0
  5
36E3
 10
512.722
 20
-237.690
 30
0.000000
  70
    32
  0
VERTEX
  8
0
  5
36E4
 10
512.775
 20
-237.633
 30
0.000000
  70
    32
  0
VERTEX
  8
0
  5
36E5
 10
512.829
 20
-237.576
 30
0.000000
  70
    32
  0
VERTEX
  8
0
  5
36E6
 10
512.883
 20
-237.520
 30
0.000000
  70
    32
  0
VERTEX
  8
0
  5
36E7
 10
512.937
 20
-237.464
 30
0.000000
  70
    32
  0
VERTEX
  8
0
  5
36E8
 10
512.992
 20
-237.408
 30
0.000000
  70
    32
  0
VERTEX
  8
0
  5
36E9
 10
513.046
 20
-237.353
 30
0.000000
  70
    32
  0
VERTEX
  8
0
  5
36EA
 10
513.101
 20
-237.299
 30
0.000000
  70
    32
  0
VERTEX
  8
0
  5
36EB
 10
513.157
 20
-237.245
 30
0.000000
  70
    32
  0
VERTEX
  8
0
  5
36EC
 10
513.212
 20
-237.191
 30
0.000000
  70
    32
  0
VERTEX
  8
0
  5
36ED
 10
513.268
 20
-237.138
 30
0.000000
  70
    32
  0
VERTEX
  8
0
  5
36EE
 10
513.323
 20
-237.085
 30
0.000000
  70
    32
  0
VERTEX
  8
0
  5
36EF
 10
513.380
 20
-237.033
 30
0.000000
  70
    32
  0
VERTEX
  8
0
  5
36F0
 10
513.436
 20
-236.982
 30
0.000000
  70
    32
  0
VERTEX
  8
0
  5
36F1
 10
513.492
 20
-236.930
 30
0.000000
  70
    32
  0
VERTEX
  8
0
  5
36F2
 10
513.549
 20
-236.880
 30
0.000000
  70
    32
  0
VERTEX
  8
0
  5
36F3
 10
513.606
 20
-236.830
 30
0.000000
  70
    32
  0
VERTEX
  8
0
  5
36F4
 10
513.664
 20
-236.780
 30
0.000000
  70
    32
  0
VERTEX
  8
0
  5
36F5
 10
513.721
 20
-236.731
 30
0.000000
  70
    32
  0
VERTEX
  8
0
  5
36F6
 10
513.779
 20
-236.683
 30
0.000000
  70
    32
  0
VERTEX
  8
0
  5
36F7
 10
513.837
 20
-236.635
 30
0.000000
  70
    32
  0
VERTEX
  8
0
  5
36F8
 10
513.896
 20
-236.587
 30
0.000000
  70
    32
  0
VERTEX
  8
0
  5
36F9
 10
513.954
 20
-236.540
 30
0.000000
  70
    32
  0
VERTEX
  8
0
  5
36FA
 10
514.013
 20
-236.494
 30
0.000000
  70
    32
  0
VERTEX
  8
0
  5
36FB
 10
514.072
 20
-236.448
 30
0.000000
  70
    32
  0
VERTEX
  8
0
  5
36FC
 10
514.132
 20
-236.403
 30
0.000000
  70
    32
  0
VERTEX
  8
0
  5
36FD
 10
514.192
 20
-236.358
 30
0.000000
  70
    32
  0
VERTEX
  8
0
  5
36FE
 10
514.252
 20
-236.314
 30
0.000000
  70
    32
  0
VERTEX
  8
0
  5
36FF
 10
514.312
 20
-236.270
 30
0.000000
  70
    32
  0
VERTEX
  8
0
  5
3700
 10
514.373
 20
-236.227
 30
0.000000
  70
    32
  0
VERTEX
  8
0
  5
3701
 10
514.433
 20
-236.185
 30
0.000000
  70
    32
  0
VERTEX
  8
0
  5
3702
 10
514.495
 20
-236.143
 30
0.000000
  70
    32
  0
VERTEX
  8
0
  5
3703
 10
514.556
 20
-236.102
 30
0.000000
  70
    32
  0
VERTEX
  8
0
  5
3704
 10
514.618
 20
-236.061
 30
0.000000
  70
    32
  0
VERTEX
  8
0
  5
3705
 10
514.680
 20
-236.021
 30
0.000000
  70
    32
  0
VERTEX
  8
0
  5
3706
 10
514.742
 20
-235.982
 30
0.000000
  70
    32
  0
VERTEX
  8
0
  5
3707
 10
514.805
 20
-235.943
 30
0.000000
  70
    32
  0
VERTEX
  8
0
  5
3708
 10
514.868
 20
-235.905
 30
0.000000
  70
    32
  0
VERTEX
  8
0
  5
3709
 10
514.931
 20
-235.867
 30
0.000000
  70
    32
  0
VERTEX
  8
0
  5
370A
 10
514.994
 20
-235.831
 30
0.000000
  70
    32
  0
VERTEX
  8
0
  5
370B
 10
515.058
 20
-235.794
 30
0.000000
  70
    32
  0
SEQEND
  8
0
  5
370C
  0
POLYLINE
  8
0
  5
370D
  62
5
  66
     1
 10
0.000000
 20
0.000000
 30
0.000000
  70
     8
  0
VERTEX
  8
0
  5
370E
 10
522.606
 20
-235.794
 30
0.000000
  70
    32
  0
VERTEX
  8
0
  5
370F
 10
522.815
 20
-235.829
 30
0.000000
  70
    32
  0
VERTEX
  8
0
  5
3710
 10
523.021
 20
-235.864
 30
0.000000
  70
    32
  0
VERTEX
  8
0
  5
3711
 10
523.225
 20
-235.900
 30
0.000000
  70
    32
  0
VERTEX
  8
0
  5
3712
 10
523.426
 20
-235.936
 30
0.000000
  70
    32
  0
VERTEX
  8
0
  5
3713
 10
523.625
 20
-235.972
 30
0.000000
  70
    32
  0
VERTEX
  8
0
  5
3714
 10
523.821
 20
-236.009
 30
0.000000
  70
    32
  0
VERTEX
  8
0
  5
3715
 10
524.015
 20
-236.046
 30
0.000000
  70
    32
  0
VERTEX
  8
0
  5
3716
 10
524.206
 20
-236.083
 30
0.000000
  70
    32
  0
VERTEX
  8
0
  5
3717
 10
524.395
 20
-236.121
 30
0.000000
  70
    32
  0
VERTEX
  8
0
  5
3718
 10
524.582
 20
-236.159
 30
0.000000
  70
    32
  0
VERTEX
  8
0
  5
3719
 10
524.767
 20
-236.198
 30
0.000000
  70
    32
  0
VERTEX
  8
0
  5
371A
 10
524.949
 20
-236.236
 30
0.000000
  70
    32
  0
VERTEX
  8
0
  5
371B
 10
525.129
 20
-236.275
 30
0.000000
  70
    32
  0
VERTEX
  8
0
  5
371C
 10
525.307
 20
-236.314
 30
0.000000
  70
    32
  0
VERTEX
  8
0
  5
371D
 10
525.482
 20
-236.354
 30
0.000000
  70
    32
  0
VERTEX
  8
0
  5
371E
 10
525.655
 20
-236.394
 30
0.000000
  70
    32
  0
VERTEX
  8
0
  5
371F
 10
525.826
 20
-236.434
 30
0.000000
  70
    32
  0
VERTEX
  8
0
  5
3720
 10
525.995
 20
-236.475
 30
0.000000
  70
    32
  0
VERTEX
  8
0
  5
3721
 10
526.162
 20
-236.516
 30
0.000000
  70
    32
  0
VERTEX
  8
0
  5
3722
 10
526.327
 20
-236.557
 30
0.000000
  70
    32
  0
VERTEX
  8
0
  5
3723
 10
526.490
 20
-236.598
 30
0.000000
  70
    32
  0
VERTEX
  8
0
  5
3724
 10
526.651
 20
-236.640
 30
0.000000
  70
    32
  0
VERTEX
  8
0
  5
3725
 10
526.810
 20
-236.682
 30
0.000000
  70
    32
  0
VERTEX
  8
0
  5
3726
 10
526.966
 20
-236.724
 30
0.000000
  70
    32
  0
VERTEX
  8
0
  5
3727
 10
527.121
 20
-236.767
 30
0.000000
  70
    32
  0
VERTEX
  8
0
  5
3728
 10
527.274
 20
-236.809
 30
0.000000
  70
    32
  0
VERTEX
  8
0
  5
3729
 10
527.425
 20
-236.853
 30
0.000000
  70
    32
  0
VERTEX
  8
0
  5
372A
 10
527.574
 20
-236.896
 30
0.000000
  70
    32
  0
VERTEX
  8
0
  5
372B
 10
527.722
 20
-236.940
 30
0.000000
  70
    32
  0
VERTEX
  8
0
  5
372C
 10
527.867
 20
-236.983
 30
0.000000
  70
    32
  0
VERTEX
  8
0
  5
372D
 10
528.011
 20
-237.028
 30
0.000000
  70
    32
  0
VERTEX
  8
0
  5
372E
 10
528.153
 20
-237.072
 30
0.000000
  70
    32
  0
VERTEX
  8
0
  5
372F
 10
528.293
 20
-237.117
 30
0.000000
  70
    32
  0
VERTEX
  8
0
  5
3730
 10
528.432
 20
-237.162
 30
0.000000
  70
    32
  0
VERTEX
  8
0
  5
3731
 10
528.568
 20
-237.207
 30
0.000000
  70
    32
  0
VERTEX
  8
0
  5
3732
 10
528.704
 20
-237.252
 30
0.000000
  70
    32
  0
VERTEX
  8
0
  5
3733
 10
528.837
 20
-237.298
 30
0.000000
  70
    32
  0
VERTEX
  8
0
  5
3734
 10
528.969
 20
-237.344
 30
0.000000
  70
    32
  0
VERTEX
  8
0
  5
3735
 10
529.100
 20
-237.390
 30
0.000000
  70
    32
  0
VERTEX
  8
0
  5
3736
 10
529.228
 20
-237.436
 30
0.000000
  70
    32
  0
VERTEX
  8
0
  5
3737
 10
529.356
 20
-237.483
 30
0.000000
  70
    32
  0
VERTEX
  8
0
  5
3738
 10
529.481
 20
-237.530
 30
0.000000
  70
    32
  0
VERTEX
  8
0
  5
3739
 10
529.606
 20
-237.577
 30
0.000000
  70
    32
  0
VERTEX
  8
0
  5
373A
 10
529.729
 20
-237.624
 30
0.000000
  70
    32
  0
VERTEX
  8
0
  5
373B
 10
529.850
 20
-237.671
 30
0.000000
  70
    32
  0
VERTEX
  8
0
  5
373C
 10
529.970
 20
-237.719
 30
0.000000
  70
    32
  0
VERTEX
  8
0
  5
373D
 10
530.089
 20
-237.767
 30
0.000000
  70
    32
  0
VERTEX
  8
0
  5
373E
 10
530.206
 20
-237.815
 30
0.000000
  70
    32
  0
VERTEX
  8
0
  5
373F
 10
530.322
 20
-237.863
 30
0.000000
  70
    32
  0
VERTEX
  8
0
  5
3740
 10
530.437
 20
-237.912
 30
0.000000
  70
    32
  0
VERTEX
  8
0
  5
3741
 10
530.551
 20
-237.960
 30
0.000000
  70
    32
  0
VERTEX
  8
0
  5
3742
 10
530.663
 20
-238.009
 30
0.000000
  70
    32
  0
VERTEX
  8
0
  5
3743
 10
530.774
 20
-238.058
 30
0.000000
  70
    32
  0
VERTEX
  8
0
  5
3744
 10
530.884
 20
-238.107
 30
0.000000
  70
    32
  0
VERTEX
  8
0
  5
3745
 10
530.993
 20
-238.157
 30
0.000000
  70
    32
  0
VERTEX
  8
0
  5
3746
 10
531.100
 20
-238.206
 30
0.000000
  70
    32
  0
VERTEX
  8
0
  5
3747
 10
531.207
 20
-238.256
 30
0.000000
  70
    32
  0
VERTEX
  8
0
  5
3748
 10
531.312
 20
-238.306
 30
0.000000
  70
    32
  0
VERTEX
  8
0
  5
3749
 10
531.417
 20
-238.356
 30
0.000000
  70
    32
  0
VERTEX
  8
0
  5
374A
 10
531.520
 20
-238.406
 30
0.000000
  70
    32
  0
VERTEX
  8
0
  5
374B
 10
531.622
 20
-238.457
 30
0.000000
  70
    32
  0
VERTEX
  8
0
  5
374C
 10
531.724
 20
-238.507
 30
0.000000
  70
    32
  0
VERTEX
  8
0
  5
374D
 10
531.824
 20
-238.558
 30
0.000000
  70
    32
  0
VERTEX
  8
0
  5
374E
 10
531.924
 20
-238.609
 30
0.000000
  70
    32
  0
VERTEX
  8
0
  5
374F
 10
532.022
 20
-238.660
 30
0.000000
  70
    32
  0
VERTEX
  8
0
  5
3750
 10
532.120
 20
-238.711
 30
0.000000
  70
    32
  0
VERTEX
  8
0
  5
3751
 10
532.217
 20
-238.762
 30
0.000000
  70
    32
  0
VERTEX
  8
0
  5
3752
 10
532.313
 20
-238.814
 30
0.000000
  70
    32
  0
VERTEX
  8
0
  5
3753
 10
532.408
 20
-238.865
 30
0.000000
  70
    32
  0
VERTEX
  8
0
  5
3754
 10
532.503
 20
-238.917
 30
0.000000
  70
    32
  0
VERTEX
  8
0
  5
3755
 10
532.597
 20
-238.969
 30
0.000000
  70
    32
  0
VERTEX
  8
0
  5
3756
 10
532.690
 20
-239.021
 30
0.000000
  70
    32
  0
VERTEX
  8
0
  5
3757
 10
532.782
 20
-239.073
 30
0.000000
  70
    32
  0
VERTEX
  8
0
  5
3758
 10
532.874
 20
-239.125
 30
0.000000
  70
    32
  0
VERTEX
  8
0
  5
3759
 10
532.965
 20
-239.177
 30
0.000000
  70
    32
  0
VERTEX
  8
0
  5
375A
 10
533.056
 20
-239.230
 30
0.000000
  70
    32
  0
VERTEX
  8
0
  5
375B
 10
533.146
 20
-239.282
 30
0.000000
  70
    32
  0
VERTEX
  8
0
  5
375C
 10
533.235
 20
-239.335
 30
0.000000
  70
    32
  0
VERTEX
  8
0
  5
375D
 10
533.324
 20
-239.388
 30
0.000000
  70
    32
  0
VERTEX
  8
0
  5
375E
 10
533.413
 20
-239.441
 30
0.000000
  70
    32
  0
VERTEX
  8
0
  5
375F
 10
533.501
 20
-239.494
 30
0.000000
  70
    32
  0
VERTEX
  8
0
  5
3760
 10
533.588
 20
-239.547
 30
0.000000
  70
    32
  0
VERTEX
  8
0
  5
3761
 10
533.675
 20
-239.600
 30
0.000000
  70
    32
  0
VERTEX
  8
0
  5
3762
 10
533.762
 20
-239.653
 30
0.000000
  70
    32
  0
VERTEX
  8
0
  5
3763
 10
533.848
 20
-239.706
 30
0.000000
  70
    32
  0
VERTEX
  8
0
  5
3764
 10
533.934
 20
-239.760
 30
0.000000
  70
    32
  0
VERTEX
  8
0
  5
3765
 10
534.020
 20
-239.813
 30
0.000000
  70
    32
  0
VERTEX
  8
0
  5
3766
 10
534.105
 20
-239.866
 30
0.000000
  70
    32
  0
VERTEX
  8
0
  5
3767
 10
534.190
 20
-239.920
 30
0.000000
  70
    32
  0
VERTEX
  8
0
  5
3768
 10
534.275
 20
-239.974
 30
0.000000
  70
    32
  0
VERTEX
  8
0
  5
3769
 10
534.359
 20
-240.027
 30
0.000000
  70
    32
  0
VERTEX
  8
0
  5
376A
 10
534.443
 20
-240.081
 30
0.000000
  70
    32
  0
VERTEX
  8
0
  5
376B
 10
534.527
 20
-240.135
 30
0.000000
  70
    32
  0
VERTEX
  8
0
  5
376C
 10
534.611
 20
-240.189
 30
0.000000
  70
    32
  0
VERTEX
  8
0
  5
376D
 10
534.694
 20
-240.243
 30
0.000000
  70
    32
  0
VERTEX
  8
0
  5
376E
 10
534.777
 20
-240.297
 30
0.000000
  70
    32
  0
VERTEX
  8
0
  5
376F
 10
534.859
 20
-240.351
 30
0.000000
  70
    32
  0
VERTEX
  8
0
  5
3770
 10
534.942
 20
-240.405
 30
0.000000
  70
    32
  0
VERTEX
  8
0
  5
3771
 10
535.024
 20
-240.460
 30
0.000000
  70
    32
  0
VERTEX
  8
0
  5
3772
 10
535.105
 20
-240.514
 30
0.000000
  70
    32
  0
VERTEX
  8
0
  5
3773
 10
535.187
 20
-240.568
 30
0.000000
  70
    32
  0
VERTEX
  8
0
  5
3774
 10
535.268
 20
-240.623
 30
0.000000
  70
    32
  0
VERTEX
  8
0
  5
3775
 10
535.349
 20
-240.677
 30
0.000000
  70
    32
  0
VERTEX
  8
0
  5
3776
 10
535.430
 20
-240.732
 30
0.000000
  70
    32
  0
VERTEX
  8
0
  5
3777
 10
535.510
 20
-240.787
 30
0.000000
  70
    32
  0
VERTEX
  8
0
  5
3778
 10
535.590
 20
-240.841
 30
0.000000
  70
    32
  0
VERTEX
  8
0
  5
3779
 10
535.670
 20
-240.896
 30
0.000000
  70
    32
  0
VERTEX
  8
0
  5
377A
 10
535.750
 20
-240.951
 30
0.000000
  70
    32
  0
VERTEX
  8
0
  5
377B
 10
535.829
 20
-241.006
 30
0.000000
  70
    32
  0
VERTEX
  8
0
  5
377C
 10
535.908
 20
-241.061
 30
0.000000
  70
    32
  0
VERTEX
  8
0
  5
377D
 10
535.987
 20
-241.116
 30
0.000000
  70
    32
  0
VERTEX
  8
0
  5
377E
 10
536.066
 20
-241.171
 30
0.000000
  70
    32
  0
VERTEX
  8
0
  5
377F
 10
536.145
 20
-241.226
 30
0.000000
  70
    32
  0
VERTEX
  8
0
  5
3780
 10
536.223
 20
-241.281
 30
0.000000
  70
    32
  0
VERTEX
  8
0
  5
3781
 10
536.301
 20
-241.336
 30
0.000000
  70
    32
  0
VERTEX
  8
0
  5
3782
 10
536.379
 20
-241.391
 30
0.000000
  70
    32
  0
VERTEX
  8
0
  5
3783
 10
536.457
 20
-241.447
 30
0.000000
  70
    32
  0
VERTEX
  8
0
  5
3784
 10
536.535
 20
-241.502
 30
0.000000
  70
    32
  0
VERTEX
  8
0
  5
3785
 10
536.612
 20
-241.557
 30
0.000000
  70
    32
  0
VERTEX
  8
0
  5
3786
 10
536.689
 20
-241.613
 30
0.000000
  70
    32
  0
VERTEX
  8
0
  5
3787
 10
536.766
 20
-241.668
 30
0.000000
  70
    32
  0
VERTEX
  8
0
  5
3788
 10
536.843
 20
-241.723
 30
0.000000
  70
    32
  0
VERTEX
  8
0
  5
3789
 10
536.920
 20
-241.779
 30
0.000000
  70
    32
  0
VERTEX
  8
0
  5
378A
 10
536.996
 20
-241.834
 30
0.000000
  70
    32
  0
VERTEX
  8
0
  5
378B
 10
537.073
 20
-241.890
 30
0.000000
  70
    32
  0
VERTEX
  8
0
  5
378C
 10
537.149
 20
-241.946
 30
0.000000
  70
    32
  0
VERTEX
  8
0
  5
378D
 10
537.225
 20
-242.001
 30
0.000000
  70
    32
  0
VERTEX
  8
0
  5
378E
 10
537.301
 20
-242.057
 30
0.000000
  70
    32
  0
VERTEX
  8
0
  5
378F
 10
537.376
 20
-242.113
 30
0.000000
  70
    32
  0
VERTEX
  8
0
  5
3790
 10
537.452
 20
-242.168
 30
0.000000
  70
    32
  0
VERTEX
  8
0
  5
3791
 10
537.528
 20
-242.224
 30
0.000000
  70
    32
  0
VERTEX
  8
0
  5
3792
 10
537.603
 20
-242.280
 30
0.000000
  70
    32
  0
VERTEX
  8
0
  5
3793
 10
537.678
 20
-242.336
 30
0.000000
  70
    32
  0
VERTEX
  8
0
  5
3794
 10
537.753
 20
-242.392
 30
0.000000
  70
    32
  0
VERTEX
  8
0
  5
3795
 10
537.828
 20
-242.448
 30
0.000000
  70
    32
  0
VERTEX
  8
0
  5
3796
 10
537.903
 20
-242.504
 30
0.000000
  70
    32
  0
VERTEX
  8
0
  5
3797
 10
537.978
 20
-242.560
 30
0.000000
  70
    32
  0
VERTEX
  8
0
  5
3798
 10
538.053
 20
-242.615
 30
0.000000
  70
    32
  0
VERTEX
  8
0
  5
3799
 10
538.127
 20
-242.671
 30
0.000000
  70
    32
  0
VERTEX
  8
0
  5
379A
 10
538.202
 20
-242.727
 30
0.000000
  70
    32
  0
VERTEX
  8
0
  5
379B
 10
538.276
 20
-242.784
 30
0.000000
  70
    32
  0
VERTEX
  8
0
  5
379C
 10
538.350
 20
-242.840
 30
0.000000
  70
    32
  0
VERTEX
  8
0
  5
379D
 10
538.425
 20
-242.896
 30
0.000000
  70
    32
  0
VERTEX
  8
0
  5
379E
 10
538.499
 20
-242.952
 30
0.000000
  70
    32
  0
VERTEX
  8
0
  5
379F
 10
538.573
 20
-243.008
 30
0.000000
  70
    32
  0
VERTEX
  8
0
  5
37A0
 10
538.647
 20
-243.064
 30
0.000000
  70
    32
  0
VERTEX
  8
0
  5
37A1
 10
538.721
 20
-243.120
 30
0.000000
  70
    32
  0
VERTEX
  8
0
  5
37A2
 10
538.795
 20
-243.176
 30
0.000000
  70
    32
  0
VERTEX
  8
0
  5
37A3
 10
538.869
 20
-243.232
 30
0.000000
  70
    32
  0
VERTEX
  8
0
  5
37A4
 10
538.943
 20
-243.288
 30
0.000000
  70
    32
  0
VERTEX
  8
0
  5
37A5
 10
539.016
 20
-243.345
 30
0.000000
  70
    32
  0
VERTEX
  8
0
  5
37A6
 10
539.090
 20
-243.401
 30
0.000000
  70
    32
  0
VERTEX
  8
0
  5
37A7
 10
539.164
 20
-243.457
 30
0.000000
  70
    32
  0
VERTEX
  8
0
  5
37A8
 10
539.237
 20
-243.513
 30
0.000000
  70
    32
  0
VERTEX
  8
0
  5
37A9
 10
539.311
 20
-243.569
 30
0.000000
  70
    32
  0
VERTEX
  8
0
  5
37AA
 10
539.385
 20
-243.626
 30
0.000000
  70
    32
  0
VERTEX
  8
0
  5
37AB
 10
539.458
 20
-243.682
 30
0.000000
  70
    32
  0
VERTEX
  8
0
  5
37AC
 10
539.532
 20
-243.738
 30
0.000000
  70
    32
  0
VERTEX
  8
0
  5
37AD
 10
539.606
 20
-243.794
 30
0.000000
  70
    32
  0
SEQEND
  8
0
  5
37AE
  0
POLYLINE
  8
0
  5
37AF
  62
5
  66
     1
 10
0.000000
 20
0.000000
 30
0.000000
  70
     8
  0
VERTEX
  8
0
  5
37B0
 10
508.606
 20
-243.794
 30
0.000000
  70
    32
  0
VERTEX
  8
0
  5
37B1
 10
508.530
 20
-243.690
 30
0.000000
  70
    32
  0
VERTEX
  8
0
  5
37B2
 10
508.458
 20
-243.587
 30
0.000000
  70
    32
  0
VERTEX
  8
0
  5
37B3
 10
508.388
 20
-243.484
 30
0.000000
  70
    32
  0
VERTEX
  8
0
  5
37B4
 10
508.321
 20
-243.382
 30
0.000000
  70
    32
  0
VERTEX
  8
0
  5
37B5
 10
508.257
 20
-243.280
 30
0.000000
  70
    32
  0
VERTEX
  8
0
  5
37B6
 10
508.196
 20
-243.179
 30
0.000000
  70
    32
  0
VERTEX
  8
0
  5
37B7
 10
508.137
 20
-243.079
 30
0.000000
  70
    32
  0
VERTEX
  8
0
  5
37B8
 10
508.082
 20
-242.980
 30
0.000000
  70
    32
  0
VERTEX
  8
0
  5
37B9
 10
508.028
 20
-242.881
 30
0.000000
  70
    32
  0
VERTEX
  8
0
  5
37BA
 10
507.978
 20
-242.783
 30
0.000000
  70
    32
  0
VERTEX
  8
0
  5
37BB
 10
507.930
 20
-242.685
 30
0.000000
  70
    32
  0
VERTEX
  8
0
  5
37BC
 10
507.884
 20
-242.588
 30
0.000000
  70
    32
  0
VERTEX
  8
0
  5
37BD
 10
507.841
 20
-242.492
 30
0.000000
  70
    32
  0
VERTEX
  8
0
  5
37BE
 10
507.800
 20
-242.396
 30
0.000000
  70
    32
  0
VERTEX
  8
0
  5
37BF
 10
507.762
 20
-242.302
 30
0.000000
  70
    32
  0
VERTEX
  8
0
  5
37C0
 10
507.727
 20
-242.207
 30
0.000000
  70
    32
  0
VERTEX
  8
0
  5
37C1
 10
507.693
 20
-242.114
 30
0.000000
  70
    32
  0
VERTEX
  8
0
  5
37C2
 10
507.662
 20
-242.021
 30
0.000000
  70
    32
  0
VERTEX
  8
0
  5
37C3
 10
507.634
 20
-241.929
 30
0.000000
  70
    32
  0
VERTEX
  8
0
  5
37C4
 10
507.607
 20
-241.837
 30
0.000000
  70
    32
  0
VERTEX
  8
0
  5
37C5
 10
507.583
 20
-241.746
 30
0.000000
  70
    32
  0
VERTEX
  8
0
  5
37C6
 10
507.561
 20
-241.656
 30
0.000000
  70
    32
  0
VERTEX
  8
0
  5
37C7
 10
507.542
 20
-241.567
 30
0.000000
  70
    32
  0
VERTEX
  8
0
  5
37C8
 10
507.524
 20
-241.478
 30
0.000000
  70
    32
  0
VERTEX
  8
0
  5
37C9
 10
507.509
 20
-241.390
 30
0.000000
  70
    32
  0
VERTEX
  8
0
  5
37CA
 10
507.495
 20
-241.302
 30
0.000000
  70
    32
  0
VERTEX
  8
0
  5
37CB
 10
507.484
 20
-241.215
 30
0.000000
  70
    32
  0
VERTEX
  8
0
  5
37CC
 10
507.475
 20
-241.129
 30
0.000000
  70
    32
  0
VERTEX
  8
0
  5
37CD
 10
507.467
 20
-241.044
 30
0.000000
  70
    32
  0
VERTEX
  8
0
  5
37CE
 10
507.462
 20
-240.959
 30
0.000000
  70
    32
  0
VERTEX
  8
0
  5
37CF
 10
507.459
 20
-240.875
 30
0.000000
  70
    32
  0
VERTEX
  8
0
  5
37D0
 10
507.457
 20
-240.792
 30
0.000000
  70
    32
  0
VERTEX
  8
0
  5
37D1
 10
507.457
 20
-240.709
 30
0.000000
  70
    32
  0
VERTEX
  8
0
  5
37D2
 10
507.459
 20
-240.627
 30
0.000000
  70
    32
  0
VERTEX
  8
0
  5
37D3
 10
507.463
 20
-240.546
 30
0.000000
  70
    32
  0
VERTEX
  8
0
  5
37D4
 10
507.469
 20
-240.465
 30
0.000000
  70
    32
  0
VERTEX
  8
0
  5
37D5
 10
507.476
 20
-240.385
 30
0.000000
  70
    32
  0
VERTEX
  8
0
  5
37D6
 10
507.485
 20
-240.306
 30
0.000000
  70
    32
  0
VERTEX
  8
0
  5
37D7
 10
507.496
 20
-240.228
 30
0.000000
  70
    32
  0
VERTEX
  8
0
  5
37D8
 10
507.508
 20
-240.150
 30
0.000000
  70
    32
  0
VERTEX
  8
0
  5
37D9
 10
507.522
 20
-240.073
 30
0.000000
  70
    32
  0
VERTEX
  8
0
  5
37DA
 10
507.538
 20
-239.996
 30
0.000000
  70
    32
  0
VERTEX
  8
0
  5
37DB
 10
507.555
 20
-239.921
 30
0.000000
  70
    32
  0
VERTEX
  8
0
  5
37DC
 10
507.573
 20
-239.846
 30
0.000000
  70
    32
  0
VERTEX
  8
0
  5
37DD
 10
507.593
 20
-239.771
 30
0.000000
  70
    32
  0
VERTEX
  8
0
  5
37DE
 10
507.615
 20
-239.698
 30
0.000000
  70
    32
  0
VERTEX
  8
0
  5
37DF
 10
507.638
 20
-239.625
 30
0.000000
  70
    32
  0
VERTEX
  8
0
  5
37E0
 10
507.662
 20
-239.553
 30
0.000000
  70
    32
  0
VERTEX
  8
0
  5
37E1
 10
507.687
 20
-239.481
 30
0.000000
  70
    32
  0
VERTEX
  8
0
  5
37E2
 10
507.714
 20
-239.411
 30
0.000000
  70
    32
  0
VERTEX
  8
0
  5
37E3
 10
507.742
 20
-239.341
 30
0.000000
  70
    32
  0
VERTEX
  8
0
  5
37E4
 10
507.771
 20
-239.271
 30
0.000000
  70
    32
  0
VERTEX
  8
0
  5
37E5
 10
507.802
 20
-239.203
 30
0.000000
  70
    32
  0
VERTEX
  8
0
  5
37E6
 10
507.833
 20
-239.135
 30
0.000000
  70
    32
  0
VERTEX
  8
0
  5
37E7
 10
507.866
 20
-239.068
 30
0.000000
  70
    32
  0
VERTEX
  8
0
  5
37E8
 10
507.900
 20
-239.001
 30
0.000000
  70
    32
  0
VERTEX
  8
0
  5
37E9
 10
507.935
 20
-238.936
 30
0.000000
  70
    32
  0
VERTEX
  8
0
  5
37EA
 10
507.970
 20
-238.871
 30
0.000000
  70
    32
  0
VERTEX
  8
0
  5
37EB
 10
508.007
 20
-238.806
 30
0.000000
  70
    32
  0
VERTEX
  8
0
  5
37EC
 10
508.045
 20
-238.743
 30
0.000000
  70
    32
  0
VERTEX
  8
0
  5
37ED
 10
508.084
 20
-238.680
 30
0.000000
  70
    32
  0
VERTEX
  8
0
  5
37EE
 10
508.124
 20
-238.618
 30
0.000000
  70
    32
  0
VERTEX
  8
0
  5
37EF
 10
508.164
 20
-238.557
 30
0.000000
  70
    32
  0
VERTEX
  8
0
  5
37F0
 10
508.206
 20
-238.496
 30
0.000000
  70
    32
  0
VERTEX
  8
0
  5
37F1
 10
508.248
 20
-238.436
 30
0.000000
  70
    32
  0
VERTEX
  8
0
  5
37F2
 10
508.291
 20
-238.377
 30
0.000000
  70
    32
  0
VERTEX
  8
0
  5
37F3
 10
508.335
 20
-238.319
 30
0.000000
  70
    32
  0
VERTEX
  8
0
  5
37F4
 10
508.379
 20
-238.261
 30
0.000000
  70
    32
  0
VERTEX
  8
0
  5
37F5
 10
508.424
 20
-238.204
 30
0.000000
  70
    32
  0
VERTEX
  8
0
  5
37F6
 10
508.470
 20
-238.148
 30
0.000000
  70
    32
  0
VERTEX
  8
0
  5
37F7
 10
508.516
 20
-238.093
 30
0.000000
  70
    32
  0
VERTEX
  8
0
  5
37F8
 10
508.563
 20
-238.038
 30
0.000000
  70
    32
  0
VERTEX
  8
0
  5
37F9
 10
508.610
 20
-237.984
 30
0.000000
  70
    32
  0
VERTEX
  8
0
  5
37FA
 10
508.658
 20
-237.931
 30
0.000000
  70
    32
  0
VERTEX
  8
0
  5
37FB
 10
508.706
 20
-237.878
 30
0.000000
  70
    32
  0
VERTEX
  8
0
  5
37FC
 10
508.755
 20
-237.827
 30
0.000000
  70
    32
  0
VERTEX
  8
0
  5
37FD
 10
508.804
 20
-237.776
 30
0.000000
  70
    32
  0
VERTEX
  8
0
  5
37FE
 10
508.854
 20
-237.725
 30
0.000000
  70
    32
  0
VERTEX
  8
0
  5
37FF
 10
508.904
 20
-237.676
 30
0.000000
  70
    32
  0
VERTEX
  8
0
  5
3800
 10
508.954
 20
-237.627
 30
0.000000
  70
    32
  0
VERTEX
  8
0
  5
3801
 10
509.005
 20
-237.579
 30
0.000000
  70
    32
  0
VERTEX
  8
0
  5
3802
 10
509.055
 20
-237.532
 30
0.000000
  70
    32
  0
VERTEX
  8
0
  5
3803
 10
509.106
 20
-237.486
 30
0.000000
  70
    32
  0
VERTEX
  8
0
  5
3804
 10
509.157
 20
-237.440
 30
0.000000
  70
    32
  0
VERTEX
  8
0
  5
3805
 10
509.209
 20
-237.395
 30
0.000000
  70
    32
  0
VERTEX
  8
0
  5
3806
 10
509.260
 20
-237.351
 30
0.000000
  70
    32
  0
VERTEX
  8
0
  5
3807
 10
509.311
 20
-237.308
 30
0.000000
  70
    32
  0
VERTEX
  8
0
  5
3808
 10
509.363
 20
-237.265
 30
0.000000
  70
    32
  0
VERTEX
  8
0
  5
3809
 10
509.414
 20
-237.223
 30
0.000000
  70
    32
  0
VERTEX
  8
0
  5
380A
 10
509.466
 20
-237.182
 30
0.000000
  70
    32
  0
VERTEX
  8
0
  5
380B
 10
509.517
 20
-237.142
 30
0.000000
  70
    32
  0
VERTEX
  8
0
  5
380C
 10
509.568
 20
-237.102
 30
0.000000
  70
    32
  0
VERTEX
  8
0
  5
380D
 10
509.620
 20
-237.063
 30
0.000000
  70
    32
  0
VERTEX
  8
0
  5
380E
 10
509.671
 20
-237.025
 30
0.000000
  70
    32
  0
VERTEX
  8
0
  5
380F
 10
509.721
 20
-236.988
 30
0.000000
  70
    32
  0
VERTEX
  8
0
  5
3810
 10
509.772
 20
-236.952
 30
0.000000
  70
    32
  0
VERTEX
  8
0
  5
3811
 10
509.822
 20
-236.916
 30
0.000000
  70
    32
  0
VERTEX
  8
0
  5
3812
 10
509.872
 20
-236.881
 30
0.000000
  70
    32
  0
VERTEX
  8
0
  5
3813
 10
509.922
 20
-236.847
 30
0.000000
  70
    32
  0
VERTEX
  8
0
  5
3814
 10
509.971
 20
-236.814
 30
0.000000
  70
    32
  0
VERTEX
  8
0
  5
3815
 10
510.020
 20
-236.781
 30
0.000000
  70
    32
  0
VERTEX
  8
0
  5
3816
 10
510.069
 20
-236.749
 30
0.000000
  70
    32
  0
VERTEX
  8
0
  5
3817
 10
510.117
 20
-236.718
 30
0.000000
  70
    32
  0
VERTEX
  8
0
  5
3818
 10
510.165
 20
-236.688
 30
0.000000
  70
    32
  0
VERTEX
  8
0
  5
3819
 10
510.212
 20
-236.659
 30
0.000000
  70
    32
  0
VERTEX
  8
0
  5
381A
 10
510.258
 20
-236.630
 30
0.000000
  70
    32
  0
VERTEX
  8
0
  5
381B
 10
510.304
 20
-236.602
 30
0.000000
  70
    32
  0
VERTEX
  8
0
  5
381C
 10
510.350
 20
-236.575
 30
0.000000
  70
    32
  0
VERTEX
  8
0
  5
381D
 10
510.394
 20
-236.549
 30
0.000000
  70
    32
  0
VERTEX
  8
0
  5
381E
 10
510.438
 20
-236.524
 30
0.000000
  70
    32
  0
VERTEX
  8
0
  5
381F
 10
510.482
 20
-236.499
 30
0.000000
  70
    32
  0
VERTEX
  8
0
  5
3820
 10
510.524
 20
-236.475
 30
0.000000
  70
    32
  0
VERTEX
  8
0
  5
3821
 10
510.566
 20
-236.452
 30
0.000000
  70
    32
  0
VERTEX
  8
0
  5
3822
 10
510.607
 20
-236.430
 30
0.000000
  70
    32
  0
VERTEX
  8
0
  5
3823
 10
510.647
 20
-236.408
 30
0.000000
  70
    32
  0
VERTEX
  8
0
  5
3824
 10
510.686
 20
-236.388
 30
0.000000
  70
    32
  0
VERTEX
  8
0
  5
3825
 10
510.725
 20
-236.368
 30
0.000000
  70
    32
  0
VERTEX
  8
0
  5
3826
 10
510.762
 20
-236.349
 30
0.000000
  70
    32
  0
VERTEX
  8
0
  5
3827
 10
510.798
 20
-236.330
 30
0.000000
  70
    32
  0
VERTEX
  8
0
  5
3828
 10
510.834
 20
-236.313
 30
0.000000
  70
    32
  0
VERTEX
  8
0
  5
3829
 10
510.868
 20
-236.296
 30
0.000000
  70
    32
  0
VERTEX
  8
0
  5
382A
 10
510.901
 20
-236.280
 30
0.000000
  70
    32
  0
VERTEX
  8
0
  5
382B
 10
510.933
 20
-236.265
 30
0.000000
  70
    32
  0
VERTEX
  8
0
  5
382C
 10
510.964
 20
-236.251
 30
0.000000
  70
    32
  0
VERTEX
  8
0
  5
382D
 10
510.994
 20
-236.238
 30
0.000000
  70
    32
  0
VERTEX
  8
0
  5
382E
 10
511.023
 20
-236.225
 30
0.000000
  70
    32
  0
VERTEX
  8
0
  5
382F
 10
511.050
 20
-236.213
 30
0.000000
  70
    32
  0
SEQEND
  8
0
  5
3830
  0
ENDBLK
  5
286C
  8
0
  0
BLOCK
  8
0
  2
GALKA
 70
     0
 10
0.0
 20
0.0
 30
0.0
  3
GALKA
  1

  0
POLYLINE
  5
2B27
  8
CENTRALA
 62
     5
 66
     1
 10
0.0
 20
0.0
 30
0.0
 70
     8
1001
ACDBBLOCKREPETAG
1070
     1
1071
        0
1005
2B27
  0
VERTEX
  5
2B28
  8
CENTRALA
 62
     5
 10
-17.0
 20
15.2745
 30
0.0
 70
    32
  0
VERTEX
  5
2B29
  8
CENTRALA
 62
     5
 10
-16.828199999999999
 20
15.327299999999999
 30
0.0
 70
    32
  0
VERTEX
  5
2B2A
  8
CENTRALA
 62
     5
 10
-16.656300000000002
 20
15.380100000000001
 30
0.0
 70
    32
  0
VERTEX
  5
2B2B
  8
CENTRALA
 62
     5
 10
-16.484500000000001
 20
15.432700000000001
 30
0.0
 70
    32
  0
VERTEX
  5
2B2C
  8
CENTRALA
 62
     5
 10
-16.3126
 20
15.485200000000001
 30
0.0
 70
    32
  0
VERTEX
  5
2B2D
  8
CENTRALA
 62
     5
 10
-16.140699999999999
 20
15.5375
 30
0.0
 70
    32
  0
VERTEX
  5
2B2E
  8
CENTRALA
 62
     5
 10
-15.9688
 20
15.589499999999999
 30
0.0
 70
    32
  0
VERTEX
  5
2B2F
  8
CENTRALA
 62
     5
 10
-15.796900000000001
 20
15.6412
 30
0.0
 70
    32
  0
VERTEX
  5
2B30
  8
CENTRALA
 62
     5
 10
-15.625
 20
15.692500000000001
 30
0.0
 70
    32
  0
VERTEX
  5
2B31
  8
CENTRALA
 62
     5
 10
-15.452999999999999
 20
15.743399999999999
 30
0.0
 70
    32
  0
VERTEX
  5
2B32
  8
CENTRALA
 62
     5
 10
-15.281000000000001
 20
15.793699999999999
 30
0.0
 70
    32
  0
VERTEX
  5
2B33
  8
CENTRALA
 62
     5
 10
-15.109
 20
15.8436
 30
0.0
 70
    32
  0
VERTEX
  5
2B34
  8
CENTRALA
 62
     5
 10
-14.9369
 20
15.892899999999999
 30
0.0
 70
    32
  0
VERTEX
  5
2B35
  8
CENTRALA
 62
     5
 10
-14.764799999999999
 20
15.9415
 30
0.0
 70
    32
  0
VERTEX
  5
2B36
  8
CENTRALA
 62
     5
 10
-14.592599999999999
 20
15.9894
 30
0.0
 70
    32
  0
VERTEX
  5
2B37
  8
CENTRALA
 62
     5
 10
-14.420400000000001
 20
16.0366
 30
0.0
 70
    32
  0
VERTEX
  5
2B38
  8
CENTRALA
 62
     5
 10
-14.248100000000001
 20
16.082999999999998
 30
0.0
 70
    32
  0
VERTEX
  5
2B39
  8
CENTRALA
 62
     5
 10
-14.075799999999999
 20
16.128499999999999
 30
0.0
 70
    32
  0
VERTEX
  5
2B3A
  8
CENTRALA
 62
     5
 10
-13.9034
 20
16.173100000000002
 30
0.0
 70
    32
  0
VERTEX
  5
2B3B
  8
CENTRALA
 62
     5
 10
-13.7309
 20
16.216699999999999
 30
0.0
 70
    32
  0
VERTEX
  5
2B3C
  8
CENTRALA
 62
     5
 10
-13.558400000000001
 20
16.2593
 30
0.0
 70
    32
  0
VERTEX
  5
2B3D
  8
CENTRALA
 62
     5
 10
-13.3858
 20
16.300899999999999
 30
0.0
 70
    32
  0
VERTEX
  5
2B3E
  8
CENTRALA
 62
     5
 10
-13.213100000000001
 20
16.3413
 30
0.0
 70
    32
  0
VERTEX
  5
2B3F
  8
CENTRALA
 62
     5
 10
-13.0403
 20
16.380500000000001
 30
0.0
 70
    32
  0
VERTEX
  5
2B40
  8
CENTRALA
 62
     5
 10
-12.8675
 20
16.418500000000002
 30
0.0
 70
    32
  0
VERTEX
  5
2B41
  8
CENTRALA
 62
     5
 10
-12.694599999999999
 20
16.455200000000001
 30
0.0
 70
    32
  0
VERTEX
  5
2B42
  8
CENTRALA
 62
     5
 10
-12.5215
 20
16.490600000000001
 30
0.0
 70
    32
  0
VERTEX
  5
2B43
  8
CENTRALA
 62
     5
 10
-12.3484
 20
16.5246
 30
0.0
 70
    32
  0
VERTEX
  5
2B44
  8
CENTRALA
 62
     5
 10
-12.1752
 20
16.557099999999998
 30
0.0
 70
    32
  0
VERTEX
  5
2B45
  8
CENTRALA
 62
     5
 10
-12.001899999999999
 20
16.588100000000001
 30
0.0
 70
    32
  0
VERTEX
  5
2B46
  8
CENTRALA
 62
     5
 10
-11.8285
 20
16.617599999999999
 30
0.0
 70
    32
  0
VERTEX
  5
2B47
  8
CENTRALA
 62
     5
 10
-11.654999999999999
 20
16.645399999999999
 30
0.0
 70
    32
  0
VERTEX
  5
2B48
  8
CENTRALA
 62
     5
 10
-11.481299999999999
 20
16.671600000000002
 30
0.0
 70
    32
  0
VERTEX
  5
2B49
  8
CENTRALA
 62
     5
 10
-11.307600000000001
 20
16.696100000000001
 30
0.0
 70
    32
  0
VERTEX
  5
2B4A
  8
CENTRALA
 62
     5
 10
-11.133699999999999
 20
16.718800000000002
 30
0.0
 70
    32
  0
VERTEX
  5
2B4B
  8
CENTRALA
 62
     5
 10
-10.9597
 20
16.739699999999999
 30
0.0
 70
    32
  0
VERTEX
  5
2B4C
  8
CENTRALA
 62
     5
 10
-10.785600000000001
 20
16.758700000000001
 30
0.0
 70
    32
  0
VERTEX
  5
2B4D
  8
CENTRALA
 62
     5
 10
-10.6113
 20
16.775700000000001
 30
0.0
 70
    32
  0
VERTEX
  5
2B4E
  8
CENTRALA
 62
     5
 10
-10.4369
 20
16.790800000000001
 30
0.0
 70
    32
  0
VERTEX
  5
2B4F
  8
CENTRALA
 62
     5
 10
-10.2624
 20
16.803899999999999
 30
0.0
 70
    32
  0
VERTEX
  5
2B50
  8
CENTRALA
 62
     5
 10
-10.0877
 20
16.814800000000002
 30
0.0
 70
    32
  0
VERTEX
  5
2B51
  8
CENTRALA
 62
     5
 10
-9.9129000000000005
 20
16.823599999999999
 30
0.0
 70
    32
  0
VERTEX
  5
2B52
  8
CENTRALA
 62
     5
 10
-9.73794
 20
16.830200000000001
 30
0.0
 70
    32
  0
VERTEX
  5
2B53
  8
CENTRALA
 62
     5
 10
-9.5628200000000003
 20
16.834599999999998
 30
0.0
 70
    32
  0
VERTEX
  5
2B54
  8
CENTRALA
 62
     5
 10
-9.3875499999999992
 20
16.836600000000001
 30
0.0
 70
    32
  0
VERTEX
  5
2B55
  8
CENTRALA
 62
     5
 10
-9.2121200000000005
 20
16.836300000000001
 30
0.0
 70
    32
  0
VERTEX
  5
2B56
  8
CENTRALA
 62
     5
 10
-9.0365199999999994
 20
16.833600000000001
 30
0.0
 70
    32
  0
VERTEX
  5
2B57
  8
CENTRALA
 62
     5
 10
-8.8607600000000009
 20
16.828399999999998
 30
0.0
 70
    32
  0
VERTEX
  5
2B58
  8
CENTRALA
 62
     5
 10
-8.6848299999999981
 20
16.820699999999999
 30
0.0
 70
    32
  0
VERTEX
  5
2B59
  8
CENTRALA
 62
     5
 10
-8.5087200000000003
 20
16.810400000000001
 30
0.0
 70
    32
  0
VERTEX
  5
2B5A
  8
CENTRALA
 62
     5
 10
-8.3324300000000004
 20
16.7974
 30
0.0
 70
    32
  0
VERTEX
  5
2B5B
  8
CENTRALA
 62
     5
 10
-8.1559699999999982
 20
16.7818
 30
0.0
 70
    32
  0
VERTEX
  5
2B5C
  8
CENTRALA
 62
     5
 10
-7.9793199999999969
 20
16.763500000000001
 30
0.0
 70
    32
  0
VERTEX
  5
2B5D
  8
CENTRALA
 62
     5
 10
-7.8024800000000001
 20
16.7423
 30
0.0
 70
    32
  0
VERTEX
  5
2B5E
  8
CENTRALA
 62
     5
 10
-7.6254399999999967
 20
16.718299999999999
 30
0.0
 70
    32
  0
VERTEX
  5
2B5F
  8
CENTRALA
 62
     5
 10
-7.4482200000000001
 20
16.691500000000001
 30
0.0
 70
    32
  0
VERTEX
  5
2B60
  8
CENTRALA
 62
     5
 10
-7.2707899999999972
 20
16.6616
 30
0.0
 70
    32
  0
VERTEX
  5
2B61
  8
CENTRALA
 62
     5
 10
-7.093160000000001
 20
16.628799999999998
 30
0.0
 70
    32
  0
VERTEX
  5
2B62
  8
CENTRALA
 62
     5
 10
-6.9153199999999968
 20
16.5929
 30
0.0
 70
    32
  0
VERTEX
  5
2B63
  8
CENTRALA
 62
     5
 10
-6.737269999999997
 20
16.553899999999999
 30
0.0
 70
    32
  0
VERTEX
  5
2B64
  8
CENTRALA
 62
     5
 10
-6.5590099999999998
 20
16.511700000000001
 30
0.0
 70
    32
  0
VERTEX
  5
2B65
  8
CENTRALA
 62
     5
 10
-6.3805300000000003
 20
16.4663
 30
0.0
 70
    32
  0
VERTEX
  5
2B66
  8
CENTRALA
 62
     5
 10
-6.2018300000000002
 20
16.4177
 30
0.0
 70
    32
  0
VERTEX
  5
2B67
  8
CENTRALA
 62
     5
 10
-6.0229099999999969
 20
16.3657
 30
0.0
 70
    32
  0
VERTEX
  5
2B68
  8
CENTRALA
 62
     5
 10
-5.8437700000000001
 20
16.310600000000001
 30
0.0
 70
    32
  0
VERTEX
  5
2B69
  8
CENTRALA
 62
     5
 10
-5.664439999999999
 20
16.252400000000002
 30
0.0
 70
    32
  0
VERTEX
  5
2B6A
  8
CENTRALA
 62
     5
 10
-5.4849100000000002
 20
16.191199999999998
 30
0.0
 70
    32
  0
VERTEX
  5
2B6B
  8
CENTRALA
 62
     5
 10
-5.3052099999999971
 20
16.127099999999999
 30
0.0
 70
    32
  0
VERTEX
  5
2B6C
  8
CENTRALA
 62
     5
 10
-5.1253399999999996
 20
16.060300000000002
 30
0.0
 70
    32
  0
VERTEX
  5
2B6D
  8
CENTRALA
 62
     5
 10
-4.945299999999996
 20
15.9908
 30
0.0
 70
    32
  0
VERTEX
  5
2B6E
  8
CENTRALA
 62
     5
 10
-4.765119999999996
 20
15.918699999999999
 30
0.0
 70
    32
  0
VERTEX
  5
2B6F
  8
CENTRALA
 62
     5
 10
-4.5848000000000004
 20
15.844200000000001
 30
0.0
 70
    32
  0
VERTEX
  5
2B70
  8
CENTRALA
 62
     5
 10
-4.4043499999999991
 20
15.767300000000001
 30
0.0
 70
    32
  0
VERTEX
  5
2B71
  8
CENTRALA
 62
     5
 10
-4.2237900000000002
 20
15.6882
 30
0.0
 70
    32
  0
VERTEX
  5
2B72
  8
CENTRALA
 62
     5
 10
-4.0431099999999978
 20
15.6069
 30
0.0
 70
    32
  0
VERTEX
  5
2B73
  8
CENTRALA
 62
     5
 10
-3.8623400000000001
 20
15.5235
 30
0.0
 70
    32
  0
VERTEX
  5
2B74
  8
CENTRALA
 62
     5
 10
-3.6814900000000002
 20
15.4383
 30
0.0
 70
    32
  0
VERTEX
  5
2B75
  8
CENTRALA
 62
     5
 10
-3.5005500000000001
 20
15.351100000000001
 30
0.0
 70
    32
  0
VERTEX
  5
2B76
  8
CENTRALA
 62
     5
 10
-3.3195600000000001
 20
15.2623
 30
0.0
 70
    32
  0
VERTEX
  5
2B77
  8
CENTRALA
 62
     5
 10
-3.1385000000000001
 20
15.171799999999999
 30
0.0
 70
    32
  0
VERTEX
  5
2B78
  8
CENTRALA
 62
     5
 10
-2.957399999999998
 20
15.079700000000001
 30
0.0
 70
    32
  0
VERTEX
  5
2B79
  8
CENTRALA
 62
     5
 10
-2.7762699999999998
 20
14.9863
 30
0.0
 70
    32
  0
VERTEX
  5
2B7A
  8
CENTRALA
 62
     5
 10
-2.59511
 20
14.891500000000001
 30
0.0
 70
    32
  0
VERTEX
  5
2B7B
  8
CENTRALA
 62
     5
 10
-2.4139400000000002
 20
14.795500000000001
 30
0.0
 70
    32
  0
VERTEX
  5
2B7C
  8
CENTRALA
 62
     5
 10
-2.232769999999999
 20
14.698399999999999
 30
0.0
 70
    32
  0
VERTEX
  5
2B7D
  8
CENTRALA
 62
     5
 10
-2.0516000000000001
 20
14.600199999999999
 30
0.0
 70
    32
  0
VERTEX
  5
2B7E
  8
CENTRALA
 62
     5
 10
-1.8704499999999991
 20
14.501200000000001
 30
0.0
 70
    32
  0
VERTEX
  5
2B7F
  8
CENTRALA
 62
     5
 10
-1.6893199999999999
 20
14.401300000000001
 30
0.0
 70
    32
  0
VERTEX
  5
2B80
  8
CENTRALA
 62
     5
 10
-1.5082399999999989
 20
14.300800000000001
 30
0.0
 70
    32
  0
VERTEX
  5
2B81
  8
CENTRALA
 62
     5
 10
-1.327199999999999
 20
14.1996
 30
0.0
 70
    32
  0
VERTEX
  5
2B82
  8
CENTRALA
 62
     5
 10
-1.14622
 20
14.098000000000001
 30
0.0
 70
    32
  0
VERTEX
  5
2B83
  8
CENTRALA
 62
     5
 10
-0.965315
 20
13.995900000000001
 30
0.0
 70
    32
  0
VERTEX
  5
2B84
  8
CENTRALA
 62
     5
 10
-0.7844860000000004
 20
13.893599999999999
 30
0.0
 70
    32
  0
VERTEX
  5
2B85
  8
CENTRALA
 62
     5
 10
-0.6037470000000001
 20
13.791
 30
0.0
 70
    32
  0
VERTEX
  5
2B86
  8
CENTRALA
 62
     5
 10
-0.423108
 20
13.6884
 30
0.0
 70
    32
  0
VERTEX
  5
2B87
  8
CENTRALA
 62
     5
 10
-0.24258
 20
13.585800000000001
 30
0.0
 70
    32
  0
VERTEX
  5
2B88
  8
CENTRALA
 62
     5
 10
-0.0621731
 20
13.4834
 30
0.0
 70
    32
  0
VERTEX
  5
2B89
  8
CENTRALA
 62
     5
 10
0.118102
 20
13.3811
 30
0.0
 70
    32
  0
VERTEX
  5
2B8A
  8
CENTRALA
 62
     5
 10
0.298236
 20
13.279199999999999
 30
0.0
 70
    32
  0
VERTEX
  5
2B8B
  8
CENTRALA
 62
     5
 10
0.478217
 20
13.1777
 30
0.0
 70
    32
  0
VERTEX
  5
2B8C
  8
CENTRALA
 62
     5
 10
0.6580350000000002
 20
13.0768
 30
0.0
 70
    32
  0
VERTEX
  5
2B8D
  8
CENTRALA
 62
     5
 10
0.8376809999999997
 20
12.9765
 30
0.0
 70
    32
  0
VERTEX
  5
2B8E
  8
CENTRALA
 62
     5
 10
1.017139999999999
 20
12.876899999999999
 30
0.0
 70
    32
  0
VERTEX
  5
2B8F
  8
CENTRALA
 62
     5
 10
1.1964099999999971
 20
12.7782
 30
0.0
 70
    32
  0
VERTEX
  5
2B90
  8
CENTRALA
 62
     5
 10
1.37548
 20
12.680400000000001
 30
0.0
 70
    32
  0
VERTEX
  5
2B91
  8
CENTRALA
 62
     5
 10
1.5543199999999999
 20
12.5837
 30
0.0
 70
    32
  0
VERTEX
  5
2B92
  8
CENTRALA
 62
     5
 10
1.7329499999999991
 20
12.488099999999999
 30
0.0
 70
    32
  0
VERTEX
  5
2B93
  8
CENTRALA
 62
     5
 10
1.91134
 20
12.393800000000001
 30
0.0
 70
    32
  0
VERTEX
  5
2B94
  8
CENTRALA
 62
     5
 10
2.08948
 20
12.3009
 30
0.0
 70
    32
  0
VERTEX
  5
2B95
  8
CENTRALA
 62
     5
 10
2.2673700000000001
 20
12.2094
 30
0.0
 70
    32
  0
VERTEX
  5
2B96
  8
CENTRALA
 62
     5
 10
2.4449900000000002
 20
12.1195
 30
0.0
 70
    32
  0
VERTEX
  5
2B97
  8
CENTRALA
 62
     5
 10
2.6223299999999981
 20
12.0313
 30
0.0
 70
    32
  0
VERTEX
  5
2B98
  8
CENTRALA
 62
     5
 10
2.7993899999999998
 20
11.944900000000001
 30
0.0
 70
    32
  0
VERTEX
  5
2B99
  8
CENTRALA
 62
     5
 10
2.9761500000000001
 20
11.860300000000001
 30
0.0
 70
    32
  0
VERTEX
  5
2B9A
  8
CENTRALA
 62
     5
 10
3.1526000000000001
 20
11.777699999999999
 30
0.0
 70
    32
  0
VERTEX
  5
2B9B
  8
CENTRALA
 62
     5
 10
3.3287300000000002
 20
11.6972
 30
0.0
 70
    32
  0
VERTEX
  5
2B9C
  8
CENTRALA
 62
     5
 10
3.5045399999999982
 20
11.6189
 30
0.0
 70
    32
  0
VERTEX
  5
2B9D
  8
CENTRALA
 62
     5
 10
3.6800000000000002
 20
11.542899999999999
 30
0.0
 70
    32
  0
VERTEX
  5
2B9E
  8
CENTRALA
 62
     5
 10
3.855119999999999
 20
11.469200000000001
 30
0.0
 70
    32
  0
VERTEX
  5
2B9F
  8
CENTRALA
 62
     5
 10
4.0298699999999981
 20
11.398099999999999
 30
0.0
 70
    32
  0
VERTEX
  5
2BA0
  8
CENTRALA
 62
     5
 10
4.2042599999999961
 20
11.329599999999999
 30
0.0
 70
    32
  0
VERTEX
  5
2BA1
  8
CENTRALA
 62
     5
 10
4.37826
 20
11.2638
 30
0.0
 70
    32
  0
VERTEX
  5
2BA2
  8
CENTRALA
 62
     5
 10
4.5518799999999997
 20
11.200799999999999
 30
0.0
 70
    32
  0
VERTEX
  5
2BA3
  8
CENTRALA
 62
     5
 10
4.725089999999998
 20
11.140700000000001
 30
0.0
 70
    32
  0
VERTEX
  5
2BA4
  8
CENTRALA
 62
     5
 10
4.8978900000000003
 20
11.083600000000001
 30
0.0
 70
    32
  0
VERTEX
  5
2BA5
  8
CENTRALA
 62
     5
 10
5.0702699999999981
 20
11.0297
 30
0.0
 70
    32
  0
VERTEX
  5
2BA6
  8
CENTRALA
 62
     5
 10
5.24221
 20
10.978899999999999
 30
0.0
 70
    32
  0
VERTEX
  5
2BA7
  8
CENTRALA
 62
     5
 10
5.41371
 20
10.9315
 30
0.0
 70
    32
  0
VERTEX
  5
2BA8
  8
CENTRALA
 62
     5
 10
5.5847600000000002
 20
10.887600000000001
 30
0.0
 70
    32
  0
VERTEX
  5
2BA9
  8
CENTRALA
 62
     5
 10
5.7553499999999991
 20
10.847099999999999
 30
0.0
 70
    32
  0
VERTEX
  5
2BAA
  8
CENTRALA
 62
     5
 10
5.9254600000000002
 20
10.8103
 30
0.0
 70
    32
  0
VERTEX
  5
2BAB
  8
CENTRALA
 62
     5
 10
6.0950800000000003
 20
10.7773
 30
0.0
 70
    32
  0
VERTEX
  5
2BAC
  8
CENTRALA
 62
     5
 10
6.2642100000000003
 20
10.748100000000001
 30
0.0
 70
    32
  0
VERTEX
  5
2BAD
  8
CENTRALA
 62
     5
 10
6.4328399999999997
 20
10.722799999999999
 30
0.0
 70
    32
  0
VERTEX
  5
2BAE
  8
CENTRALA
 62
     5
 10
6.6009500000000001
 20
10.701599999999999
 30
0.0
 70
    32
  0
VERTEX
  5
2BAF
  8
CENTRALA
 62
     5
 10
6.768539999999998
 20
10.6845
 30
0.0
 70
    32
  0
VERTEX
  5
2BB0
  8
CENTRALA
 62
     5
 10
6.9355799999999972
 20
10.6717
 30
0.0
 70
    32
  0
VERTEX
  5
2BB1
  8
CENTRALA
 62
     5
 10
7.1020899999999969
 20
10.6632
 30
0.0
 70
    32
  0
VERTEX
  5
2BB2
  8
CENTRALA
 62
     5
 10
7.2680300000000004
 20
10.6593
 30
0.0
 70
    32
  0
VERTEX
  5
2BB3
  8
CENTRALA
 62
     5
 10
7.4334100000000003
 20
10.659800000000001
 30
0.0
 70
    32
  0
VERTEX
  5
2BB4
  8
CENTRALA
 62
     5
 10
7.5982000000000003
 20
10.665100000000001
 30
0.0
 70
    32
  0
VERTEX
  5
2BB5
  8
CENTRALA
 62
     5
 10
7.76241
 20
10.6751
 30
0.0
 70
    32
  0
VERTEX
  5
2BB6
  8
CENTRALA
 62
     5
 10
7.926029999999999
 20
10.69
 30
0.0
 70
    32
  0
VERTEX
  5
2BB7
  8
CENTRALA
 62
     5
 10
8.0890300000000011
 20
10.709899999999999
 30
0.0
 70
    32
  0
VERTEX
  5
2BB8
  8
CENTRALA
 62
     5
 10
8.2514099999999981
 20
10.7349
 30
0.0
 70
    32
  0
VERTEX
  5
2BB9
  8
CENTRALA
 62
     5
 10
8.4131600000000013
 20
10.765000000000001
 30
0.0
 70
    32
  0
VERTEX
  5
2BBA
  8
CENTRALA
 62
     5
 10
8.5742799999999981
 20
10.8005
 30
0.0
 70
    32
  0
VERTEX
  5
2BBB
  8
CENTRALA
 62
     5
 10
8.7347399999999968
 20
10.8413
 30
0.0
 70
    32
  0
VERTEX
  5
2BBC
  8
CENTRALA
 62
     5
 10
8.8945399999999974
 20
10.887700000000001
 30
0.0
 70
    32
  0
VERTEX
  5
2BBD
  8
CENTRALA
 62
     5
 10
9.0536700000000003
 20
10.9396
 30
0.0
 70
    32
  0
VERTEX
  5
2BBE
  8
CENTRALA
 62
     5
 10
9.2121200000000005
 20
10.997199999999999
 30
0.0
 70
    32
  0
VERTEX
  5
2BBF
  8
CENTRALA
 62
     5
 10
9.3698700000000006
 20
11.060700000000001
 30
0.0
 70
    32
  0
VERTEX
  5
2BC0
  8
CENTRALA
 62
     5
 10
9.5269300000000001
 20
11.130000000000001
 30
0.0
 70
    32
  0
VERTEX
  5
2BC1
  8
CENTRALA
 62
     5
 10
9.6832700000000003
 20
11.205399999999999
 30
0.0
 70
    32
  0
VERTEX
  5
2BC2
  8
CENTRALA
 62
     5
 10
9.8388799999999996
 20
11.286899999999999
 30
0.0
 70
    32
  0
VERTEX
  5
2BC3
  8
CENTRALA
 62
     5
 10
9.9937699999999996
 20
11.374599999999999
 30
0.0
 70
    32
  0
VERTEX
  5
2BC4
  8
CENTRALA
 62
     5
 10
10.1479
 20
11.4687
 30
0.0
 70
    32
  0
VERTEX
  5
2BC5
  8
CENTRALA
 62
     5
 10
10.301299999999999
 20
11.569100000000001
 30
0.0
 70
    32
  0
VERTEX
  5
2BC6
  8
CENTRALA
 62
     5
 10
10.453900000000001
 20
11.6761
 30
0.0
 70
    32
  0
VERTEX
  5
2BC7
  8
CENTRALA
 62
     5
 10
10.6058
 20
11.7898
 30
0.0
 70
    32
  0
VERTEX
  5
2BC8
  8
CENTRALA
 62
     5
 10
10.7568
 20
11.9101
 30
0.0
 70
    32
  0
VERTEX
  5
2BC9
  8
CENTRALA
 62
     5
 10
10.9071
 20
12.0372
 30
0.0
 70
    32
  0
VERTEX
  5
2BCA
  8
CENTRALA
 62
     5
 10
11.0566
 20
12.1706
 30
0.0
 70
    32
  0
VERTEX
  5
2BCB
  8
CENTRALA
 62
     5
 10
11.205399999999999
 20
12.31
 30
0.0
 70
    32
  0
VERTEX
  5
2BCC
  8
CENTRALA
 62
     5
 10
11.353400000000001
 20
12.454800000000001
 30
0.0
 70
    32
  0
VERTEX
  5
2BCD
  8
CENTRALA
 62
     5
 10
11.5008
 20
12.604799999999999
 30
0.0
 70
    32
  0
VERTEX
  5
2BCE
  8
CENTRALA
 62
     5
 10
11.647399999999999
 20
12.759399999999999
 30
0.0
 70
    32
  0
VERTEX
  5
2BCF
  8
CENTRALA
 62
     5
 10
11.7935
 20
12.918200000000001
 30
0.0
 70
    32
  0
VERTEX
  5
2BD0
  8
CENTRALA
 62
     5
 10
11.9389
 20
13.0809
 30
0.0
 70
    32
  0
VERTEX
  5
2BD1
  8
CENTRALA
 62
     5
 10
12.0838
 20
13.2469
 30
0.0
 70
    32
  0
VERTEX
  5
2BD2
  8
CENTRALA
 62
     5
 10
12.228
 20
13.415900000000001
 30
0.0
 70
    32
  0
VERTEX
  5
2BD3
  8
CENTRALA
 62
     5
 10
12.3718
 20
13.5875
 30
0.0
 70
    32
  0
VERTEX
  5
2BD4
  8
CENTRALA
 62
     5
 10
12.515000000000001
 20
13.761100000000001
 30
0.0
 70
    32
  0
VERTEX
  5
2BD5
  8
CENTRALA
 62
     5
 10
12.6577
 20
13.936500000000001
 30
0.0
 70
    32
  0
VERTEX
  5
2BD6
  8
CENTRALA
 62
     5
 10
12.800000000000001
 20
14.113200000000001
 30
0.0
 70
    32
  0
VERTEX
  5
2BD7
  8
CENTRALA
 62
     5
 10
12.941800000000001
 20
14.290699999999999
 30
0.0
 70
    32
  0
VERTEX
  5
2BD8
  8
CENTRALA
 62
     5
 10
13.0832
 20
14.4687
 30
0.0
 70
    32
  0
VERTEX
  5
2BD9
  8
CENTRALA
 62
     5
 10
13.2242
 20
14.646699999999999
 30
0.0
 70
    32
  0
VERTEX
  5
2BDA
  8
CENTRALA
 62
     5
 10
13.364800000000001
 20
14.824199999999999
 30
0.0
 70
    32
  0
VERTEX
  5
2BDB
  8
CENTRALA
 62
     5
 10
13.505100000000001
 20
15.000999999999999
 30
0.0
 70
    32
  0
VERTEX
  5
2BDC
  8
CENTRALA
 62
     5
 10
13.645099999999999
 20
15.176500000000001
 30
0.0
 70
    32
  0
VERTEX
  5
2BDD
  8
CENTRALA
 62
     5
 10
13.784700000000001
 20
15.350300000000001
 30
0.0
 70
    32
  0
VERTEX
  5
2BDE
  8
CENTRALA
 62
     5
 10
13.924200000000001
 20
15.522
 30
0.0
 70
    32
  0
VERTEX
  5
2BDF
  8
CENTRALA
 62
     5
 10
14.0633
 20
15.6913
 30
0.0
 70
    32
  0
VERTEX
  5
2BE0
  8
CENTRALA
 62
     5
 10
14.202299999999999
 20
15.8575
 30
0.0
 70
    32
  0
VERTEX
  5
2BE1
  8
CENTRALA
 62
     5
 10
14.340999999999999
 20
16.020399999999999
 30
0.0
 70
    32
  0
VERTEX
  5
2BE2
  8
CENTRALA
 62
     5
 10
14.4796
 20
16.179600000000001
 30
0.0
 70
    32
  0
VERTEX
  5
2BE3
  8
CENTRALA
 62
     5
 10
14.6181
 20
16.334499999999998
 30
0.0
 70
    32
  0
VERTEX
  5
2BE4
  8
CENTRALA
 62
     5
 10
14.756399999999999
 20
16.4848
 30
0.0
 70
    32
  0
VERTEX
  5
2BE5
  8
CENTRALA
 62
     5
 10
14.894600000000001
 20
16.629999999999999
 30
0.0
 70
    32
  0
VERTEX
  5
2BE6
  8
CENTRALA
 62
     5
 10
15.0328
 20
16.7698
 30
0.0
 70
    32
  0
VERTEX
  5
2BE7
  8
CENTRALA
 62
     5
 10
15.1709
 20
16.903700000000001
 30
0.0
 70
    32
  0
VERTEX
  5
2BE8
  8
CENTRALA
 62
     5
 10
15.287699999999999
 20
16.957000000000001
 30
0.0
 70
    32
  0
VERTEX
  5
2BE9
  8
CENTRALA
 62
     5
 10
15.3405
 20
16.7852
 30
0.0
 70
    32
  0
VERTEX
  5
2BEA
  8
CENTRALA
 62
     5
 10
15.3933
 20
16.613399999999999
 30
0.0
 70
    32
  0
VERTEX
  5
2BEB
  8
CENTRALA
 62
     5
 10
15.4459
 20
16.441500000000001
 30
0.0
 70
    32
  0
VERTEX
  5
2BEC
  8
CENTRALA
 62
     5
 10
15.4983
 20
16.269600000000001
 30
0.0
 70
    32
  0
VERTEX
  5
2BED
  8
CENTRALA
 62
     5
 10
15.5505
 20
16.097799999999999
 30
0.0
 70
    32
  0
VERTEX
  5
2BEE
  8
CENTRALA
 62
     5
 10
15.602399999999999
 20
15.9259
 30
0.0
 70
    32
  0
VERTEX
  5
2BEF
  8
CENTRALA
 62
     5
 10
15.654
 20
15.7539
 30
0.0
 70
    32
  0
VERTEX
  5
2BF0
  8
CENTRALA
 62
     5
 10
15.7052
 20
15.582000000000001
 30
0.0
 70
    32
  0
VERTEX
  5
2BF1
  8
CENTRALA
 62
     5
 10
15.756
 20
15.41
 30
0.0
 70
    32
  0
VERTEX
  5
2BF2
  8
CENTRALA
 62
     5
 10
15.8063
 20
15.238
 30
0.0
 70
    32
  0
VERTEX
  5
2BF3
  8
CENTRALA
 62
     5
 10
15.856
 20
15.065899999999999
 30
0.0
 70
    32
  0
VERTEX
  5
2BF4
  8
CENTRALA
 62
     5
 10
15.905099999999999
 20
14.8939
 30
0.0
 70
    32
  0
VERTEX
  5
2BF5
  8
CENTRALA
 62
     5
 10
15.9535
 20
14.7217
 30
0.0
 70
    32
  0
VERTEX
  5
2BF6
  8
CENTRALA
 62
     5
 10
16.001300000000001
 20
14.5495
 30
0.0
 70
    32
  0
VERTEX
  5
2BF7
  8
CENTRALA
 62
     5
 10
16.048300000000001
 20
14.3773
 30
0.0
 70
    32
  0
VERTEX
  5
2BF8
  8
CENTRALA
 62
     5
 10
16.0944
 20
14.205
 30
0.0
 70
    32
  0
VERTEX
  5
2BF9
  8
CENTRALA
 62
     5
 10
16.139700000000001
 20
14.0327
 30
0.0
 70
    32
  0
VERTEX
  5
2BFA
  8
CENTRALA
 62
     5
 10
16.184100000000001
 20
13.860300000000001
 30
0.0
 70
    32
  0
VERTEX
  5
2BFB
  8
CENTRALA
 62
     5
 10
16.227499999999999
 20
13.687799999999999
 30
0.0
 70
    32
  0
VERTEX
  5
2BFC
  8
CENTRALA
 62
     5
 10
16.2698
 20
13.5152
 30
0.0
 70
    32
  0
VERTEX
  5
2BFD
  8
CENTRALA
 62
     5
 10
16.3111
 20
13.342599999999999
 30
0.0
 70
    32
  0
VERTEX
  5
2BFE
  8
CENTRALA
 62
     5
 10
16.351199999999999
 20
13.1699
 30
0.0
 70
    32
  0
VERTEX
  5
2BFF
  8
CENTRALA
 62
     5
 10
16.3901
 20
12.9971
 30
0.0
 70
    32
  0
VERTEX
  5
2C00
  8
CENTRALA
 62
     5
 10
16.427800000000001
 20
12.824299999999999
 30
0.0
 70
    32
  0
VERTEX
  5
2C01
  8
CENTRALA
 62
     5
 10
16.464200000000002
 20
12.651300000000001
 30
0.0
 70
    32
  0
VERTEX
  5
2C02
  8
CENTRALA
 62
     5
 10
16.499199999999998
 20
12.478300000000001
 30
0.0
 70
    32
  0
VERTEX
  5
2C03
  8
CENTRALA
 62
     5
 10
16.532800000000002
 20
12.305099999999999
 30
0.0
 70
    32
  0
VERTEX
  5
2C04
  8
CENTRALA
 62
     5
 10
16.565000000000001
 20
12.1319
 30
0.0
 70
    32
  0
VERTEX
  5
2C05
  8
CENTRALA
 62
     5
 10
16.595600000000001
 20
11.958600000000001
 30
0.0
 70
    32
  0
VERTEX
  5
2C06
  8
CENTRALA
 62
     5
 10
16.624700000000001
 20
11.7851
 30
0.0
 70
    32
  0
VERTEX
  5
2C07
  8
CENTRALA
 62
     5
 10
16.652100000000001
 20
11.611599999999999
 30
0.0
 70
    32
  0
VERTEX
  5
2C08
  8
CENTRALA
 62
     5
 10
16.677900000000001
 20
11.437900000000001
 30
0.0
 70
    32
  0
VERTEX
  5
2C09
  8
CENTRALA
 62
     5
 10
16.701899999999998
 20
11.264099999999999
 30
0.0
 70
    32
  0
VERTEX
  5
2C0A
  8
CENTRALA
 62
     5
 10
16.7242
 20
11.090199999999999
 30
0.0
 70
    32
  0
VERTEX
  5
2C0B
  8
CENTRALA
 62
     5
 10
16.744599999999998
 20
10.9162
 30
0.0
 70
    32
  0
VERTEX
  5
2C0C
  8
CENTRALA
 62
     5
 10
16.763100000000001
 20
10.742000000000001
 30
0.0
 70
    32
  0
VERTEX
  5
2C0D
  8
CENTRALA
 62
     5
 10
16.779699999999998
 20
10.5677
 30
0.0
 70
    32
  0
VERTEX
  5
2C0E
  8
CENTRALA
 62
     5
 10
16.7943
 20
10.3933
 30
0.0
 70
    32
  0
VERTEX
  5
2C0F
  8
CENTRALA
 62
     5
 10
16.806799999999999
 20
10.2187
 30
0.0
 70
    32
  0
VERTEX
  5
2C10
  8
CENTRALA
 62
     5
 10
16.8172
 20
10.044
 30
0.0
 70
    32
  0
VERTEX
  5
2C11
  8
CENTRALA
 62
     5
 10
16.825500000000002
 20
9.8691800000000001
 30
0.0
 70
    32
  0
VERTEX
  5
2C12
  8
CENTRALA
 62
     5
 10
16.831499999999998
 20
9.6941699999999997
 30
0.0
 70
    32
  0
VERTEX
  5
2C13
  8
CENTRALA
 62
     5
 10
16.8353
 20
9.5190199999999994
 30
0.0
 70
    32
  0
VERTEX
  5
2C14
  8
CENTRALA
 62
     5
 10
16.8368
 20
9.3437099999999997
 30
0.0
 70
    32
  0
VERTEX
  5
2C15
  8
CENTRALA
 62
     5
 10
16.835899999999999
 20
9.1682299999999994
 30
0.0
 70
    32
  0
VERTEX
  5
2C16
  8
CENTRALA
 62
     5
 10
16.8325
 20
8.9925999999999977
 30
0.0
 70
    32
  0
VERTEX
  5
2C17
  8
CENTRALA
 62
     5
 10
16.826699999999999
 20
8.8167899999999975
 30
0.0
 70
    32
  0
VERTEX
  5
2C18
  8
CENTRALA
 62
     5
 10
16.818300000000001
 20
8.6408199999999962
 30
0.0
 70
    32
  0
VERTEX
  5
2C19
  8
CENTRALA
 62
     5
 10
16.807400000000001
 20
8.4646699999999981
 30
0.0
 70
    32
  0
VERTEX
  5
2C1A
  8
CENTRALA
 62
     5
 10
16.793800000000001
 20
8.288339999999998
 30
0.0
 70
    32
  0
VERTEX
  5
2C1B
  8
CENTRALA
 62
     5
 10
16.7775
 20
8.111819999999998
 30
0.0
 70
    32
  0
VERTEX
  5
2C1C
  8
CENTRALA
 62
     5
 10
16.758400000000002
 20
7.93513
 30
0.0
 70
    32
  0
VERTEX
  5
2C1D
  8
CENTRALA
 62
     5
 10
16.736599999999999
 20
7.758239999999998
 30
0.0
 70
    32
  0
VERTEX
  5
2C1E
  8
CENTRALA
 62
     5
 10
16.7119
 20
7.5811599999999997
 30
0.0
 70
    32
  0
VERTEX
  5
2C1F
  8
CENTRALA
 62
     5
 10
16.6843
 20
7.40388
 30
0.0
 70
    32
  0
VERTEX
  5
2C20
  8
CENTRALA
 62
     5
 10
16.653700000000001
 20
7.226399999999999
 30
0.0
 70
    32
  0
VERTEX
  5
2C21
  8
CENTRALA
 62
     5
 10
16.620100000000001
 20
7.0487199999999968
 30
0.0
 70
    32
  0
VERTEX
  5
2C22
  8
CENTRALA
 62
     5
 10
16.583400000000001
 20
6.8708299999999998
 30
0.0
 70
    32
  0
VERTEX
  5
2C23
  8
CENTRALA
 62
     5
 10
16.543700000000001
 20
6.6927300000000001
 30
0.0
 70
    32
  0
VERTEX
  5
2C24
  8
CENTRALA
 62
     5
 10
16.500699999999998
 20
6.514409999999998
 30
0.0
 70
    32
  0
VERTEX
  5
2C25
  8
CENTRALA
 62
     5
 10
16.454499999999999
 20
6.335869999999999
 30
0.0
 70
    32
  0
VERTEX
  5
2C26
  8
CENTRALA
 62
     5
 10
16.405000000000001
 20
6.157119999999999
 30
0.0
 70
    32
  0
VERTEX
  5
2C27
  8
CENTRALA
 62
     5
 10
16.3522
 20
5.978139999999998
 30
0.0
 70
    32
  0
VERTEX
  5
2C28
  8
CENTRALA
 62
     5
 10
16.296299999999999
 20
5.7989600000000001
 30
0.0
 70
    32
  0
VERTEX
  5
2C29
  8
CENTRALA
 62
     5
 10
16.237400000000001
 20
5.6195699999999968
 30
0.0
 70
    32
  0
VERTEX
  5
2C2A
  8
CENTRALA
 62
     5
 10
16.1754
 20
5.4400000000000004
 30
0.0
 70
    32
  0
VERTEX
  5
2C2B
  8
CENTRALA
 62
     5
 10
16.110700000000001
 20
5.260259999999997
 30
0.0
 70
    32
  0
VERTEX
  5
2C2C
  8
CENTRALA
 62
     5
 10
16.043199999999999
 20
5.0803399999999996
 30
0.0
 70
    32
  0
VERTEX
  5
2C2D
  8
CENTRALA
 62
     5
 10
15.973000000000001
 20
4.900269999999999
 30
0.0
 70
    32
  0
VERTEX
  5
2C2E
  8
CENTRALA
 62
     5
 10
15.9003
 20
4.7200499999999961
 30
0.0
 70
    32
  0
VERTEX
  5
2C2F
  8
CENTRALA
 62
     5
 10
15.825200000000001
 20
4.5396999999999981
 30
0.0
 70
    32
  0
VERTEX
  5
2C30
  8
CENTRALA
 62
     5
 10
15.7477
 20
4.3592199999999961
 30
0.0
 70
    32
  0
VERTEX
  5
2C31
  8
CENTRALA
 62
     5
 10
15.667999999999999
 20
4.1786300000000001
 30
0.0
 70
    32
  0
VERTEX
  5
2C32
  8
CENTRALA
 62
     5
 10
15.5862
 20
3.9979300000000002
 30
0.0
 70
    32
  0
VERTEX
  5
2C33
  8
CENTRALA
 62
     5
 10
15.5024
 20
3.8171400000000002
 30
0.0
 70
    32
  0
VERTEX
  5
2C34
  8
CENTRALA
 62
     5
 10
15.416600000000001
 20
3.63626
 30
0.0
 70
    32
  0
VERTEX
  5
2C35
  8
CENTRALA
 62
     5
 10
15.3291
 20
3.4553099999999981
 30
0.0
 70
    32
  0
VERTEX
  5
2C36
  8
CENTRALA
 62
     5
 10
15.239800000000001
 20
3.2743000000000002
 30
0.0
 70
    32
  0
VERTEX
  5
2C37
  8
CENTRALA
 62
     5
 10
15.148899999999999
 20
3.0932300000000001
 30
0.0
 70
    32
  0
VERTEX
  5
2C38
  8
CENTRALA
 62
     5
 10
15.0565
 20
2.9121199999999998
 30
0.0
 70
    32
  0
VERTEX
  5
2C39
  8
CENTRALA
 62
     5
 10
14.9627
 20
2.730979999999998
 30
0.0
 70
    32
  0
VERTEX
  5
2C3A
  8
CENTRALA
 62
     5
 10
14.867599999999999
 20
2.5498199999999991
 30
0.0
 70
    32
  0
VERTEX
  5
2C3B
  8
CENTRALA
 62
     5
 10
14.7713
 20
2.3686500000000001
 30
0.0
 70
    32
  0
VERTEX
  5
2C3C
  8
CENTRALA
 62
     5
 10
14.6739
 20
2.1874699999999998
 30
0.0
 70
    32
  0
VERTEX
  5
2C3D
  8
CENTRALA
 62
     5
 10
14.5756
 20
2.00631
 30
0.0
 70
    32
  0
VERTEX
  5
2C3E
  8
CENTRALA
 62
     5
 10
14.4763
 20
1.825159999999995
 30
0.0
 70
    32
  0
VERTEX
  5
2C3F
  8
CENTRALA
 62
     5
 10
14.376300000000001
 20
1.64405
 30
0.0
 70
    32
  0
VERTEX
  5
2C40
  8
CENTRALA
 62
     5
 10
14.275499999999999
 20
1.4629700000000001
 30
0.0
 70
    32
  0
VERTEX
  5
2C41
  8
CENTRALA
 62
     5
 10
14.174200000000001
 20
1.281949999999999
 30
0.0
 70
    32
  0
VERTEX
  5
2C42
  8
CENTRALA
 62
     5
 10
14.0725
 20
1.100989999999999
 30
0.0
 70
    32
  0
VERTEX
  5
2C43
  8
CENTRALA
 62
     5
 10
13.9704
 20
0.9201
 30
0.0
 70
    32
  0
VERTEX
  5
2C44
  8
CENTRALA
 62
     5
 10
13.868
 20
0.7392920000000001
 30
0.0
 70
    32
  0
VERTEX
  5
2C45
  8
CENTRALA
 62
     5
 10
13.7654
 20
0.5585770000000001
 30
0.0
 70
    32
  0
VERTEX
  5
2C46
  8
CENTRALA
 62
     5
 10
13.662800000000001
 20
0.377965
 30
0.0
 70
    32
  0
VERTEX
  5
2C47
  8
CENTRALA
 62
     5
 10
13.5602
 20
0.197466
 30
0.0
 70
    32
  0
VERTEX
  5
2C48
  8
CENTRALA
 62
     5
 10
13.457800000000001
 20
0.0170916
 30
0.0
 70
    32
  0
VERTEX
  5
2C49
  8
CENTRALA
 62
     5
 10
13.355600000000001
 20
-0.163149
 30
0.0
 70
    32
  0
VERTEX
  5
2C4A
  8
CENTRALA
 62
     5
 10
13.2538
 20
-0.343246
 30
0.0
 70
    32
  0
VERTEX
  5
2C4B
  8
CENTRALA
 62
     5
 10
13.1524
 20
-0.523187
 30
0.0
 70
    32
  0
VERTEX
  5
2C4C
  8
CENTRALA
 62
     5
 10
13.051600000000001
 20
-0.702963
 30
0.0
 70
    32
  0
VERTEX
  5
2C4D
  8
CENTRALA
 62
     5
 10
12.951499999999999
 20
-0.8825639999999999
 30
0.0
 70
    32
  0
VERTEX
  5
2C4E
  8
CENTRALA
 62
     5
 10
12.8521
 20
-1.061979999999999
 30
0.0
 70
    32
  0
VERTEX
  5
2C4F
  8
CENTRALA
 62
     5
 10
12.7537
 20
-1.2412000000000001
 30
0.0
 70
    32
  0
VERTEX
  5
2C50
  8
CENTRALA
 62
     5
 10
12.6561
 20
-1.4202099999999991
 30
0.0
 70
    32
  0
VERTEX
  5
2C51
  8
CENTRALA
 62
     5
 10
12.559699999999999
 20
-1.599
 30
0.0
 70
    32
  0
VERTEX
  5
2C52
  8
CENTRALA
 62
     5
 10
12.464399999999999
 20
-1.7775700000000001
 30
0.0
 70
    32
  0
VERTEX
  5
2C53
  8
CENTRALA
 62
     5
 10
12.3705
 20
-1.9558999999999991
 30
0.0
 70
    32
  0
VERTEX
  5
2C54
  8
CENTRALA
 62
     5
 10
12.277900000000001
 20
-2.1339799999999989
 30
0.0
 70
    32
  0
VERTEX
  5
2C55
  8
CENTRALA
 62
     5
 10
12.1868
 20
-2.3117999999999981
 30
0.0
 70
    32
  0
VERTEX
  5
2C56
  8
CENTRALA
 62
     5
 10
12.097300000000001
 20
-2.4893499999999991
 30
0.0
 70
    32
  0
VERTEX
  5
2C57
  8
CENTRALA
 62
     5
 10
12.009499999999999
 20
-2.6666300000000001
 30
0.0
 70
    32
  0
VERTEX
  5
2C58
  8
CENTRALA
 62
     5
 10
11.923500000000001
 20
-2.8436099999999982
 30
0.0
 70
    32
  0
VERTEX
  5
2C59
  8
CENTRALA
 62
     5
 10
11.839399999999999
 20
-3.0202900000000001
 30
0.0
 70
    32
  0
VERTEX
  5
2C5A
  8
CENTRALA
 62
     5
 10
11.757400000000001
 20
-3.1966600000000001
 30
0.0
 70
    32
  0
VERTEX
  5
2C5B
  8
CENTRALA
 62
     5
 10
11.6774
 20
-3.3727199999999979
 30
0.0
 70
    32
  0
VERTEX
  5
2C5C
  8
CENTRALA
 62
     5
 10
11.5997
 20
-3.5484399999999998
 30
0.0
 70
    32
  0
VERTEX
  5
2C5D
  8
CENTRALA
 62
     5
 10
11.5242
 20
-3.7238099999999981
 30
0.0
 70
    32
  0
VERTEX
  5
2C5E
  8
CENTRALA
 62
     5
 10
11.4512
 20
-3.8988399999999999
 30
0.0
 70
    32
  0
VERTEX
  5
2C5F
  8
CENTRALA
 62
     5
 10
11.380699999999999
 20
-4.0735000000000001
 30
0.0
 70
    32
  0
VERTEX
  5
2C60
  8
CENTRALA
 62
     5
 10
11.312900000000001
 20
-4.247799999999998
 30
0.0
 70
    32
  0
VERTEX
  5
2C61
  8
CENTRALA
 62
     5
 10
11.2478
 20
-4.4217000000000004
 30
0.0
 70
    32
  0
VERTEX
  5
2C62
  8
CENTRALA
 62
     5
 10
11.185499999999999
 20
-4.5952199999999976
 30
0.0
 70
    32
  0
VERTEX
  5
2C63
  8
CENTRALA
 62
     5
 10
11.126099999999999
 20
-4.7683299999999997
 30
0.0
 70
    32
  0
VERTEX
  5
2C64
  8
CENTRALA
 62
     5
 10
11.069800000000001
 20
-4.9410199999999991
 30
0.0
 70
    32
  0
VERTEX
  5
2C65
  8
CENTRALA
 62
     5
 10
11.0167
 20
-5.1132900000000001
 30
0.0
 70
    32
  0
VERTEX
  5
2C66
  8
CENTRALA
 62
     5
 10
10.966799999999999
 20
-5.2851299999999997
 30
0.0
 70
    32
  0
VERTEX
  5
2C67
  8
CENTRALA
 62
     5
 10
10.920199999999999
 20
-5.4565199999999967
 30
0.0
 70
    32
  0
VERTEX
  5
2C68
  8
CENTRALA
 62
     5
 10
10.8771
 20
-5.627449999999997
 30
0.0
 70
    32
  0
VERTEX
  5
2C69
  8
CENTRALA
 62
     5
 10
10.8376
 20
-5.7979199999999969
 30
0.0
 70
    32
  0
VERTEX
  5
2C6A
  8
CENTRALA
 62
     5
 10
10.8017
 20
-5.967909999999998
 30
0.0
 70
    32
  0
VERTEX
  5
2C6B
  8
CENTRALA
 62
     5
 10
10.769600000000001
 20
-6.13741
 30
0.0
 70
    32
  0
VERTEX
  5
2C6C
  8
CENTRALA
 62
     5
 10
10.741400000000001
 20
-6.3064200000000001
 30
0.0
 70
    32
  0
VERTEX
  5
2C6D
  8
CENTRALA
 62
     5
 10
10.7171
 20
-6.47492
 30
0.0
 70
    32
  0
VERTEX
  5
2C6E
  8
CENTRALA
 62
     5
 10
10.696899999999999
 20
-6.6429
 30
0.0
 70
    32
  0
VERTEX
  5
2C6F
  8
CENTRALA
 62
     5
 10
10.680899999999999
 20
-6.810349999999997
 30
0.0
 70
    32
  0
VERTEX
  5
2C70
  8
CENTRALA
 62
     5
 10
10.6692
 20
-6.9772600000000002
 30
0.0
 70
    32
  0
VERTEX
  5
2C71
  8
CENTRALA
 62
     5
 10
10.661799999999999
 20
-7.1436199999999968
 30
0.0
 70
    32
  0
VERTEX
  5
2C72
  8
CENTRALA
 62
     5
 10
10.659000000000001
 20
-7.3094299999999972
 30
0.0
 70
    32
  0
VERTEX
  5
2C73
  8
CENTRALA
 62
     5
 10
10.6607
 20
-7.4746600000000001
 30
0.0
 70
    32
  0
VERTEX
  5
2C74
  8
CENTRALA
 62
     5
 10
10.6671
 20
-7.63931
 30
0.0
 70
    32
  0
VERTEX
  5
2C75
  8
CENTRALA
 62
     5
 10
10.6784
 20
-7.8033700000000001
 30
0.0
 70
    32
  0
VERTEX
  5
2C76
  8
CENTRALA
 62
     5
 10
10.6945
 20
-7.9668299999999972
 30
0.0
 70
    32
  0
VERTEX
  5
2C77
  8
CENTRALA
 62
     5
 10
10.7157
 20
-8.1296800000000005
 30
0.0
 70
    32
  0
VERTEX
  5
2C78
  8
CENTRALA
 62
     5
 10
10.741899999999999
 20
-8.2919100000000014
 30
0.0
 70
    32
  0
VERTEX
  5
2C79
  8
CENTRALA
 62
     5
 10
10.773400000000001
 20
-8.4535
 30
0.0
 70
    32
  0
VERTEX
  5
2C7A
  8
CENTRALA
 62
     5
 10
10.8102
 20
-8.6144499999999962
 30
0.0
 70
    32
  0
VERTEX
  5
2C7B
  8
CENTRALA
 62
     5
 10
10.852399999999999
 20
-8.7747499999999992
 30
0.0
 70
    32
  0
VERTEX
  5
2C7C
  8
CENTRALA
 62
     5
 10
10.9001
 20
-8.9343899999999952
 30
0.0
 70
    32
  0
VERTEX
  5
2C7D
  8
CENTRALA
 62
     5
 10
10.9535
 20
-9.0933499999999992
 30
0.0
 70
    32
  0
VERTEX
  5
2C7E
  8
CENTRALA
 62
     5
 10
11.012600000000001
 20
-9.2516199999999991
 30
0.0
 70
    32
  0
VERTEX
  5
2C7F
  8
CENTRALA
 62
     5
 10
11.077500000000001
 20
-9.4092000000000002
 30
0.0
 70
    32
  0
VERTEX
  5
2C80
  8
CENTRALA
 62
     5
 10
11.148300000000001
 20
-9.5660799999999995
 30
0.0
 70
    32
  0
VERTEX
  5
2C81
  8
CENTRALA
 62
     5
 10
11.225199999999999
 20
-9.7222399999999993
 30
0.0
 70
    32
  0
VERTEX
  5
2C82
  8
CENTRALA
 62
     5
 10
11.308299999999999
 20
-9.8776700000000002
 30
0.0
 70
    32
  0
VERTEX
  5
2C83
  8
CENTRALA
 62
     5
 10
11.397500000000001
 20
-10.032400000000001
 30
0.0
 70
    32
  0
VERTEX
  5
2C84
  8
CENTRALA
 62
     5
 10
11.4932
 20
-10.186299999999999
 30
0.0
 70
    32
  0
VERTEX
  5
2C85
  8
CENTRALA
 62
     5
 10
11.5953
 20
-10.339499999999999
 30
0.0
 70
    32
  0
VERTEX
  5
2C86
  8
CENTRALA
 62
     5
 10
11.703900000000001
 20
-10.491899999999999
 30
0.0
 70
    32
  0
VERTEX
  5
2C87
  8
CENTRALA
 62
     5
 10
11.8192
 20
-10.643599999999999
 30
0.0
 70
    32
  0
VERTEX
  5
2C88
  8
CENTRALA
 62
     5
 10
11.9413
 20
-10.794499999999999
 30
0.0
 70
    32
  0
VERTEX
  5
2C89
  8
CENTRALA
 62
     5
 10
12.07
 20
-10.9445
 30
0.0
 70
    32
  0
VERTEX
  5
2C8A
  8
CENTRALA
 62
     5
 10
12.2049
 20
-11.0938
 30
0.0
 70
    32
  0
VERTEX
  5
2C8B
  8
CENTRALA
 62
     5
 10
12.345700000000001
 20
-11.2424
 30
0.0
 70
    32
  0
VERTEX
  5
2C8C
  8
CENTRALA
 62
     5
 10
12.491899999999999
 20
-11.3903
 30
0.0
 70
    32
  0
VERTEX
  5
2C8D
  8
CENTRALA
 62
     5
 10
12.643000000000001
 20
-11.5375
 30
0.0
 70
    32
  0
VERTEX
  5
2C8E
  8
CENTRALA
 62
     5
 10
12.7987
 20
-11.683999999999999
 30
0.0
 70
    32
  0
VERTEX
  5
2C8F
  8
CENTRALA
 62
     5
 10
12.958500000000001
 20
-11.8299
 30
0.0
 70
    32
  0
VERTEX
  5
2C90
  8
CENTRALA
 62
     5
 10
13.1221
 20
-11.975199999999999
 30
0.0
 70
    32
  0
VERTEX
  5
2C91
  8
CENTRALA
 62
     5
 10
13.2889
 20
-12.119899999999999
 30
0.0
 70
    32
  0
VERTEX
  5
2C92
  8
CENTRALA
 62
     5
 10
13.458600000000001
 20
-12.263999999999999
 30
0.0
 70
    32
  0
VERTEX
  5
2C93
  8
CENTRALA
 62
     5
 10
13.630699999999999
 20
-12.4076
 30
0.0
 70
    32
  0
VERTEX
  5
2C94
  8
CENTRALA
 62
     5
 10
13.8048
 20
-12.550700000000001
 30
0.0
 70
    32
  0
VERTEX
  5
2C95
  8
CENTRALA
 62
     5
 10
13.980600000000001
 20
-12.693300000000001
 30
0.0
 70
    32
  0
VERTEX
  5
2C96
  8
CENTRALA
 62
     5
 10
14.157500000000001
 20
-12.8354
 30
0.0
 70
    32
  0
VERTEX
  5
2C97
  8
CENTRALA
 62
     5
 10
14.3352
 20
-12.9772
 30
0.0
 70
    32
  0
VERTEX
  5
2C98
  8
CENTRALA
 62
     5
 10
14.513199999999999
 20
-13.118399999999999
 30
0.0
 70
    32
  0
VERTEX
  5
2C99
  8
CENTRALA
 62
     5
 10
14.6911
 20
-13.259399999999999
 30
0.0
 70
    32
  0
VERTEX
  5
2C9A
  8
CENTRALA
 62
     5
 10
14.868499999999999
 20
-13.399900000000001
 30
0.0
 70
    32
  0
VERTEX
  5
2C9B
  8
CENTRALA
 62
     5
 10
15.045
 20
-13.540100000000001
 30
0.0
 70
    32
  0
VERTEX
  5
2C9C
  8
CENTRALA
 62
     5
 10
15.2201
 20
-13.68
 30
0.0
 70
    32
  0
VERTEX
  5
2C9D
  8
CENTRALA
 62
     5
 10
15.3935
 20
-13.819599999999999
 30
0.0
 70
    32
  0
VERTEX
  5
2C9E
  8
CENTRALA
 62
     5
 10
15.5646
 20
-13.959
 30
0.0
 70
    32
  0
VERTEX
  5
2C9F
  8
CENTRALA
 62
     5
 10
15.7331
 20
-14.098100000000001
 30
0.0
 70
    32
  0
VERTEX
  5
2CA0
  8
CENTRALA
 62
     5
 10
15.8986
 20
-14.237
 30
0.0
 70
    32
  0
VERTEX
  5
2CA1
  8
CENTRALA
 62
     5
 10
16.060600000000001
 20
-14.3757
 30
0.0
 70
    32
  0
VERTEX
  5
2CA2
  8
CENTRALA
 62
     5
 10
16.218699999999998
 20
-14.5143
 30
0.0
 70
    32
  0
VERTEX
  5
2CA3
  8
CENTRALA
 62
     5
 10
16.372499999999999
 20
-14.652699999999999
 30
0.0
 70
    32
  0
VERTEX
  5
2CA4
  8
CENTRALA
 62
     5
 10
16.521599999999999
 20
-14.791
 30
0.0
 70
    32
  0
VERTEX
  5
2CA5
  8
CENTRALA
 62
     5
 10
16.665500000000002
 20
-14.9292
 30
0.0
 70
    32
  0
VERTEX
  5
2CA6
  8
CENTRALA
 62
     5
 10
16.803899999999999
 20
-15.067299999999999
 30
0.0
 70
    32
  0
VERTEX
  5
2CA7
  8
CENTRALA
 62
     5
 10
16.936199999999999
 20
-15.205500000000001
 30
0.0
 70
    32
  0
VERTEX
  5
2CA8
  8
CENTRALA
 62
     5
 10
16.914100000000001
 20
-15.3009
 30
0.0
 70
    32
  0
VERTEX
  5
2CA9
  8
CENTRALA
 62
     5
 10
16.7422
 20
-15.3537
 30
0.0
 70
    32
  0
VERTEX
  5
2CAA
  8
CENTRALA
 62
     5
 10
16.570399999999999
 20
-15.4064
 30
0.0
 70
    32
  0
VERTEX
  5
2CAB
  8
CENTRALA
 62
     5
 10
16.398499999999999
 20
-15.459
 30
0.0
 70
    32
  0
VERTEX
  5
2CAC
  8
CENTRALA
 62
     5
 10
16.226700000000001
 20
-15.5114
 30
0.0
 70
    32
  0
VERTEX
  5
2CAD
  8
CENTRALA
 62
     5
 10
16.0548
 20
-15.563499999999999
 30
0.0
 70
    32
  0
VERTEX
  5
2CAE
  8
CENTRALA
 62
     5
 10
15.882899999999999
 20
-15.615399999999999
 30
0.0
 70
    32
  0
VERTEX
  5
2CAF
  8
CENTRALA
 62
     5
 10
15.710900000000001
 20
-15.6669
 30
0.0
 70
    32
  0
VERTEX
  5
2CB0
  8
CENTRALA
 62
     5
 10
15.539
 20
-15.718
 30
0.0
 70
    32
  0
VERTEX
  5
2CB1
  8
CENTRALA
 62
     5
 10
15.367000000000001
 20
-15.768599999999999
 30
0.0
 70
    32
  0
VERTEX
  5
2CB2
  8
CENTRALA
 62
     5
 10
15.195
 20
-15.8187
 30
0.0
 70
    32
  0
VERTEX
  5
2CB3
  8
CENTRALA
 62
     5
 10
15.0229
 20
-15.8683
 30
0.0
 70
    32
  0
VERTEX
  5
2CB4
  8
CENTRALA
 62
     5
 10
14.8508
 20
-15.917299999999999
 30
0.0
 70
    32
  0
VERTEX
  5
2CB5
  8
CENTRALA
 62
     5
 10
14.678699999999999
 20
-15.9655
 30
0.0
 70
    32
  0
VERTEX
  5
2CB6
  8
CENTRALA
 62
     5
 10
14.506500000000001
 20
-16.013100000000001
 30
0.0
 70
    32
  0
VERTEX
  5
2CB7
  8
CENTRALA
 62
     5
 10
14.334199999999999
 20
-16.059899999999999
 30
0.0
 70
    32
  0
VERTEX
  5
2CB8
  8
CENTRALA
 62
     5
 10
14.161899999999999
 20
-16.105799999999999
 30
0.0
 70
    32
  0
VERTEX
  5
2CB9
  8
CENTRALA
 62
     5
 10
13.989599999999999
 20
-16.1509
 30
0.0
 70
    32
  0
VERTEX
  5
2CBA
  8
CENTRALA
 62
     5
 10
13.8171
 20
-16.195
 30
0.0
 70
    32
  0
VERTEX
  5
2CBB
  8
CENTRALA
 62
     5
 10
13.644600000000001
 20
-16.238099999999999
 30
0.0
 70
    32
  0
VERTEX
  5
2CBC
  8
CENTRALA
 62
     5
 10
13.472099999999999
 20
-16.280200000000001
 30
0.0
 70
    32
  0
VERTEX
  5
2CBD
  8
CENTRALA
 62
     5
 10
13.2994
 20
-16.321200000000001
 30
0.0
 70
    32
  0
VERTEX
  5
2CBE
  8
CENTRALA
 62
     5
 10
13.1267
 20
-16.361000000000001
 30
0.0
 70
    32
  0
VERTEX
  5
2CBF
  8
CENTRALA
 62
     5
 10
12.953900000000001
 20
-16.399699999999999
 30
0.0
 70
    32
  0
VERTEX
  5
2CC0
  8
CENTRALA
 62
     5
 10
12.781000000000001
 20
-16.437000000000001
 30
0.0
 70
    32
  0
VERTEX
  5
2CC1
  8
CENTRALA
 62
     5
 10
12.6081
 20
-16.473099999999999
 30
0.0
 70
    32
  0
VERTEX
  5
2CC2
  8
CENTRALA
 62
     5
 10
12.435
 20
-16.5077
 30
0.0
 70
    32
  0
VERTEX
  5
2CC3
  8
CENTRALA
 62
     5
 10
12.261799999999999
 20
-16.541
 30
0.0
 70
    32
  0
VERTEX
  5
2CC4
  8
CENTRALA
 62
     5
 10
12.0886
 20
-16.572800000000001
 30
0.0
 70
    32
  0
VERTEX
  5
2CC5
  8
CENTRALA
 62
     5
 10
11.9152
 20
-16.603000000000002
 30
0.0
 70
    32
  0
VERTEX
  5
2CC6
  8
CENTRALA
 62
     5
 10
11.7417
 20
-16.631699999999999
 30
0.0
 70
    32
  0
VERTEX
  5
2CC7
  8
CENTRALA
 62
     5
 10
11.568199999999999
 20
-16.6587
 30
0.0
 70
    32
  0
VERTEX
  5
2CC8
  8
CENTRALA
 62
     5
 10
11.394500000000001
 20
-16.684100000000001
 30
0.0
 70
    32
  0
VERTEX
  5
2CC9
  8
CENTRALA
 62
     5
 10
11.220599999999999
 20
-16.707699999999999
 30
0.0
 70
    32
  0
VERTEX
  5
2CCA
  8
CENTRALA
 62
     5
 10
11.0467
 20
-16.729500000000002
 30
0.0
 70
    32
  0
VERTEX
  5
2CCB
  8
CENTRALA
 62
     5
 10
10.8726
 20
-16.749400000000001
 30
0.0
 70
    32
  0
VERTEX
  5
2CCC
  8
CENTRALA
 62
     5
 10
10.698499999999999
 20
-16.767499999999998
 30
0.0
 70
    32
  0
VERTEX
  5
2CCD
  8
CENTRALA
 62
     5
 10
10.524100000000001
 20
-16.7835
 30
0.0
 70
    32
  0
VERTEX
  5
2CCE
  8
CENTRALA
 62
     5
 10
10.3497
 20
-16.797599999999999
 30
0.0
 70
    32
  0
VERTEX
  5
2CCF
  8
CENTRALA
 62
     5
 10
10.1751
 20
-16.8096
 30
0.0
 70
    32
  0
VERTEX
  5
2CD0
  8
CENTRALA
 62
     5
 10
10.000299999999999
 20
-16.819500000000001
 30
0.0
 70
    32
  0
VERTEX
  5
2CD1
  8
CENTRALA
 62
     5
 10
9.8254399999999968
 20
-16.827200000000001
 30
0.0
 70
    32
  0
VERTEX
  5
2CD2
  8
CENTRALA
 62
     5
 10
9.6503999999999994
 20
-16.832699999999999
 30
0.0
 70
    32
  0
VERTEX
  5
2CD3
  8
CENTRALA
 62
     5
 10
9.4752100000000006
 20
-16.835899999999999
 30
0.0
 70
    32
  0
VERTEX
  5
2CD4
  8
CENTRALA
 62
     5
 10
9.2998499999999993
 20
-16.8368
 30
0.0
 70
    32
  0
VERTEX
  5
2CD5
  8
CENTRALA
 62
     5
 10
9.1243400000000001
 20
-16.8352
 30
0.0
 70
    32
  0
VERTEX
  5
2CD6
  8
CENTRALA
 62
     5
 10
8.9486600000000003
 20
-16.831299999999999
 30
0.0
 70
    32
  0
VERTEX
  5
2CD7
  8
CENTRALA
 62
     5
 10
8.7728199999999994
 20
-16.8248
 30
0.0
 70
    32
  0
VERTEX
  5
2CD8
  8
CENTRALA
 62
     5
 10
8.5967999999999982
 20
-16.815799999999999
 30
0.0
 70
    32
  0
VERTEX
  5
2CD9
  8
CENTRALA
 62
     5
 10
8.4206000000000003
 20
-16.804200000000002
 30
0.0
 70
    32
  0
VERTEX
  5
2CDA
  8
CENTRALA
 62
     5
 10
8.2442200000000003
 20
-16.789999999999999
 30
0.0
 70
    32
  0
VERTEX
  5
2CDB
  8
CENTRALA
 62
     5
 10
8.0676699999999997
 20
-16.773
 30
0.0
 70
    32
  0
VERTEX
  5
2CDC
  8
CENTRALA
 62
     5
 10
7.8909199999999968
 20
-16.753299999999999
 30
0.0
 70
    32
  0
VERTEX
  5
2CDD
  8
CENTRALA
 62
     5
 10
7.713989999999999
 20
-16.730699999999999
 30
0.0
 70
    32
  0
VERTEX
  5
2CDE
  8
CENTRALA
 62
     5
 10
7.5368599999999999
 20
-16.705300000000001
 30
0.0
 70
    32
  0
VERTEX
  5
2CDF
  8
CENTRALA
 62
     5
 10
7.3595300000000003
 20
-16.6769
 30
0.0
 70
    32
  0
VERTEX
  5
2CE0
  8
CENTRALA
 62
     5
 10
7.1820000000000004
 20
-16.645600000000002
 30
0.0
 70
    32
  0
VERTEX
  5
2CE1
  8
CENTRALA
 62
     5
 10
7.0042600000000004
 20
-16.6112
 30
0.0
 70
    32
  0
VERTEX
  5
2CE2
  8
CENTRALA
 62
     5
 10
6.8263199999999991
 20
-16.573799999999999
 30
0.0
 70
    32
  0
VERTEX
  5
2CE3
  8
CENTRALA
 62
     5
 10
6.6481699999999968
 20
-16.533200000000001
 30
0.0
 70
    32
  0
VERTEX
  5
2CE4
  8
CENTRALA
 62
     5
 10
6.4698000000000002
 20
-16.4894
 30
0.0
 70
    32
  0
VERTEX
  5
2CE5
  8
CENTRALA
 62
     5
 10
6.2912099999999969
 20
-16.442399999999999
 30
0.0
 70
    32
  0
VERTEX
  5
2CE6
  8
CENTRALA
 62
     5
 10
6.1123900000000004
 20
-16.392099999999999
 30
0.0
 70
    32
  0
VERTEX
  5
2CE7
  8
CENTRALA
 62
     5
 10
5.9333599999999969
 20
-16.3385
 30
0.0
 70
    32
  0
VERTEX
  5
2CE8
  8
CENTRALA
 62
     5
 10
5.7541299999999991
 20
-16.2819
 30
0.0
 70
    32
  0
VERTEX
  5
2CE9
  8
CENTRALA
 62
     5
 10
5.5746999999999991
 20
-16.222200000000001
 30
0.0
 70
    32
  0
VERTEX
  5
2CEA
  8
CENTRALA
 62
     5
 10
5.3950800000000001
 20
-16.159500000000001
 30
0.0
 70
    32
  0
VERTEX
  5
2CEB
  8
CENTRALA
 62
     5
 10
5.2152900000000004
 20
-16.094100000000001
 30
0.0
 70
    32
  0
VERTEX
  5
2CEC
  8
CENTRALA
 62
     5
 10
5.035339999999997
 20
-16.0259
 30
0.0
 70
    32
  0
VERTEX
  5
2CED
  8
CENTRALA
 62
     5
 10
4.8552299999999997
 20
-15.9551
 30
0.0
 70
    32
  0
VERTEX
  5
2CEE
  8
CENTRALA
 62
     5
 10
4.6749799999999997
 20
-15.8818
 30
0.0
 70
    32
  0
VERTEX
  5
2CEF
  8
CENTRALA
 62
     5
 10
4.4945899999999996
 20
-15.805999999999999
 30
0.0
 70
    32
  0
VERTEX
  5
2CF0
  8
CENTRALA
 62
     5
 10
4.3140799999999997
 20
-15.728
 30
0.0
 70
    32
  0
VERTEX
  5
2CF1
  8
CENTRALA
 62
     5
 10
4.1334599999999977
 20
-15.6478
 30
0.0
 70
    32
  0
VERTEX
  5
2CF2
  8
CENTRALA
 62
     5
 10
3.9527399999999999
 20
-15.5655
 30
0.0
 70
    32
  0
VERTEX
  5
2CF3
  8
CENTRALA
 62
     5
 10
3.7719299999999998
 20
-15.4811
 30
0.0
 70
    32
  0
VERTEX
  5
2CF4
  8
CENTRALA
 62
     5
 10
3.5910299999999999
 20
-15.3949
 30
0.0
 70
    32
  0
VERTEX
  5
2CF5
  8
CENTRALA
 62
     5
 10
3.4100599999999979
 20
-15.306900000000001
 30
0.0
 70
    32
  0
VERTEX
  5
2CF6
  8
CENTRALA
 62
     5
 10
3.2290399999999999
 20
-15.2172
 30
0.0
 70
    32
  0
VERTEX
  5
2CF7
  8
CENTRALA
 62
     5
 10
3.047959999999998
 20
-15.1259
 30
0.0
 70
    32
  0
VERTEX
  5
2CF8
  8
CENTRALA
 62
     5
 10
2.8668399999999998
 20
-15.033200000000001
 30
0.0
 70
    32
  0
VERTEX
  5
2CF9
  8
CENTRALA
 62
     5
 10
2.6856900000000001
 20
-14.939
 30
0.0
 70
    32
  0
VERTEX
  5
2CFA
  8
CENTRALA
 62
     5
 10
2.504529999999999
 20
-14.8436
 30
0.0
 70
    32
  0
VERTEX
  5
2CFB
  8
CENTRALA
 62
     5
 10
2.32335
 20
-14.7471
 30
0.0
 70
    32
  0
VERTEX
  5
2CFC
  8
CENTRALA
 62
     5
 10
2.1421799999999989
 20
-14.6494
 30
0.0
 70
    32
  0
VERTEX
  5
2CFD
  8
CENTRALA
 62
     5
 10
1.9610199999999991
 20
-14.550800000000001
 30
0.0
 70
    32
  0
VERTEX
  5
2CFE
  8
CENTRALA
 62
     5
 10
1.779879999999999
 20
-14.4514
 30
0.0
 70
    32
  0
VERTEX
  5
2CFF
  8
CENTRALA
 62
     5
 10
1.598779999999999
 20
-14.351100000000001
 30
0.0
 70
    32
  0
VERTEX
  5
2D00
  8
CENTRALA
 62
     5
 10
1.41771
 20
-14.250299999999999
 30
0.0
 70
    32
  0
VERTEX
  5
2D01
  8
CENTRALA
 62
     5
 10
1.236699999999999
 20
-14.1488
 30
0.0
 70
    32
  0
VERTEX
  5
2D02
  8
CENTRALA
 62
     5
 10
1.05576
 20
-14.047000000000001
 30
0.0
 70
    32
  0
VERTEX
  5
2D03
  8
CENTRALA
 62
     5
 10
0.87489
 20
-13.944800000000001
 30
0.0
 70
    32
  0
VERTEX
  5
2D04
  8
CENTRALA
 62
     5
 10
0.6941040000000001
 20
-13.8423
 30
0.0
 70
    32
  0
VERTEX
  5
2D05
  8
CENTRALA
 62
     5
 10
0.5134140000000002
 20
-13.739699999999999
 30
0.0
 70
    32
  0
VERTEX
  5
2D06
  8
CENTRALA
 62
     5
 10
0.332829
 20
-13.6371
 30
0.0
 70
    32
  0
VERTEX
  5
2D07
  8
CENTRALA
 62
     5
 10
0.152361
 20
-13.534599999999999
 30
0.0
 70
    32
  0
VERTEX
  5
2D08
  8
CENTRALA
 62
     5
 10
-0.0279816
 20
-13.4322
 30
0.0
 70
    32
  0
VERTEX
  5
2D09
  8
CENTRALA
 62
     5
 10
-0.208187
 20
-13.3301
 30
0.0
 70
    32
  0
VERTEX
  5
2D0A
  8
CENTRALA
 62
     5
 10
-0.388246
 20
-13.228400000000001
 30
0.0
 70
    32
  0
VERTEX
  5
2D0B
  8
CENTRALA
 62
     5
 10
-0.5681470000000001
 20
-13.1272
 30
0.0
 70
    32
  0
VERTEX
  5
2D0C
  8
CENTRALA
 62
     5
 10
-0.74788
 20
-13.0265
 30
0.0
 70
    32
  0
VERTEX
  5
2D0D
  8
CENTRALA
 62
     5
 10
-0.927435
 20
-12.926600000000001
 30
0.0
 70
    32
  0
VERTEX
  5
2D0E
  8
CENTRALA
 62
     5
 10
-1.1068
 20
-12.827400000000001
 30
0.0
 70
    32
  0
VERTEX
  5
2D0F
  8
CENTRALA
 62
     5
 10
-1.2859700000000001
 20
-12.729200000000001
 30
0.0
 70
    32
  0
VERTEX
  5
2D10
  8
CENTRALA
 62
     5
 10
-1.464929999999999
 20
-12.6319
 30
0.0
 70
    32
  0
VERTEX
  5
2D11
  8
CENTRALA
 62
     5
 10
-1.64367
 20
-12.5358
 30
0.0
 70
    32
  0
VERTEX
  5
2D12
  8
CENTRALA
 62
     5
 10
-1.8221700000000001
 20
-12.440799999999999
 30
0.0
 70
    32
  0
VERTEX
  5
2D13
  8
CENTRALA
 62
     5
 10
-2.0004400000000002
 20
-12.347200000000001
 30
0.0
 70
    32
  0
VERTEX
  5
2D14
  8
CENTRALA
 62
     5
 10
-2.1784599999999981
 20
-12.255000000000001
 30
0.0
 70
    32
  0
VERTEX
  5
2D15
  8
CENTRALA
 62
     5
 10
-2.356209999999999
 20
-12.164300000000001
 30
0.0
 70
    32
  0
VERTEX
  5
2D16
  8
CENTRALA
 62
     5
 10
-2.5337000000000001
 20
-12.075200000000001
 30
0.0
 70
    32
  0
VERTEX
  5
2D17
  8
CENTRALA
 62
     5
 10
-2.7109000000000001
 20
-11.9879
 30
0.0
 70
    32
  0
VERTEX
  5
2D18
  8
CENTRALA
 62
     5
 10
-2.8878099999999982
 20
-11.9023
 30
0.0
 70
    32
  0
VERTEX
  5
2D19
  8
CENTRALA
 62
     5
 10
-3.0644099999999979
 20
-11.8187
 30
0.0
 70
    32
  0
VERTEX
  5
2D1A
  8
CENTRALA
 62
     5
 10
-3.2407099999999982
 20
-11.7372
 30
0.0
 70
    32
  0
VERTEX
  5
2D1B
  8
CENTRALA
 62
     5
 10
-3.4166799999999999
 20
-11.6578
 30
0.0
 70
    32
  0
VERTEX
  5
2D1C
  8
CENTRALA
 62
     5
 10
-3.592309999999999
 20
-11.5806
 30
0.0
 70
    32
  0
VERTEX
  5
2D1D
  8
CENTRALA
 62
     5
 10
-3.7675999999999981
 20
-11.505699999999999
 30
0.0
 70
    32
  0
VERTEX
  5
2D1E
  8
CENTRALA
 62
     5
 10
-3.9425400000000002
 20
-11.433400000000001
 30
0.0
 70
    32
  0
VERTEX
  5
2D1F
  8
CENTRALA
 62
     5
 10
-4.1171100000000003
 20
-11.3635
 30
0.0
 70
    32
  0
VERTEX
  5
2D20
  8
CENTRALA
 62
     5
 10
-4.2913100000000002
 20
-11.2964
 30
0.0
 70
    32
  0
VERTEX
  5
2D21
  8
CENTRALA
 62
     5
 10
-4.4651199999999971
 20
-11.2319
 30
0.0
 70
    32
  0
VERTEX
  5
2D22
  8
CENTRALA
 62
     5
 10
-4.6385300000000003
 20
-11.170400000000001
 30
0.0
 70
    32
  0
VERTEX
  5
2D23
  8
CENTRALA
 62
     5
 10
-4.811539999999999
 20
-11.111800000000001
 30
0.0
 70
    32
  0
VERTEX
  5
2D24
  8
CENTRALA
 62
     5
 10
-4.9841300000000004
 20
-11.0563
 30
0.0
 70
    32
  0
VERTEX
  5
2D25
  8
CENTRALA
 62
     5
 10
-5.1562900000000003
 20
-11.0039
 30
0.0
 70
    32
  0
VERTEX
  5
2D26
  8
CENTRALA
 62
     5
 10
-5.3280199999999978
 20
-10.954800000000001
 30
0.0
 70
    32
  0
VERTEX
  5
2D27
  8
CENTRALA
 62
     5
 10
-5.4992900000000002
 20
-10.9091
 30
0.0
 70
    32
  0
VERTEX
  5
2D28
  8
CENTRALA
 62
     5
 10
-5.6701100000000002
 20
-10.866899999999999
 30
0.0
 70
    32
  0
VERTEX
  5
2D29
  8
CENTRALA
 62
     5
 10
-5.8404600000000002
 20
-10.8283
 30
0.0
 70
    32
  0
VERTEX
  5
2D2A
  8
CENTRALA
 62
     5
 10
-6.0103299999999997
 20
-10.7933
 30
0.0
 70
    32
  0
VERTEX
  5
2D2B
  8
CENTRALA
 62
     5
 10
-6.17971
 20
-10.7622
 30
0.0
 70
    32
  0
VERTEX
  5
2D2C
  8
CENTRALA
 62
     5
 10
-6.3485899999999971
 20
-10.7349
 30
0.0
 70
    32
  0
VERTEX
  5
2D2D
  8
CENTRALA
 62
     5
 10
-6.5169600000000001
 20
-10.7117
 30
0.0
 70
    32
  0
VERTEX
  5
2D2E
  8
CENTRALA
 62
     5
 10
-6.6848099999999997
 20
-10.692500000000001
 30
0.0
 70
    32
  0
VERTEX
  5
2D2F
  8
CENTRALA
 62
     5
 10
-6.8521299999999998
 20
-10.6776
 30
0.0
 70
    32
  0
VERTEX
  5
2D30
  8
CENTRALA
 62
     5
 10
-7.0189000000000004
 20
-10.6669
 30
0.0
 70
    32
  0
VERTEX
  5
2D31
  8
CENTRALA
 62
     5
 10
-7.18513
 20
-10.6607
 30
0.0
 70
    32
  0
VERTEX
  5
2D32
  8
CENTRALA
 62
     5
 10
-7.350789999999999
 20
-10.659000000000001
 30
0.0
 70
    32
  0
VERTEX
  5
2D33
  8
CENTRALA
 62
     5
 10
-7.5158800000000001
 20
-10.661899999999999
 30
0.0
 70
    32
  0
VERTEX
  5
2D34
  8
CENTRALA
 62
     5
 10
-7.6803800000000004
 20
-10.669499999999999
 30
0.0
 70
    32
  0
VERTEX
  5
2D35
  8
CENTRALA
 62
     5
 10
-7.8442999999999969
 20
-10.682
 30
0.0
 70
    32
  0
VERTEX
  5
2D36
  8
CENTRALA
 62
     5
 10
-8.0076000000000001
 20
-10.699299999999999
 30
0.0
 70
    32
  0
VERTEX
  5
2D37
  8
CENTRALA
 62
     5
 10
-8.1702999999999992
 20
-10.7217
 30
0.0
 70
    32
  0
VERTEX
  5
2D38
  8
CENTRALA
 62
     5
 10
-8.3323699999999992
 20
-10.7493
 30
0.0
 70
    32
  0
VERTEX
  5
2D39
  8
CENTRALA
 62
     5
 10
-8.4938000000000002
 20
-10.7821
 30
0.0
 70
    32
  0
VERTEX
  5
2D3A
  8
CENTRALA
 62
     5
 10
-8.6545899999999971
 20
-10.8202
 30
0.0
 70
    32
  0
VERTEX
  5
2D3B
  8
CENTRALA
 62
     5
 10
-8.8147199999999977
 20
-10.863799999999999
 30
0.0
 70
    32
  0
VERTEX
  5
2D3C
  8
CENTRALA
 62
     5
 10
-8.9741900000000001
 20
-10.9129
 30
0.0
 70
    32
  0
VERTEX
  5
2D3D
  8
CENTRALA
 62
     5
 10
-9.1329799999999999
 20
-10.967700000000001
 30
0.0
 70
    32
  0
VERTEX
  5
2D3E
  8
CENTRALA
 62
     5
 10
-9.2910799999999991
 20
-11.0282
 30
0.0
 70
    32
  0
VERTEX
  5
2D3F
  8
CENTRALA
 62
     5
 10
-9.4484899999999996
 20
-11.0946
 30
0.0
 70
    32
  0
VERTEX
  5
2D40
  8
CENTRALA
 62
     5
 10
-9.6051899999999968
 20
-11.167
 30
0.0
 70
    32
  0
VERTEX
  5
2D41
  8
CENTRALA
 62
     5
 10
-9.7611699999999981
 20
-11.2454
 30
0.0
 70
    32
  0
VERTEX
  5
2D42
  8
CENTRALA
 62
     5
 10
-9.9164200000000005
 20
-11.33
 30
0.0
 70
    32
  0
VERTEX
  5
2D43
  8
CENTRALA
 62
     5
 10
-10.0709
 20
-11.4209
 30
0.0
 70
    32
  0
VERTEX
  5
2D44
  8
CENTRALA
 62
     5
 10
-10.2247
 20
-11.5181
 30
0.0
 70
    32
  0
VERTEX
  5
2D45
  8
CENTRALA
 62
     5
 10
-10.377700000000001
 20
-11.6218
 30
0.0
 70
    32
  0
VERTEX
  5
2D46
  8
CENTRALA
 62
     5
 10
-10.5299
 20
-11.732100000000001
 30
0.0
 70
    32
  0
VERTEX
  5
2D47
  8
CENTRALA
 62
     5
 10
-10.6814
 20
-11.8491
 30
0.0
 70
    32
  0
VERTEX
  5
2D48
  8
CENTRALA
 62
     5
 10
-10.832000000000001
 20
-11.972899999999999
 30
0.0
 70
    32
  0
VERTEX
  5
2D49
  8
CENTRALA
 62
     5
 10
-10.9819
 20
-12.103199999999999
 30
0.0
 70
    32
  0
VERTEX
  5
2D4A
  8
CENTRALA
 62
     5
 10
-11.1311
 20
-12.239599999999999
 30
0.0
 70
    32
  0
VERTEX
  5
2D4B
  8
CENTRALA
 62
     5
 10
-11.279500000000001
 20
-12.3818
 30
0.0
 70
    32
  0
VERTEX
  5
2D4C
  8
CENTRALA
 62
     5
 10
-11.427199999999999
 20
-12.529199999999999
 30
0.0
 70
    32
  0
VERTEX
  5
2D4D
  8
CENTRALA
 62
     5
 10
-11.574199999999999
 20
-12.6815
 30
0.0
 70
    32
  0
VERTEX
  5
2D4E
  8
CENTRALA
 62
     5
 10
-11.720499999999999
 20
-12.8383
 30
0.0
 70
    32
  0
VERTEX
  5
2D4F
  8
CENTRALA
 62
     5
 10
-11.866300000000001
 20
-12.9991
 30
0.0
 70
    32
  0
VERTEX
  5
2D50
  8
CENTRALA
 62
     5
 10
-12.0114
 20
-13.163500000000001
 30
0.0
 70
    32
  0
VERTEX
  5
2D51
  8
CENTRALA
 62
     5
 10
-12.156000000000001
 20
-13.331099999999999
 30
0.0
 70
    32
  0
VERTEX
  5
2D52
  8
CENTRALA
 62
     5
 10
-12.300000000000001
 20
-13.5014
 30
0.0
 70
    32
  0
VERTEX
  5
2D53
  8
CENTRALA
 62
     5
 10
-12.4434
 20
-13.674099999999999
 30
0.0
 70
    32
  0
VERTEX
  5
2D54
  8
CENTRALA
 62
     5
 10
-12.586399999999999
 20
-13.848599999999999
 30
0.0
 70
    32
  0
VERTEX
  5
2D55
  8
CENTRALA
 62
     5
 10
-12.728899999999999
 20
-14.024699999999999
 30
0.0
 70
    32
  0
VERTEX
  5
2D56
  8
CENTRALA
 62
     5
 10
-12.870900000000001
 20
-14.2019
 30
0.0
 70
    32
  0
VERTEX
  5
2D57
  8
CENTRALA
 62
     5
 10
-13.012499999999999
 20
-14.3797
 30
0.0
 70
    32
  0
VERTEX
  5
2D58
  8
CENTRALA
 62
     5
 10
-13.153700000000001
 20
-14.557700000000001
 30
0.0
 70
    32
  0
VERTEX
  5
2D59
  8
CENTRALA
 62
     5
 10
-13.294499999999999
 20
-14.7355
 30
0.0
 70
    32
  0
VERTEX
  5
2D5A
  8
CENTRALA
 62
     5
 10
-13.435
 20
-14.912800000000001
 30
0.0
 70
    32
  0
VERTEX
  5
2D5B
  8
CENTRALA
 62
     5
 10
-13.575100000000001
 20
-15.088900000000001
 30
0.0
 70
    32
  0
VERTEX
  5
2D5C
  8
CENTRALA
 62
     5
 10
-13.7149
 20
-15.2636
 30
0.0
 70
    32
  0
VERTEX
  5
2D5D
  8
CENTRALA
 62
     5
 10
-13.8545
 20
-15.436500000000001
 30
0.0
 70
    32
  0
VERTEX
  5
2D5E
  8
CENTRALA
 62
     5
 10
-13.9938
 20
-15.606999999999999
 30
0.0
 70
    32
  0
VERTEX
  5
2D5F
  8
CENTRALA
 62
     5
 10
-14.1328
 20
-15.774800000000001
 30
0.0
 70
    32
  0
VERTEX
  5
2D60
  8
CENTRALA
 62
     5
 10
-14.271699999999999
 20
-15.939399999999999
 30
0.0
 70
    32
  0
VERTEX
  5
2D61
  8
CENTRALA
 62
     5
 10
-14.410399999999999
 20
-16.1005
 30
0.0
 70
    32
  0
VERTEX
  5
2D62
  8
CENTRALA
 62
     5
 10
-14.5489
 20
-16.2576
 30
0.0
 70
    32
  0
VERTEX
  5
2D63
  8
CENTRALA
 62
     5
 10
-14.6873
 20
-16.410299999999999
 30
0.0
 70
    32
  0
VERTEX
  5
2D64
  8
CENTRALA
 62
     5
 10
-14.8255
 20
-16.5581
 30
0.0
 70
    32
  0
VERTEX
  5
2D65
  8
CENTRALA
 62
     5
 10
-14.963699999999999
 20
-16.700600000000001
 30
0.0
 70
    32
  0
VERTEX
  5
2D66
  8
CENTRALA
 62
     5
 10
-15.101900000000001
 20
-16.837499999999999
 30
0.0
 70
    32
  0
VERTEX
  5
2D67
  8
CENTRALA
 62
     5
 10
-15.24
 20
-16.968299999999999
 30
0.0
 70
    32
  0
VERTEX
  5
2D68
  8
CENTRALA
 62
     5
 10
-15.3141
 20
-16.871099999999998
 30
0.0
 70
    32
  0
VERTEX
  5
2D69
  8
CENTRALA
 62
     5
 10
-15.366899999999999
 20
-16.699300000000001
 30
0.0
 70
    32
  0
VERTEX
  5
2D6A
  8
CENTRALA
 62
     5
 10
-15.419600000000001
 20
-16.5274
 30
0.0
 70
    32
  0
VERTEX
  5
2D6B
  8
CENTRALA
 62
     5
 10
-15.472099999999999
 20
-16.355599999999999
 30
0.0
 70
    32
  0
VERTEX
  5
2D6C
  8
CENTRALA
 62
     5
 10
-15.5244
 20
-16.183700000000002
 30
0.0
 70
    32
  0
VERTEX
  5
2D6D
  8
CENTRALA
 62
     5
 10
-15.576499999999999
 20
-16.011800000000001
 30
0.0
 70
    32
  0
VERTEX
  5
2D6E
  8
CENTRALA
 62
     5
 10
-15.628299999999999
 20
-15.8399
 30
0.0
 70
    32
  0
VERTEX
  5
2D6F
  8
CENTRALA
 62
     5
 10
-15.6797
 20
-15.667999999999999
 30
0.0
 70
    32
  0
VERTEX
  5
2D70
  8
CENTRALA
 62
     5
 10
-15.730700000000001
 20
-15.496
 30
0.0
 70
    32
  0
VERTEX
  5
2D71
  8
CENTRALA
 62
     5
 10
-15.7812
 20
-15.324
 30
0.0
 70
    32
  0
VERTEX
  5
2D72
  8
CENTRALA
 62
     5
 10
-15.831200000000001
 20
-15.151999999999999
 30
0.0
 70
    32
  0
VERTEX
  5
2D73
  8
CENTRALA
 62
     5
 10
-15.880599999999999
 20
-14.979900000000001
 30
0.0
 70
    32
  0
VERTEX
  5
2D74
  8
CENTRALA
 62
     5
 10
-15.929399999999999
 20
-14.8078
 30
0.0
 70
    32
  0
VERTEX
  5
2D75
  8
CENTRALA
 62
     5
 10
-15.977499999999999
 20
-14.6356
 30
0.0
 70
    32
  0
VERTEX
  5
2D76
  8
CENTRALA
 62
     5
 10
-16.024899999999999
 20
-14.4634
 30
0.0
 70
    32
  0
VERTEX
  5
2D77
  8
CENTRALA
 62
     5
 10
-16.0715
 20
-14.2912
 30
0.0
 70
    32
  0
VERTEX
  5
2D78
  8
CENTRALA
 62
     5
 10
-16.1172
 20
-14.1188
 30
0.0
 70
    32
  0
VERTEX
  5
2D79
  8
CENTRALA
 62
     5
 10
-16.161999999999999
 20
-13.9465
 30
0.0
 70
    32
  0
VERTEX
  5
2D7A
  8
CENTRALA
 62
     5
 10
-16.2059
 20
-13.773999999999999
 30
0.0
 70
    32
  0
VERTEX
  5
2D7B
  8
CENTRALA
 62
     5
 10
-16.248799999999999
 20
-13.6015
 30
0.0
 70
    32
  0
VERTEX
  5
2D7C
  8
CENTRALA
 62
     5
 10
-16.290600000000001
 20
-13.428900000000001
 30
0.0
 70
    32
  0
VERTEX
  5
2D7D
  8
CENTRALA
 62
     5
 10
-16.331299999999999
 20
-13.2563
 30
0.0
 70
    32
  0
VERTEX
  5
2D7E
  8
CENTRALA
 62
     5
 10
-16.370799999999999
 20
-13.083500000000001
 30
0.0
 70
    32
  0
VERTEX
  5
2D7F
  8
CENTRALA
 62
     5
 10
-16.409099999999999
 20
-12.9107
 30
0.0
 70
    32
  0
VERTEX
  5
2D80
  8
CENTRALA
 62
     5
 10
-16.446200000000001
 20
-12.7378
 30
0.0
 70
    32
  0
VERTEX
  5
2D81
  8
CENTRALA
 62
     5
 10
-16.4819
 20
-12.5648
 30
0.0
 70
    32
  0
VERTEX
  5
2D82
  8
CENTRALA
 62
     5
 10
-16.516200000000001
 20
-12.3917
 30
0.0
 70
    32
  0
VERTEX
  5
2D83
  8
CENTRALA
 62
     5
 10
-16.549099999999999
 20
-12.218500000000001
 30
0.0
 70
    32
  0
VERTEX
  5
2D84
  8
CENTRALA
 62
     5
 10
-16.580500000000001
 20
-12.045199999999999
 30
0.0
 70
    32
  0
VERTEX
  5
2D85
  8
CENTRALA
 62
     5
 10
-16.610299999999999
 20
-11.8719
 30
0.0
 70
    32
  0
VERTEX
  5
2D86
  8
CENTRALA
 62
     5
 10
-16.6386
 20
-11.698399999999999
 30
0.0
 70
    32
  0
VERTEX
  5
2D87
  8
CENTRALA
 62
     5
 10
-16.665199999999999
 20
-11.524699999999999
 30
0.0
 70
    32
  0
VERTEX
  5
2D88
  8
CENTRALA
 62
     5
 10
-16.690100000000001
 20
-11.351000000000001
 30
0.0
 70
    32
  0
VERTEX
  5
2D89
  8
CENTRALA
 62
     5
 10
-16.7133
 20
-11.177199999999999
 30
0.0
 70
    32
  0
VERTEX
  5
2D8A
  8
CENTRALA
 62
     5
 10
-16.7346
 20
-11.0032
 30
0.0
 70
    32
  0
VERTEX
  5
2D8B
  8
CENTRALA
 62
     5
 10
-16.754100000000001
 20
-10.8291
 30
0.0
 70
    32
  0
VERTEX
  5
2D8C
  8
CENTRALA
 62
     5
 10
-16.771699999999999
 20
-10.6549
 30
0.0
 70
    32
  0
VERTEX
  5
2D8D
  8
CENTRALA
 62
     5
 10
-16.787199999999999
 20
-10.480499999999999
 30
0.0
 70
    32
  0
VERTEX
  5
2D8E
  8
CENTRALA
 62
     5
 10
-16.800799999999999
 20
-10.305999999999999
 30
0.0
 70
    32
  0
VERTEX
  5
2D8F
  8
CENTRALA
 62
     5
 10
-16.8123
 20
-10.131399999999999
 30
0.0
 70
    32
  0
VERTEX
  5
2D90
  8
CENTRALA
 62
     5
 10
-16.8216
 20
-9.9566199999999991
 30
0.0
 70
    32
  0
VERTEX
  5
2D91
  8
CENTRALA
 62
     5
 10
-16.828800000000001
 20
-9.7816899999999993
 30
0.0
 70
    32
  0
VERTEX
  5
2D92
  8
CENTRALA
 62
     5
 10
-16.8337
 20
-9.6066199999999995
 30
0.0
 70
    32
  0
VERTEX
  5
2D93
  8
CENTRALA
 62
     5
 10
-16.836300000000001
 20
-9.4313800000000008
 30
0.0
 70
    32
  0
VERTEX
  5
2D94
  8
CENTRALA
 62
     5
 10
-16.836600000000001
 20
-9.2559899999999971
 30
0.0
 70
    32
  0
VERTEX
  5
2D95
  8
CENTRALA
 62
     5
 10
-16.834499999999998
 20
-9.0804399999999994
 30
0.0
 70
    32
  0
VERTEX
  5
2D96
  8
CENTRALA
 62
     5
 10
-16.829899999999999
 20
-8.9047199999999975
 30
0.0
 70
    32
  0
VERTEX
  5
2D97
  8
CENTRALA
 62
     5
 10
-16.822800000000001
 20
-8.7288300000000003
 30
0.0
 70
    32
  0
VERTEX
  5
2D98
  8
CENTRALA
 62
     5
 10
-16.813199999999998
 20
-8.552760000000001
 30
0.0
 70
    32
  0
VERTEX
  5
2D99
  8
CENTRALA
 62
     5
 10
-16.800899999999999
 20
-8.3765199999999993
 30
0.0
 70
    32
  0
VERTEX
  5
2D9A
  8
CENTRALA
 62
     5
 10
-16.786000000000001
 20
-8.2001000000000008
 30
0.0
 70
    32
  0
VERTEX
  5
2D9B
  8
CENTRALA
 62
     5
 10
-16.7683
 20
-8.0235000000000003
 30
0.0
 70
    32
  0
VERTEX
  5
2D9C
  8
CENTRALA
 62
     5
 10
-16.747900000000001
 20
-7.8467099999999999
 30
0.0
 70
    32
  0
VERTEX
  5
2D9D
  8
CENTRALA
 62
     5
 10
-16.724599999999999
 20
-7.6697199999999972
 30
0.0
 70
    32
  0
VERTEX
  5
2D9E
  8
CENTRALA
 62
     5
 10
-16.698499999999999
 20
-7.4925399999999991
 30
0.0
 70
    32
  0
VERTEX
  5
2D9F
  8
CENTRALA
 62
     5
 10
-16.6694
 20
-7.3151599999999997
 30
0.0
 70
    32
  0
VERTEX
  5
2DA0
  8
CENTRALA
 62
     5
 10
-16.6373
 20
-7.1375799999999998
 30
0.0
 70
    32
  0
VERTEX
  5
2DA1
  8
CENTRALA
 62
     5
 10
-16.6022
 20
-6.9598000000000004
 30
0.0
 70
    32
  0
VERTEX
  5
2DA2
  8
CENTRALA
 62
     5
 10
-16.5639
 20
-6.7817999999999969
 30
0.0
 70
    32
  0
VERTEX
  5
2DA3
  8
CENTRALA
 62
     5
 10
-16.522600000000001
 20
-6.603589999999997
 30
0.0
 70
    32
  0
VERTEX
  5
2DA4
  8
CENTRALA
 62
     5
 10
-16.478000000000002
 20
-6.4251699999999969
 30
0.0
 70
    32
  0
VERTEX
  5
2DA5
  8
CENTRALA
 62
     5
 10
-16.430099999999999
 20
-6.2465199999999967
 30
0.0
 70
    32
  0
VERTEX
  5
2DA6
  8
CENTRALA
 62
     5
 10
-16.379000000000001
 20
-6.0676600000000001
 30
0.0
 70
    32
  0
VERTEX
  5
2DA7
  8
CENTRALA
 62
     5
 10
-16.3247
 20
-5.888569999999997
 30
0.0
 70
    32
  0
VERTEX
  5
2DA8
  8
CENTRALA
 62
     5
 10
-16.267199999999999
 20
-5.7092900000000002
 30
0.0
 70
    32
  0
VERTEX
  5
2DA9
  8
CENTRALA
 62
     5
 10
-16.206800000000001
 20
-5.5298099999999968
 30
0.0
 70
    32
  0
VERTEX
  5
2DAA
  8
CENTRALA
 62
     5
 10
-16.1434
 20
-5.3501500000000002
 30
0.0
 70
    32
  0
VERTEX
  5
2DAB
  8
CENTRALA
 62
     5
 10
-16.077300000000001
 20
-5.1703199999999976
 30
0.0
 70
    32
  0
VERTEX
  5
2DAC
  8
CENTRALA
 62
     5
 10
-16.008400000000002
 20
-4.9903300000000002
 30
0.0
 70
    32
  0
VERTEX
  5
2DAD
  8
CENTRALA
 62
     5
 10
-15.936999999999999
 20
-4.810179999999999
 30
0.0
 70
    32
  0
VERTEX
  5
2DAE
  8
CENTRALA
 62
     5
 10
-15.863099999999999
 20
-4.6298899999999996
 30
0.0
 70
    32
  0
VERTEX
  5
2DAF
  8
CENTRALA
 62
     5
 10
-15.7867
 20
-4.4494800000000003
 30
0.0
 70
    32
  0
VERTEX
  5
2DB0
  8
CENTRALA
 62
     5
 10
-15.7082
 20
-4.2689399999999971
 30
0.0
 70
    32
  0
VERTEX
  5
2DB1
  8
CENTRALA
 62
     5
 10
-15.6274
 20
-4.0882899999999971
 30
0.0
 70
    32
  0
VERTEX
  5
2DB2
  8
CENTRALA
 62
     5
 10
-15.544600000000001
 20
-3.9075500000000001
 30
0.0
 70
    32
  0
VERTEX
  5
2DB3
  8
CENTRALA
 62
     5
 10
-15.4597
 20
-3.726709999999998
 30
0.0
 70
    32
  0
VERTEX
  5
2DB4
  8
CENTRALA
 62
     5
 10
-15.373100000000001
 20
-3.5457900000000002
 30
0.0
 70
    32
  0
VERTEX
  5
2DB5
  8
CENTRALA
 62
     5
 10
-15.284599999999999
 20
-3.3648099999999981
 30
0.0
 70
    32
  0
VERTEX
  5
2DB6
  8
CENTRALA
 62
     5
 10
-15.1945
 20
-3.1837699999999982
 30
0.0
 70
    32
  0
VERTEX
  5
2DB7
  8
CENTRALA
 62
     5
 10
-15.1029
 20
-3.002679999999998
 30
0.0
 70
    32
  0
VERTEX
  5
2DB8
  8
CENTRALA
 62
     5
 10
-15.0098
 20
-2.8215599999999981
 30
0.0
 70
    32
  0
VERTEX
  5
2DB9
  8
CENTRALA
 62
     5
 10
-14.9153
 20
-2.6404000000000001
 30
0.0
 70
    32
  0
VERTEX
  5
2DBA
  8
CENTRALA
 62
     5
 10
-14.819599999999999
 20
-2.459229999999998
 30
0.0
 70
    32
  0
VERTEX
  5
2DBB
  8
CENTRALA
 62
     5
 10
-14.7227
 20
-2.2780599999999991
 30
0.0
 70
    32
  0
VERTEX
  5
2DBC
  8
CENTRALA
 62
     5
 10
-14.6249
 20
-2.0968900000000001
 30
0.0
 70
    32
  0
VERTEX
  5
2DBD
  8
CENTRALA
 62
     5
 10
-14.526
 20
-1.915729999999999
 30
0.0
 70
    32
  0
VERTEX
  5
2DBE
  8
CENTRALA
 62
     5
 10
-14.426399999999999
 20
-1.734599999999999
 30
0.0
 70
    32
  0
VERTEX
  5
2DBF
  8
CENTRALA
 62
     5
 10
-14.326000000000001
 20
-1.5535099999999991
 30
0.0
 70
    32
  0
VERTEX
  5
2DC0
  8
CENTRALA
 62
     5
 10
-14.225
 20
-1.37246
 30
0.0
 70
    32
  0
VERTEX
  5
2DC1
  8
CENTRALA
 62
     5
 10
-14.1234
 20
-1.1914599999999971
 30
0.0
 70
    32
  0
VERTEX
  5
2DC2
  8
CENTRALA
 62
     5
 10
-14.0215
 20
-1.010529999999999
 30
0.0
 70
    32
  0
VERTEX
  5
2DC3
  8
CENTRALA
 62
     5
 10
-13.9192
 20
-0.8296849999999999
 30
0.0
 70
    32
  0
VERTEX
  5
2DC4
  8
CENTRALA
 62
     5
 10
-13.816700000000001
 20
-0.648922
 30
0.0
 70
    32
  0
VERTEX
  5
2DC5
  8
CENTRALA
 62
     5
 10
-13.7141
 20
-0.468258
 30
0.0
 70
    32
  0
VERTEX
  5
2DC6
  8
CENTRALA
 62
     5
 10
-13.611499999999999
 20
-0.287701
 30
0.0
 70
    32
  0
VERTEX
  5
2DC7
  8
CENTRALA
 62
     5
 10
-13.509
 20
-0.107263
 30
0.0
 70
    32
  0
VERTEX
  5
2DC8
  8
CENTRALA
 62
     5
 10
-13.406700000000001
 20
0.0730463
 30
0.0
 70
    32
  0
VERTEX
  5
2DC9
  8
CENTRALA
 62
     5
 10
-13.304600000000001
 20
0.253216
 30
0.0
 70
    32
  0
VERTEX
  5
2DCA
  8
CENTRALA
 62
     5
 10
-13.202999999999999
 20
0.433236
 30
0.0
 70
    32
  0
VERTEX
  5
2DCB
  8
CENTRALA
 62
     5
 10
-13.102
 20
0.613096
 30
0.0
 70
    32
  0
VERTEX
  5
2DCC
  8
CENTRALA
 62
     5
 10
-13.0015
 20
0.792786
 30
0.0
 70
    32
  0
VERTEX
  5
2DCD
  8
CENTRALA
 62
     5
 10
-12.9017
 20
0.972295
 30
0.0
 70
    32
  0
VERTEX
  5
2DCE
  8
CENTRALA
 62
     5
 10
-12.8028
 20
1.15161
 30
0.0
 70
    32
  0
VERTEX
  5
2DCF
  8
CENTRALA
 62
     5
 10
-12.704800000000001
 20
1.3307299999999971
 30
0.0
 70
    32
  0
VERTEX
  5
2DD0
  8
CENTRALA
 62
     5
 10
-12.607799999999999
 20
1.50963
 30
0.0
 70
    32
  0
VERTEX
  5
2DD1
  8
CENTRALA
 62
     5
 10
-12.511900000000001
 20
1.6883099999999991
 30
0.0
 70
    32
  0
VERTEX
  5
2DD2
  8
CENTRALA
 62
     5
 10
-12.417299999999999
 20
1.8667599999999991
 30
0.0
 70
    32
  0
VERTEX
  5
2DD3
  8
CENTRALA
 62
     5
 10
-12.324
 20
2.0449700000000002
 30
0.0
 70
    32
  0
VERTEX
  5
2DD4
  8
CENTRALA
 62
     5
 10
-12.232200000000001
 20
2.2229199999999998
 30
0.0
 70
    32
  0
VERTEX
  5
2DD5
  8
CENTRALA
 62
     5
 10
-12.1419
 20
2.400609999999999
 30
0.0
 70
    32
  0
VERTEX
  5
2DD6
  8
CENTRALA
 62
     5
 10
-12.0532
 20
2.5780199999999991
 30
0.0
 70
    32
  0
VERTEX
  5
2DD7
  8
CENTRALA
 62
     5
 10
-11.9663
 20
2.7551499999999982
 30
0.0
 70
    32
  0
VERTEX
  5
2DD8
  8
CENTRALA
 62
     5
 10
-11.8812
 20
2.9319899999999999
 30
0.0
 70
    32
  0
VERTEX
  5
2DD9
  8
CENTRALA
 62
     5
 10
-11.7982
 20
3.1085199999999982
 30
0.0
 70
    32
  0
VERTEX
  5
2DDA
  8
CENTRALA
 62
     5
 10
-11.7171
 20
3.2847300000000001
 30
0.0
 70
    32
  0
VERTEX
  5
2DDB
  8
CENTRALA
 62
     5
 10
-11.638299999999999
 20
3.4606199999999978
 30
0.0
 70
    32
  0
VERTEX
  5
2DDC
  8
CENTRALA
 62
     5
 10
-11.5616
 20
3.636169999999999
 30
0.0
 70
    32
  0
VERTEX
  5
2DDD
  8
CENTRALA
 62
     5
 10
-11.487399999999999
 20
3.8113699999999979
 30
0.0
 70
    32
  0
VERTEX
  5
2DDE
  8
CENTRALA
 62
     5
 10
-11.415699999999999
 20
3.986219999999999
 30
0.0
 70
    32
  0
VERTEX
  5
2DDF
  8
CENTRALA
 62
     5
 10
-11.346500000000001
 20
4.1607000000000003
 30
0.0
 70
    32
  0
VERTEX
  5
2DE0
  8
CENTRALA
 62
     5
 10
-11.279999999999999
 20
4.3348000000000004
 30
0.0
 70
    32
  0
VERTEX
  5
2DE1
  8
CENTRALA
 62
     5
 10
-11.2163
 20
4.5085100000000002
 30
0.0
 70
    32
  0
VERTEX
  5
2DE2
  8
CENTRALA
 62
     5
 10
-11.1554
 20
4.6818200000000001
 30
0.0
 70
    32
  0
VERTEX
  5
2DE3
  8
CENTRALA
 62
     5
 10
-11.0976
 20
4.8547299999999991
 30
0.0
 70
    32
  0
VERTEX
  5
2DE4
  8
CENTRALA
 62
     5
 10
-11.042899999999999
 20
5.0272100000000002
 30
0.0
 70
    32
  0
VERTEX
  5
2DE5
  8
CENTRALA
 62
     5
 10
-10.991300000000001
 20
5.1992699999999976
 30
0.0
 70
    32
  0
VERTEX
  5
2DE6
  8
CENTRALA
 62
     5
 10
-10.943099999999999
 20
5.3708799999999997
 30
0.0
 70
    32
  0
VERTEX
  5
2DE7
  8
CENTRALA
 62
     5
 10
-10.898199999999999
 20
5.5420400000000001
 30
0.0
 70
    32
  0
VERTEX
  5
2DE8
  8
CENTRALA
 62
     5
 10
-10.8569
 20
5.7127400000000002
 30
0.0
 70
    32
  0
VERTEX
  5
2DE9
  8
CENTRALA
 62
     5
 10
-10.8192
 20
5.8829699999999967
 30
0.0
 70
    32
  0
VERTEX
  5
2DEA
  8
CENTRALA
 62
     5
 10
-10.7852
 20
6.0527199999999972
 30
0.0
 70
    32
  0
VERTEX
  5
2DEB
  8
CENTRALA
 62
     5
 10
-10.755000000000001
 20
6.2219800000000003
 30
0.0
 70
    32
  0
VERTEX
  5
2DEC
  8
CENTRALA
 62
     5
 10
-10.7287
 20
6.3907299999999996
 30
0.0
 70
    32
  0
VERTEX
  5
2DED
  8
CENTRALA
 62
     5
 10
-10.7065
 20
6.5589699999999969
 30
0.0
 70
    32
  0
VERTEX
  5
2DEE
  8
CENTRALA
 62
     5
 10
-10.6884
 20
6.7266899999999969
 30
0.0
 70
    32
  0
VERTEX
  5
2DEF
  8
CENTRALA
 62
     5
 10
-10.6745
 20
6.8938699999999971
 30
0.0
 70
    32
  0
VERTEX
  5
2DF0
  8
CENTRALA
 62
     5
 10
-10.664899999999999
 20
7.0605099999999998
 30
0.0
 70
    32
  0
VERTEX
  5
2DF1
  8
CENTRALA
 62
     5
 10
-10.659800000000001
 20
7.2266000000000004
 30
0.0
 70
    32
  0
VERTEX
  5
2DF2
  8
CENTRALA
 62
     5
 10
-10.6593
 20
7.3921199999999967
 30
0.0
 70
    32
  0
VERTEX
  5
2DF3
  8
CENTRALA
 62
     5
 10
-10.6633
 20
7.5570599999999999
 30
0.0
 70
    32
  0
VERTEX
  5
2DF4
  8
CENTRALA
 62
     5
 10
-10.6722
 20
7.7214199999999966
 30
0.0
 70
    32
  0
VERTEX
  5
2DF5
  8
CENTRALA
 62
     5
 10
-10.6858
 20
7.8851800000000001
 30
0.0
 70
    32
  0
VERTEX
  5
2DF6
  8
CENTRALA
 62
     5
 10
-10.704499999999999
 20
8.0483399999999996
 30
0.0
 70
    32
  0
VERTEX
  5
2DF7
  8
CENTRALA
 62
     5
 10
-10.7281
 20
8.2108699999999981
 30
0.0
 70
    32
  0
VERTEX
  5
2DF8
  8
CENTRALA
 62
     5
 10
-10.757
 20
8.3727900000000002
 30
0.0
 70
    32
  0
VERTEX
  5
2DF9
  8
CENTRALA
 62
     5
 10
-10.7911
 20
8.5340600000000002
 30
0.0
 70
    32
  0
VERTEX
  5
2DFA
  8
CENTRALA
 62
     5
 10
-10.8306
 20
8.6946799999999982
 30
0.0
 70
    32
  0
VERTEX
  5
2DFB
  8
CENTRALA
 62
     5
 10
-10.875500000000001
 20
8.8546499999999977
 30
0.0
 70
    32
  0
VERTEX
  5
2DFC
  8
CENTRALA
 62
     5
 10
-10.9261
 20
9.0139499999999995
 30
0.0
 70
    32
  0
VERTEX
  5
2DFD
  8
CENTRALA
 62
     5
 10
-10.9823
 20
9.1725700000000003
 30
0.0
 70
    32
  0
VERTEX
  5
2DFE
  8
CENTRALA
 62
     5
 10
-11.0443
 20
9.3305000000000007
 30
0.0
 70
    32
  0
VERTEX
  5
2DFF
  8
CENTRALA
 62
     5
 10
-11.1121
 20
9.4877300000000009
 30
0.0
 70
    32
  0
VERTEX
  5
2E00
  8
CENTRALA
 62
     5
 10
-11.186
 20
9.6442499999999995
 30
0.0
 70
    32
  0
VERTEX
  5
2E01
  8
CENTRALA
 62
     5
 10
-11.266
 20
9.8000500000000006
 30
0.0
 70
    32
  0
VERTEX
  5
2E02
  8
CENTRALA
 62
     5
 10
-11.3521
 20
9.9551099999999995
 30
0.0
 70
    32
  0
VERTEX
  5
2E03
  8
CENTRALA
 62
     5
 10
-11.444599999999999
 20
10.109400000000001
 30
0.0
 70
    32
  0
VERTEX
  5
2E04
  8
CENTRALA
 62
     5
 10
-11.5434
 20
10.263
 30
0.0
 70
    32
  0
VERTEX
  5
2E05
  8
CENTRALA
 62
     5
 10
-11.6488
 20
10.415800000000001
 30
0.0
 70
    32
  0
VERTEX
  5
2E06
  8
CENTRALA
 62
     5
 10
-11.7607
 20
10.5679
 30
0.0
 70
    32
  0
VERTEX
  5
2E07
  8
CENTRALA
 62
     5
 10
-11.8794
 20
10.719099999999999
 30
0.0
 70
    32
  0
VERTEX
  5
2E08
  8
CENTRALA
 62
     5
 10
-12.004799999999999
 20
10.8696
 30
0.0
 70
    32
  0
VERTEX
  5
2E09
  8
CENTRALA
 62
     5
 10
-12.136699999999999
 20
11.019299999999999
 30
0.0
 70
    32
  0
VERTEX
  5
2E0A
  8
CENTRALA
 62
     5
 10
-12.2746
 20
11.168200000000001
 30
0.0
 70
    32
  0
VERTEX
  5
2E0B
  8
CENTRALA
 62
     5
 10
-12.418100000000001
 20
11.3165
 30
0.0
 70
    32
  0
VERTEX
  5
2E0C
  8
CENTRALA
 62
     5
 10
-12.566800000000001
 20
11.464
 30
0.0
 70
    32
  0
VERTEX
  5
2E0D
  8
CENTRALA
 62
     5
 10
-12.7203
 20
11.610799999999999
 30
0.0
 70
    32
  0
VERTEX
  5
2E0E
  8
CENTRALA
 62
     5
 10
-12.8781
 20
11.757
 30
0.0
 70
    32
  0
VERTEX
  5
2E0F
  8
CENTRALA
 62
     5
 10
-13.039899999999999
 20
11.9026
 30
0.0
 70
    32
  0
VERTEX
  5
2E10
  8
CENTRALA
 62
     5
 10
-13.2051
 20
12.047599999999999
 30
0.0
 70
    32
  0
VERTEX
  5
2E11
  8
CENTRALA
 62
     5
 10
-13.3734
 20
12.192
 30
0.0
 70
    32
  0
VERTEX
  5
2E12
  8
CENTRALA
 62
     5
 10
-13.5444
 20
12.335900000000001
 30
0.0
 70
    32
  0
VERTEX
  5
2E13
  8
CENTRALA
 62
     5
 10
-13.717499999999999
 20
12.479200000000001
 30
0.0
 70
    32
  0
VERTEX
  5
2E14
  8
CENTRALA
 62
     5
 10
-13.8925
 20
12.6221
 30
0.0
 70
    32
  0
VERTEX
  5
2E15
  8
CENTRALA
 62
     5
 10
-14.068899999999999
 20
12.7644
 30
0.0
 70
    32
  0
VERTEX
  5
2E16
  8
CENTRALA
 62
     5
 10
-14.2463
 20
12.9064
 30
0.0
 70
    32
  0
VERTEX
  5
2E17
  8
CENTRALA
 62
     5
 10
-14.424200000000001
 20
13.0479
 30
0.0
 70
    32
  0
VERTEX
  5
2E18
  8
CENTRALA
 62
     5
 10
-14.6022
 20
13.1889
 30
0.0
 70
    32
  0
VERTEX
  5
2E19
  8
CENTRALA
 62
     5
 10
-14.7799
 20
13.329700000000001
 30
0.0
 70
    32
  0
VERTEX
  5
2E1A
  8
CENTRALA
 62
     5
 10
-14.956899999999999
 20
13.470000000000001
 30
0.0
 70
    32
  0
VERTEX
  5
2E1B
  8
CENTRALA
 62
     5
 10
-15.1328
 20
13.610099999999999
 30
0.0
 70
    32
  0
VERTEX
  5
2E1C
  8
CENTRALA
 62
     5
 10
-15.307
 20
13.7499
 30
0.0
 70
    32
  0
VERTEX
  5
2E1D
  8
CENTRALA
 62
     5
 10
-15.4793
 20
13.8893
 30
0.0
 70
    32
  0
VERTEX
  5
2E1E
  8
CENTRALA
 62
     5
 10
-15.6492
 20
14.028600000000001
 30
0.0
 70
    32
  0
VERTEX
  5
2E1F
  8
CENTRALA
 62
     5
 10
-15.8163
 20
14.1676
 30
0.0
 70
    32
  0
VERTEX
  5
2E20
  8
CENTRALA
 62
     5
 10
-15.9801
 20
14.3064
 30
0.0
 70
    32
  0
VERTEX
  5
2E21
  8
CENTRALA
 62
     5
 10
-16.1402
 20
14.445
 30
0.0
 70
    32
  0
VERTEX
  5
2E22
  8
CENTRALA
 62
     5
 10
-16.296199999999999
 20
14.583500000000001
 30
0.0
 70
    32
  0
VERTEX
  5
2E23
  8
CENTRALA
 62
     5
 10
-16.447700000000001
 20
14.7218
 30
0.0
 70
    32
  0
VERTEX
  5
2E24
  8
CENTRALA
 62
     5
 10
-16.594200000000001
 20
14.860099999999999
 30
0.0
 70
    32
  0
VERTEX
  5
2E25
  8
CENTRALA
 62
     5
 10
-16.735399999999998
 20
14.9983
 30
0.0
 70
    32
  0
VERTEX
  5
2E26
  8
CENTRALA
 62
     5
 10
-16.870799999999999
 20
15.1364
 30
0.0
 70
    32
  0
VERTEX
  5
2E27
  8
CENTRALA
 62
     5
 10
-17.0
 20
15.2745
 30
0.0
 70
    32
  0
SEQEND
  5
2E28
  8
CENTRALA
 62
     5
  0
CIRCLE
  5
2E29
  8
CENTRALA
 62
     5
 10
0.0
 20
0.0
 30
0.0
 40
8.0
1001
ACDBBLOCKREPETAG
1070
     1
1071
        1
1005
2E29
  0
ENDBLK
  5
2E2A
  8
0
  0
BLOCK
  8
0
  2
*D17
 70
     1
 10
0.0
 20
0.0
 30
0.0
  3
*D17
  1

  0
LINE
  5
3643
  8
WARSTWA_1
 62
     0
 10
-4265.5324205522602
 20
1523.875709942472
 30
0.0
 11
-4151.297787061555
 21
1640.4703039381191
 31
0.0
  0
SOLID
  5
3644
  8
WARSTWA_1
 62
     0
 10
-4267.6753169380509
 20
1525.9752325262421
 30
0.0
 11
-4263.3895241664668
 21
1521.776187358701
 31
0.0
 12
-4278.1295560548824
 22
1511.0183316277239
 32
0.0
 13
-4278.1295560548824
 23
1511.0183316277239
 33
0.0
  0
SOLID
  5
3645
  8
WARSTWA_1
 62
     0
 10
-4153.4406834473484
 20
1642.5698265218889
 30
0.0
 11
-4149.1548906757653
 21
1638.3707813543481
 31
0.0
 12
-4138.7006515589328
 22
1653.3276822528669
 32
0.0
 13
-4138.7006515589328
 23
1653.3276822528669
 33
0.0
  0
TEXT
  8
WARSTWA_1
  40
18
  5
3831
  62
0
  72
0
  71
0
 10
-4220.92
 20
1598.59
 30
0.000000
  1
%%C200
  0
POINT
  5
3647
  8
DEFPOINTS
 62
     0
 10
-4138.7006515589328
 20
1653.3276822528669
 30
0.0
  0
POINT
  5
3648
  8
DEFPOINTS
 62
     0
 10
-4278.1295560548824
 20
1511.0183316277239
 30
0.0
  0
ENDBLK
  5
30A7
  8
0
  0
BLOCK
  8
0
  2
*D18
 70
     1
 10
0.0
 20
0.0
 30
0.0
  3
*D18
  1

  0
LINE
  5
3649
  8
WARSTWA_1
 62
     0
 10
-4243.4180624782766
 20
1259.856153796675
 30
0.0
 11
-4129.1834289875778
 21
1376.450747792326
 31
0.0
  0
SOLID
  5
364A
  8
WARSTWA_1
 62
     0
 10
-4245.5609588640691
 20
1261.955676380446
 30
0.0
 11
-4241.275166092486
 21
1257.7566312129049
 31
0.0
 12
-4256.0151979808998
 22
1246.9987754819269
 32
0.0
 13
-4256.0151979808998
 23
1246.9987754819269
 33
0.0
  0
SOLID
  5
364B
  8
WARSTWA_1
 62
     0
 10
-4131.3263253733694
 20
1378.5502703760969
 30
0.0
 11
-4127.0405326017863
 21
1374.3512252085559
 31
0.0
 12
-4116.5862934849547
 22
1389.308126107074
 32
0.0
 13
-4116.5862934849547
 23
1389.308126107074
 33
0.0
  0
TEXT
  8
WARSTWA_1
  40
18
  5
3832
  62
0
  72
0
  71
0
 10
-4198.80
 20
1334.57
 30
0.000000
  1
%%C200
  0
POINT
  5
364D
  8
DEFPOINTS
 62
     0
 10
-4116.5862934849547
 20
1389.308126107074
 30
0.0
  0
POINT
  5
364E
  8
DEFPOINTS
 62
     0
 10
-4256.0151979808998
 20
1246.9987754819269
 30
0.0
  0
ENDBLK
  5
30B0
  8
0
  0
BLOCK
  8
0
  2
*D19
 70
     1
 10
0.0
 20
0.0
 30
0.0
  3
*D19
  1

  0
LINE
  5
316E
  8
WYMIARY
 62
     0
 10
-6482.971045460039
 20
1727.173006940295
 30
0.0
 11
-6482.971045460039
 21
1789.933839930356
 31
0.0
  0
LINE
  5
316F
  8
WYMIARY
 62
     0
 10
-6203.9710454600399
 20
1779.1730069402961
 30
0.0
 11
-6203.9710454600399
 21
1789.933839930356
 31
0.0
  0
LINE
  5
3170
  8
WYMIARY
 62
     0
 10
-6464.971045460039
 20
1789.7538399303551
 30
0.0
 11
-6221.9710454600399
 21
1789.7538399303551
 31
0.0
  0
SOLID
  5
3171
  8
WYMIARY
 62
     0
 10
-6464.971045460039
 20
1792.7538399303551
 30
0.0
 11
-6464.971045460039
 21
1786.753839930356
 31
0.0
 12
-6482.971045460039
 22
1789.7538399303551
 32
0.0
 13
-6482.971045460039
 23
1789.7538399303551
 33
0.0
  0
SOLID
  5
3172
  8
WYMIARY
 62
     0
 10
-6221.9710454600399
 20
1792.7538399303551
 30
0.0
 11
-6221.9710454600399
 21
1786.753839930356
 31
0.0
 12
-6203.9710454600399
 22
1789.7538399303551
 32
0.0
 13
-6203.9710454600399
 23
1789.7538399303551
 33
0.0
  0
INSERT
  5
3173
  8
0
  2
*U40
 10
0.0
 20
0.0
 30
0.0
  0
POINT
  5
3174
  8
DEFPOINTS
 62
     0
 10
-6482.971045460039
 20
1724.1730069402961
 30
0.0
  0
POINT
  5
3175
  8
DEFPOINTS
 62
     0
 10
-6203.9710454600399
 20
1776.1730069402961
 30
0.0
  0
POINT
  5
3176
  8
DEFPOINTS
 62
     0
 10
-6203.9710454600399
 20
1789.7538399303551
 30
0.0
  0
ENDBLK
  5
3164
  8
0
  0
BLOCK
  8
0
  2
*D20
 70
     1
 10
0.0
 20
0.0
 30
0.0
  3
*D20
  1

  0
LINE
  5
317B
  8
WYMIARY
 62
     0
 10
-6482.971045460039
 20
1727.173006940295
 30
0.0
 11
-6482.971045460039
 21
1828.007576123239
 31
0.0
  0
LINE
  5
317C
  8
WYMIARY
 62
     0
 10
-5975.971045460039
 20
1727.173006940295
 30
0.0
 11
-5975.971045460039
 21
1828.007576123239
 31
0.0
  0
LINE
  5
317D
  8
WYMIARY
 62
     0
 10
-6464.971045460039
 20
1827.8275761232401
 30
0.0
 11
-5993.971045460039
 21
1827.8275761232401
 31
0.0
  0
SOLID
  5
317E
  8
WYMIARY
 62
     0
 10
-6464.971045460039
 20
1830.8275761232401
 30
0.0
 11
-6464.971045460039
 21
1824.8275761232401
 31
0.0
 12
-6482.971045460039
 22
1827.8275761232401
 32
0.0
 13
-6482.971045460039
 23
1827.8275761232401
 33
0.0
  0
SOLID
  5
317F
  8
WYMIARY
 62
     0
 10
-5993.971045460039
 20
1830.8275761232401
 30
0.0
 11
-5993.971045460039
 21
1824.8275761232401
 31
0.0
 12
-5975.971045460039
 22
1827.8275761232401
 32
0.0
 13
-5975.971045460039
 23
1827.8275761232401
 33
0.0
  0
INSERT
  5
3180
  8
0
  2
*U41
 10
0.0
 20
0.0
 30
0.0
  0
POINT
  5
3181
  8
DEFPOINTS
 62
     0
 10
-6482.971045460039
 20
1724.1730069402961
 30
0.0
  0
POINT
  5
3182
  8
DEFPOINTS
 62
     0
 10
-5975.971045460039
 20
1724.1730069402961
 30
0.0
  0
POINT
  5
3183
  8
DEFPOINTS
 62
     0
 10
-5975.971045460039
 20
1827.8275761232401
 30
0.0
  0
ENDBLK
  5
317A
  8
0
  0
BLOCK
  8
0
  2
*D21
 70
     1
 10
0.0
 20
0.0
 30
0.0
  3
*D21
  1

  0
LINE
  5
31B3
  8
WYMIARY
 62
     0
 10
-4885.7252724229056
 20
812.94808599312375
 30
0.0
 11
-4885.7252724229056
 21
838.1575353396762
 31
0.0
  0
LINE
  5
31B4
  8
WYMIARY
 62
     0
 10
-4733.7252724229056
 20
812.94808599312375
 30
0.0
 11
-4733.7252724229056
 21
838.1575353396762
 31
0.0
  0
LINE
  5
31B5
  8
WYMIARY
 62
     0
 10
-4867.7252724229047
 20
837.97753533967625
 30
0.0
 11
-4751.7252724229047
 21
837.97753533967625
 31
0.0
  0
SOLID
  5
31B6
  8
WYMIARY
 62
     0
 10
-4867.7252724229047
 20
840.97753533967625
 30
0.0
 11
-4867.7252724229047
 21
834.97753533967602
 31
0.0
 12
-4885.7252724229056
 22
837.97753533967625
 32
0.0
 13
-4885.7252724229056
 23
837.97753533967625
 33
0.0
  0
SOLID
  5
31B7
  8
WYMIARY
 62
     0
 10
-4751.7252724229047
 20
840.97753533967625
 30
0.0
 11
-4751.7252724229047
 21
834.97753533967602
 31
0.0
 12
-4733.7252724229056
 22
837.97753533967625
 32
0.0
 13
-4733.7252724229056
 23
837.97753533967625
 33
0.0
  0
INSERT
  5
31B8
  8
0
  2
*U42
 10
0.0
 20
0.0
 30
0.0
  0
POINT
  5
31B9
  8
DEFPOINTS
 62
     0
 10
-4885.7252724229056
 20
809.94808599312375
 30
0.0
  0
POINT
  5
31BA
  8
DEFPOINTS
 62
     0
 10
-4733.7252724229056
 20
809.94808599312375
 30
0.0
  0
POINT
  5
31BB
  8
DEFPOINTS
 62
     0
 10
-4733.7252724229056
 20
837.97753533967625
 30
0.0
  0
ENDBLK
  5
31A0
  8
0
  0
BLOCK
  8
0
  2
*D22
 70
     1
 10
0.0
 20
0.0
 30
0.0
  3
*D22
  1

  0
LINE
  5
31D2
  8
WYMIARY
 62
     0
 10
-5521.7252724229047
 20
812.94808599312375
 30
0.0
 11
-5521.7252724229047
 21
839.36364412945602
 31
0.0
  0
LINE
  5
31D3
  8
WYMIARY
 62
     0
 10
-5673.7252724229056
 20
812.94808599312375
 30
0.0
 11
-5673.7252724229056
 21
839.36364412945602
 31
0.0
  0
LINE
  5
31D4
  8
WYMIARY
 62
     0
 10
-5539.7252724229074
 20
839.18364412945607
 30
0.0
 11
-5655.7252724229047
 21
839.18364412945607
 31
0.0
  0
SOLID
  5
31D5
  8
WYMIARY
 62
     0
 10
-5539.7252724229074
 20
842.18364412945618
 30
0.0
 11
-5539.7252724229074
 21
836.18364412945618
 31
0.0
 12
-5521.7252724229047
 22
839.18364412945607
 32
0.0
 13
-5521.7252724229047
 23
839.18364412945607
 33
0.0
  0
SOLID
  5
31D6
  8
WYMIARY
 62
     0
 10
-5655.7252724229047
 20
842.18364412945618
 30
0.0
 11
-5655.7252724229047
 21
836.18364412945618
 31
0.0
 12
-5673.7252724229056
 22
839.18364412945607
 32
0.0
 13
-5673.7252724229056
 23
839.18364412945607
 33
0.0
  0
INSERT
  5
31D7
  8
0
  2
*U43
 10
0.0
 20
0.0
 30
0.0
  0
POINT
  5
31D8
  8
DEFPOINTS
 62
     0
 10
-5521.7252724229047
 20
809.94808599312375
 30
0.0
  0
POINT
  5
31D9
  8
DEFPOINTS
 62
     0
 10
-5673.7252724229056
 20
809.94808599312375
 30
0.0
  0
POINT
  5
31DA
  8
DEFPOINTS
 62
     0
 10
-5673.7252724229056
 20
839.18364412945607
 30
0.0
  0
ENDBLK
  5
31BF
  8
0
  0
BLOCK
  8
0
  2
*U23
 70
     1
 10
0.0
 20
0.0
 30
0.0
  3
*U23
  1

  0
TEXT
  5
3543
  8
WARSTWA_1
 10
-5327.4805729704112
 20
1893.486952943317
 30
0.0
 40
20.0
  1
Rzut od przodu
  0
ENDBLK
  5
3545
  8
0
  0
BLOCK
  8
0
  2
*U24
 70
     1
 10
0.0
 20
0.0
 30
0.0
  3
*U24
  1

  0
TEXT
  5
3547
  8
WARSTWA_1
 10
-5323.2819174853103
 20
946.41971702955016
 30
0.0
 40
20.0
  1
Rzut od 
  0
TEXT
  5
3548
  8
WARSTWA_1
 10
-5183.2819174853103
 20
946.41971702955016
 30
0.0
 40
20.0
  1
góry
  0
ENDBLK
  5
354A
  8
0
  0
BLOCK
  8
0
  2
*U25
 70
     1
 10
0.0
 20
0.0
 30
0.0
  3
*U25
  1

  0
TEXT
  5
354C
  8
WARSTWA_1
 10
-6386.1188683463133
 20
1893.486952943317
 30
0.0
 40
20.0
  1
Rzut od 
  0
TEXT
  5
354D
  8
WARSTWA_1
 10
-6246.1188683463142
 20
1893.486952943317
 30
0.0
 40
20.0
  1
lewej strony
  0
ENDBLK
  5
354F
  8
0
  0
BLOCK
  8
0
  2
*U26
 70
     1
 10
0.0
 20
0.0
 30
0.0
  3
*U26
  1

  0
TEXT
  5
3551
  8
WARSTWA_1
 10
-4369.874189422324
 20
1893.486952943317
 30
0.0
 40
20.0
  1
Rzut od
  0
TEXT
  5
3552
  8
WARSTWA_1
 10
-4247.9694275175634
 20
1893.486952943317
 30
0.0
 40
20.0
  1
 prawej strony
  0
ENDBLK
  5
3554
  8
0
  0
BLOCK
  8
0
  2
*U27
 70
     1
 10
0.0
 20
0.0
 30
0.0
  3
*U27
  1

  0
TEXT
  5
3556
  8
WARSTWA_1
 10
-4410.1000817766871
 20
836.13500992386469
 30
0.0
 40
30.0
  1
MISTRAL PRO-450 EC
  0
ENDBLK
  5
3558
  8
0
  0
BLOCK
  8
0
  2
*U28
 70
     1
 10
0.0
 20
0.0
 30
0.0
  3
*U28
  1

  0
TEXT
  5
355A
  8
WARSTWA_1
 10
-5656.3850958410703
 20
903.61240262547551
 30
0.0
 40
20.0
  1
odpływ skroplin
  0
ENDBLK
  5
355C
  8
0
  0
BLOCK
  8
0
  2
*U29
 70
     1
 10
0.0
 20
0.0
 30
0.0
  3
*U29
  1

  0
TEXT
  5
356A
  8
WARSTWA_1
 10
-4296.4693519663206
 20
691.87698044058379
 30
0.0
 40
30.0
  1
Możliwe jest
  0
TEXT
  5
356B
  8
WARSTWA_1
 10
-4407.9013519663204
 20
641.87698044058379
 30
0.0
 40
30.0
  1
wykorzystanie również
  0
TEXT
  5
356C
  8
WARSTWA_1
 10
-4390.7583519663203
 20
591.87698044058379
 30
0.0
 40
30.0
  1
otworów pod króćce
  0
TEXT
  5
356D
  8
WARSTWA_1
 10
-4376.4733519663196
 20
541.87698044058379
 30
0.0
 40
30.0
  1
oznaczone kolorem
  0
TEXT
  5
356E
  8
WARSTWA_1
 10
-4421.4733519663196
 20
491.87698044058379
 30
0.0
 40
30.0
  1
czerwonym. Dodatkowe
  0
TEXT
  5
356F
  8
WARSTWA_1
 10
-4425.7583519663212
 20
441.87698044058379
 30
0.0
 40
30.0
  1
króćce instalator może
  0
TEXT
  5
3570
  8
WARSTWA_1
 10
-4447.9013519663204
 20
391.87698044058379
 30
0.0
 40
30.0
  1
zamontować w dowolnym
  0
TEXT
  5
3571
  8
WARSTWA_1
 10
-4277.8993519663209
 20
341.87698044058379
 30
0.0
 40
30.0
  1
momencie.
  0
ENDBLK
  5
3573
  8
0
  0
BLOCK
  8
0
  2
*U30
 70
     1
 10
0.0
 20
0.0
 30
0.0
  3
*U30
  1

  0
LINE
  5
35C0
  8
CENTRALA
  6
CONTINUOUS
 10
-5673.7252724229056
 20
1184.173006940295
 30
0.0
 11
-4733.7252724229056
 21
1184.173006940295
 31
0.0
  0
LINE
  5
35C1
  8
CENTRALA
  6
CONTINUOUS
 10
-4733.7252724229056
 20
1184.173006940295
 30
0.0
 11
-4733.7252724229056
 21
1724.1730069402961
 31
0.0
  0
LINE
  5
35C2
  8
CENTRALA
  6
CONTINUOUS
 10
-5673.7252724229056
 20
1724.1730069402961
 30
0.0
 11
-5673.7252724229056
 21
1184.173006940295
 31
0.0
  0
LINE
  5
35C3
  8
CENTRALA
  6
CONTINUOUS
 10
-4733.7252724229056
 20
1724.1730069402961
 30
0.0
 11
-5673.7252724229056
 21
1724.1730069402961
 31
0.0
  0
ENDBLK
  5
35C5
  8
0
  0
BLOCK
  8
0
  2
*U31
 70
     1
 10
0.0
 20
0.0
 30
0.0
  3
*U31
  1

  0
TEXT
  5
3638
  8
WARSTWA_1
 10
-5544.7461787735429
 20
1071.8420948917089
 30
0.0
 40
20.0
  1
odpływ skroplin
  0
ENDBLK
  5
363A
  8
0
  0
BLOCK
  8
0
  2
*U32
 70
     1
 10
0.0
 20
0.0
 30
0.0
  3
*U32
  1

  0
TEXT
  5
363C
  8
WYMIARY
 62
     0
 10
-5226.2252724229047
 20
1820.0641125101829
 30
0.0
 40
18.0
  1
940
  0
ENDBLK
  5
363E
  8
0
  0
BLOCK
  8
0
  2
*U33
 70
     1
 10
0.0
 20
0.0
 30
0.0
  3
*U33
  1

  0
TEXT
  5
3640
  8
WYMIARY
 62
     0
 10
-5761.1281950969169
 20
1431.673006940294
 30
0.0
 40
18.0
  1
540
 50
90.0
  0
ENDBLK
  5
3642
  8
0
  0
BLOCK
  8
0
  2
*U34
 70
     1
 10
0.0
 20
0.0
 30
0.0
  3
*U34
  1

  0
TEXT
  5
3650
  8
WYMIARY
 62
     0
 10
-3907.0295709204852
 20
1632.173006940295
 30
0.0
 40
18.0
  1
142
 50
90.0
  0
ENDBLK
  5
3652
  8
0
  0
BLOCK
  8
0
  2
*U35
 70
     1
 10
0.0
 20
0.0
 30
0.0
  3
*U35
  1

  0
TEXT
  5
3654
  8
WYMIARY
 62
     0
 10
-3907.0295709204852
 20
1230.1048685750841
 30
0.0
 40
18.0
  1
134
 50
90.0
  0
ENDBLK
  5
3656
  8
0
  0
BLOCK
  8
0
  2
*U36
 70
     1
 10
0.0
 20
0.0
 30
0.0
  3
*U36
  1

  0
TEXT
  5
3658
  8
WYMIARY
 62
     0
 10
-4081.9151038069058
 20
1128.629901391281
 30
0.0
 40
18.0
  1
257
  0
ENDBLK
  5
365A
  8
0
  0
BLOCK
  8
0
  2
*U37
 70
     1
 10
0.0
 20
0.0
 30
0.0
  3
*U37
  1

  0
TEXT
  5
365C
  8
WYMIARY
 62
     0
 10
-6521.3565783464628
 20
1230.1632288673979
 30
0.0
 40
18.0
  1
134
 50
90.0
  0
ENDBLK
  5
365E
  8
0
  0
BLOCK
  8
0
  2
*U38
 70
     1
 10
0.0
 20
0.0
 30
0.0
  3
*U38
  1

  0
TEXT
  5
3660
  8
WYMIARY
 62
     0
 10
-6378.471045460039
 20
1125.90329695848
 30
0.0
 40
18.0
  1
257
  0
ENDBLK
  5
3662
  8
0
  0
BLOCK
  8
0
  2
*U39
 70
     1
 10
0.0
 20
0.0
 30
0.0
  3
*U39
  1

  0
TEXT
  5
3664
  8
WYMIARY
 62
     0
 10
-6521.3565783464628
 20
1632.173006940295
 30
0.0
 40
18.0
  1
142
 50
90.0
  0
ENDBLK
  5
3666
  8
0
  0
BLOCK
  8
0
  2
*U40
 70
     1
 10
0.0
 20
0.0
 30
0.0
  3
*U40
  1

  0
TEXT
  5
3668
  8
WYMIARY
 62
     0
 10
-6367.471045460039
 20
1797.753839930356
 30
0.0
 40
18.0
  1
279
  0
ENDBLK
  5
366A
  8
0
  0
BLOCK
  8
0
  2
*U41
 70
     1
 10
0.0
 20
0.0
 30
0.0
  3
*U41
  1

  0
TEXT
  5
366C
  8
WYMIARY
 62
     0
 10
-6251.971045460039
 20
1835.8275761232401
 30
0.0
 40
18.0
  1
507
  0
ENDBLK
  5
366E
  8
0
  0
BLOCK
  8
0
  2
*U42
 70
     1
 10
0.0
 20
0.0
 30
0.0
  3
*U42
  1

  0
TEXT
  5
3670
  8
WYMIARY
 62
     0
 10
-4830.7252724229056
 20
845.97753533967625
 30
0.0
 40
18.0
  1
152
  0
ENDBLK
  5
3672
  8
0
  0
BLOCK
  8
0
  2
*U43
 70
     1
 10
0.0
 20
0.0
 30
0.0
  3
*U43
  1

  0
TEXT
  5
3674
  8
WYMIARY
 62
     0
 10
-5618.7252724229056
 20
847.18364412945607
 30
0.0
 40
18.0
  1
152
  0
ENDBLK
  5
3676
  8
0
  0
BLOCK
  8
0
  2
*U44
 70
     1
 10
0.0
 20
0.0
 30
0.0
  3
*U44
  1

  0
TEXT
  5
3678
  8
WYMIARY
 62
     0
 10
-4208.9151038069067
 20
1846.288326436407
 30
0.0
 40
18.0
  1
507
  0
ENDBLK
  5
367A
  8
0
  0
BLOCK
  8
0
  2
*U45
 70
     1
 10
0.0
 20
0.0
 30
0.0
  3
*U45
  1

  0
TEXT
  5
367C
  8
WYMIARY
 62
     0
 10
-4092.9151038069058
 20
1798.8954786124989
 30
0.0
 40
18.0
  1
279
  0
ENDBLK
  5
367E
  8
0
  0
ENDSEC
  0
SECTION
  2
ENTITIES
  0
LINE
  5
2287
  8
WARSTWA_1
 10
-5837.6497266491951
 20
1963.2863367357161
 30
0.0
 11
-5837.6497266491951
 21
193.61431550413471
 31
0.0
  0
LINE
  5
2288
  8
WARSTWA_1
 10
-6633.9137675321208
 20
193.61431550413471
 30
0.0
 11
-5206.1930746334729
 21
193.61431550413471
 31
0.0
  0
POLYLINE
  5
2289
  8
WARSTWA_1
 66
     1
 10
0.0
 20
0.0
 30
0.0
  0
VERTEX
  5
3539
  8
WARSTWA_1
 10
-6050.8016545637556
 20
1963.2863367357161
 30
0.0
  0
VERTEX
  5
353A
  8
WARSTWA_1
 10
-4361.5844947031901
 20
1963.2863367357161
 30
0.0
  0
SEQEND
  5
353B
  8
WARSTWA_1
  0
LINE
  5
228A
  8
WARSTWA_1
 10
-4568.2772815718399
 20
1963.2863367357161
 30
0.0
 11
-4568.2772815718399
 21
193.61431550413471
 31
0.0
  0
LINE
  5
228B
  8
WARSTWA_1
 10
-4361.5844947031901
 20
193.61431550413471
 30
0.0
 11
-5206.1930746334729
 21
193.61431550413471
 31
0.0
  0
POLYLINE
  5
228C
  8
WARSTWA_1
 66
     1
 10
0.0
 20
0.0
 30
0.0
  0
VERTEX
  5
353C
  8
WARSTWA_1
 10
-6050.8016545637556
 20
1963.2863367357161
 30
0.0
  0
VERTEX
  5
353D
  8
WARSTWA_1
 10
-6633.9137675321208
 20
1963.2863367357161
 30
0.0
  0
SEQEND
  5
353E
  8
WARSTWA_1
  0
POLYLINE
  5
228E
  8
WARSTWA_1
 66
     1
 10
0.0
 20
0.0
 30
0.0
  0
VERTEX
  5
353F
  8
WARSTWA_1
 10
-3778.472381734824
 20
1003.8581738366501
 30
0.0
  0
VERTEX
  5
3540
  8
WARSTWA_1
 10
-6633.9137675321208
 20
1003.8581738366501
 30
0.0
  0
SEQEND
  5
3541
  8
WARSTWA_1
  0
LINE
  5
228F
  8
WARSTWA_1
 10
-4529.5223767107691
 20
1963.2863367357161
 30
0.0
 11
-3778.472381734824
 21
1963.2863367357161
 31
0.0
  0
LINE
  5
2290
  8
WARSTWA_1
 10
-3778.472381734824
 20
1963.2863367357161
 30
0.0
 11
-3778.472381734824
 21
193.61431550413471
 31
0.0
  0
LINE
  5
2291
  8
WARSTWA_1
 10
-3778.472381734824
 20
193.61431550413471
 30
0.0
 11
-4529.5223767107691
 21
193.61431550413471
 31
0.0
  0
LINE
  5
2292
  8
WARSTWA_1
 10
-6633.9137675321208
 20
1963.2863367357161
 30
0.0
 11
-6633.9137675321208
 21
193.61431550413471
 31
0.0
  0
INSERT
  5
2293
  8
0
  2
*U23
 10
0.0
 20
0.0
 30
0.0
  0
INSERT
  5
2294
  8
0
  2
*U24
 10
0.0
 20
0.0
 30
0.0
  0
INSERT
  5
2295
  8
0
  2
*U25
 10
0.0
 20
0.0
 30
0.0
  0
INSERT
  5
2296
  8
0
  2
*U26
 10
0.0
 20
0.0
 30
0.0
  0
INSERT
  5
2297
  8
0
  2
*U27
 10
0.0
 20
0.0
 30
0.0
  0
DIMENSION
  5
2298
  8
WYMIARY
  6
CONTINUOUS
  2
*D0
 10
-4733.7252724229056
 20
1812.0641125101829
 30
0.0
 11
-5203.7252724229047
 21
1829.0641125101829
 31
0.0
 70
     0
 13
-5673.7252724229056
 23
1724.1730069402961
 33
0.0
 14
-4733.7252724229056
 24
1724.1730069402961
 34
0.0
  0
DIMENSION
  5
2299
  8
WYMIARY
  6
CONTINUOUS
  2
*D1
 10
-5753.1281950969151
 20
1184.173006940295
 30
0.0
 11
-5770.128195096916
 21
1454.173006940294
 31
0.0
 70
     0
 13
-5673.7252724229056
 23
1724.1730069402961
 33
0.0
 14
-5673.7252724229056
 24
1184.173006940295
 34
0.0
 50
90.0
  0
INSERT
  5
229C
  8
0
  2
*U28
 10
0.0
 20
0.0
 30
0.0
  0
LINE
  5
229D
  8
WARSTWA_1
  6
CONTINUOUS
 10
-5676.6623175690311
 20
896.67811316883194
 30
0.0
 11
-5422.491928302924
 21
896.67811316883069
 31
0.0
  0
DIMENSION
  5
229F
  8
WYMIARY
  6
CONTINUOUS
  2
*D2
 10
-6513.3565783464628
 20
1582.173006940295
 30
0.0
 11
-6530.3565783464628
 21
1653.173006940295
 31
0.0
 70
     0
 13
-6469.971045460039
 23
1724.1730069402961
 33
0.0
 14
-6482.971045460039
 24
1582.173006940295
 34
0.0
 50
90.0
  0
DIMENSION
  5
22A0
  8
WYMIARY
  6
CONTINUOUS
  2
*D3
 10
-6513.3565783464628
 20
1318.1534507945021
 30
0.0
 11
-6530.3565783464628
 21
1251.1632288673979
 31
0.0
 70
     0
 13
-6482.971045460039
 23
1184.173006940295
 33
0.0
 14
-6482.971045460039
 24
1318.1534507945021
 34
0.0
 50
90.0
  0
DIMENSION
  5
22A1
  8
WYMIARY
  6
CONTINUOUS
  2
*D4
 10
-6225.971045460039
 20
1117.90329695848
 30
0.0
 11
-6354.471045460039
 21
1134.90329695848
 31
0.0
 70
     0
 13
-6482.971045460039
 23
1184.173006940295
 33
0.0
 14
-6225.971045460039
 24
1184.173006940295
 34
0.0
  0
DIMENSION
  5
22A7
  8
WARSTWA_1
  2
*D5
 10
-6273.685497708012
 20
1511.1083316277211
 30
0.0
 11
-6168.3313650662949
 21
1618.638963501505
 31
0.0
 70
   131
  1
%%C200
 15
-6134.2565932120642
 25
1653.4176822528691
 35
0.0
 40
0.0
1001
ACAD_DSTYLE_DIMRADIAL_EXTENSION
1070
   387
1070
     1
1070
   388
1040
0.0
1070
   390
1040
0.0
1001
ACAD
1000
DSTYLE
1002
{
1070
   287
1070
     0
1070
   279
1070
     0
1070
   288
1070
     1
1002
}
  0
DIMENSION
  5
22A8
  8
WARSTWA_1
  2
*D6
 10
-6295.6854977080211
 20
1246.9987754819281
 30
0.0
 11
-6190.3313650662994
 21
1354.529407355712
 31
0.0
 70
   131
  1
%%C200
 15
-6156.2565932120697
 25
1389.308126107074
 35
0.0
 40
0.0
1001
ACAD_DSTYLE_DIMRADIAL_EXTENSION
1070
   387
1070
     1
1070
   388
1040
0.0
1070
   390
1040
0.0
1001
ACAD
1000
DSTYLE
1002
{
1070
   287
1070
     0
1070
   279
1070
     0
1070
   288
1070
     1
1002
}
  0
LINE
  5
22AA
  8
WARSTWA_1
  6
CONTINUOUS
 10
-5203.7252724229047
 20
758.94808599312387
 30
0.0
 11
-5422.491928302924
 21
896.67811316883069
 31
0.0
  0
DIMENSION
  5
22AC
  8
WYMIARY
  6
CONTINUOUS
  2
*D7
 10
-4436.4151038069067
 20
1828.007576123239
 30
0.0
 11
-4186.4151038069067
 21
1855.288326436407
 31
0.0
 70
   128
 13
-3929.4151038069072
 23
1724.1730069402961
 33
0.0
 14
-4436.4151038069067
 24
1724.1730069402961
 34
0.0
 50
180.0
  0
DIMENSION
  5
22AD
  8
WYMIARY
  6
CONTINUOUS
  2
*D8
 10
-3899.0295709204838
 20
1582.173006940295
 30
0.0
 11
-3916.0295709204852
 21
1653.173006940295
 31
0.0
 70
     0
 13
-3929.4151038069072
 23
1724.1730069402961
 33
0.0
 14
-3929.4151038069058
 24
1582.173006940295
 34
0.0
 50
90.0
  0
DIMENSION
  5
22AE
  8
WYMIARY
  6
CONTINUOUS
  2
*D9
 10
-3899.0295709204838
 20
1318.0367302098739
 30
0.0
 11
-3916.0295709204852
 21
1251.1048685750841
 31
0.0
 70
     0
 13
-3929.4151038069072
 23
1184.173006940295
 33
0.0
 14
-3929.4151038069072
 24
1318.0367302098739
 34
0.0
 50
90.0
  0
DIMENSION
  5
22AF
  8
WYMIARY
  6
CONTINUOUS
  2
*D10
 10
-4186.4151038069067
 20
1120.629901391281
 30
0.0
 11
-4057.9151038069072
 21
1137.629901391281
 31
0.0
 70
     0
 13
-3929.4151038069072
 23
1184.173006940295
 33
0.0
 14
-4186.4151038069067
 24
1184.173006940295
 34
0.0
 50
180.0
  0
DIMENSION
  5
22B2
  8
WYMIARY
  2
*D11
 10
-3929.4151038069072
 20
1790.8954786124989
 30
0.0
 11
-4068.9151038069058
 21
1807.8954786124989
 31
0.0
 70
     0
 13
-4208.4151038069049
 23
1776.1730069402961
 33
0.0
 14
-3929.4151038069072
 24
1724.1730069402961
 34
0.0
 50
180.0
  0
INSERT
  5
22B3
  8
0
  2
*U29
 10
0.0
 20
0.0
 30
0.0
  0
LINE
  5
2A72
  8
0
 62
     4
 39
5.0
 10
-4263.4151038069049
 20
1806.494793194054
 30
0.0
 11
-4263.4151038069049
 21
1806.494793194054
 31
0.0
1001
ACDBBLOCKREPETAG
1070
     1
1071
        4
1005
2A72
  0
LINE
  5
2A73
  8
0
 62
     4
 39
5.0
 10
-4259.4151038069049
 20
1802.494793194054
 30
0.0
 11
-4259.4151038069049
 21
1802.494793194054
 31
0.0
1001
ACDBBLOCKREPETAG
1070
     1
1071
        5
1005
2A73
  0
LINE
  5
2A74
  8
0
 62
     4
 39
5.0
 10
-4267.4151038069049
 20
1802.494793194054
 30
0.0
 11
-4267.4151038069049
 21
1802.494793194054
 31
0.0
1001
ACDBBLOCKREPETAG
1070
     1
1071
        6
1005
2A74
  0
LINE
  5
2A75
  8
0
 62
     4
 39
5.0
 10
-4153.4151038069058
 20
1806.494793194054
 30
0.0
 11
-4153.4151038069058
 21
1806.494793194054
 31
0.0
1001
ACDBBLOCKREPETAG
1070
     1
1071
        7
1005
2A75
  0
LINE
  5
2A76
  8
0
 62
     4
 39
5.0
 10
-4149.415103806904
 20
1802.494793194054
 30
0.0
 11
-4149.415103806904
 21
1802.494793194054
 31
0.0
1001
ACDBBLOCKREPETAG
1070
     1
1071
        8
1005
2A76
  0
LINE
  5
2A77
  8
0
 62
     4
 39
5.0
 10
-4153.4151038069058
 20
1798.494793194054
 30
0.0
 11
-4153.4151038069058
 21
1798.494793194054
 31
0.0
1001
ACDBBLOCKREPETAG
1070
     1
1071
        9
1005
2A77
  0
LINE
  5
2A78
  8
0
 62
     4
 39
5.0
 10
-4157.4151038069058
 20
1802.494793194054
 30
0.0
 11
-4157.4151038069058
 21
1802.494793194054
 31
0.0
1001
ACDBBLOCKREPETAG
1070
     1
1071
       10
1005
2A78
  0
LINE
  5
2A79
  8
0
 39
5.0
 10
-4208.4151038069049
 20
1658.494693194054
 30
0.0
 11
-4208.4151038069049
 21
1658.494693194054
 31
0.0
1001
ACDBBLOCKREPETAG
1070
     1
1071
       11
1005
2A79
  0
LINE
  5
2A7A
  8
0
 62
     4
 39
5.0
 10
-4153.4151038069058
 20
1669.494793194054
 30
0.0
 11
-4153.4151038069058
 21
1669.494793194054
 31
0.0
1001
ACDBBLOCKREPETAG
1070
     1
1071
       12
1005
2A7A
  0
LINE
  5
2A7B
  8
0
 62
     4
 39
5.0
 10
-4149.415103806904
 20
1665.494793194054
 30
0.0
 11
-4149.415103806904
 21
1665.494793194054
 31
0.0
1001
ACDBBLOCKREPETAG
1070
     1
1071
       13
1005
2A7B
  0
LINE
  5
2A7C
  8
0
 62
     4
 39
5.0
 10
-4153.4151038069058
 20
1661.494793194054
 30
0.0
 11
-4153.4151038069058
 21
1661.494793194054
 31
0.0
1001
ACDBBLOCKREPETAG
1070
     1
1071
       14
1005
2A7C
  0
LINE
  5
2A7D
  8
0
 62
     4
 39
5.0
 10
-4263.4151038069049
 20
1669.494793194054
 30
0.0
 11
-4263.4151038069049
 21
1669.494793194054
 31
0.0
1001
ACDBBLOCKREPETAG
1070
     1
1071
       15
1005
2A7D
  0
LINE
  5
2A7E
  8
0
 62
     4
 39
5.0
 10
-4259.4151038069049
 20
1665.494793194054
 30
0.0
 11
-4259.4151038069049
 21
1665.494793194054
 31
0.0
1001
ACDBBLOCKREPETAG
1070
     1
1071
       16
1005
2A7E
  0
LINE
  5
2A7F
  8
0
 62
     4
 39
5.0
 10
-4263.4151038069049
 20
1661.494793194054
 30
0.0
 11
-4263.4151038069049
 21
1661.494793194054
 31
0.0
1001
ACDBBLOCKREPETAG
1070
     1
1071
       17
1005
2A7F
  0
LINE
  5
2A80
  8
0
  6
CONTINUOUS
 10
-4436.4151038069067
 20
1184.173006940295
 30
0.0
 11
-4436.4151038069067
 21
1724.1730069402961
 31
0.0
1001
ACDBBLOCKREPETAG
1070
     1
1071
       18
1005
2A80
  0
LINE
  5
2A81
  8
0
  6
CONTINUOUS
 10
-4436.4151038069067
 20
1724.1730069402961
 30
0.0
 11
-3929.4151038069072
 21
1724.1730069402961
 31
0.0
1001
ACDBBLOCKREPETAG
1070
     1
1071
       19
1005
2A81
  0
LINE
  5
2A82
  8
0
  6
CONTINUOUS
 10
-3929.4151038069072
 20
1184.173006940295
 30
0.0
 11
-4436.4151038069067
 21
1184.173006940295
 31
0.0
1001
ACDBBLOCKREPETAG
1070
     1
1071
       20
1005
2A82
  0
LINE
  5
2A83
  8
0
  6
CONTINUOUS
 10
-3929.4151038069072
 20
1724.1730069402961
 30
0.0
 11
-3929.4151038069072
 21
1184.173006940295
 31
0.0
1001
ACDBBLOCKREPETAG
1070
     1
1071
       21
1005
2A83
  0
LINE
  5
2A84
  8
OSIE
 10
-4208.4151038069049
 20
1471.969276534237
 30
0.0
 11
-4208.4151038069049
 21
1692.376737346354
 31
0.0
1001
ACDBBLOCKREPETAG
1070
     1
1071
       27
1005
2A84
  0
LINE
  5
2A85
  8
OSIE
 10
-4098.2113734008481
 20
1582.173006940295
 30
0.0
 11
-4318.6188342129653
 21
1582.173006940295
 31
0.0
1001
ACDBBLOCKREPETAG
1070
     1
1071
       28
1005
2A85
  0
LINE
  5
2A86
  8
OSIE
 10
-4186.4151038069067
 20
1207.832999803815
 30
0.0
 11
-4186.4151038069067
 21
1428.2404606159309
 31
0.0
1001
ACDBBLOCKREPETAG
1070
     1
1071
       29
1005
2A86
  0
LINE
  5
2A87
  8
OSIE
 10
-4076.2113734008472
 20
1318.0367302098739
 30
0.0
 11
-4296.6188342129626
 21
1318.0367302098739
 31
0.0
1001
ACDBBLOCKREPETAG
1070
     1
1071
       30
1005
2A87
  0
LINE
  5
2A88
  8
0
  6
CONTINUOUS
 62
     1
 10
-4308.4180017115696
 20
1736.1730069402961
 30
0.0
 11
-4308.4180017115696
 21
1776.1730069402961
 31
0.0
1001
ACDBBLOCKREPETAG
1070
     1
1071
       31
1005
2A88
  0
LINE
  5
2A89
  8
0
  6
CONTINUOUS
 62
     1
 10
-4308.4180017115696
 20
1776.1730069402961
 30
0.0
 11
-4108.412205902242
 21
1776.1730069402961
 31
0.0
1001
ACDBBLOCKREPETAG
1070
     1
1071
       32
1005
2A89
  0
LINE
  5
2A8A
  8
0
  6
CONTINUOUS
 62
     1
 10
-4108.412205902242
 20
1776.1730069402961
 30
0.0
 11
-4108.412205902242
 21
1736.1730069402961
 31
0.0
1001
ACDBBLOCKREPETAG
1070
     1
1071
       33
1005
2A8A
  0
LINE
  5
2A8B
  8
OSIE
  6
DASHDOT
 10
-4208.4151038069049
 20
1798.0774806353311
 30
0.0
 11
-4208.4151038069049
 21
1687.533812311895
 31
0.0
1001
ACDBBLOCKREPETAG
1070
     1
1071
       34
1005
2A8B
  0
INSERT
  5
2A8C
  8
0
 62
     1
  2
A$C5F6C7F99
 10
-4208.3151038069109
 20
1582.173006940295
 30
0.0
1001
ACDBBLOCKREPETAG
1070
     1
1071
       36
1005
2A8C
  0
INSERT
  5
2A8D
  8
0
  2
NÓŻKA_53
 10
10935.24478124338
 20
-27.016022393051571
 30
0.0
 43
-1.0
210
0.0
220
0.0
230
-1.0
1001
ACDBBLOCKREPETAG
1070
     1
1071
       37
1005
2A8D
  0
INSERT
  5
2A8E
  8
0
  2
NÓŻKA_53
 10
11342.24478124338
 20
-27.016022393051571
 30
0.0
 43
-1.0
210
0.0
220
0.0
230
-1.0
1001
ACDBBLOCKREPETAG
1070
     1
1071
       38
1005
2A8E
  0
POLYLINE
  5
2A8F
  8
0
 62
     5
 66
     1
 10
0.0
 20
0.0
 30
0.0
 70
     1
1001
ACDBBLOCKREPETAG
1070
     1
1071
       39
1005
2A8F
  0
VERTEX
  5
35A1
  8
0
 62
     5
 10
-4436.4151038069067
 20
1651.1730069402961
 30
0.0
  0
VERTEX
  5
35A2
  8
0
 62
     5
 10
-4461.415103806904
 20
1651.1730069402961
 30
0.0
  0
VERTEX
  5
35A3
  8
0
 62
     5
 10
-4461.415103806904
 20
1201.173006940295
 30
0.0
  0
VERTEX
  5
35A4
  8
0
 62
     5
 10
-4436.4151038069067
 20
1201.173006940295
 30
0.0
  0
SEQEND
  5
35A5
  8
0
 62
     5
  0
POLYLINE
  5
2A90
  8
0
 66
     1
 10
0.0
 20
0.0
 30
0.0
 70
     1
1001
ACDBBLOCKREPETAG
1070
     1
1071
       40
1005
2A90
  0
VERTEX
  5
35A6
  8
0
 10
-4065.9151038069058
 20
1736.173006940295
 30
0.0
  0
VERTEX
  5
35A7
  8
0
 10
-4350.915103806904
 20
1736.173006940295
 30
0.0
  0
VERTEX
  5
35A8
  8
0
 10
-4350.915103806904
 20
1724.1730069402961
 30
0.0
  0
VERTEX
  5
35A9
  8
0
 10
-4065.9151038069058
 20
1724.1730069402961
 30
0.0
  0
SEQEND
  5
35AA
  8
0
  0
INSERT
  5
2A92
  8
0
  2
GALKA-BOK
 10
-4718.2093346204601
 20
1078.5673229419381
 30
0.0
 50
90.0
1001
ACDBBLOCKREPETAG
1070
     1
1071
       42
1005
2A92
  0
INSERT
  5
2A93
  8
0
  2
GALKA-BOK
 10
-4718.2093346204601
 20
728.5673229419383
 30
0.0
 50
90.0
1001
ACDBBLOCKREPETAG
1070
     1
1071
       43
1005
2A93
  0
CIRCLE
  5
2A94
  8
0
 10
-4186.4151038069067
 20
1318.0367302098739
 30
0.0
 40
100.0
1001
ACDBBLOCKREPETAG
1070
     1
1071
       44
1005
2A94
  0
POLYLINE
  5
2A95
  8
0
 62
     9
 66
     1
 10
0.0
 20
0.0
 30
0.0
 70
     1
1001
ACDBBLOCKREPETAG
1070
     1
1071
       45
1005
2A95
  0
VERTEX
  5
35AB
  8
0
 62
     9
 10
-3980.4151038069072
 20
1184.173006940295
 30
0.0
  0
VERTEX
  5
35AC
  8
0
 62
     9
 10
-4002.4151038069072
 20
1184.173006940295
 30
0.0
  0
VERTEX
  5
35AD
  8
0
 62
     9
 10
-4002.4151038069072
 20
1162.173006940295
 30
0.0
  0
VERTEX
  5
35AE
  8
0
 62
     9
 10
-3980.4151038069072
 20
1162.173006940295
 30
0.0
  0
SEQEND
  5
35AF
  8
0
 62
     9
  0
LINE
  5
2A96
  8
0
 39
5.0
 10
-6175.971045460039
 20
1809.494693194054
 30
0.0
 11
-6175.971045460039
 21
1809.494693194054
 31
0.0
1001
ACDBBLOCKREPETAG
1070
     1
1071
        3
1005
2A96
  0
LINE
  5
2A97
  8
0
 62
     4
 39
5.0
 10
-6148.9710454600399
 20
1806.494793194054
 30
0.0
 11
-6148.9710454600399
 21
1806.494793194054
 31
0.0
1001
ACDBBLOCKREPETAG
1070
     1
1071
        4
1005
2A97
  0
LINE
  5
2A98
  8
0
 62
     4
 39
5.0
 10
-6152.9710454600399
 20
1802.494793194054
 30
0.0
 11
-6152.9710454600399
 21
1802.494793194054
 31
0.0
1001
ACDBBLOCKREPETAG
1070
     1
1071
        5
1005
2A98
  0
LINE
  5
2A99
  8
0
 62
     4
 39
5.0
 10
-6144.9710454600399
 20
1802.494793194054
 30
0.0
 11
-6144.9710454600399
 21
1802.494793194054
 31
0.0
1001
ACDBBLOCKREPETAG
1070
     1
1071
        6
1005
2A99
  0
LINE
  5
2A9A
  8
0
 62
     4
 39
5.0
 10
-6258.9710454600399
 20
1806.494793194054
 30
0.0
 11
-6258.9710454600399
 21
1806.494793194054
 31
0.0
1001
ACDBBLOCKREPETAG
1070
     1
1071
        7
1005
2A9A
  0
LINE
  5
2A9B
  8
0
 62
     4
 39
5.0
 10
-6262.9710454600399
 20
1802.494793194054
 30
0.0
 11
-6262.9710454600399
 21
1802.494793194054
 31
0.0
1001
ACDBBLOCKREPETAG
1070
     1
1071
        8
1005
2A9B
  0
LINE
  5
2A9C
  8
0
 62
     4
 39
5.0
 10
-6258.9710454600399
 20
1798.494793194054
 30
0.0
 11
-6258.9710454600399
 21
1798.494793194054
 31
0.0
1001
ACDBBLOCKREPETAG
1070
     1
1071
        9
1005
2A9C
  0
LINE
  5
2A9D
  8
0
 62
     4
 39
5.0
 10
-6254.9710454600399
 20
1802.494793194054
 30
0.0
 11
-6254.9710454600399
 21
1802.494793194054
 31
0.0
1001
ACDBBLOCKREPETAG
1070
     1
1071
       10
1005
2A9D
  0
LINE
  5
2A9E
  8
0
 39
5.0
 10
-6203.9710454600399
 20
1658.494693194054
 30
0.0
 11
-6203.9710454600399
 21
1658.494693194054
 31
0.0
1001
ACDBBLOCKREPETAG
1070
     1
1071
       11
1005
2A9E
  0
LINE
  5
2A9F
  8
0
 62
     4
 39
5.0
 10
-6258.9710454600399
 20
1669.494793194054
 30
0.0
 11
-6258.9710454600399
 21
1669.494793194054
 31
0.0
1001
ACDBBLOCKREPETAG
1070
     1
1071
       12
1005
2A9F
  0
LINE
  5
2AA0
  8
0
 62
     4
 39
5.0
 10
-6262.9710454600399
 20
1665.494793194054
 30
0.0
 11
-6262.9710454600399
 21
1665.494793194054
 31
0.0
1001
ACDBBLOCKREPETAG
1070
     1
1071
       13
1005
2AA0
  0
LINE
  5
2AA1
  8
0
 62
     4
 39
5.0
 10
-6258.9710454600399
 20
1661.494793194054
 30
0.0
 11
-6258.9710454600399
 21
1661.494793194054
 31
0.0
1001
ACDBBLOCKREPETAG
1070
     1
1071
       14
1005
2AA1
  0
LINE
  5
2AA2
  8
0
 62
     4
 39
5.0
 10
-6148.9710454600399
 20
1669.494793194054
 30
0.0
 11
-6148.9710454600399
 21
1669.494793194054
 31
0.0
1001
ACDBBLOCKREPETAG
1070
     1
1071
       15
1005
2AA2
  0
LINE
  5
2AA3
  8
0
 62
     4
 39
5.0
 10
-6152.9710454600399
 20
1665.494793194054
 30
0.0
 11
-6152.9710454600399
 21
1665.494793194054
 31
0.0
1001
ACDBBLOCKREPETAG
1070
     1
1071
       16
1005
2AA3
  0
LINE
  5
2AA4
  8
0
 62
     4
 39
5.0
 10
-6148.9710454600399
 20
1661.494793194054
 30
0.0
 11
-6148.9710454600399
 21
1661.494793194054
 31
0.0
1001
ACDBBLOCKREPETAG
1070
     1
1071
       17
1005
2AA4
  0
LINE
  5
2AA5
  8
0
  6
CONTINUOUS
 10
-5975.971045460039
 20
1184.173006940295
 30
0.0
 11
-5975.971045460039
 21
1724.1730069402961
 31
0.0
1001
ACDBBLOCKREPETAG
1070
     1
1071
       18
1005
2AA5
  0
LINE
  5
2AA6
  8
0
  6
CONTINUOUS
 10
-5975.971045460039
 20
1724.1730069402961
 30
0.0
 11
-6482.971045460039
 21
1724.1730069402961
 31
0.0
1001
ACDBBLOCKREPETAG
1070
     1
1071
       19
1005
2AA6
  0
LINE
  5
2AA7
  8
0
  6
CONTINUOUS
 10
-6482.971045460039
 20
1184.173006940295
 30
0.0
 11
-5975.971045460039
 21
1184.173006940295
 31
0.0
1001
ACDBBLOCKREPETAG
1070
     1
1071
       20
1005
2AA7
  0
LINE
  5
2AA8
  8
0
  6
CONTINUOUS
 10
-6482.971045460039
 20
1724.1730069402961
 30
0.0
 11
-6482.971045460039
 21
1184.173006940295
 31
0.0
1001
ACDBBLOCKREPETAG
1070
     1
1071
       21
1005
2AA8
  0
LINE
  5
2AA9
  8
OSIE
 10
-6203.971045460039
 20
1471.969276534237
 30
0.0
 11
-6203.971045460039
 21
1692.376737346354
 31
0.0
1001
ACDBBLOCKREPETAG
1070
     1
1071
       27
1005
2AA9
  0
LINE
  5
2AAA
  8
OSIE
 10
-6314.1747758660968
 20
1582.173006940295
 30
0.0
 11
-6093.7673150539786
 21
1582.173006940295
 31
0.0
1001
ACDBBLOCKREPETAG
1070
     1
1071
       28
1005
2AAA
  0
LINE
  5
2AAB
  8
OSIE
 10
-6225.971045460039
 20
1207.832999803815
 30
0.0
 11
-6225.971045460039
 21
1428.2404606159309
 31
0.0
1001
ACDBBLOCKREPETAG
1070
     1
1071
       29
1005
2AAB
  0
LINE
  5
2AAC
  8
OSIE
 10
-6336.1747758660977
 20
1318.0367302098739
 30
0.0
 11
-6115.7673150539813
 21
1318.0367302098739
 31
0.0
1001
ACDBBLOCKREPETAG
1070
     1
1071
       30
1005
2AAC
  0
LINE
  5
2AAD
  8
0
  6
CONTINUOUS
 62
     1
 10
-6103.9681475553762
 20
1736.1730069402961
 30
0.0
 11
-6103.9681475553762
 21
1776.1730069402961
 31
0.0
1001
ACDBBLOCKREPETAG
1070
     1
1071
       31
1005
2AAD
  0
LINE
  5
2AAE
  8
0
  6
CONTINUOUS
 62
     1
 10
-6103.9681475553762
 20
1776.1730069402961
 30
0.0
 11
-6303.9739433647028
 21
1776.1730069402961
 31
0.0
1001
ACDBBLOCKREPETAG
1070
     1
1071
       32
1005
2AAE
  0
LINE
  5
2AAF
  8
0
  6
CONTINUOUS
 62
     1
 10
-6303.9739433647028
 20
1776.1730069402961
 30
0.0
 11
-6303.9739433647028
 21
1736.1730069402961
 31
0.0
1001
ACDBBLOCKREPETAG
1070
     1
1071
       33
1005
2AAF
  0
LINE
  5
2AB0
  8
OSIE
  6
DASHDOT
 10
-6203.9710454600399
 20
1798.0774806353311
 30
0.0
 11
-6203.9710454600399
 21
1687.533812311895
 31
0.0
1001
ACDBBLOCKREPETAG
1070
     1
1071
       34
1005
2AB0
  0
INSERT
  5
2AB1
  8
0
 62
     1
  2
A$C5F6C7F99
 10
-6204.0710454600357
 20
1582.173006940295
 30
0.0
 41
-1.0
1001
ACDBBLOCKREPETAG
1070
     1
1071
       36
1005
2AB1
  0
INSERT
  5
2AB2
  8
0
  2
NÓŻKA_53
 10
522.85863197643425
 20
-27.016022393051571
 30
0.0
1001
ACDBBLOCKREPETAG
1070
     1
1071
       37
1005
2AB2
  0
INSERT
  5
2AB3
  8
0
  2
NÓŻKA_53
 10
929.85863197643425
 20
-27.016022393051571
 30
0.0
1001
ACDBBLOCKREPETAG
1070
     1
1071
       38
1005
2AB3
  0
POLYLINE
  5
2AB4
  8
0
 62
     5
 66
     1
 10
0.0
 20
0.0
 30
0.0
 70
     1
1001
ACDBBLOCKREPETAG
1070
     1
1071
       39
1005
2AB4
  0
VERTEX
  5
35B0
  8
0
 62
     5
 10
-5975.971045460039
 20
1651.1730069402961
 30
0.0
  0
VERTEX
  5
35B1
  8
0
 62
     5
 10
-5950.9710454600399
 20
1651.1730069402961
 30
0.0
  0
VERTEX
  5
35B2
  8
0
 62
     5
 10
-5950.9710454600399
 20
1201.173006940295
 30
0.0
  0
VERTEX
  5
35B3
  8
0
 62
     5
 10
-5975.971045460039
 20
1201.173006940295
 30
0.0
  0
SEQEND
  5
35B4
  8
0
 62
     5
  0
POLYLINE
  5
2AB5
  8
0
 66
     1
 10
0.0
 20
0.0
 30
0.0
 70
     1
1001
ACDBBLOCKREPETAG
1070
     1
1071
       40
1005
2AB5
  0
VERTEX
  5
35B5
  8
0
 10
-6346.4710454600399
 20
1736.173006940295
 30
0.0
  0
VERTEX
  5
35B6
  8
0
 10
-6061.4710454600399
 20
1736.173006940295
 30
0.0
  0
VERTEX
  5
35B7
  8
0
 10
-6061.4710454600399
 20
1724.1730069402961
 30
0.0
  0
VERTEX
  5
35B8
  8
0
 10
-6346.4710454600399
 20
1724.1730069402961
 30
0.0
  0
SEQEND
  5
35B9
  8
0
  0
INSERT
  5
2AB6
  8
CENTRALA
  2
GNIAZDO_ZASILANIA_20_A
 10
-6014.4710454600381
 20
1692.0230069402951
 30
0.0
 41
-1.0
1001
ACDBBLOCKREPETAG
1070
     1
1071
       41
1005
2AB6
  0
INSERT
  5
2AB7
  8
0
  2
GALKA-BOK
 10
-5694.1768146464847
 20
1078.5673229419381
 30
0.0
 41
-1.0
 50
270.0
1001
ACDBBLOCKREPETAG
1070
     1
1071
       42
1005
2AB7
  0
INSERT
  5
2AB8
  8
0
  2
GALKA-BOK
 10
-5694.1768146464847
 20
728.5673229419383
 30
0.0
 41
-1.0
 50
270.0
1001
ACDBBLOCKREPETAG
1070
     1
1071
       43
1005
2AB8
  0
CIRCLE
  5
2AB9
  8
0
 10
-6225.971045460039
 20
1318.0367302098739
 30
0.0
 40
100.0
1001
ACDBBLOCKREPETAG
1070
     1
1071
       44
1005
2AB9
  0
POLYLINE
  5
2ABA
  8
0
 62
     9
 66
     1
 10
0.0
 20
0.0
 30
0.0
 70
     1
1001
ACDBBLOCKREPETAG
1070
     1
1071
       45
1005
2ABA
  0
VERTEX
  5
35BA
  8
0
 62
     9
 10
-6431.9710454600399
 20
1184.173006940295
 30
0.0
  0
VERTEX
  5
35BB
  8
0
 62
     9
 10
-6409.971045460039
 20
1184.173006940295
 30
0.0
  0
VERTEX
  5
35BC
  8
0
 62
     9
 10
-6409.971045460039
 20
1162.173006940295
 30
0.0
  0
VERTEX
  5
35BD
  8
0
 62
     9
 10
-6431.9710454600399
 20
1162.173006940295
 30
0.0
  0
SEQEND
  5
35BE
  8
0
 62
     9
  0
LINE
  5
2ABB
  8
CENTRALA
  6
CONTINUOUS
 10
-5673.7252724229056
 20
1418.1563486991661
 30
0.0
 11
-5713.7252724229047
 21
1418.1563486991661
 31
0.0
  0
LINE
  5
2ABC
  8
CENTRALA
  6
CONTINUOUS
 10
-4693.7252724229038
 20
1218.150552889839
 30
0.0
 11
-4733.7252724229038
 21
1218.1505528898399
 31
0.0
  0
TEXT
  5
2ABD
  8
CENTRALA
 10
-5352.0473503464764
 20
1523.165796306434
 30
0.0
 40
38.100023999999998
  1
PRO 450EC
 51
359.99999800000001
  7
ARIAL
  0
INSERT
  5
2AC0
  8
0
  2
*U30
 10
0.0
 20
0.0
 30
0.0
  0
LINE
  5
2AC9
  8
CENTRALA
  6
CONTINUOUS
 10
-5713.7252724229047
 20
1418.1563486991661
 30
0.0
 11
-5713.7252724229047
 21
1218.150552889839
 31
0.0
  0
LINE
  5
2ACA
  8
CENTRALA
  6
CONTINUOUS
 10
-5713.7252724229047
 20
1218.150552889839
 30
0.0
 11
-5673.7252724229056
 21
1218.150552889839
 31
0.0
  0
LINE
  5
2ACE
  8
CENTRALA
  6
CONTINUOUS
 10
-4733.7252724229038
 20
1418.156348699167
 30
0.0
 11
-4693.7252724229038
 21
1418.156348699167
 31
0.0
  0
LINE
  5
2ACF
  8
CENTRALA
  6
CONTINUOUS
 10
-4693.7252724229038
 20
1418.156348699167
 30
0.0
 11
-4693.7252724229038
 21
1218.150552889839
 31
0.0
  0
LINE
  5
2AD0
  8
OSIE
  6
DASHDOT
 10
-5747.6297461179447
 20
1578.40980942134
 30
0.0
 11
-5637.086077794509
 21
1578.40980942134
 31
0.0
  0
LINE
  5
2AD1
  8
OSIE
  6
DASHDOT
 10
-5747.6297461179392
 20
1318.1534507945021
 30
0.0
 11
-5637.0860777945054
 21
1318.1534507945021
 31
0.0
  0
LINE
  5
2AD2
  8
OSIE
  6
DASHDOT
 10
-4767.6297461179402
 20
1578.40980942134
 30
0.0
 11
-4657.0860777945027
 21
1578.40980942134
 31
0.0
  0
LINE
  5
2AD3
  8
OSIE
  6
DASHDOT
 10
-4767.6297461179383
 20
1318.153450794503
 30
0.0
 11
-4657.0860777945018
 21
1318.153450794503
 31
0.0
  0
LINE
  5
2AD7
  8
OSIE
  6
DASHDOT
 10
-5521.7252724229047
 20
1798.0774806353299
 30
0.0
 11
-5521.7252724229047
 21
1687.5338123118941
 31
0.0
  0
LINE
  5
2ADB
  8
OSIE
  6
DASHDOT
 10
-4885.7252724229056
 20
1798.0774806353311
 30
0.0
 11
-4885.7252724229056
 21
1687.5338123118941
 31
0.0
  0
POLYLINE
  5
2B08
  8
0
 66
     1
 10
0.0
 20
0.0
 30
0.0
 70
     1
  0
VERTEX
  5
35C6
  8
0
 10
-5685.7252724229074
 20
1700.90980942134
 30
0.0
  0
VERTEX
  5
35C7
  8
0
 10
-5673.7252724229056
 20
1700.90980942134
 30
0.0
  0
VERTEX
  5
35C8
  8
0
 10
-5673.7252724229056
 20
1455.90980942134
 30
0.0
  0
VERTEX
  5
35C9
  8
0
 10
-5685.7252724229074
 20
1455.90980942134
 30
0.0
  0
SEQEND
  5
35CA
  8
0
  0
POLYLINE
  5
2B09
  8
0
 66
     1
 10
0.0
 20
0.0
 30
0.0
 70
     1
  0
VERTEX
  5
35CB
  8
0
 10
-4733.7252724229056
 20
1700.90980942134
 30
0.0
  0
VERTEX
  5
35CC
  8
0
 10
-4721.7252724229047
 20
1700.90980942134
 30
0.0
  0
VERTEX
  5
35CD
  8
0
 10
-4721.7252724229047
 20
1455.90980942134
 30
0.0
  0
VERTEX
  5
35CE
  8
0
 10
-4733.7252724229056
 20
1455.90980942134
 30
0.0
  0
SEQEND
  5
35CF
  8
0
  0
POLYLINE
  5
2B0A
  8
0
 66
     1
 10
0.0
 20
0.0
 30
0.0
 70
     1
  0
VERTEX
  5
35D0
  8
0
 10
-5644.2252724229056
 20
1724.1730069402961
 30
0.0
  0
VERTEX
  5
35D1
  8
0
 10
-5644.2252724229056
 20
1736.173006940295
 30
0.0
  0
VERTEX
  5
35D2
  8
0
 10
-5399.2252724229047
 20
1736.173006940295
 30
0.0
  0
VERTEX
  5
35D3
  8
0
 10
-5399.2252724229047
 20
1724.1730069402961
 30
0.0
  0
SEQEND
  5
35D4
  8
0
  0
POLYLINE
  5
2B0B
  8
0
 66
     1
 10
0.0
 20
0.0
 30
0.0
 70
     1
  0
VERTEX
  5
35D5
  8
0
 10
-5008.2252724229047
 20
1724.1730069402961
 30
0.0
  0
VERTEX
  5
35D6
  8
0
 10
-5008.2252724229047
 20
1736.173006940295
 30
0.0
  0
VERTEX
  5
35D7
  8
0
 10
-4763.2252724229047
 20
1736.173006940295
 30
0.0
  0
VERTEX
  5
35D8
  8
0
 10
-4763.2252724229047
 20
1724.1730069402961
 30
0.0
  0
SEQEND
  5
35D9
  8
0
  0
POLYLINE
  5
2B0D
  8
0
 66
     1
 10
0.0
 20
0.0
 30
0.0
 70
     1
  0
VERTEX
  5
35DA
  8
0
 10
-5725.7252724229074
 20
1678.4127073260031
 30
0.0
  0
VERTEX
  5
35DB
  8
0
 10
-5685.7252724229074
 20
1678.4127073260031
 30
0.0
  0
VERTEX
  5
35DC
  8
0
 10
-5685.7252724229074
 20
1478.406911516676
 30
0.0
  0
VERTEX
  5
35DD
  8
0
 10
-5725.7252724229074
 20
1478.406911516676
 30
0.0
  0
SEQEND
  5
35DE
  8
0
  0
POLYLINE
  5
2B0E
  8
0
 66
     1
 10
0.0
 20
0.0
 30
0.0
 70
     1
  0
VERTEX
  5
35DF
  8
0
 10
-4721.7252724229047
 20
1678.4127073260031
 30
0.0
  0
VERTEX
  5
35E0
  8
0
 10
-4681.7252724229047
 20
1678.4127073260031
 30
0.0
  0
VERTEX
  5
35E1
  8
0
 10
-4681.7252724229047
 20
1478.4069115166769
 30
0.0
  0
VERTEX
  5
35E2
  8
0
 10
-4721.7252724229047
 20
1478.4069115166769
 30
0.0
  0
SEQEND
  5
35E3
  8
0
  0
POLYLINE
  5
2B0F
  8
0
 62
     1
 66
     1
 10
0.0
 20
0.0
 30
0.0
 70
     1
  0
VERTEX
  5
35E4
  8
0
 62
     1
 10
-5621.7281703275694
 20
1736.173006940295
 30
0.0
  0
VERTEX
  5
35E5
  8
0
 62
     1
 10
-5621.7281703275694
 20
1776.173006940295
 30
0.0
  0
VERTEX
  5
35E6
  8
0
 62
     1
 10
-5421.7223745182428
 20
1776.173006940295
 30
0.0
  0
VERTEX
  5
35E7
  8
0
 62
     1
 10
-5421.7223745182428
 20
1736.173006940295
 30
0.0
  0
SEQEND
  5
35E8
  8
0
 62
     1
  0
POLYLINE
  5
2B10
  8
0
 62
     1
 66
     1
 10
0.0
 20
0.0
 30
0.0
 70
     1
  0
VERTEX
  5
35E9
  8
0
 62
     1
 10
-4985.7281703275694
 20
1736.173006940295
 30
0.0
  0
VERTEX
  5
35EA
  8
0
 62
     1
 10
-4985.7281703275694
 20
1776.173006940295
 30
0.0
  0
VERTEX
  5
35EB
  8
0
 62
     1
 10
-4785.7223745182418
 20
1776.173006940295
 30
0.0
  0
VERTEX
  5
35EC
  8
0
 62
     1
 10
-4785.7223745182418
 20
1736.173006940295
 30
0.0
  0
SEQEND
  5
35ED
  8
0
 62
     1
  0
POLYLINE
  5
2B14
  8
0
 62
     5
 66
     1
 10
0.0
 20
0.0
 30
0.0
 70
     1
  0
VERTEX
  5
35EE
  8
0
 62
     5
 10
-5627.7252724229074
 20
1456.173006940295
 30
0.0
  0
VERTEX
  5
35EF
  8
0
 62
     5
 10
-5542.7252724229056
 20
1456.173006940295
 30
0.0
  0
VERTEX
  5
35F0
  8
0
 62
     5
 10
-5542.7252724229056
 20
1189.173006940295
 30
0.0
  0
VERTEX
  5
35F1
  8
0
 62
     5
 10
-5627.7252724229074
 20
1189.173006940295
 30
0.0
  0
SEQEND
  5
35F2
  8
0
 62
     5
  0
POLYLINE
  5
2B15
  8
0
 62
     5
 66
     1
 10
0.0
 20
0.0
 30
0.0
 70
     1
  0
VERTEX
  5
35F3
  8
0
 62
     5
 10
-4864.7252724229047
 20
1456.173006940295
 30
0.0
  0
VERTEX
  5
35F4
  8
0
 62
     5
 10
-4779.7252724229047
 20
1456.173006940295
 30
0.0
  0
VERTEX
  5
35F5
  8
0
 62
     5
 10
-4779.7252724229047
 20
1189.173006940295
 30
0.0
  0
VERTEX
  5
35F6
  8
0
 62
     5
 10
-4864.7252724229047
 20
1189.173006940295
 30
0.0
  0
SEQEND
  5
35F7
  8
0
 62
     5
  0
POLYLINE
  5
2E37
  8
0
 62
     5
 66
     1
 10
0.0
 20
0.0
 30
0.0
 70
     1
  0
VERTEX
  5
35F8
  8
0
 62
     5
 10
-5503.7252724229056
 20
1651.173006940295
 30
0.0
  0
VERTEX
  5
35F9
  8
0
 62
     5
 10
-4903.7252724229074
 20
1651.173006940295
 30
0.0
  0
VERTEX
  5
35FA
  8
0
 62
     5
 10
-4903.7252724229074
 20
1201.173006940295
 30
0.0
  0
VERTEX
  5
35FB
  8
0
 62
     5
 10
-5503.7252724229056
 20
1201.173006940295
 30
0.0
  0
SEQEND
  5
35FC
  8
0
 62
     5
  0
INSERT
  5
2E38
  8
CENTRALA
 62
     5
  2
GALKA
 10
-5438.7252724229056
 20
1601.173006940295
 30
0.0
  0
INSERT
  5
2E39
  8
CENTRALA
 62
     5
  2
GALKA
 10
-4968.7252724229047
 20
1601.173006940295
 30
0.0
  0
INSERT
  5
2E3A
  8
CENTRALA
 62
     5
  2
GALKA
 10
-4968.7252724229047
 20
1251.173006940295
 30
0.0
  0
INSERT
  5
2E3B
  8
CENTRALA
 62
     5
  2
GALKA
 10
-5438.7252724229056
 20
1251.173006940295
 30
0.0
  0
INSERT
  5
2E3C
  8
0
  2
NÓŻKA_53
 10
1332.1044050135681
 20
-27.016022393051571
 30
0.0
1001
ACDBBLOCKREPETAG
1070
     1
1071
       38
1005
2AB3
  0
INSERT
  5
2E3D
  8
0
  2
NÓŻKA_53
 10
2172.1044050135679
 20
-27.016022393051571
 30
0.0
1001
ACDBBLOCKREPETAG
1070
     1
1071
       38
1005
2AB3
  0
POLYLINE
  5
2E3E
  8
0
 66
     1
 10
0.0
 20
0.0
 30
0.0
 70
     1
1001
ACDBBLOCKREPETAG
1070
     1
1071
       45
1005
2ABA
  0
VERTEX
  5
35FD
  8
0
 10
-5214.7252724229056
 20
1184.173006940295
 30
0.0
  0
VERTEX
  5
35FE
  8
0
 10
-5192.7252724229047
 20
1184.173006940295
 30
0.0
  0
VERTEX
  5
35FF
  8
0
 10
-5192.7252724229047
 20
1162.173006940295
 30
0.0
  0
VERTEX
  5
3600
  8
0
 10
-5214.7252724229056
 20
1162.173006940295
 30
0.0
  0
SEQEND
  5
3601
  8
0
  0
POLYLINE
  5
2E4E
  8
0
 66
     1
 10
0.0
 20
0.0
 30
0.0
 70
     1
  0
VERTEX
  5
3602
  8
0
 10
-5673.7252724229056
 20
809.94808599312375
 30
0.0
  0
VERTEX
  5
3603
  8
0
 10
-4733.7252724229056
 20
809.94808599312375
 30
0.0
  0
VERTEX
  5
3604
  8
0
 10
-4733.7252724229056
 20
302.94808599312393
 30
0.0
  0
VERTEX
  5
3605
  8
0
 10
-5673.7252724229056
 20
302.94808599312393
 30
0.0
  0
SEQEND
  5
3606
  8
0
  0
LINE
  5
2E55
  8
0
 39
5.0
 10
-5972.3702059956904
 20
502.94808599312358
 30
0.0
 11
-5972.3702059956904
 21
502.94808599312358
 31
0.0
1001
ACDBBLOCKREPETAG
1070
     1
1071
        3
1005
2A96
  0
LINE
  5
2E56
  8
0
 62
     4
 39
5.0
 10
-5975.3701059956902
 20
475.94808599312472
 30
0.0
 11
-5975.3701059956902
 21
475.94808599312472
 31
0.0
1001
ACDBBLOCKREPETAG
1070
     1
1071
        4
1005
2A97
  0
LINE
  5
2E59
  8
0
 62
     4
 39
5.0
 10
-5975.3701059956902
 20
585.94808599312466
 30
0.0
 11
-5975.3701059956902
 21
585.94808599312466
 31
0.0
1001
ACDBBLOCKREPETAG
1070
     1
1071
        7
1005
2A9A
  0
POLYLINE
  5
2EDB
  8
0
 66
     1
 10
0.0
 20
0.0
 30
0.0
  0
VERTEX
  5
3607
  8
0
 10
-5713.7252724229047
 20
630.95098389778821
 30
0.0
  0
VERTEX
  5
3608
  8
0
 10
-5713.7252724229047
 20
652.95098389778718
 30
0.0
  0
VERTEX
  5
3609
  8
0
 10
-5685.7252724229074
 20
652.95098389778718
 30
0.0
  0
SEQEND
  5
360A
  8
0
  0
POLYLINE
  5
2EDC
  8
0
 66
     1
 10
0.0
 20
0.0
 30
0.0
  0
VERTEX
  5
360B
  8
0
 10
-4733.7252724229038
 20
452.94518808846141
 30
0.0
  0
VERTEX
  5
360C
  8
0
 10
-4733.7252724229038
 20
652.95098389778843
 30
0.0
  0
SEQEND
  5
360D
  8
0
  0
LINE
  5
2F54
  8
OSIE
 10
-5631.9290028289652
 20
530.94808599312375
 30
0.0
 11
-5411.5215420168479
 21
530.94808599312375
 31
0.0
1001
ACDBBLOCKREPETAG
1070
     1
1071
       27
1005
2AA9
  0
LINE
  5
2F55
  8
OSIE
 10
-5521.7252724229047
 20
641.15181639918251
 30
0.0
 11
-5521.7252724229047
 21
420.74435558706608
 31
0.0
1001
ACDBBLOCKREPETAG
1070
     1
1071
       28
1005
2AAA
  0
LINE
  5
2F57
  8
OSIE
 10
-4995.9290028289643
 20
530.94808599312375
 30
0.0
 11
-4775.5215420168479
 21
530.94808599312375
 31
0.0
1001
ACDBBLOCKREPETAG
1070
     1
1071
       27
1005
2AA9
  0
LINE
  5
2F58
  8
OSIE
 10
-4885.7252724229056
 20
641.15181639918251
 30
0.0
 11
-4885.7252724229056
 21
420.74435558706608
 31
0.0
1001
ACDBBLOCKREPETAG
1070
     1
1071
       28
1005
2AAA
  0
POLYLINE
  5
2F5A
  8
0
 66
     1
 10
0.0
 20
0.0
 30
0.0
 70
     1
  0
VERTEX
  5
360E
  8
0
 10
-5725.7252724229074
 20
630.95098389778821
 30
0.0
  0
VERTEX
  5
360F
  8
0
 10
-5685.7252724229074
 20
630.95098389778821
 30
0.0
  0
VERTEX
  5
3610
  8
0
 10
-5685.7252724229074
 20
430.94518808846129
 30
0.0
  0
VERTEX
  5
3611
  8
0
 10
-5725.7252724229074
 20
430.94518808846129
 30
0.0
  0
SEQEND
  5
3612
  8
0
  0
POLYLINE
  5
2F5B
  8
0
 66
     1
 10
0.0
 20
0.0
 30
0.0
 70
     1
1001
ACDBBLOCKREPETAG
1070
     1
1071
       40
1005
2AB5
  0
VERTEX
  5
3613
  8
0
 10
-5673.7252724229056
 20
673.44808599312466
 30
0.0
  0
VERTEX
  5
3614
  8
0
 10
-5673.7252724229056
 20
388.44808599312478
 30
0.0
  0
VERTEX
  5
3615
  8
0
 10
-5685.7252724229074
 20
388.44808599312478
 30
0.0
  0
VERTEX
  5
3616
  8
0
 10
-5685.7252724229074
 20
673.44808599312466
 30
0.0
  0
SEQEND
  5
3617
  8
0
  0
POLYLINE
  5
2F5C
  8
0
 66
     1
 10
0.0
 20
0.0
 30
0.0
 70
     1
1001
ACDBBLOCKREPETAG
1070
     1
1071
       40
1005
2AB5
  0
VERTEX
  5
3618
  8
0
 10
-4721.7252724229047
 20
673.44808599312466
 30
0.0
  0
VERTEX
  5
3619
  8
0
 10
-4721.7252724229047
 20
388.44808599312478
 30
0.0
  0
VERTEX
  5
361A
  8
0
 10
-4733.7252724229056
 20
388.44808599312478
 30
0.0
  0
VERTEX
  5
361B
  8
0
 10
-4733.7252724229056
 20
673.44808599312466
 30
0.0
  0
SEQEND
  5
361C
  8
0
  0
POLYLINE
  5
2F5D
  8
0
 66
     1
 10
0.0
 20
0.0
 30
0.0
 70
     1
  0
VERTEX
  5
361D
  8
0
 10
-4721.7252724229047
 20
630.95098389778821
 30
0.0
  0
VERTEX
  5
361E
  8
0
 10
-4681.7252724229047
 20
630.95098389778821
 30
0.0
  0
VERTEX
  5
361F
  8
0
 10
-4681.7252724229047
 20
430.94518808846129
 30
0.0
  0
VERTEX
  5
3620
  8
0
 10
-4721.7252724229047
 20
430.94518808846129
 30
0.0
  0
SEQEND
  5
3621
  8
0
  0
INSERT
  5
2FDE
  8
0
 62
     1
  2
A$C5F6C7F99
 10
-5521.7252724229047
 20
531.04808599312014
 30
0.0
 41
-1.0
 50
270.0
1001
ACDBBLOCKREPETAG
1070
     1
1071
       36
1005
2AB1
  0
INSERT
  5
2FDF
  8
0
 62
     1
  2
A$C5F6C7F99
 10
-4885.7252724229056
 20
531.04808599311923
 30
0.0
 41
-1.0
 50
270.0
1001
ACDBBLOCKREPETAG
1070
     1
1071
       36
1005
2AB1
  0
CIRCLE
  5
2FE0
  8
0
 62
     1
 10
-4885.7252724229056
 20
530.94808599312375
 30
0.0
 40
100.0
1001
ACDBBLOCKREPETAG
1070
     1
1071
       44
1005
2A94
  0
CIRCLE
  5
2FE1
  8
0
 62
     1
 10
-5521.7252724229047
 20
530.94808599312432
 30
0.0
 40
100.0
1001
ACDBBLOCKREPETAG
1070
     1
1071
       44
1005
2A94
  0
CIRCLE
  5
2FE2
  8
0
 10
-4208.4151038069049
 20
1582.173006940295
 30
0.0
 40
100.0
1001
ACDBBLOCKREPETAG
1070
     1
1071
       44
1005
2A94
  0
CIRCLE
  5
2FE3
  8
0
 10
-6203.971045460039
 20
1582.173006940295
 30
0.0
 40
100.0
1001
ACDBBLOCKREPETAG
1070
     1
1071
       44
1005
2A94
  0
CIRCLE
  5
2FE4
  8
0
 62
     9
 10
-5203.7252724229047
 20
747.94808599312375
 30
0.0
 40
11.0
  0
POLYLINE
  5
2FE5
  8
0
 66
     1
 10
0.0
 20
0.0
 30
0.0
  0
VERTEX
  5
362B
  8
0
 10
-5673.7252724229056
 20
652.95098389778718
 30
0.0
  0
VERTEX
  5
362C
  8
0
 10
-5673.7252724229056
 20
452.94518808846038
 30
0.0
  0
SEQEND
  5
362D
  8
0
  0
POLYLINE
  5
2FE6
  8
0
 66
     1
 10
0.0
 20
0.0
 30
0.0
  0
VERTEX
  5
362E
  8
0
 10
-4721.7252724229047
 20
652.95098389778843
 30
0.0
  0
VERTEX
  5
362F
  8
0
 10
-4693.7252724229047
 20
652.95098389778843
 30
0.0
  0
VERTEX
  5
3630
  8
0
 10
-4693.7252724229047
 20
630.95098389778821
 30
0.0
  0
SEQEND
  5
3631
  8
0
  0
LINE
  5
2FE7
  8
OSIE
  6
DASHDOT
 10
-5759.6297461179402
 20
530.94808599312455
 30
0.0
 11
-5649.0860777945027
 21
530.94808599312455
 31
0.0
  0
LINE
  5
2FE8
  8
OSIE
  6
DASHDOT
 10
-4755.6297461179383
 20
530.9480859931258
 30
0.0
 11
-4645.0860777945009
 21
530.9480859931258
 31
0.0
  0
POLYLINE
  5
2FF0
  8
0
 62
     5
 66
     1
 10
0.0
 20
0.0
 30
0.0
 70
     1
  0
VERTEX
  5
3632
  8
0
 62
     5
 10
-5528.7252724229074
 20
302.94808599312393
 30
0.0
  0
VERTEX
  5
3633
  8
0
 62
     5
 10
-4878.7252724229047
 20
302.94808599312393
 30
0.0
  0
VERTEX
  5
3634
  8
0
 62
     5
 10
-4878.7252724229047
 20
277.94808599312393
 30
0.0
  0
VERTEX
  5
3635
  8
0
 62
     5
 10
-5528.7252724229074
 20
277.94808599312393
 30
0.0
  0
SEQEND
  5
3636
  8
0
 62
     5
  0
INSERT
  5
2FF4
  8
0
  2
GALKA-BOK
 10
-5961.3309564212641
 20
21.153855179570542
 30
0.0
 41
-1.0
 50
180.0
1001
ACDBBLOCKREPETAG
1070
     1
1071
       43
1005
2AB8
  0
INSERT
  5
2FF5
  8
0
  2
GALKA-BOK
 10
-5491.3309564212632
 20
21.153855179570542
 30
0.0
 41
-1.0
 50
180.0
1001
ACDBBLOCKREPETAG
1070
     1
1071
       43
1005
2AB8
  0
INSERT
  5
3004
  8
0
  2
*U31
 10
0.0
 20
0.0
 30
0.0
  0
LINE
  5
3005
  8
WARSTWA_1
  6
CONTINUOUS
 10
-5565.0234005015027
 20
1064.907805435065
 30
0.0
 11
-5310.8530112353938
 21
1064.9078054350639
 31
0.0
  0
LINE
  5
3006
  8
0
 62
     1
 10
-5310.8530112353938
 20
1064.9078054350639
 30
0.0
 11
-5203.7252724229047
 21
1162.173006940295
 31
0.0
  0
DIMENSION
  5
30A3
  8
WARSTWA_1
  2
*D17
 10
-4278.1295560548824
 20
1511.0183316277239
 30
0.0
 11
-4172.7754234131608
 21
1618.548963501504
 31
0.0
 70
   131
  1
%%C200
 15
-4138.7006515589328
 25
1653.3276822528669
 35
0.0
 40
0.0
1001
ACAD_DSTYLE_DIMRADIAL_EXTENSION
1070
   387
1070
     1
1070
   388
1040
0.0
1070
   390
1040
0.0
1001
ACAD
1000
DSTYLE
1002
{
1070
   287
1070
     0
1070
   279
1070
     0
1070
   288
1070
     1
1002
}
  0
DIMENSION
  5
30A4
  8
WARSTWA_1
  2
*D18
 10
-4256.0151979808998
 20
1246.9987754819269
 30
0.0
 11
-4150.6610653391808
 21
1354.5294073557129
 31
0.0
 70
   131
  1
%%C200
 15
-4116.5862934849547
 25
1389.308126107074
 35
0.0
 40
0.0
1001
ACAD_DSTYLE_DIMRADIAL_EXTENSION
1070
   387
1070
     1
1070
   388
1040
0.0
1070
   390
1040
0.0
1001
ACAD
1000
DSTYLE
1002
{
1070
   287
1070
     0
1070
   279
1070
     0
1070
   288
1070
     1
1002
}
  0
DIMENSION
  5
3161
  8
WYMIARY
  2
*D19
 10
-6203.9710454600399
 20
1789.7538399303551
 30
0.0
 11
-6343.471045460039
 21
1806.753839930356
 31
0.0
 70
     0
 13
-6482.971045460039
 23
1724.1730069402961
 33
0.0
 14
-6203.9710454600399
 24
1776.1730069402961
 34
0.0
  0
DIMENSION
  5
3177
  8
WYMIARY
  2
*D20
 10
-5975.971045460039
 20
1827.8275761232401
 30
0.0
 11
-6229.471045460039
 21
1844.8275761232401
 31
0.0
 70
     0
 13
-6482.971045460039
 23
1724.1730069402961
 33
0.0
 14
-5975.971045460039
 24
1724.1730069402961
 34
0.0
  0
DIMENSION
  5
319D
  8
WYMIARY
  2
*D21
 10
-4733.7252724229056
 20
837.97753533967625
 30
0.0
 11
-4809.7252724229047
 21
854.97753533967625
 31
0.0
 70
     0
 13
-4885.7252724229056
 23
809.94808599312375
 33
0.0
 14
-4733.7252724229056
 24
809.94808599312375
 34
0.0
  0
DIMENSION
  5
31BC
  8
WYMIARY
  2
*D22
 10
-5673.7252724229056
 20
839.18364412945607
 30
0.0
 11
-5597.7252724229056
 21
856.18364412945607
 31
0.0
 70
     0
 13
-5521.7252724229047
 23
809.94808599312375
 33
0.0
 14
-5673.7252724229056
 24
809.94808599312375
 34
0.0
  0
POLYLINE
  5
3220
  8
0
 62
     5
 66
     1
 10
0.0
 20
0.0
 30
0.0
 70
     1
  0
VERTEX
  5
367F
  8
0
 62
     5
 10
-5627.7252724229074
 20
302.94808599312393
 30
0.0
  0
VERTEX
  5
3680
  8
0
 62
     5
 10
-5542.7252724229056
 20
302.94808599312393
 30
0.0
  0
VERTEX
  5
3681
  8
0
 62
     5
 10
-5542.7252724229056
 20
290.94808599312393
 30
0.0
  0
VERTEX
  5
3682
  8
0
 62
     5
 10
-5627.7252724229074
 20
290.94808599312393
 30
0.0
  0
SEQEND
  5
3683
  8
0
 62
     5
  0
POLYLINE
  5
3221
  8
0
 62
     5
 66
     1
 10
0.0
 20
0.0
 30
0.0
 70
     1
  0
VERTEX
  5
3684
  8
0
 62
     5
 10
-4866.2252724229047
 20
302.94808599312393
 30
0.0
  0
VERTEX
  5
3685
  8
0
 62
     5
 10
-4781.2252724229047
 20
302.94808599312393
 30
0.0
  0
VERTEX
  5
3686
  8
0
 62
     5
 10
-4781.2252724229047
 20
290.94808599312393
 30
0.0
  0
VERTEX
  5
3687
  8
0
 62
     5
 10
-4866.2252724229047
 20
290.94808599312393
 30
0.0
  0
SEQEND
  5
3688
  8
0
 62
     5
  0
ENDSEC
  0
EOF
