  0
SECTION
  2
HEADER
  9
$ACADVER
  1
AC1009
  9
$INSBASE
 10
0.0
 20
0.0
 30
0.0
  9
$EXTMIN
 10
-10178.210552192169
 20
-570.34734848756477
 30
-0.0015258207003583
  9
$EXTMAX
 10
-2039.873390006132
 20
2995.7051910838131
 30
5.000305216526975
  9
$LIMMIN
 10
0.0
 20
0.0
  9
$LIMMAX
 10
420.0
 20
297.0
  9
$ORTHOMODE
 70
     0
  9
$REGENMODE
 70
     1
  9
$FILLMODE
 70
     1
  9
$QTEXTMODE
 70
     0
  9
$MIRRTEXT
 70
     0
  9
$DRAGMODE
 70
     2
  9
$LTSCALE
 40
1.0
  9
$OSMODE
 70
  2239
  9
$ATTMODE
 70
     1
  9
$TEXTSIZE
 40
2.5
  9
$TRACEWID
 40
1.0
  9
$TEXTSTYLE
  7
STANDARD
  9
$CLAYER
  8
WYMIARY
  9
$CELTYPE
  6
BYLAYER
  9
$CECOLOR
 62
   256
  9
$DIMSCALE
 40
1.0
  9
$DIMASZ
 40
18.0
  9
$DIMEXO
 40
3.0
  9
$DIMDLI
 40
3.75
  9
$DIMRND
 40
0.0
  9
$DIMDLE
 40
0.0
  9
$DIMEXE
 40
1.25
  9
$DIMTP
 40
0.0
  9
$DIMTM
 40
0.0
  9
$DIMTXT
 40
18.0
  9
$DIMCEN
 40
2.5
  9
$DIMTSZ
 40
0.0
  9
$DIMTOL
 70
     0
  9
$DIMLIM
 70
     0
  9
$DIMTIH
 70
     0
  9
$DIMTOH
 70
     1
  9
$DIMSE1
 70
     0
  9
$DIMSE2
 70
     0
  9
$DIMTAD
 70
     1
  9
$DIMZIN
 70
     8
  9
$DIMBLK
  1

  9
$DIMASO
 70
     1
  9
$DIMSHO
 70
     1
  9
$DIMPOST
  1

  9
$DIMAPOST
  1

  9
$DIMALT
 70
     0
  9
$DIMALTD
 70
     3
  9
$DIMALTF
 40
0.03937007874016
  9
$DIMLFAC
 40
1.0
  9
$DIMTOFL
 70
     1
  9
$DIMTVP
 40
0.0
  9
$DIMTIX
 70
     0
  9
$DIMSOXD
 70
     0
  9
$DIMSAH
 70
     0
  9
$DIMBLK1
  1

  9
$DIMBLK2
  1

  9
$DIMSTYLE
  2
ISO-25
  9
$DIMCLRD
 70
     0
  9
$DIMCLRE
 70
     0
  9
$DIMCLRT
 70
     0
  9
$DIMTFAC
 40
1.0
  9
$DIMGAP
 40
8.0
  9
$LUNITS
 70
     2
  9
$LUPREC
 70
     4
  9
$SKETCHINC
 40
1.0
  9
$FILLETRAD
 40
0.0
  9
$AUNITS
 70
     0
  9
$AUPREC
 70
     0
  9
$MENU
  1
.
  9
$ELEVATION
 40
0.0
  9
$PELEVATION
 40
0.0
  9
$THICKNESS
 40
0.0
  9
$LIMCHECK
 70
     0
  9
$BLIPMODE
 70
     0
  9
$CHAMFERA
 40
0.0
  9
$CHAMFERB
 40
0.0
  9
$SKPOLY
 70
     0
  9
$TDCREATE
 40
2458137.8621410192
  9
$TDUPDATE
 40
2458137.9159921058
  9
$TDINDWG
 40
0.0538514583
  9
$TDUSRTIMER
 40
0.0538514583
  9
$USRTIMER
 70
     1
  9
$ANGBASE
 50
0.0
  9
$ANGDIR
 70
     0
  9
$PDMODE
 70
     0
  9
$PDSIZE
 40
0.0
  9
$PLINEWID
 40
0.0
  9
$COORDS
 70
     1
  9
$SPLFRAME
 70
     0
  9
$SPLINETYPE
 70
     6
  9
$SPLINESEGS
 70
     8
  9
$ATTDIA
 70
     0
  9
$ATTREQ
 70
     1
  9
$HANDLING
 70
     1
  9
$HANDSEED
  5
26B5
  9
$SURFTAB1
 70
     6
  9
$SURFTAB2
 70
     6
  9
$SURFTYPE
 70
     6
  9
$SURFU
 70
     6
  9
$SURFV
 70
     6
  9
$UCSNAME
  2

  9
$UCSORG
 10
0.0
 20
0.0
 30
0.0
  9
$UCSXDIR
 10
1.0
 20
0.0
 30
0.0
  9
$UCSYDIR
 10
0.0
 20
1.0
 30
0.0
  9
$PUCSNAME
  2

  9
$PUCSORG
 10
0.0
 20
0.0
 30
0.0
  9
$PUCSXDIR
 10
1.0
 20
0.0
 30
0.0
  9
$PUCSYDIR
 10
0.0
 20
1.0
 30
0.0
  9
$USERI1
 70
     0
  9
$USERI2
 70
     0
  9
$USERI3
 70
     0
  9
$USERI4
 70
     0
  9
$USERI5
 70
     0
  9
$USERR1
 40
0.0
  9
$USERR2
 40
0.0
  9
$USERR3
 40
0.0
  9
$USERR4
 40
0.0
  9
$USERR5
 40
0.0
  9
$WORLDVIEW
 70
     1
  9
$SHADEDGE
 70
     3
  9
$SHADEDIF
 70
    70
  9
$TILEMODE
 70
     1
  9
$MAXACTVP
 70
    64
  9
$PLIMCHECK
 70
     0
  9
$PEXTMIN
 10
0.0
 20
0.0
 30
0.0
  9
$PEXTMAX
 10
0.0
 20
0.0
 30
0.0
  9
$PLIMMIN
 10
0.0
 20
0.0
  9
$PLIMMAX
 10
12.0
 20
9.0
  9
$UNITMODE
 70
     0
  9
$VISRETAIN
 70
     1
  9
$PLINEGEN
 70
     0
  9
$PSLTSCALE
 70
     1
  0
ENDSEC
  0
SECTION
  2
TABLES
  0
TABLE
  2
VPORT
 70
     1
  0
VPORT
  2
*ACTIVE
 70
     0
 10
0.0
 20
0.0
 11
1.0
 21
1.0
 12
-5137.1545764055354
 22
1041.1588285332029
 13
0.0
 23
0.0
 14
10.0
 24
10.0
 15
10.0
 25
10.0
 16
0.0
 26
0.0
 36
1.0
 17
0.0
 27
0.0
 37
0.0
 40
2306.8049654890392
 41
2.0409463148316651
 42
50.0
 43
0.0
 44
0.0
 50
0.0
 51
0.0
 71
     0
 72
  1000
 73
     1
 74
     3
 75
     0
 76
     0
 77
     0
 78
     0
  0
ENDTAB
  0
TABLE
  2
LTYPE
 70
     3
  0
LTYPE
  2
CONTINUOUS
 70
     0
  3
Solid line
 72
    65
 73
     0
 40
0.0
  0
LTYPE
  2
DASHDOT
 70
     0
  3
Dash dot __ . __ . __ . __ . __ . __ . __ . __
 72
    65
 73
     4
 40
1.0
 49
0.5
 49
-0.25
 49
0.0
 49
-0.25
  0
ENDTAB
  0
TABLE
  2
LAYER
 70
    10
  0
LAYER
  2
0
 70
     0
 62
     7
  6
CONTINUOUS
  0
LAYER
  2
WARSTWA_1
 70
     0
 62
     1
  6
CONTINUOUS
  0
LAYER
  2
DEFPOINTS
 70
     0
 62
     7
  6
CONTINUOUS
  0
LAYER
  2
WYMIARY
 70
     0
 62
     1
  6
CONTINUOUS
  0
LAYER
  2
CENTRALA
 70
     0
 62
     7
  6
CONTINUOUS
  0
LAYER
  2
OSIE
 70
     0
 62
     2
  6
DASHDOT
  0
LAYER
  2
POMOCNICZE
 70
     0
 62
     9
  6
CONTINUOUS
  0
LAYER
  2
KONTURY
 70
     0
 62
     1
  6
CONTINUOUS
  0
LAYER
  2
WIERCENIE
 70
     0
 62
     7
  6
CONTINUOUS
  0
LAYER
  2
MASKOWNICA
 70
     0
 62
     5
  6
CONTINUOUS
  0
ENDTAB
  0
TABLE
  2
STYLE
 70
     3
  0
STYLE
  2
STANDARD
 70
     0
 40
0.0
 41
1.0
 50
0.0
 71
     0
 42
2.5
  3
txt
  4

  0
STYLE
  2
OPISOWY
 70
     0
 40
0.0
 41
1.0
 50
0.0
 71
     0
 42
2.5
  3
txt
  4

  0
STYLE
  2
ARIAL
 70
     0
 40
1.0
 41
1.0
 50
0.0
 71
     0
 42
1.0
  3
Arial
  4

  0
ENDTAB
  0
TABLE
  2
VIEW
 70
     0
  0
ENDTAB
  0
TABLE
  2
UCS
 70
     0
  0
ENDTAB
  0
TABLE
  2
APPID
 70
    14
  0
APPID
  2
ACAD
 70
     0
  0
APPID
  2
ACAD_PSEXT
 70
     0
  0
APPID
  2
ACADANNOPO
 70
     0
  0
APPID
  2
ACADANNOTATIVE
 70
     0
  0
APPID
  2
ACAD_DSTYLE_DIMJAG
 70
     0
  0
APPID
  2
ACAD_DSTYLE_DIMTALN
 70
     0
  0
APPID
  2
ACAD_MLEADERVER
 70
     0
  0
APPID
  2
ACAD_DSTYLE_DIMRADIAL_EXTENSION
 70
     0
  0
APPID
  2
ACAD_DSTYLE_DIMBREAK
 70
     0
  0
APPID
  2
ACAECLAYERSTANDARD
 70
     0
  0
APPID
  2
ACDBDYNAMICBLOCKGUID
 70
     0
  0
APPID
  2
ACDBBLOCKREPETAG
 70
     0
  0
APPID
  2
ACAD_EXEMPT_FROM_CAD_STANDARDS
 70
     0
  0
APPID
  2
CONTENTBLOCKICON
 70
     0
  0
ENDTAB
  0
TABLE
  2
DIMSTYLE
 70
     4
  0
DIMSTYLE
  2
STANDARD
 70
     0
  3

  4

  5

  6

  7

 40
1.0
 41
0.18
 42
0.0625
 43
0.38
 44
0.18
 45
0.0
 46
0.0
 47
0.0
 48
0.0
140
0.18
141
0.09
142
0.0
143
25.399999999999999
144
1.0
145
0.0
146
1.0
147
0.09
 71
     0
 72
     0
 73
     1
 74
     1
 75
     0
 76
     0
 77
     0
 78
     0
170
     0
171
     2
172
     0
173
     0
174
     0
175
     0
176
     0
177
     0
178
     0
  0
DIMSTYLE
  2
OPISOWY
 70
     0
  3

  4

  5

  6

  7

 40
0.0
 41
2.5
 42
0.625
 43
3.75
 44
1.25
 45
0.0
 46
0.0
 47
0.0
 48
0.0
140
2.5
141
2.5
142
0.0
143
0.03937007874016
144
1.0
145
0.0
146
1.0
147
0.625
 71
     0
 72
     0
 73
     0
 74
     0
 75
     0
 76
     0
 77
     1
 78
     8
170
     0
171
     3
172
     1
173
     0
174
     0
175
     0
176
     0
177
     0
178
     0
  0
DIMSTYLE
  2
ISO-25
 70
     0
  3

  4

  5

  6

  7

 40
1.0
 41
18.0
 42
3.0
 43
3.75
 44
1.25
 45
0.0
 46
0.0
 47
0.0
 48
0.0
140
18.0
141
2.5
142
0.0
143
0.03937007874016
144
1.0
145
0.0
146
1.0
147
8.0
 71
     0
 72
     0
 73
     0
 74
     1
 75
     0
 76
     0
 77
     1
 78
     8
170
     0
171
     3
172
     1
173
     0
174
     0
175
     0
176
     0
177
     0
178
     0
  0
DIMSTYLE
  2
CENTRALA
 70
     0
  3

  4

  5

  6

  7

 40
1.0
 41
18.0
 42
3.0
 43
0.38
 44
0.18
 45
0.0
 46
0.0
 47
0.0
 48
0.0
140
18.0
141
0.09
142
0.0
143
25.399999999999999
144
1.0
145
0.0
146
1.0
147
8.0
 71
     0
 72
     0
 73
     0
 74
     1
 75
     0
 76
     0
 77
     1
 78
     0
170
     0
171
     2
172
     0
173
     0
174
     0
175
     0
176
     0
177
     0
178
     0
  0
ENDTAB
  0
ENDSEC
  0
SECTION
  2
BLOCKS
  0
BLOCK
  8
0
  2
$MODEL_SPACE
 70
     0
 10
0.0
 20
0.0
 30
0.0
  3
$MODEL_SPACE
  1

  0
ENDBLK
  5
21
  8
0
  0
BLOCK
 67
     1
  8
0
  2
$PAPER_SPACE
 70
     0
 10
0.0
 20
0.0
 30
0.0
  3
$PAPER_SPACE
  1

  0
ENDBLK
  5
D5
 67
     1
  8
0
  0
BLOCK
  8
0
  2
*D1
 70
     1
 10
0.0
 20
0.0
 30
0.0
  3
*D1
  1

  0
LINE
  5
201
  8
WYMIARY
  6
CONTINUOUS
 62
     0
 10
-5673.7252724229056
 20
1727.173006940295
 30
0.0
 11
-5673.7252724229056
 21
1812.244112510183
 31
0.0
  0
LINE
  5
202
  8
WYMIARY
  6
CONTINUOUS
 62
     0
 10
-4733.7252724229056
 20
1727.173006940295
 30
0.0
 11
-4733.7252724229056
 21
1812.244112510183
 31
0.0
  0
LINE
  5
203
  8
WYMIARY
  6
CONTINUOUS
 62
     0
 10
-5655.7252724229047
 20
1812.0641125101829
 30
0.0
 11
-4751.7252724229047
 21
1812.0641125101829
 31
0.0
  0
SOLID
  5
204
  8
WYMIARY
  6
CONTINUOUS
 62
     0
 10
-5655.7252724229047
 20
1815.0641125101829
 30
0.0
 11
-5655.7252724229047
 21
1809.0641125101829
 31
0.0
 12
-5673.7252724229056
 22
1812.0641125101829
 32
0.0
 13
-5673.7252724229056
 23
1812.0641125101829
 33
0.0
  0
SOLID
  5
205
  8
WYMIARY
  6
CONTINUOUS
 62
     0
 10
-4751.7252724229047
 20
1815.0641125101829
 30
0.0
 11
-4751.7252724229047
 21
1809.0641125101829
 31
0.0
 12
-4733.7252724229056
 22
1812.0641125101829
 32
0.0
 13
-4733.7252724229056
 23
1812.0641125101829
 33
0.0
  0
INSERT
  5
206
  8
WYMIARY
  2
*U63
 10
0.0
 20
0.0
 30
0.0
  0
POINT
  5
207
  8
DEFPOINTS
  6
CONTINUOUS
 62
     0
 10
-5673.7252724229056
 20
1724.1730069402961
 30
0.0
  0
POINT
  5
208
  8
DEFPOINTS
  6
CONTINUOUS
 62
     0
 10
-4733.7252724229056
 20
1724.1730069402961
 30
0.0
  0
POINT
  5
209
  8
DEFPOINTS
  6
CONTINUOUS
 62
     0
 10
-4733.7252724229056
 20
1812.0641125101829
 30
0.0
  0
ENDBLK
  5
20A
  8
0
  0
BLOCK
  8
0
  2
*D2
 70
     1
 10
0.0
 20
0.0
 30
0.0
  3
*D2
  1

  0
LINE
  5
20D
  8
WYMIARY
  6
CONTINUOUS
 62
     0
 10
-5676.7252724229056
 20
1724.1730069402961
 30
0.0
 11
-5753.3081950969163
 21
1724.1730069402961
 31
0.0
  0
LINE
  5
20E
  8
WYMIARY
  6
CONTINUOUS
 62
     0
 10
-5676.7252724229056
 20
1184.173006940295
 30
0.0
 11
-5753.3081950969163
 21
1184.173006940295
 31
0.0
  0
LINE
  5
20F
  8
WYMIARY
  6
CONTINUOUS
 62
     0
 10
-5753.1281950969151
 20
1706.173006940295
 30
0.0
 11
-5753.1281950969151
 21
1202.173006940295
 31
0.0
  0
SOLID
  5
210
  8
WYMIARY
  6
CONTINUOUS
 62
     0
 10
-5756.1281950969151
 20
1706.173006940295
 30
0.0
 11
-5750.1281950969151
 21
1706.173006940295
 31
0.0
 12
-5753.1281950969151
 22
1724.1730069402961
 32
0.0
 13
-5753.1281950969151
 23
1724.1730069402961
 33
0.0
  0
SOLID
  5
211
  8
WYMIARY
  6
CONTINUOUS
 62
     0
 10
-5756.1281950969151
 20
1202.173006940295
 30
0.0
 11
-5750.1281950969151
 21
1202.173006940295
 31
0.0
 12
-5753.1281950969151
 22
1184.173006940295
 32
0.0
 13
-5753.1281950969151
 23
1184.173006940295
 33
0.0
  0
INSERT
  5
212
  8
WYMIARY
  2
*U64
 10
0.0
 20
0.0
 30
0.0
  0
POINT
  5
213
  8
DEFPOINTS
  6
CONTINUOUS
 62
     0
 10
-5673.7252724229056
 20
1724.1730069402961
 30
0.0
  0
POINT
  5
214
  8
DEFPOINTS
  6
CONTINUOUS
 62
     0
 10
-5673.7252724229056
 20
1184.173006940295
 30
0.0
  0
POINT
  5
215
  8
DEFPOINTS
  6
CONTINUOUS
 62
     0
 10
-5753.1281950969151
 20
1184.173006940295
 30
0.0
  0
ENDBLK
  5
216
  8
0
  0
BLOCK
  8
0
  2
*D3
 70
     1
 10
0.0
 20
0.0
 30
0.0
  3
*D3
  1

  0
LINE
  5
219
  8
WYMIARY
  6
CONTINUOUS
 62
     0
 10
-6472.971045460039
 20
1724.1730069402961
 30
0.0
 11
-6513.5365783464622
 21
1724.1730069402961
 31
0.0
  0
LINE
  5
21A
  8
WYMIARY
  6
CONTINUOUS
 62
     0
 10
-6485.971045460039
 20
1582.173006940295
 30
0.0
 11
-6513.5365783464622
 21
1582.173006940295
 31
0.0
  0
LINE
  5
21B
  8
WYMIARY
  6
CONTINUOUS
 62
     0
 10
-6513.3565783464628
 20
1706.173006940295
 30
0.0
 11
-6513.3565783464628
 21
1600.1730069402961
 31
0.0
  0
SOLID
  5
21C
  8
WYMIARY
  6
CONTINUOUS
 62
     0
 10
-6516.3565783464637
 20
1706.173006940295
 30
0.0
 11
-6510.3565783464628
 21
1706.173006940295
 31
0.0
 12
-6513.3565783464628
 22
1724.1730069402961
 32
0.0
 13
-6513.3565783464628
 23
1724.1730069402961
 33
0.0
  0
SOLID
  5
21D
  8
WYMIARY
  6
CONTINUOUS
 62
     0
 10
-6516.3565783464637
 20
1600.1730069402961
 30
0.0
 11
-6510.3565783464628
 21
1600.1730069402961
 31
0.0
 12
-6513.3565783464628
 22
1582.173006940295
 32
0.0
 13
-6513.3565783464628
 23
1582.173006940295
 33
0.0
  0
INSERT
  5
21E
  8
WYMIARY
  2
*U65
 10
0.0
 20
0.0
 30
0.0
  0
POINT
  5
21F
  8
DEFPOINTS
  6
CONTINUOUS
 62
     0
 10
-6469.971045460039
 20
1724.1730069402961
 30
0.0
  0
POINT
  5
220
  8
DEFPOINTS
  6
CONTINUOUS
 62
     0
 10
-6482.971045460039
 20
1582.173006940295
 30
0.0
  0
POINT
  5
221
  8
DEFPOINTS
  6
CONTINUOUS
 62
     0
 10
-6513.3565783464628
 20
1582.173006940295
 30
0.0
  0
ENDBLK
  5
222
  8
0
  0
BLOCK
  8
0
  2
*D4
 70
     1
 10
0.0
 20
0.0
 30
0.0
  3
*D4
  1

  0
LINE
  5
225
  8
WYMIARY
  6
CONTINUOUS
 62
     0
 10
-6485.971045460039
 20
1184.173006940295
 30
0.0
 11
-6513.5365783464622
 21
1184.173006940295
 31
0.0
  0
LINE
  5
226
  8
WYMIARY
  6
CONTINUOUS
 62
     0
 10
-6485.971045460039
 20
1318.1534507945021
 30
0.0
 11
-6513.5365783464622
 21
1318.1534507945021
 31
0.0
  0
LINE
  5
227
  8
WYMIARY
  6
CONTINUOUS
 62
     0
 10
-6513.3565783464628
 20
1202.173006940295
 30
0.0
 11
-6513.3565783464628
 21
1300.1534507945021
 31
0.0
  0
SOLID
  5
228
  8
WYMIARY
  6
CONTINUOUS
 62
     0
 10
-6516.3565783464637
 20
1202.173006940295
 30
0.0
 11
-6510.3565783464628
 21
1202.173006940295
 31
0.0
 12
-6513.3565783464628
 22
1184.173006940295
 32
0.0
 13
-6513.3565783464628
 23
1184.173006940295
 33
0.0
  0
SOLID
  5
229
  8
WYMIARY
  6
CONTINUOUS
 62
     0
 10
-6516.3565783464637
 20
1300.1534507945021
 30
0.0
 11
-6510.3565783464628
 21
1300.1534507945021
 31
0.0
 12
-6513.3565783464628
 22
1318.1534507945021
 32
0.0
 13
-6513.3565783464628
 23
1318.1534507945021
 33
0.0
  0
INSERT
  5
22A
  8
WYMIARY
  2
*U66
 10
0.0
 20
0.0
 30
0.0
  0
POINT
  5
22B
  8
DEFPOINTS
  6
CONTINUOUS
 62
     0
 10
-6482.971045460039
 20
1184.173006940295
 30
0.0
  0
POINT
  5
22C
  8
DEFPOINTS
  6
CONTINUOUS
 62
     0
 10
-6482.971045460039
 20
1318.1534507945021
 30
0.0
  0
POINT
  5
22D
  8
DEFPOINTS
  6
CONTINUOUS
 62
     0
 10
-6513.3565783464628
 20
1318.1534507945021
 30
0.0
  0
ENDBLK
  5
22E
  8
0
  0
BLOCK
  8
0
  2
*D5
 70
     1
 10
0.0
 20
0.0
 30
0.0
  3
*D5
  1

  0
LINE
  5
231
  8
WYMIARY
  6
CONTINUOUS
 62
     0
 10
-6482.971045460039
 20
1181.173006940295
 30
0.0
 11
-6482.971045460039
 21
1117.72329695848
 31
0.0
  0
LINE
  5
232
  8
WYMIARY
  6
CONTINUOUS
 62
     0
 10
-6225.971045460039
 20
1181.173006940295
 30
0.0
 11
-6225.971045460039
 21
1117.72329695848
 31
0.0
  0
LINE
  5
233
  8
WYMIARY
  6
CONTINUOUS
 62
     0
 10
-6464.971045460039
 20
1117.90329695848
 30
0.0
 11
-6243.971045460039
 21
1117.90329695848
 31
0.0
  0
SOLID
  5
234
  8
WYMIARY
  6
CONTINUOUS
 62
     0
 10
-6464.971045460039
 20
1120.90329695848
 30
0.0
 11
-6464.971045460039
 21
1114.90329695848
 31
0.0
 12
-6482.971045460039
 22
1117.90329695848
 32
0.0
 13
-6482.971045460039
 23
1117.90329695848
 33
0.0
  0
SOLID
  5
235
  8
WYMIARY
  6
CONTINUOUS
 62
     0
 10
-6243.971045460039
 20
1120.90329695848
 30
0.0
 11
-6243.971045460039
 21
1114.90329695848
 31
0.0
 12
-6225.971045460039
 22
1117.90329695848
 32
0.0
 13
-6225.971045460039
 23
1117.90329695848
 33
0.0
  0
INSERT
  5
236
  8
WYMIARY
  2
*U67
 10
0.0
 20
0.0
 30
0.0
  0
POINT
  5
237
  8
DEFPOINTS
  6
CONTINUOUS
 62
     0
 10
-6482.971045460039
 20
1184.173006940295
 30
0.0
  0
POINT
  5
238
  8
DEFPOINTS
  6
CONTINUOUS
 62
     0
 10
-6225.971045460039
 20
1184.173006940295
 30
0.0
  0
POINT
  5
239
  8
DEFPOINTS
  6
CONTINUOUS
 62
     0
 10
-6225.971045460039
 20
1117.90329695848
 30
0.0
  0
ENDBLK
  5
23A
  8
0
  0
BLOCK
  8
0
  2
*D6
 70
     1
 10
0.0
 20
0.0
 30
0.0
  3
*D6
  1

  0
LINE
  5
23D
  8
WARSTWA_1
 62
     0
 10
-6261.0883622053907
 20
1523.965709942471
 30
0.0
 11
-6146.8537287146864
 21
1640.560303938119
 31
0.0
  0
SOLID
  5
23E
  8
WARSTWA_1
 62
     0
 10
-6263.2312585911832
 20
1526.0652325262411
 30
0.0
 11
-6258.9454658196009
 21
1521.8661873587
 31
0.0
 12
-6273.6854977080147
 22
1511.1083316277229
 32
0.0
 13
-6273.6854977080147
 23
1511.1083316277229
 33
0.0
  0
SOLID
  5
23F
  8
WARSTWA_1
 62
     0
 10
-6148.9966251004771
 20
1642.65982652189
 30
0.0
 11
-6144.710832328894
 21
1638.4607813543489
 31
0.0
 12
-6134.2565932120642
 22
1653.4176822528671
 32
0.0
 13
-6134.2565932120642
 23
1653.4176822528671
 33
0.0
  0
INSERT
  5
240
  8
WYMIARY
  2
*U68
 10
0.0
 20
0.0
 30
0.0
  0
POINT
  5
241
  8
DEFPOINTS
 62
     0
 10
-6134.2565932120642
 20
1653.4176822528671
 30
0.0
  0
POINT
  5
242
  8
DEFPOINTS
 62
     0
 10
-6273.6854977080147
 20
1511.1083316277229
 30
0.0
  0
ENDBLK
  5
243
  8
0
  0
BLOCK
  8
0
  2
*D7
 70
     1
 10
0.0
 20
0.0
 30
0.0
  3
*D7
  1

  0
LINE
  5
246
  8
WARSTWA_1
 62
     0
 10
-6283.0883622053907
 20
1259.8561537966721
 30
0.0
 11
-6168.8537287146964
 21
1376.45074779233
 31
0.0
  0
SOLID
  5
247
  8
WARSTWA_1
 62
     0
 10
-6285.2312585911804
 20
1261.955676380443
 30
0.0
 11
-6280.9454658196
 21
1257.756631212902
 31
0.0
 12
-6295.6854977080138
 22
1246.9987754819231
 32
0.0
 13
-6295.6854977080138
 23
1246.9987754819231
 33
0.0
  0
SOLID
  5
248
  8
WARSTWA_1
 62
     0
 10
-6170.996625100488
 20
1378.5502703760999
 30
0.0
 11
-6166.7108323289049
 21
1374.3512252085591
 31
0.0
 12
-6156.2565932120742
 22
1389.3081261070779
 32
0.0
 13
-6156.2565932120742
 23
1389.3081261070779
 33
0.0
  0
INSERT
  5
249
  8
WYMIARY
  2
*U69
 10
0.0
 20
0.0
 30
0.0
  0
POINT
  5
24A
  8
DEFPOINTS
 62
     0
 10
-6156.2565932120742
 20
1389.3081261070779
 30
0.0
  0
POINT
  5
24B
  8
DEFPOINTS
 62
     0
 10
-6295.6854977080138
 20
1246.9987754819231
 30
0.0
  0
ENDBLK
  5
24C
  8
0
  0
BLOCK
  8
0
  2
*D8
 70
     1
 10
0.0
 20
0.0
 30
0.0
  3
*D8
  1

  0
LINE
  5
24F
  8
WYMIARY
  6
CONTINUOUS
 62
     0
 10
-3929.4151038069072
 20
1727.173006940295
 30
0.0
 11
-3929.4151038069072
 21
1828.18757612324
 31
0.0
  0
LINE
  5
250
  8
WYMIARY
  6
CONTINUOUS
 62
     0
 10
-4436.4151038069067
 20
1727.173006940295
 30
0.0
 11
-4436.4151038069067
 21
1828.18757612324
 31
0.0
  0
LINE
  5
251
  8
WYMIARY
  6
CONTINUOUS
 62
     0
 10
-3947.4151038069072
 20
1828.007576123239
 30
0.0
 11
-4418.4151038069058
 21
1828.007576123239
 31
0.0
  0
INSERT
  5
252
  8
WYMIARY
  2
*U70
 10
0.0
 20
0.0
 30
0.0
  0
SOLID
  5
253
  8
WYMIARY
  6
CONTINUOUS
 62
     0
 10
-3947.4151038069072
 20
1831.0075761232399
 30
0.0
 11
-3947.4151038069072
 21
1825.0075761232399
 31
0.0
 12
-3929.4151038069072
 22
1828.007576123239
 32
0.0
 13
-3929.4151038069072
 23
1828.007576123239
 33
0.0
  0
SOLID
  5
254
  8
WYMIARY
  6
CONTINUOUS
 62
     0
 10
-4418.4151038069058
 20
1831.0075761232399
 30
0.0
 11
-4418.4151038069058
 21
1825.0075761232399
 31
0.0
 12
-4436.4151038069067
 22
1828.007576123239
 32
0.0
 13
-4436.4151038069067
 23
1828.007576123239
 33
0.0
  0
POINT
  5
255
  8
DEFPOINTS
  6
CONTINUOUS
 62
     0
 10
-3929.4151038069072
 20
1724.1730069402961
 30
0.0
  0
POINT
  5
256
  8
DEFPOINTS
  6
CONTINUOUS
 62
     0
 10
-4436.4151038069067
 20
1724.1730069402961
 30
0.0
  0
POINT
  5
257
  8
DEFPOINTS
  6
CONTINUOUS
 62
     0
 10
-4436.4151038069067
 20
1828.007576123239
 30
0.0
  0
ENDBLK
  5
258
  8
0
  0
BLOCK
  8
0
  2
*D9
 70
     1
 10
0.0
 20
0.0
 30
0.0
  3
*D9
  1

  0
LINE
  5
25B
  8
WYMIARY
  6
CONTINUOUS
 62
     0
 10
-3926.4151038069058
 20
1724.1730069402961
 30
0.0
 11
-3898.849570920484
 21
1724.1730069402961
 31
0.0
  0
LINE
  5
25C
  8
WYMIARY
  6
CONTINUOUS
 62
     0
 10
-3926.4151038069058
 20
1582.173006940295
 30
0.0
 11
-3898.849570920484
 21
1582.173006940295
 31
0.0
  0
LINE
  5
25D
  8
WYMIARY
  6
CONTINUOUS
 62
     0
 10
-3899.0295709204838
 20
1706.173006940295
 30
0.0
 11
-3899.0295709204838
 21
1600.1730069402961
 31
0.0
  0
SOLID
  5
25E
  8
WYMIARY
  6
CONTINUOUS
 62
     0
 10
-3902.0295709204838
 20
1706.173006940295
 30
0.0
 11
-3896.0295709204838
 21
1706.173006940295
 31
0.0
 12
-3899.0295709204838
 22
1724.1730069402961
 32
0.0
 13
-3899.0295709204838
 23
1724.1730069402961
 33
0.0
  0
SOLID
  5
25F
  8
WYMIARY
  6
CONTINUOUS
 62
     0
 10
-3902.0295709204838
 20
1600.1730069402961
 30
0.0
 11
-3896.0295709204838
 21
1600.1730069402961
 31
0.0
 12
-3899.0295709204838
 22
1582.173006940295
 32
0.0
 13
-3899.0295709204838
 23
1582.173006940295
 33
0.0
  0
INSERT
  5
260
  8
WYMIARY
  2
*U71
 10
0.0
 20
0.0
 30
0.0
  0
POINT
  5
261
  8
DEFPOINTS
  6
CONTINUOUS
 62
     0
 10
-3929.4151038069072
 20
1724.1730069402961
 30
0.0
  0
POINT
  5
262
  8
DEFPOINTS
  6
CONTINUOUS
 62
     0
 10
-3929.4151038069058
 20
1582.173006940295
 30
0.0
  0
POINT
  5
263
  8
DEFPOINTS
  6
CONTINUOUS
 62
     0
 10
-3899.0295709204838
 20
1582.173006940295
 30
0.0
  0
ENDBLK
  5
264
  8
0
  0
BLOCK
  8
0
  2
*D10
 70
     1
 10
0.0
 20
0.0
 30
0.0
  3
*D10
  1

  0
LINE
  5
267
  8
WYMIARY
  6
CONTINUOUS
 62
     0
 10
-3926.4151038069058
 20
1184.173006940295
 30
0.0
 11
-3898.849570920484
 21
1184.173006940295
 31
0.0
  0
LINE
  5
268
  8
WYMIARY
  6
CONTINUOUS
 62
     0
 10
-3926.4151038069058
 20
1318.0367302098739
 30
0.0
 11
-3898.849570920484
 21
1318.0367302098739
 31
0.0
  0
LINE
  5
269
  8
WYMIARY
  6
CONTINUOUS
 62
     0
 10
-3899.0295709204838
 20
1202.173006940295
 30
0.0
 11
-3899.0295709204838
 21
1300.0367302098739
 31
0.0
  0
SOLID
  5
26A
  8
WYMIARY
  6
CONTINUOUS
 62
     0
 10
-3902.0295709204838
 20
1202.173006940295
 30
0.0
 11
-3896.0295709204838
 21
1202.173006940295
 31
0.0
 12
-3899.0295709204838
 22
1184.173006940295
 32
0.0
 13
-3899.0295709204838
 23
1184.173006940295
 33
0.0
  0
SOLID
  5
26B
  8
WYMIARY
  6
CONTINUOUS
 62
     0
 10
-3902.0295709204838
 20
1300.0367302098739
 30
0.0
 11
-3896.0295709204838
 21
1300.0367302098739
 31
0.0
 12
-3899.0295709204838
 22
1318.0367302098739
 32
0.0
 13
-3899.0295709204838
 23
1318.0367302098739
 33
0.0
  0
INSERT
  5
26C
  8
WYMIARY
  2
*U72
 10
0.0
 20
0.0
 30
0.0
  0
POINT
  5
26D
  8
DEFPOINTS
  6
CONTINUOUS
 62
     0
 10
-3929.4151038069072
 20
1184.173006940295
 30
0.0
  0
POINT
  5
26E
  8
DEFPOINTS
  6
CONTINUOUS
 62
     0
 10
-3929.4151038069072
 20
1318.0367302098739
 30
0.0
  0
POINT
  5
26F
  8
DEFPOINTS
  6
CONTINUOUS
 62
     0
 10
-3899.0295709204838
 20
1318.0367302098739
 30
0.0
  0
ENDBLK
  5
270
  8
0
  0
BLOCK
  8
0
  2
*D11
 70
     1
 10
0.0
 20
0.0
 30
0.0
  3
*D11
  1

  0
LINE
  5
273
  8
WYMIARY
  6
CONTINUOUS
 62
     0
 10
-3929.4151038069072
 20
1181.173006940295
 30
0.0
 11
-3929.4151038069072
 21
1120.4499013912809
 31
0.0
  0
LINE
  5
274
  8
WYMIARY
  6
CONTINUOUS
 62
     0
 10
-4186.4151038069067
 20
1181.173006940295
 30
0.0
 11
-4186.4151038069067
 21
1120.4499013912809
 31
0.0
  0
LINE
  5
275
  8
WYMIARY
  6
CONTINUOUS
 62
     0
 10
-3947.4151038069072
 20
1120.629901391281
 30
0.0
 11
-4168.4151038069058
 21
1120.629901391281
 31
0.0
  0
SOLID
  5
276
  8
WYMIARY
  6
CONTINUOUS
 62
     0
 10
-3947.4151038069072
 20
1123.629901391281
 30
0.0
 11
-3947.4151038069072
 21
1117.629901391281
 31
0.0
 12
-3929.4151038069072
 22
1120.629901391281
 32
0.0
 13
-3929.4151038069072
 23
1120.629901391281
 33
0.0
  0
SOLID
  5
277
  8
WYMIARY
  6
CONTINUOUS
 62
     0
 10
-4168.4151038069058
 20
1123.629901391281
 30
0.0
 11
-4168.4151038069058
 21
1117.629901391281
 31
0.0
 12
-4186.4151038069067
 22
1120.629901391281
 32
0.0
 13
-4186.4151038069067
 23
1120.629901391281
 33
0.0
  0
INSERT
  5
278
  8
WYMIARY
  2
*U73
 10
0.0
 20
0.0
 30
0.0
  0
POINT
  5
279
  8
DEFPOINTS
  6
CONTINUOUS
 62
     0
 10
-3929.4151038069072
 20
1184.173006940295
 30
0.0
  0
POINT
  5
27A
  8
DEFPOINTS
  6
CONTINUOUS
 62
     0
 10
-4186.4151038069067
 20
1184.173006940295
 30
0.0
  0
POINT
  5
27B
  8
DEFPOINTS
  6
CONTINUOUS
 62
     0
 10
-4186.4151038069067
 20
1120.629901391281
 30
0.0
  0
ENDBLK
  5
27C
  8
0
  0
BLOCK
  8
0
  2
*D12
 70
     1
 10
0.0
 20
0.0
 30
0.0
  3
*D12
  1

  0
LINE
  5
27F
  8
WYMIARY
 62
     0
 10
-4208.4151038069049
 20
1779.1730069402961
 30
0.0
 11
-4208.4151038069049
 21
1791.0754786125001
 31
0.0
  0
LINE
  5
280
  8
WYMIARY
 62
     0
 10
-3929.4151038069072
 20
1727.173006940295
 30
0.0
 11
-3929.4151038069072
 21
1791.0754786125001
 31
0.0
  0
LINE
  5
281
  8
WYMIARY
 62
     0
 10
-4190.4151038069049
 20
1790.8954786124989
 30
0.0
 11
-3947.4151038069072
 21
1790.8954786124989
 31
0.0
  0
SOLID
  5
282
  8
WYMIARY
 62
     0
 10
-4190.4151038069049
 20
1793.8954786124989
 30
0.0
 11
-4190.4151038069049
 21
1787.8954786124989
 31
0.0
 12
-4208.4151038069049
 22
1790.8954786124989
 32
0.0
 13
-4208.4151038069049
 23
1790.8954786124989
 33
0.0
  0
SOLID
  5
283
  8
WYMIARY
 62
     0
 10
-3947.4151038069072
 20
1793.8954786124989
 30
0.0
 11
-3947.4151038069072
 21
1787.8954786124989
 31
0.0
 12
-3929.4151038069072
 22
1790.8954786124989
 32
0.0
 13
-3929.4151038069072
 23
1790.8954786124989
 33
0.0
  0
INSERT
  5
284
  8
WYMIARY
  2
*U74
 10
0.0
 20
0.0
 30
0.0
  0
POINT
  5
285
  8
DEFPOINTS
 62
     0
 10
-4208.4151038069049
 20
1776.1730069402961
 30
0.0
  0
POINT
  5
286
  8
DEFPOINTS
 62
     0
 10
-3929.4151038069072
 20
1724.1730069402961
 30
0.0
  0
POINT
  5
287
  8
DEFPOINTS
 62
     0
 10
-3929.4151038069072
 20
1790.8954786124989
 30
0.0
  0
ENDBLK
  5
288
  8
0
  0
BLOCK
  8
0
  2
A$C5F6C7F99
 70
     0
 10
0.0
 20
0.0
 30
0.0
  3
A$C5F6C7F99
  1

  0
POLYLINE
  5
28C
  8
0
 66
     1
 10
0.0
 20
0.0
 30
0.0
 70
     1
1001
ACDBBLOCKREPETAG
1070
     1
1071
        0
1005
28C
  0
VERTEX
  5
2278
  8
0
 10
139.5
 20
-122.5
 30
0.0
  0
VERTEX
  5
2279
  8
0
 10
-139.5
 20
-122.5
 30
0.0
 42
-0.4142135623730951
  0
VERTEX
  5
227A
  8
0
 10
-142.5
 20
-119.5000000000009
 30
0.0
  0
VERTEX
  5
227B
  8
0
 10
-142.5
 20
119.5
 30
0.0
 42
-0.4142135623730951
  0
VERTEX
  5
227C
  8
0
 10
-139.5
 20
122.5
 30
0.0
  0
VERTEX
  5
227D
  8
0
 10
139.5
 20
122.5
 30
0.0
 42
-0.4142135623730951
  0
VERTEX
  5
227E
  8
0
 10
142.5
 20
119.5
 30
0.0
  0
VERTEX
  5
227F
  8
0
 10
142.5
 20
-119.5000000000009
 30
0.0
 42
-0.4142135623730951
  0
SEQEND
  5
2280
  8
0
  0
CIRCLE
  5
28D
  8
0
 10
72.5
 20
-117.5
 30
0.0
 40
2.5
1001
ACDBBLOCKREPETAG
1070
     1
1071
        1
1005
28D
  0
CIRCLE
  5
28E
  8
0
 10
137.5
 20
-52.5
 30
0.0
 40
2.5
1001
ACDBBLOCKREPETAG
1070
     1
1071
        2
1005
28E
  0
CIRCLE
  5
28F
  8
0
 10
-72.5
 20
-117.5
 30
0.0
 40
2.5
1001
ACDBBLOCKREPETAG
1070
     1
1071
        3
1005
28F
  0
CIRCLE
  5
290
  8
0
 10
-137.5
 20
-52.5
 30
0.0
 40
2.5
1001
ACDBBLOCKREPETAG
1070
     1
1071
        4
1005
290
  0
CIRCLE
  5
291
  8
0
 10
72.5
 20
117.5
 30
0.0
 40
2.5
1001
ACDBBLOCKREPETAG
1070
     1
1071
        5
1005
291
  0
CIRCLE
  5
292
  8
0
 10
137.5
 20
52.5
 30
0.0
 40
2.5
1001
ACDBBLOCKREPETAG
1070
     1
1071
        6
1005
292
  0
CIRCLE
  5
293
  8
0
 10
-72.5
 20
117.5
 30
0.0
 40
2.5
1001
ACDBBLOCKREPETAG
1070
     1
1071
        7
1005
293
  0
CIRCLE
  5
294
  8
0
 10
-137.5
 20
52.5
 30
0.0
 40
2.5
1001
ACDBBLOCKREPETAG
1070
     1
1071
        8
1005
294
  0
CIRCLE
  5
295
  8
0
 10
127.5
 20
-107.5000000000009
 30
0.0
 40
2.5
1001
ACDBBLOCKREPETAG
1070
     1
1071
        9
1005
295
  0
CIRCLE
  5
296
  8
0
 10
-127.5
 20
-107.5000000000009
 30
0.0
 40
2.5
1001
ACDBBLOCKREPETAG
1070
     1
1071
       10
1005
296
  0
CIRCLE
  5
297
  8
0
 10
127.5
 20
107.5
 30
0.0
 40
2.5
1001
ACDBBLOCKREPETAG
1070
     1
1071
       11
1005
297
  0
CIRCLE
  5
298
  8
0
 10
-127.5
 20
107.5
 30
0.0
 40
2.5
1001
ACDBBLOCKREPETAG
1070
     1
1071
       12
1005
298
  0
ENDBLK
  5
299
  8
0
  0
BLOCK
  8
0
  2
NÓŻKA_53
 70
     0
 10
0.0
 20
0.0
 30
0.0
  3
NÓŻKA_53
  1

  0
POLYLINE
  5
29C
  8
0
 66
     1
 10
0.0
 20
0.0
 30
0.0
 70
     1
  0
VERTEX
  5
2282
  8
0
 10
-6995.8296774364744
 20
1211.189029333347
 30
0.0
  0
VERTEX
  5
2283
  8
0
 10
-6915.8296774364744
 20
1211.189029333347
 30
0.0
  0
VERTEX
  5
2284
  8
0
 10
-6915.8296774364744
 20
1199.189029333347
 30
0.0
  0
VERTEX
  5
2285
  8
0
 10
-6995.8296774364744
 20
1199.189029333347
 30
0.0
  0
SEQEND
  5
2286
  8
0
  0
POLYLINE
  5
29D
  8
0
 66
     1
 10
0.0
 20
0.0
 30
0.0
 70
   128
  0
VERTEX
  5
2287
  8
0
 10
-6929.3296774364744
 20
1199.189029333347
 30
0.0
  0
VERTEX
  5
2288
  8
0
 10
-6929.3296774364744
 20
1155.189029333347
 30
0.0
  0
VERTEX
  5
2289
  8
0
 10
-6982.3296774364744
 20
1155.189029333347
 30
0.0
  0
VERTEX
  5
228A
  8
0
 10
-6982.3296774364744
 20
1199.189029333347
 30
0.0
  0
SEQEND
  5
228B
  8
0
  0
ENDBLK
  5
29E
  8
0
  0
BLOCK
  8
0
  2
GNIAZDO_ZASILANIA_20_A
 70
     0
 10
0.0
 20
0.0
 30
0.0
  3
GNIAZDO_ZASILANIA_20_A
  1

  0
POLYLINE
  5
2A1
  8
POMOCNICZE
  6
CONTINUOUS
 66
     1
 10
0.0
 20
0.0
 30
0.0
 70
     1
  0
VERTEX
  5
228C
  8
POMOCNICZE
  6
CONTINUOUS
 10
-21.5
 20
14.99999999999998
 30
0.0
  0
VERTEX
  5
228D
  8
POMOCNICZE
  6
CONTINUOUS
 10
21.5
 20
14.99999999999998
 30
0.0
 42
-0.4142135623730951
  0
VERTEX
  5
228E
  8
POMOCNICZE
  6
CONTINUOUS
 10
26.5
 20
9.999999999999984
 30
0.0
  0
VERTEX
  5
228F
  8
POMOCNICZE
  6
CONTINUOUS
 10
26.5
 20
-10.000000000000011
 30
0.0
 42
-0.4142135623730951
  0
VERTEX
  5
2290
  8
POMOCNICZE
  6
CONTINUOUS
 10
21.5
 20
-15.000000000000011
 30
0.0
  0
VERTEX
  5
2291
  8
POMOCNICZE
  6
CONTINUOUS
 10
-21.5
 20
-15.000000000000011
 30
0.0
 42
-0.4142135623730951
  0
VERTEX
  5
2292
  8
POMOCNICZE
  6
CONTINUOUS
 10
-26.5
 20
-10.000000000000011
 30
0.0
  0
VERTEX
  5
2293
  8
POMOCNICZE
  6
CONTINUOUS
 10
-26.5
 20
9.999999999999984
 30
0.0
 42
-0.4142135623730951
  0
SEQEND
  5
2294
  8
POMOCNICZE
  6
CONTINUOUS
  0
POLYLINE
  5
2A2
  8
POMOCNICZE
  6
CONTINUOUS
 66
     1
 10
0.0
 20
0.0
 30
0.0
 70
     1
  0
VERTEX
  5
2295
  8
POMOCNICZE
  6
CONTINUOUS
 10
-11.5
 20
10.49999999999998
 30
0.0
  0
VERTEX
  5
2296
  8
POMOCNICZE
  6
CONTINUOUS
 10
11.5
 20
10.49999999999998
 30
0.0
 42
-0.4142135623730951
  0
VERTEX
  5
2297
  8
POMOCNICZE
  6
CONTINUOUS
 10
14.5
 20
7.4999999999999849
 30
0.0
  0
VERTEX
  5
2298
  8
POMOCNICZE
  6
CONTINUOUS
 10
14.5
 20
-7.5000000000000133
 30
0.0
 42
-0.4142135623730951
  0
VERTEX
  5
2299
  8
POMOCNICZE
  6
CONTINUOUS
 10
11.5
 20
-10.500000000000011
 30
0.0
  0
VERTEX
  5
229A
  8
POMOCNICZE
  6
CONTINUOUS
 10
-11.5
 20
-10.500000000000011
 30
0.0
 42
-0.4142135623730951
  0
VERTEX
  5
229B
  8
POMOCNICZE
  6
CONTINUOUS
 10
-14.5
 20
-7.5000000000000133
 30
0.0
  0
VERTEX
  5
229C
  8
POMOCNICZE
  6
CONTINUOUS
 10
-14.5
 20
7.4999999999999849
 30
0.0
 42
-0.4142135623730951
  0
SEQEND
  5
229D
  8
POMOCNICZE
  6
CONTINUOUS
  0
CIRCLE
  5
2A3
  8
POMOCNICZE
  6
CONTINUOUS
 10
-21.5
 20
-0.0000000000000142
 30
0.0
 40
1.5
  0
CIRCLE
  5
2A4
  8
POMOCNICZE
  6
CONTINUOUS
 10
21.5
 20
-0.0000000000000142
 30
0.0
 40
1.5
  0
ENDBLK
  5
2A5
  8
0
  0
BLOCK
  8
0
  2
GALKA-BOK
 70
     0
 10
0.0
 20
0.0
 30
0.0
  3
GALKA-BOK
  1

  0
POLYLINE
  5
2A8
  8
0
 62
     5
 66
     1
 10
0.0
 20
0.0
 30
0.0
 70
     1
  0
VERTEX
  5
229F
  8
0
 62
     5
 10
513.60568399835734
 20
-235.79423081355341
 30
0.0
  0
VERTEX
  5
22A0
  8
0
 62
     5
 10
531.60568399835734
 20
-235.79423081355341
 30
0.0
 42
-0.4142135623730951
  0
VERTEX
  5
22A1
  8
0
 62
     5
 10
539.60568399835734
 20
-243.79423081355341
 30
0.0
  0
VERTEX
  5
22A2
  8
0
 62
     5
 10
539.60568399835734
 20
-249.79423081355341
 30
0.0
  0
VERTEX
  5
22A3
  8
0
 62
     5
 10
505.60568399835751
 20
-249.79423081355341
 30
0.0
  0
VERTEX
  5
22A4
  8
0
 62
     5
 10
505.60568399835751
 20
-243.79423081355341
 30
0.0
 42
-0.4142135623730951
  0
SEQEND
  5
22A5
  8
0
 62
     5
  0
POLYLINE
  5
2A9
  8
0
 62
     5
 66
     1
 10
0.0
 20
0.0
 30
0.0
 70
     1
  0
VERTEX
  5
22A6
  8
0
 62
     5
 10
513.60568399835734
 20
-249.79423081355341
 30
0.0
  0
VERTEX
  5
22A7
  8
0
 62
     5
 10
531.60568399835734
 20
-249.79423081355341
 30
0.0
  0
VERTEX
  5
22A8
  8
0
 62
     5
 10
531.60568399835734
 20
-256.79423081355338
 30
0.0
  0
VERTEX
  5
22A9
  8
0
 62
     5
 10
513.60568399835734
 20
-256.79423081355338
 30
0.0
  0
SEQEND
  5
22AA
  8
0
 62
     5
  0
POLYLINE
  5
2AA
  8
0
 62
     5
 66
     1
 10
0.0
 20
0.0
 30
0.0
  0
VERTEX
  5
22AB
  8
0
 62
     5
 10
508.60568399835762
 20
-243.79423081355341
 30
0.0
  0
VERTEX
  5
22AC
  8
0
 62
     5
 10
508.60568399835762
 20
-249.79423081355341
 30
0.0
  0
SEQEND
  5
22AD
  8
0
 62
     5
  0
POLYLINE
  8
0
  5
250B
  62
5
  66
     1
 10
0.000000
 20
0.000000
 30
0.000000
  70
     8
  0
VERTEX
  8
0
  5
250C
 10
508.606
 20
-243.794
 30
0.000000
  70
    32
  0
VERTEX
  8
0
  5
250D
 10
508.650
 20
-243.718
 30
0.000000
  70
    32
  0
VERTEX
  8
0
  5
250E
 10
508.694
 20
-243.641
 30
0.000000
  70
    32
  0
VERTEX
  8
0
  5
250F
 10
508.738
 20
-243.565
 30
0.000000
  70
    32
  0
VERTEX
  8
0
  5
2510
 10
508.783
 20
-243.488
 30
0.000000
  70
    32
  0
VERTEX
  8
0
  5
2511
 10
508.827
 20
-243.412
 30
0.000000
  70
    32
  0
VERTEX
  8
0
  5
2512
 10
508.871
 20
-243.335
 30
0.000000
  70
    32
  0
VERTEX
  8
0
  5
2513
 10
508.915
 20
-243.259
 30
0.000000
  70
    32
  0
VERTEX
  8
0
  5
2514
 10
508.960
 20
-243.183
 30
0.000000
  70
    32
  0
VERTEX
  8
0
  5
2515
 10
509.004
 20
-243.106
 30
0.000000
  70
    32
  0
VERTEX
  8
0
  5
2516
 10
509.048
 20
-243.030
 30
0.000000
  70
    32
  0
VERTEX
  8
0
  5
2517
 10
509.093
 20
-242.954
 30
0.000000
  70
    32
  0
VERTEX
  8
0
  5
2518
 10
509.137
 20
-242.878
 30
0.000000
  70
    32
  0
VERTEX
  8
0
  5
2519
 10
509.181
 20
-242.802
 30
0.000000
  70
    32
  0
VERTEX
  8
0
  5
251A
 10
509.226
 20
-242.725
 30
0.000000
  70
    32
  0
VERTEX
  8
0
  5
251B
 10
509.270
 20
-242.649
 30
0.000000
  70
    32
  0
VERTEX
  8
0
  5
251C
 10
509.315
 20
-242.574
 30
0.000000
  70
    32
  0
VERTEX
  8
0
  5
251D
 10
509.359
 20
-242.498
 30
0.000000
  70
    32
  0
VERTEX
  8
0
  5
251E
 10
509.404
 20
-242.422
 30
0.000000
  70
    32
  0
VERTEX
  8
0
  5
251F
 10
509.449
 20
-242.346
 30
0.000000
  70
    32
  0
VERTEX
  8
0
  5
2520
 10
509.493
 20
-242.271
 30
0.000000
  70
    32
  0
VERTEX
  8
0
  5
2521
 10
509.538
 20
-242.195
 30
0.000000
  70
    32
  0
VERTEX
  8
0
  5
2522
 10
509.583
 20
-242.120
 30
0.000000
  70
    32
  0
VERTEX
  8
0
  5
2523
 10
509.628
 20
-242.045
 30
0.000000
  70
    32
  0
VERTEX
  8
0
  5
2524
 10
509.672
 20
-241.970
 30
0.000000
  70
    32
  0
VERTEX
  8
0
  5
2525
 10
509.717
 20
-241.895
 30
0.000000
  70
    32
  0
VERTEX
  8
0
  5
2526
 10
509.762
 20
-241.820
 30
0.000000
  70
    32
  0
VERTEX
  8
0
  5
2527
 10
509.808
 20
-241.745
 30
0.000000
  70
    32
  0
VERTEX
  8
0
  5
2528
 10
509.853
 20
-241.670
 30
0.000000
  70
    32
  0
VERTEX
  8
0
  5
2529
 10
509.898
 20
-241.596
 30
0.000000
  70
    32
  0
VERTEX
  8
0
  5
252A
 10
509.943
 20
-241.522
 30
0.000000
  70
    32
  0
VERTEX
  8
0
  5
252B
 10
509.989
 20
-241.448
 30
0.000000
  70
    32
  0
VERTEX
  8
0
  5
252C
 10
510.034
 20
-241.374
 30
0.000000
  70
    32
  0
VERTEX
  8
0
  5
252D
 10
510.079
 20
-241.300
 30
0.000000
  70
    32
  0
VERTEX
  8
0
  5
252E
 10
510.125
 20
-241.226
 30
0.000000
  70
    32
  0
VERTEX
  8
0
  5
252F
 10
510.171
 20
-241.152
 30
0.000000
  70
    32
  0
VERTEX
  8
0
  5
2530
 10
510.216
 20
-241.079
 30
0.000000
  70
    32
  0
VERTEX
  8
0
  5
2531
 10
510.262
 20
-241.006
 30
0.000000
  70
    32
  0
VERTEX
  8
0
  5
2532
 10
510.308
 20
-240.933
 30
0.000000
  70
    32
  0
VERTEX
  8
0
  5
2533
 10
510.354
 20
-240.860
 30
0.000000
  70
    32
  0
VERTEX
  8
0
  5
2534
 10
510.400
 20
-240.788
 30
0.000000
  70
    32
  0
VERTEX
  8
0
  5
2535
 10
510.447
 20
-240.715
 30
0.000000
  70
    32
  0
VERTEX
  8
0
  5
2536
 10
510.493
 20
-240.643
 30
0.000000
  70
    32
  0
VERTEX
  8
0
  5
2537
 10
510.539
 20
-240.571
 30
0.000000
  70
    32
  0
VERTEX
  8
0
  5
2538
 10
510.586
 20
-240.499
 30
0.000000
  70
    32
  0
VERTEX
  8
0
  5
2539
 10
510.633
 20
-240.428
 30
0.000000
  70
    32
  0
VERTEX
  8
0
  5
253A
 10
510.679
 20
-240.357
 30
0.000000
  70
    32
  0
VERTEX
  8
0
  5
253B
 10
510.726
 20
-240.285
 30
0.000000
  70
    32
  0
VERTEX
  8
0
  5
253C
 10
510.773
 20
-240.215
 30
0.000000
  70
    32
  0
VERTEX
  8
0
  5
253D
 10
510.820
 20
-240.144
 30
0.000000
  70
    32
  0
VERTEX
  8
0
  5
253E
 10
510.868
 20
-240.074
 30
0.000000
  70
    32
  0
VERTEX
  8
0
  5
253F
 10
510.915
 20
-240.004
 30
0.000000
  70
    32
  0
VERTEX
  8
0
  5
2540
 10
510.962
 20
-239.934
 30
0.000000
  70
    32
  0
VERTEX
  8
0
  5
2541
 10
511.010
 20
-239.864
 30
0.000000
  70
    32
  0
VERTEX
  8
0
  5
2542
 10
511.058
 20
-239.795
 30
0.000000
  70
    32
  0
VERTEX
  8
0
  5
2543
 10
511.105
 20
-239.726
 30
0.000000
  70
    32
  0
VERTEX
  8
0
  5
2544
 10
511.153
 20
-239.657
 30
0.000000
  70
    32
  0
VERTEX
  8
0
  5
2545
 10
511.202
 20
-239.589
 30
0.000000
  70
    32
  0
VERTEX
  8
0
  5
2546
 10
511.250
 20
-239.520
 30
0.000000
  70
    32
  0
VERTEX
  8
0
  5
2547
 10
511.298
 20
-239.452
 30
0.000000
  70
    32
  0
VERTEX
  8
0
  5
2548
 10
511.347
 20
-239.385
 30
0.000000
  70
    32
  0
VERTEX
  8
0
  5
2549
 10
511.396
 20
-239.318
 30
0.000000
  70
    32
  0
VERTEX
  8
0
  5
254A
 10
511.444
 20
-239.251
 30
0.000000
  70
    32
  0
VERTEX
  8
0
  5
254B
 10
511.493
 20
-239.184
 30
0.000000
  70
    32
  0
VERTEX
  8
0
  5
254C
 10
511.543
 20
-239.118
 30
0.000000
  70
    32
  0
VERTEX
  8
0
  5
254D
 10
511.592
 20
-239.051
 30
0.000000
  70
    32
  0
VERTEX
  8
0
  5
254E
 10
511.641
 20
-238.986
 30
0.000000
  70
    32
  0
VERTEX
  8
0
  5
254F
 10
511.691
 20
-238.920
 30
0.000000
  70
    32
  0
VERTEX
  8
0
  5
2550
 10
511.741
 20
-238.855
 30
0.000000
  70
    32
  0
VERTEX
  8
0
  5
2551
 10
511.791
 20
-238.791
 30
0.000000
  70
    32
  0
VERTEX
  8
0
  5
2552
 10
511.841
 20
-238.726
 30
0.000000
  70
    32
  0
VERTEX
  8
0
  5
2553
 10
511.891
 20
-238.662
 30
0.000000
  70
    32
  0
VERTEX
  8
0
  5
2554
 10
511.942
 20
-238.599
 30
0.000000
  70
    32
  0
VERTEX
  8
0
  5
2555
 10
511.992
 20
-238.535
 30
0.000000
  70
    32
  0
VERTEX
  8
0
  5
2556
 10
512.043
 20
-238.472
 30
0.000000
  70
    32
  0
VERTEX
  8
0
  5
2557
 10
512.094
 20
-238.410
 30
0.000000
  70
    32
  0
VERTEX
  8
0
  5
2558
 10
512.145
 20
-238.348
 30
0.000000
  70
    32
  0
VERTEX
  8
0
  5
2559
 10
512.197
 20
-238.286
 30
0.000000
  70
    32
  0
VERTEX
  8
0
  5
255A
 10
512.248
 20
-238.224
 30
0.000000
  70
    32
  0
VERTEX
  8
0
  5
255B
 10
512.300
 20
-238.163
 30
0.000000
  70
    32
  0
VERTEX
  8
0
  5
255C
 10
512.352
 20
-238.103
 30
0.000000
  70
    32
  0
VERTEX
  8
0
  5
255D
 10
512.404
 20
-238.043
 30
0.000000
  70
    32
  0
VERTEX
  8
0
  5
255E
 10
512.457
 20
-237.983
 30
0.000000
  70
    32
  0
VERTEX
  8
0
  5
255F
 10
512.509
 20
-237.923
 30
0.000000
  70
    32
  0
VERTEX
  8
0
  5
2560
 10
512.562
 20
-237.864
 30
0.000000
  70
    32
  0
VERTEX
  8
0
  5
2561
 10
512.615
 20
-237.806
 30
0.000000
  70
    32
  0
VERTEX
  8
0
  5
2562
 10
512.668
 20
-237.748
 30
0.000000
  70
    32
  0
VERTEX
  8
0
  5
2563
 10
512.722
 20
-237.690
 30
0.000000
  70
    32
  0
VERTEX
  8
0
  5
2564
 10
512.775
 20
-237.633
 30
0.000000
  70
    32
  0
VERTEX
  8
0
  5
2565
 10
512.829
 20
-237.576
 30
0.000000
  70
    32
  0
VERTEX
  8
0
  5
2566
 10
512.883
 20
-237.520
 30
0.000000
  70
    32
  0
VERTEX
  8
0
  5
2567
 10
512.937
 20
-237.464
 30
0.000000
  70
    32
  0
VERTEX
  8
0
  5
2568
 10
512.992
 20
-237.408
 30
0.000000
  70
    32
  0
VERTEX
  8
0
  5
2569
 10
513.046
 20
-237.353
 30
0.000000
  70
    32
  0
VERTEX
  8
0
  5
256A
 10
513.101
 20
-237.299
 30
0.000000
  70
    32
  0
VERTEX
  8
0
  5
256B
 10
513.157
 20
-237.245
 30
0.000000
  70
    32
  0
VERTEX
  8
0
  5
256C
 10
513.212
 20
-237.191
 30
0.000000
  70
    32
  0
VERTEX
  8
0
  5
256D
 10
513.268
 20
-237.138
 30
0.000000
  70
    32
  0
VERTEX
  8
0
  5
256E
 10
513.323
 20
-237.085
 30
0.000000
  70
    32
  0
VERTEX
  8
0
  5
256F
 10
513.380
 20
-237.033
 30
0.000000
  70
    32
  0
VERTEX
  8
0
  5
2570
 10
513.436
 20
-236.982
 30
0.000000
  70
    32
  0
VERTEX
  8
0
  5
2571
 10
513.492
 20
-236.930
 30
0.000000
  70
    32
  0
VERTEX
  8
0
  5
2572
 10
513.549
 20
-236.880
 30
0.000000
  70
    32
  0
VERTEX
  8
0
  5
2573
 10
513.606
 20
-236.830
 30
0.000000
  70
    32
  0
VERTEX
  8
0
  5
2574
 10
513.664
 20
-236.780
 30
0.000000
  70
    32
  0
VERTEX
  8
0
  5
2575
 10
513.721
 20
-236.731
 30
0.000000
  70
    32
  0
VERTEX
  8
0
  5
2576
 10
513.779
 20
-236.683
 30
0.000000
  70
    32
  0
VERTEX
  8
0
  5
2577
 10
513.837
 20
-236.635
 30
0.000000
  70
    32
  0
VERTEX
  8
0
  5
2578
 10
513.896
 20
-236.587
 30
0.000000
  70
    32
  0
VERTEX
  8
0
  5
2579
 10
513.954
 20
-236.540
 30
0.000000
  70
    32
  0
VERTEX
  8
0
  5
257A
 10
514.013
 20
-236.494
 30
0.000000
  70
    32
  0
VERTEX
  8
0
  5
257B
 10
514.072
 20
-236.448
 30
0.000000
  70
    32
  0
VERTEX
  8
0
  5
257C
 10
514.132
 20
-236.403
 30
0.000000
  70
    32
  0
VERTEX
  8
0
  5
257D
 10
514.192
 20
-236.358
 30
0.000000
  70
    32
  0
VERTEX
  8
0
  5
257E
 10
514.252
 20
-236.314
 30
0.000000
  70
    32
  0
VERTEX
  8
0
  5
257F
 10
514.312
 20
-236.270
 30
0.000000
  70
    32
  0
VERTEX
  8
0
  5
2580
 10
514.373
 20
-236.227
 30
0.000000
  70
    32
  0
VERTEX
  8
0
  5
2581
 10
514.433
 20
-236.185
 30
0.000000
  70
    32
  0
VERTEX
  8
0
  5
2582
 10
514.495
 20
-236.143
 30
0.000000
  70
    32
  0
VERTEX
  8
0
  5
2583
 10
514.556
 20
-236.102
 30
0.000000
  70
    32
  0
VERTEX
  8
0
  5
2584
 10
514.618
 20
-236.061
 30
0.000000
  70
    32
  0
VERTEX
  8
0
  5
2585
 10
514.680
 20
-236.021
 30
0.000000
  70
    32
  0
VERTEX
  8
0
  5
2586
 10
514.742
 20
-235.982
 30
0.000000
  70
    32
  0
VERTEX
  8
0
  5
2587
 10
514.805
 20
-235.943
 30
0.000000
  70
    32
  0
VERTEX
  8
0
  5
2588
 10
514.868
 20
-235.905
 30
0.000000
  70
    32
  0
VERTEX
  8
0
  5
2589
 10
514.931
 20
-235.867
 30
0.000000
  70
    32
  0
VERTEX
  8
0
  5
258A
 10
514.994
 20
-235.831
 30
0.000000
  70
    32
  0
VERTEX
  8
0
  5
258B
 10
515.058
 20
-235.794
 30
0.000000
  70
    32
  0
SEQEND
  8
0
  5
258C
  0
POLYLINE
  8
0
  5
258D
  62
5
  66
     1
 10
0.000000
 20
0.000000
 30
0.000000
  70
     8
  0
VERTEX
  8
0
  5
258E
 10
522.606
 20
-235.794
 30
0.000000
  70
    32
  0
VERTEX
  8
0
  5
258F
 10
522.815
 20
-235.829
 30
0.000000
  70
    32
  0
VERTEX
  8
0
  5
2590
 10
523.021
 20
-235.864
 30
0.000000
  70
    32
  0
VERTEX
  8
0
  5
2591
 10
523.225
 20
-235.900
 30
0.000000
  70
    32
  0
VERTEX
  8
0
  5
2592
 10
523.426
 20
-235.936
 30
0.000000
  70
    32
  0
VERTEX
  8
0
  5
2593
 10
523.625
 20
-235.972
 30
0.000000
  70
    32
  0
VERTEX
  8
0
  5
2594
 10
523.821
 20
-236.009
 30
0.000000
  70
    32
  0
VERTEX
  8
0
  5
2595
 10
524.015
 20
-236.046
 30
0.000000
  70
    32
  0
VERTEX
  8
0
  5
2596
 10
524.206
 20
-236.083
 30
0.000000
  70
    32
  0
VERTEX
  8
0
  5
2597
 10
524.395
 20
-236.121
 30
0.000000
  70
    32
  0
VERTEX
  8
0
  5
2598
 10
524.582
 20
-236.159
 30
0.000000
  70
    32
  0
VERTEX
  8
0
  5
2599
 10
524.767
 20
-236.198
 30
0.000000
  70
    32
  0
VERTEX
  8
0
  5
259A
 10
524.949
 20
-236.236
 30
0.000000
  70
    32
  0
VERTEX
  8
0
  5
259B
 10
525.129
 20
-236.275
 30
0.000000
  70
    32
  0
VERTEX
  8
0
  5
259C
 10
525.307
 20
-236.314
 30
0.000000
  70
    32
  0
VERTEX
  8
0
  5
259D
 10
525.482
 20
-236.354
 30
0.000000
  70
    32
  0
VERTEX
  8
0
  5
259E
 10
525.655
 20
-236.394
 30
0.000000
  70
    32
  0
VERTEX
  8
0
  5
259F
 10
525.826
 20
-236.434
 30
0.000000
  70
    32
  0
VERTEX
  8
0
  5
25A0
 10
525.995
 20
-236.475
 30
0.000000
  70
    32
  0
VERTEX
  8
0
  5
25A1
 10
526.162
 20
-236.516
 30
0.000000
  70
    32
  0
VERTEX
  8
0
  5
25A2
 10
526.327
 20
-236.557
 30
0.000000
  70
    32
  0
VERTEX
  8
0
  5
25A3
 10
526.490
 20
-236.598
 30
0.000000
  70
    32
  0
VERTEX
  8
0
  5
25A4
 10
526.651
 20
-236.640
 30
0.000000
  70
    32
  0
VERTEX
  8
0
  5
25A5
 10
526.810
 20
-236.682
 30
0.000000
  70
    32
  0
VERTEX
  8
0
  5
25A6
 10
526.966
 20
-236.724
 30
0.000000
  70
    32
  0
VERTEX
  8
0
  5
25A7
 10
527.121
 20
-236.767
 30
0.000000
  70
    32
  0
VERTEX
  8
0
  5
25A8
 10
527.274
 20
-236.809
 30
0.000000
  70
    32
  0
VERTEX
  8
0
  5
25A9
 10
527.425
 20
-236.853
 30
0.000000
  70
    32
  0
VERTEX
  8
0
  5
25AA
 10
527.574
 20
-236.896
 30
0.000000
  70
    32
  0
VERTEX
  8
0
  5
25AB
 10
527.722
 20
-236.940
 30
0.000000
  70
    32
  0
VERTEX
  8
0
  5
25AC
 10
527.867
 20
-236.983
 30
0.000000
  70
    32
  0
VERTEX
  8
0
  5
25AD
 10
528.011
 20
-237.028
 30
0.000000
  70
    32
  0
VERTEX
  8
0
  5
25AE
 10
528.153
 20
-237.072
 30
0.000000
  70
    32
  0
VERTEX
  8
0
  5
25AF
 10
528.293
 20
-237.117
 30
0.000000
  70
    32
  0
VERTEX
  8
0
  5
25B0
 10
528.432
 20
-237.162
 30
0.000000
  70
    32
  0
VERTEX
  8
0
  5
25B1
 10
528.568
 20
-237.207
 30
0.000000
  70
    32
  0
VERTEX
  8
0
  5
25B2
 10
528.704
 20
-237.252
 30
0.000000
  70
    32
  0
VERTEX
  8
0
  5
25B3
 10
528.837
 20
-237.298
 30
0.000000
  70
    32
  0
VERTEX
  8
0
  5
25B4
 10
528.969
 20
-237.344
 30
0.000000
  70
    32
  0
VERTEX
  8
0
  5
25B5
 10
529.100
 20
-237.390
 30
0.000000
  70
    32
  0
VERTEX
  8
0
  5
25B6
 10
529.228
 20
-237.436
 30
0.000000
  70
    32
  0
VERTEX
  8
0
  5
25B7
 10
529.356
 20
-237.483
 30
0.000000
  70
    32
  0
VERTEX
  8
0
  5
25B8
 10
529.481
 20
-237.530
 30
0.000000
  70
    32
  0
VERTEX
  8
0
  5
25B9
 10
529.606
 20
-237.577
 30
0.000000
  70
    32
  0
VERTEX
  8
0
  5
25BA
 10
529.729
 20
-237.624
 30
0.000000
  70
    32
  0
VERTEX
  8
0
  5
25BB
 10
529.850
 20
-237.671
 30
0.000000
  70
    32
  0
VERTEX
  8
0
  5
25BC
 10
529.970
 20
-237.719
 30
0.000000
  70
    32
  0
VERTEX
  8
0
  5
25BD
 10
530.089
 20
-237.767
 30
0.000000
  70
    32
  0
VERTEX
  8
0
  5
25BE
 10
530.206
 20
-237.815
 30
0.000000
  70
    32
  0
VERTEX
  8
0
  5
25BF
 10
530.322
 20
-237.863
 30
0.000000
  70
    32
  0
VERTEX
  8
0
  5
25C0
 10
530.437
 20
-237.912
 30
0.000000
  70
    32
  0
VERTEX
  8
0
  5
25C1
 10
530.551
 20
-237.960
 30
0.000000
  70
    32
  0
VERTEX
  8
0
  5
25C2
 10
530.663
 20
-238.009
 30
0.000000
  70
    32
  0
VERTEX
  8
0
  5
25C3
 10
530.774
 20
-238.058
 30
0.000000
  70
    32
  0
VERTEX
  8
0
  5
25C4
 10
530.884
 20
-238.107
 30
0.000000
  70
    32
  0
VERTEX
  8
0
  5
25C5
 10
530.993
 20
-238.157
 30
0.000000
  70
    32
  0
VERTEX
  8
0
  5
25C6
 10
531.100
 20
-238.206
 30
0.000000
  70
    32
  0
VERTEX
  8
0
  5
25C7
 10
531.207
 20
-238.256
 30
0.000000
  70
    32
  0
VERTEX
  8
0
  5
25C8
 10
531.312
 20
-238.306
 30
0.000000
  70
    32
  0
VERTEX
  8
0
  5
25C9
 10
531.417
 20
-238.356
 30
0.000000
  70
    32
  0
VERTEX
  8
0
  5
25CA
 10
531.520
 20
-238.406
 30
0.000000
  70
    32
  0
VERTEX
  8
0
  5
25CB
 10
531.622
 20
-238.457
 30
0.000000
  70
    32
  0
VERTEX
  8
0
  5
25CC
 10
531.724
 20
-238.507
 30
0.000000
  70
    32
  0
VERTEX
  8
0
  5
25CD
 10
531.824
 20
-238.558
 30
0.000000
  70
    32
  0
VERTEX
  8
0
  5
25CE
 10
531.924
 20
-238.609
 30
0.000000
  70
    32
  0
VERTEX
  8
0
  5
25CF
 10
532.022
 20
-238.660
 30
0.000000
  70
    32
  0
VERTEX
  8
0
  5
25D0
 10
532.120
 20
-238.711
 30
0.000000
  70
    32
  0
VERTEX
  8
0
  5
25D1
 10
532.217
 20
-238.762
 30
0.000000
  70
    32
  0
VERTEX
  8
0
  5
25D2
 10
532.313
 20
-238.814
 30
0.000000
  70
    32
  0
VERTEX
  8
0
  5
25D3
 10
532.408
 20
-238.865
 30
0.000000
  70
    32
  0
VERTEX
  8
0
  5
25D4
 10
532.503
 20
-238.917
 30
0.000000
  70
    32
  0
VERTEX
  8
0
  5
25D5
 10
532.597
 20
-238.969
 30
0.000000
  70
    32
  0
VERTEX
  8
0
  5
25D6
 10
532.690
 20
-239.021
 30
0.000000
  70
    32
  0
VERTEX
  8
0
  5
25D7
 10
532.782
 20
-239.073
 30
0.000000
  70
    32
  0
VERTEX
  8
0
  5
25D8
 10
532.874
 20
-239.125
 30
0.000000
  70
    32
  0
VERTEX
  8
0
  5
25D9
 10
532.965
 20
-239.177
 30
0.000000
  70
    32
  0
VERTEX
  8
0
  5
25DA
 10
533.056
 20
-239.230
 30
0.000000
  70
    32
  0
VERTEX
  8
0
  5
25DB
 10
533.146
 20
-239.282
 30
0.000000
  70
    32
  0
VERTEX
  8
0
  5
25DC
 10
533.235
 20
-239.335
 30
0.000000
  70
    32
  0
VERTEX
  8
0
  5
25DD
 10
533.324
 20
-239.388
 30
0.000000
  70
    32
  0
VERTEX
  8
0
  5
25DE
 10
533.413
 20
-239.441
 30
0.000000
  70
    32
  0
VERTEX
  8
0
  5
25DF
 10
533.501
 20
-239.494
 30
0.000000
  70
    32
  0
VERTEX
  8
0
  5
25E0
 10
533.588
 20
-239.547
 30
0.000000
  70
    32
  0
VERTEX
  8
0
  5
25E1
 10
533.675
 20
-239.600
 30
0.000000
  70
    32
  0
VERTEX
  8
0
  5
25E2
 10
533.762
 20
-239.653
 30
0.000000
  70
    32
  0
VERTEX
  8
0
  5
25E3
 10
533.848
 20
-239.706
 30
0.000000
  70
    32
  0
VERTEX
  8
0
  5
25E4
 10
533.934
 20
-239.760
 30
0.000000
  70
    32
  0
VERTEX
  8
0
  5
25E5
 10
534.020
 20
-239.813
 30
0.000000
  70
    32
  0
VERTEX
  8
0
  5
25E6
 10
534.105
 20
-239.866
 30
0.000000
  70
    32
  0
VERTEX
  8
0
  5
25E7
 10
534.190
 20
-239.920
 30
0.000000
  70
    32
  0
VERTEX
  8
0
  5
25E8
 10
534.275
 20
-239.974
 30
0.000000
  70
    32
  0
VERTEX
  8
0
  5
25E9
 10
534.359
 20
-240.027
 30
0.000000
  70
    32
  0
VERTEX
  8
0
  5
25EA
 10
534.443
 20
-240.081
 30
0.000000
  70
    32
  0
VERTEX
  8
0
  5
25EB
 10
534.527
 20
-240.135
 30
0.000000
  70
    32
  0
VERTEX
  8
0
  5
25EC
 10
534.611
 20
-240.189
 30
0.000000
  70
    32
  0
VERTEX
  8
0
  5
25ED
 10
534.694
 20
-240.243
 30
0.000000
  70
    32
  0
VERTEX
  8
0
  5
25EE
 10
534.777
 20
-240.297
 30
0.000000
  70
    32
  0
VERTEX
  8
0
  5
25EF
 10
534.859
 20
-240.351
 30
0.000000
  70
    32
  0
VERTEX
  8
0
  5
25F0
 10
534.942
 20
-240.405
 30
0.000000
  70
    32
  0
VERTEX
  8
0
  5
25F1
 10
535.024
 20
-240.460
 30
0.000000
  70
    32
  0
VERTEX
  8
0
  5
25F2
 10
535.105
 20
-240.514
 30
0.000000
  70
    32
  0
VERTEX
  8
0
  5
25F3
 10
535.187
 20
-240.568
 30
0.000000
  70
    32
  0
VERTEX
  8
0
  5
25F4
 10
535.268
 20
-240.623
 30
0.000000
  70
    32
  0
VERTEX
  8
0
  5
25F5
 10
535.349
 20
-240.677
 30
0.000000
  70
    32
  0
VERTEX
  8
0
  5
25F6
 10
535.430
 20
-240.732
 30
0.000000
  70
    32
  0
VERTEX
  8
0
  5
25F7
 10
535.510
 20
-240.787
 30
0.000000
  70
    32
  0
VERTEX
  8
0
  5
25F8
 10
535.590
 20
-240.841
 30
0.000000
  70
    32
  0
VERTEX
  8
0
  5
25F9
 10
535.670
 20
-240.896
 30
0.000000
  70
    32
  0
VERTEX
  8
0
  5
25FA
 10
535.750
 20
-240.951
 30
0.000000
  70
    32
  0
VERTEX
  8
0
  5
25FB
 10
535.829
 20
-241.006
 30
0.000000
  70
    32
  0
VERTEX
  8
0
  5
25FC
 10
535.908
 20
-241.061
 30
0.000000
  70
    32
  0
VERTEX
  8
0
  5
25FD
 10
535.987
 20
-241.116
 30
0.000000
  70
    32
  0
VERTEX
  8
0
  5
25FE
 10
536.066
 20
-241.171
 30
0.000000
  70
    32
  0
VERTEX
  8
0
  5
25FF
 10
536.145
 20
-241.226
 30
0.000000
  70
    32
  0
VERTEX
  8
0
  5
2600
 10
536.223
 20
-241.281
 30
0.000000
  70
    32
  0
VERTEX
  8
0
  5
2601
 10
536.301
 20
-241.336
 30
0.000000
  70
    32
  0
VERTEX
  8
0
  5
2602
 10
536.379
 20
-241.391
 30
0.000000
  70
    32
  0
VERTEX
  8
0
  5
2603
 10
536.457
 20
-241.447
 30
0.000000
  70
    32
  0
VERTEX
  8
0
  5
2604
 10
536.535
 20
-241.502
 30
0.000000
  70
    32
  0
VERTEX
  8
0
  5
2605
 10
536.612
 20
-241.557
 30
0.000000
  70
    32
  0
VERTEX
  8
0
  5
2606
 10
536.689
 20
-241.613
 30
0.000000
  70
    32
  0
VERTEX
  8
0
  5
2607
 10
536.766
 20
-241.668
 30
0.000000
  70
    32
  0
VERTEX
  8
0
  5
2608
 10
536.843
 20
-241.723
 30
0.000000
  70
    32
  0
VERTEX
  8
0
  5
2609
 10
536.920
 20
-241.779
 30
0.000000
  70
    32
  0
VERTEX
  8
0
  5
260A
 10
536.996
 20
-241.834
 30
0.000000
  70
    32
  0
VERTEX
  8
0
  5
260B
 10
537.073
 20
-241.890
 30
0.000000
  70
    32
  0
VERTEX
  8
0
  5
260C
 10
537.149
 20
-241.946
 30
0.000000
  70
    32
  0
VERTEX
  8
0
  5
260D
 10
537.225
 20
-242.001
 30
0.000000
  70
    32
  0
VERTEX
  8
0
  5
260E
 10
537.301
 20
-242.057
 30
0.000000
  70
    32
  0
VERTEX
  8
0
  5
260F
 10
537.376
 20
-242.113
 30
0.000000
  70
    32
  0
VERTEX
  8
0
  5
2610
 10
537.452
 20
-242.168
 30
0.000000
  70
    32
  0
VERTEX
  8
0
  5
2611
 10
537.528
 20
-242.224
 30
0.000000
  70
    32
  0
VERTEX
  8
0
  5
2612
 10
537.603
 20
-242.280
 30
0.000000
  70
    32
  0
VERTEX
  8
0
  5
2613
 10
537.678
 20
-242.336
 30
0.000000
  70
    32
  0
VERTEX
  8
0
  5
2614
 10
537.753
 20
-242.392
 30
0.000000
  70
    32
  0
VERTEX
  8
0
  5
2615
 10
537.828
 20
-242.448
 30
0.000000
  70
    32
  0
VERTEX
  8
0
  5
2616
 10
537.903
 20
-242.504
 30
0.000000
  70
    32
  0
VERTEX
  8
0
  5
2617
 10
537.978
 20
-242.560
 30
0.000000
  70
    32
  0
VERTEX
  8
0
  5
2618
 10
538.053
 20
-242.615
 30
0.000000
  70
    32
  0
VERTEX
  8
0
  5
2619
 10
538.127
 20
-242.671
 30
0.000000
  70
    32
  0
VERTEX
  8
0
  5
261A
 10
538.202
 20
-242.727
 30
0.000000
  70
    32
  0
VERTEX
  8
0
  5
261B
 10
538.276
 20
-242.784
 30
0.000000
  70
    32
  0
VERTEX
  8
0
  5
261C
 10
538.350
 20
-242.840
 30
0.000000
  70
    32
  0
VERTEX
  8
0
  5
261D
 10
538.425
 20
-242.896
 30
0.000000
  70
    32
  0
VERTEX
  8
0
  5
261E
 10
538.499
 20
-242.952
 30
0.000000
  70
    32
  0
VERTEX
  8
0
  5
261F
 10
538.573
 20
-243.008
 30
0.000000
  70
    32
  0
VERTEX
  8
0
  5
2620
 10
538.647
 20
-243.064
 30
0.000000
  70
    32
  0
VERTEX
  8
0
  5
2621
 10
538.721
 20
-243.120
 30
0.000000
  70
    32
  0
VERTEX
  8
0
  5
2622
 10
538.795
 20
-243.176
 30
0.000000
  70
    32
  0
VERTEX
  8
0
  5
2623
 10
538.869
 20
-243.232
 30
0.000000
  70
    32
  0
VERTEX
  8
0
  5
2624
 10
538.943
 20
-243.288
 30
0.000000
  70
    32
  0
VERTEX
  8
0
  5
2625
 10
539.016
 20
-243.345
 30
0.000000
  70
    32
  0
VERTEX
  8
0
  5
2626
 10
539.090
 20
-243.401
 30
0.000000
  70
    32
  0
VERTEX
  8
0
  5
2627
 10
539.164
 20
-243.457
 30
0.000000
  70
    32
  0
VERTEX
  8
0
  5
2628
 10
539.237
 20
-243.513
 30
0.000000
  70
    32
  0
VERTEX
  8
0
  5
2629
 10
539.311
 20
-243.569
 30
0.000000
  70
    32
  0
VERTEX
  8
0
  5
262A
 10
539.385
 20
-243.626
 30
0.000000
  70
    32
  0
VERTEX
  8
0
  5
262B
 10
539.458
 20
-243.682
 30
0.000000
  70
    32
  0
VERTEX
  8
0
  5
262C
 10
539.532
 20
-243.738
 30
0.000000
  70
    32
  0
VERTEX
  8
0
  5
262D
 10
539.606
 20
-243.794
 30
0.000000
  70
    32
  0
SEQEND
  8
0
  5
262E
  0
POLYLINE
  8
0
  5
262F
  62
5
  66
     1
 10
0.000000
 20
0.000000
 30
0.000000
  70
     8
  0
VERTEX
  8
0
  5
2630
 10
508.606
 20
-243.794
 30
0.000000
  70
    32
  0
VERTEX
  8
0
  5
2631
 10
508.530
 20
-243.690
 30
0.000000
  70
    32
  0
VERTEX
  8
0
  5
2632
 10
508.458
 20
-243.587
 30
0.000000
  70
    32
  0
VERTEX
  8
0
  5
2633
 10
508.388
 20
-243.484
 30
0.000000
  70
    32
  0
VERTEX
  8
0
  5
2634
 10
508.321
 20
-243.382
 30
0.000000
  70
    32
  0
VERTEX
  8
0
  5
2635
 10
508.257
 20
-243.280
 30
0.000000
  70
    32
  0
VERTEX
  8
0
  5
2636
 10
508.196
 20
-243.179
 30
0.000000
  70
    32
  0
VERTEX
  8
0
  5
2637
 10
508.137
 20
-243.079
 30
0.000000
  70
    32
  0
VERTEX
  8
0
  5
2638
 10
508.082
 20
-242.980
 30
0.000000
  70
    32
  0
VERTEX
  8
0
  5
2639
 10
508.028
 20
-242.881
 30
0.000000
  70
    32
  0
VERTEX
  8
0
  5
263A
 10
507.978
 20
-242.783
 30
0.000000
  70
    32
  0
VERTEX
  8
0
  5
263B
 10
507.930
 20
-242.685
 30
0.000000
  70
    32
  0
VERTEX
  8
0
  5
263C
 10
507.884
 20
-242.588
 30
0.000000
  70
    32
  0
VERTEX
  8
0
  5
263D
 10
507.841
 20
-242.492
 30
0.000000
  70
    32
  0
VERTEX
  8
0
  5
263E
 10
507.800
 20
-242.396
 30
0.000000
  70
    32
  0
VERTEX
  8
0
  5
263F
 10
507.762
 20
-242.302
 30
0.000000
  70
    32
  0
VERTEX
  8
0
  5
2640
 10
507.727
 20
-242.207
 30
0.000000
  70
    32
  0
VERTEX
  8
0
  5
2641
 10
507.693
 20
-242.114
 30
0.000000
  70
    32
  0
VERTEX
  8
0
  5
2642
 10
507.662
 20
-242.021
 30
0.000000
  70
    32
  0
VERTEX
  8
0
  5
2643
 10
507.634
 20
-241.929
 30
0.000000
  70
    32
  0
VERTEX
  8
0
  5
2644
 10
507.607
 20
-241.837
 30
0.000000
  70
    32
  0
VERTEX
  8
0
  5
2645
 10
507.583
 20
-241.746
 30
0.000000
  70
    32
  0
VERTEX
  8
0
  5
2646
 10
507.561
 20
-241.656
 30
0.000000
  70
    32
  0
VERTEX
  8
0
  5
2647
 10
507.542
 20
-241.567
 30
0.000000
  70
    32
  0
VERTEX
  8
0
  5
2648
 10
507.524
 20
-241.478
 30
0.000000
  70
    32
  0
VERTEX
  8
0
  5
2649
 10
507.509
 20
-241.390
 30
0.000000
  70
    32
  0
VERTEX
  8
0
  5
264A
 10
507.495
 20
-241.302
 30
0.000000
  70
    32
  0
VERTEX
  8
0
  5
264B
 10
507.484
 20
-241.215
 30
0.000000
  70
    32
  0
VERTEX
  8
0
  5
264C
 10
507.475
 20
-241.129
 30
0.000000
  70
    32
  0
VERTEX
  8
0
  5
264D
 10
507.467
 20
-241.044
 30
0.000000
  70
    32
  0
VERTEX
  8
0
  5
264E
 10
507.462
 20
-240.959
 30
0.000000
  70
    32
  0
VERTEX
  8
0
  5
264F
 10
507.459
 20
-240.875
 30
0.000000
  70
    32
  0
VERTEX
  8
0
  5
2650
 10
507.457
 20
-240.792
 30
0.000000
  70
    32
  0
VERTEX
  8
0
  5
2651
 10
507.457
 20
-240.709
 30
0.000000
  70
    32
  0
VERTEX
  8
0
  5
2652
 10
507.459
 20
-240.627
 30
0.000000
  70
    32
  0
VERTEX
  8
0
  5
2653
 10
507.463
 20
-240.546
 30
0.000000
  70
    32
  0
VERTEX
  8
0
  5
2654
 10
507.469
 20
-240.465
 30
0.000000
  70
    32
  0
VERTEX
  8
0
  5
2655
 10
507.476
 20
-240.385
 30
0.000000
  70
    32
  0
VERTEX
  8
0
  5
2656
 10
507.485
 20
-240.306
 30
0.000000
  70
    32
  0
VERTEX
  8
0
  5
2657
 10
507.496
 20
-240.228
 30
0.000000
  70
    32
  0
VERTEX
  8
0
  5
2658
 10
507.508
 20
-240.150
 30
0.000000
  70
    32
  0
VERTEX
  8
0
  5
2659
 10
507.522
 20
-240.073
 30
0.000000
  70
    32
  0
VERTEX
  8
0
  5
265A
 10
507.538
 20
-239.996
 30
0.000000
  70
    32
  0
VERTEX
  8
0
  5
265B
 10
507.555
 20
-239.921
 30
0.000000
  70
    32
  0
VERTEX
  8
0
  5
265C
 10
507.573
 20
-239.846
 30
0.000000
  70
    32
  0
VERTEX
  8
0
  5
265D
 10
507.593
 20
-239.771
 30
0.000000
  70
    32
  0
VERTEX
  8
0
  5
265E
 10
507.615
 20
-239.698
 30
0.000000
  70
    32
  0
VERTEX
  8
0
  5
265F
 10
507.638
 20
-239.625
 30
0.000000
  70
    32
  0
VERTEX
  8
0
  5
2660
 10
507.662
 20
-239.553
 30
0.000000
  70
    32
  0
VERTEX
  8
0
  5
2661
 10
507.687
 20
-239.481
 30
0.000000
  70
    32
  0
VERTEX
  8
0
  5
2662
 10
507.714
 20
-239.411
 30
0.000000
  70
    32
  0
VERTEX
  8
0
  5
2663
 10
507.742
 20
-239.341
 30
0.000000
  70
    32
  0
VERTEX
  8
0
  5
2664
 10
507.771
 20
-239.271
 30
0.000000
  70
    32
  0
VERTEX
  8
0
  5
2665
 10
507.802
 20
-239.203
 30
0.000000
  70
    32
  0
VERTEX
  8
0
  5
2666
 10
507.833
 20
-239.135
 30
0.000000
  70
    32
  0
VERTEX
  8
0
  5
2667
 10
507.866
 20
-239.068
 30
0.000000
  70
    32
  0
VERTEX
  8
0
  5
2668
 10
507.900
 20
-239.001
 30
0.000000
  70
    32
  0
VERTEX
  8
0
  5
2669
 10
507.935
 20
-238.936
 30
0.000000
  70
    32
  0
VERTEX
  8
0
  5
266A
 10
507.970
 20
-238.871
 30
0.000000
  70
    32
  0
VERTEX
  8
0
  5
266B
 10
508.007
 20
-238.806
 30
0.000000
  70
    32
  0
VERTEX
  8
0
  5
266C
 10
508.045
 20
-238.743
 30
0.000000
  70
    32
  0
VERTEX
  8
0
  5
266D
 10
508.084
 20
-238.680
 30
0.000000
  70
    32
  0
VERTEX
  8
0
  5
266E
 10
508.124
 20
-238.618
 30
0.000000
  70
    32
  0
VERTEX
  8
0
  5
266F
 10
508.164
 20
-238.557
 30
0.000000
  70
    32
  0
VERTEX
  8
0
  5
2670
 10
508.206
 20
-238.496
 30
0.000000
  70
    32
  0
VERTEX
  8
0
  5
2671
 10
508.248
 20
-238.436
 30
0.000000
  70
    32
  0
VERTEX
  8
0
  5
2672
 10
508.291
 20
-238.377
 30
0.000000
  70
    32
  0
VERTEX
  8
0
  5
2673
 10
508.335
 20
-238.319
 30
0.000000
  70
    32
  0
VERTEX
  8
0
  5
2674
 10
508.379
 20
-238.261
 30
0.000000
  70
    32
  0
VERTEX
  8
0
  5
2675
 10
508.424
 20
-238.204
 30
0.000000
  70
    32
  0
VERTEX
  8
0
  5
2676
 10
508.470
 20
-238.148
 30
0.000000
  70
    32
  0
VERTEX
  8
0
  5
2677
 10
508.516
 20
-238.093
 30
0.000000
  70
    32
  0
VERTEX
  8
0
  5
2678
 10
508.563
 20
-238.038
 30
0.000000
  70
    32
  0
VERTEX
  8
0
  5
2679
 10
508.610
 20
-237.984
 30
0.000000
  70
    32
  0
VERTEX
  8
0
  5
267A
 10
508.658
 20
-237.931
 30
0.000000
  70
    32
  0
VERTEX
  8
0
  5
267B
 10
508.706
 20
-237.878
 30
0.000000
  70
    32
  0
VERTEX
  8
0
  5
267C
 10
508.755
 20
-237.827
 30
0.000000
  70
    32
  0
VERTEX
  8
0
  5
267D
 10
508.804
 20
-237.776
 30
0.000000
  70
    32
  0
VERTEX
  8
0
  5
267E
 10
508.854
 20
-237.725
 30
0.000000
  70
    32
  0
VERTEX
  8
0
  5
267F
 10
508.904
 20
-237.676
 30
0.000000
  70
    32
  0
VERTEX
  8
0
  5
2680
 10
508.954
 20
-237.627
 30
0.000000
  70
    32
  0
VERTEX
  8
0
  5
2681
 10
509.005
 20
-237.579
 30
0.000000
  70
    32
  0
VERTEX
  8
0
  5
2682
 10
509.055
 20
-237.532
 30
0.000000
  70
    32
  0
VERTEX
  8
0
  5
2683
 10
509.106
 20
-237.486
 30
0.000000
  70
    32
  0
VERTEX
  8
0
  5
2684
 10
509.157
 20
-237.440
 30
0.000000
  70
    32
  0
VERTEX
  8
0
  5
2685
 10
509.209
 20
-237.395
 30
0.000000
  70
    32
  0
VERTEX
  8
0
  5
2686
 10
509.260
 20
-237.351
 30
0.000000
  70
    32
  0
VERTEX
  8
0
  5
2687
 10
509.311
 20
-237.308
 30
0.000000
  70
    32
  0
VERTEX
  8
0
  5
2688
 10
509.363
 20
-237.265
 30
0.000000
  70
    32
  0
VERTEX
  8
0
  5
2689
 10
509.414
 20
-237.223
 30
0.000000
  70
    32
  0
VERTEX
  8
0
  5
268A
 10
509.466
 20
-237.182
 30
0.000000
  70
    32
  0
VERTEX
  8
0
  5
268B
 10
509.517
 20
-237.142
 30
0.000000
  70
    32
  0
VERTEX
  8
0
  5
268C
 10
509.568
 20
-237.102
 30
0.000000
  70
    32
  0
VERTEX
  8
0
  5
268D
 10
509.620
 20
-237.063
 30
0.000000
  70
    32
  0
VERTEX
  8
0
  5
268E
 10
509.671
 20
-237.025
 30
0.000000
  70
    32
  0
VERTEX
  8
0
  5
268F
 10
509.721
 20
-236.988
 30
0.000000
  70
    32
  0
VERTEX
  8
0
  5
2690
 10
509.772
 20
-236.952
 30
0.000000
  70
    32
  0
VERTEX
  8
0
  5
2691
 10
509.822
 20
-236.916
 30
0.000000
  70
    32
  0
VERTEX
  8
0
  5
2692
 10
509.872
 20
-236.881
 30
0.000000
  70
    32
  0
VERTEX
  8
0
  5
2693
 10
509.922
 20
-236.847
 30
0.000000
  70
    32
  0
VERTEX
  8
0
  5
2694
 10
509.971
 20
-236.814
 30
0.000000
  70
    32
  0
VERTEX
  8
0
  5
2695
 10
510.020
 20
-236.781
 30
0.000000
  70
    32
  0
VERTEX
  8
0
  5
2696
 10
510.069
 20
-236.749
 30
0.000000
  70
    32
  0
VERTEX
  8
0
  5
2697
 10
510.117
 20
-236.718
 30
0.000000
  70
    32
  0
VERTEX
  8
0
  5
2698
 10
510.165
 20
-236.688
 30
0.000000
  70
    32
  0
VERTEX
  8
0
  5
2699
 10
510.212
 20
-236.659
 30
0.000000
  70
    32
  0
VERTEX
  8
0
  5
269A
 10
510.258
 20
-236.630
 30
0.000000
  70
    32
  0
VERTEX
  8
0
  5
269B
 10
510.304
 20
-236.602
 30
0.000000
  70
    32
  0
VERTEX
  8
0
  5
269C
 10
510.350
 20
-236.575
 30
0.000000
  70
    32
  0
VERTEX
  8
0
  5
269D
 10
510.394
 20
-236.549
 30
0.000000
  70
    32
  0
VERTEX
  8
0
  5
269E
 10
510.438
 20
-236.524
 30
0.000000
  70
    32
  0
VERTEX
  8
0
  5
269F
 10
510.482
 20
-236.499
 30
0.000000
  70
    32
  0
VERTEX
  8
0
  5
26A0
 10
510.524
 20
-236.475
 30
0.000000
  70
    32
  0
VERTEX
  8
0
  5
26A1
 10
510.566
 20
-236.452
 30
0.000000
  70
    32
  0
VERTEX
  8
0
  5
26A2
 10
510.607
 20
-236.430
 30
0.000000
  70
    32
  0
VERTEX
  8
0
  5
26A3
 10
510.647
 20
-236.408
 30
0.000000
  70
    32
  0
VERTEX
  8
0
  5
26A4
 10
510.686
 20
-236.388
 30
0.000000
  70
    32
  0
VERTEX
  8
0
  5
26A5
 10
510.725
 20
-236.368
 30
0.000000
  70
    32
  0
VERTEX
  8
0
  5
26A6
 10
510.762
 20
-236.349
 30
0.000000
  70
    32
  0
VERTEX
  8
0
  5
26A7
 10
510.798
 20
-236.330
 30
0.000000
  70
    32
  0
VERTEX
  8
0
  5
26A8
 10
510.834
 20
-236.313
 30
0.000000
  70
    32
  0
VERTEX
  8
0
  5
26A9
 10
510.868
 20
-236.296
 30
0.000000
  70
    32
  0
VERTEX
  8
0
  5
26AA
 10
510.901
 20
-236.280
 30
0.000000
  70
    32
  0
VERTEX
  8
0
  5
26AB
 10
510.933
 20
-236.265
 30
0.000000
  70
    32
  0
VERTEX
  8
0
  5
26AC
 10
510.964
 20
-236.251
 30
0.000000
  70
    32
  0
VERTEX
  8
0
  5
26AD
 10
510.994
 20
-236.238
 30
0.000000
  70
    32
  0
VERTEX
  8
0
  5
26AE
 10
511.023
 20
-236.225
 30
0.000000
  70
    32
  0
VERTEX
  8
0
  5
26AF
 10
511.050
 20
-236.213
 30
0.000000
  70
    32
  0
SEQEND
  8
0
  5
26B0
  0
ENDBLK
  5
2AE
  8
0
  0
BLOCK
  8
0
  2
GALKA
 70
     0
 10
0.0
 20
0.0
 30
0.0
  3
GALKA
  1

  0
POLYLINE
  5
2B2
  8
CENTRALA
 62
     5
 66
     1
 10
0.0
 20
0.0
 30
0.0
 70
     8
1001
ACDBBLOCKREPETAG
1070
     1
1071
        0
1005
2B2
  0
VERTEX
  5
2B3
  8
CENTRALA
 62
     5
 10
-17.0
 20
15.2745
 30
0.0
 70
    32
  0
VERTEX
  5
2B4
  8
CENTRALA
 62
     5
 10
-16.828199999999999
 20
15.327299999999999
 30
0.0
 70
    32
  0
VERTEX
  5
2B5
  8
CENTRALA
 62
     5
 10
-16.656300000000002
 20
15.380100000000001
 30
0.0
 70
    32
  0
VERTEX
  5
2B6
  8
CENTRALA
 62
     5
 10
-16.484500000000001
 20
15.432700000000001
 30
0.0
 70
    32
  0
VERTEX
  5
2B7
  8
CENTRALA
 62
     5
 10
-16.3126
 20
15.485200000000001
 30
0.0
 70
    32
  0
VERTEX
  5
2B8
  8
CENTRALA
 62
     5
 10
-16.140699999999999
 20
15.5375
 30
0.0
 70
    32
  0
VERTEX
  5
2B9
  8
CENTRALA
 62
     5
 10
-15.9688
 20
15.589499999999999
 30
0.0
 70
    32
  0
VERTEX
  5
2BA
  8
CENTRALA
 62
     5
 10
-15.796900000000001
 20
15.6412
 30
0.0
 70
    32
  0
VERTEX
  5
2BB
  8
CENTRALA
 62
     5
 10
-15.625
 20
15.692500000000001
 30
0.0
 70
    32
  0
VERTEX
  5
2BC
  8
CENTRALA
 62
     5
 10
-15.452999999999999
 20
15.743399999999999
 30
0.0
 70
    32
  0
VERTEX
  5
2BD
  8
CENTRALA
 62
     5
 10
-15.281000000000001
 20
15.793699999999999
 30
0.0
 70
    32
  0
VERTEX
  5
2BE
  8
CENTRALA
 62
     5
 10
-15.109
 20
15.8436
 30
0.0
 70
    32
  0
VERTEX
  5
2BF
  8
CENTRALA
 62
     5
 10
-14.9369
 20
15.892899999999999
 30
0.0
 70
    32
  0
VERTEX
  5
2C0
  8
CENTRALA
 62
     5
 10
-14.764799999999999
 20
15.9415
 30
0.0
 70
    32
  0
VERTEX
  5
2C1
  8
CENTRALA
 62
     5
 10
-14.592599999999999
 20
15.9894
 30
0.0
 70
    32
  0
VERTEX
  5
2C2
  8
CENTRALA
 62
     5
 10
-14.420400000000001
 20
16.0366
 30
0.0
 70
    32
  0
VERTEX
  5
2C3
  8
CENTRALA
 62
     5
 10
-14.248100000000001
 20
16.082999999999998
 30
0.0
 70
    32
  0
VERTEX
  5
2C4
  8
CENTRALA
 62
     5
 10
-14.075799999999999
 20
16.128499999999999
 30
0.0
 70
    32
  0
VERTEX
  5
2C5
  8
CENTRALA
 62
     5
 10
-13.9034
 20
16.173100000000002
 30
0.0
 70
    32
  0
VERTEX
  5
2C6
  8
CENTRALA
 62
     5
 10
-13.7309
 20
16.216699999999999
 30
0.0
 70
    32
  0
VERTEX
  5
2C7
  8
CENTRALA
 62
     5
 10
-13.558400000000001
 20
16.2593
 30
0.0
 70
    32
  0
VERTEX
  5
2C8
  8
CENTRALA
 62
     5
 10
-13.3858
 20
16.300899999999999
 30
0.0
 70
    32
  0
VERTEX
  5
2C9
  8
CENTRALA
 62
     5
 10
-13.213100000000001
 20
16.3413
 30
0.0
 70
    32
  0
VERTEX
  5
2CA
  8
CENTRALA
 62
     5
 10
-13.0403
 20
16.380500000000001
 30
0.0
 70
    32
  0
VERTEX
  5
2CB
  8
CENTRALA
 62
     5
 10
-12.8675
 20
16.418500000000002
 30
0.0
 70
    32
  0
VERTEX
  5
2CC
  8
CENTRALA
 62
     5
 10
-12.694599999999999
 20
16.455200000000001
 30
0.0
 70
    32
  0
VERTEX
  5
2CD
  8
CENTRALA
 62
     5
 10
-12.5215
 20
16.490600000000001
 30
0.0
 70
    32
  0
VERTEX
  5
2CE
  8
CENTRALA
 62
     5
 10
-12.3484
 20
16.5246
 30
0.0
 70
    32
  0
VERTEX
  5
2CF
  8
CENTRALA
 62
     5
 10
-12.1752
 20
16.557099999999998
 30
0.0
 70
    32
  0
VERTEX
  5
2D0
  8
CENTRALA
 62
     5
 10
-12.001899999999999
 20
16.588100000000001
 30
0.0
 70
    32
  0
VERTEX
  5
2D1
  8
CENTRALA
 62
     5
 10
-11.8285
 20
16.617599999999999
 30
0.0
 70
    32
  0
VERTEX
  5
2D2
  8
CENTRALA
 62
     5
 10
-11.654999999999999
 20
16.645399999999999
 30
0.0
 70
    32
  0
VERTEX
  5
2D3
  8
CENTRALA
 62
     5
 10
-11.481299999999999
 20
16.671600000000002
 30
0.0
 70
    32
  0
VERTEX
  5
2D4
  8
CENTRALA
 62
     5
 10
-11.307600000000001
 20
16.696100000000001
 30
0.0
 70
    32
  0
VERTEX
  5
2D5
  8
CENTRALA
 62
     5
 10
-11.133699999999999
 20
16.718800000000002
 30
0.0
 70
    32
  0
VERTEX
  5
2D6
  8
CENTRALA
 62
     5
 10
-10.9597
 20
16.739699999999999
 30
0.0
 70
    32
  0
VERTEX
  5
2D7
  8
CENTRALA
 62
     5
 10
-10.785600000000001
 20
16.758700000000001
 30
0.0
 70
    32
  0
VERTEX
  5
2D8
  8
CENTRALA
 62
     5
 10
-10.6113
 20
16.775700000000001
 30
0.0
 70
    32
  0
VERTEX
  5
2D9
  8
CENTRALA
 62
     5
 10
-10.4369
 20
16.790800000000001
 30
0.0
 70
    32
  0
VERTEX
  5
2DA
  8
CENTRALA
 62
     5
 10
-10.2624
 20
16.803899999999999
 30
0.0
 70
    32
  0
VERTEX
  5
2DB
  8
CENTRALA
 62
     5
 10
-10.0877
 20
16.814800000000002
 30
0.0
 70
    32
  0
VERTEX
  5
2DC
  8
CENTRALA
 62
     5
 10
-9.9129000000000005
 20
16.823599999999999
 30
0.0
 70
    32
  0
VERTEX
  5
2DD
  8
CENTRALA
 62
     5
 10
-9.73794
 20
16.830200000000001
 30
0.0
 70
    32
  0
VERTEX
  5
2DE
  8
CENTRALA
 62
     5
 10
-9.5628200000000003
 20
16.834599999999998
 30
0.0
 70
    32
  0
VERTEX
  5
2DF
  8
CENTRALA
 62
     5
 10
-9.3875499999999992
 20
16.836600000000001
 30
0.0
 70
    32
  0
VERTEX
  5
2E0
  8
CENTRALA
 62
     5
 10
-9.2121200000000005
 20
16.836300000000001
 30
0.0
 70
    32
  0
VERTEX
  5
2E1
  8
CENTRALA
 62
     5
 10
-9.0365199999999994
 20
16.833600000000001
 30
0.0
 70
    32
  0
VERTEX
  5
2E2
  8
CENTRALA
 62
     5
 10
-8.8607600000000009
 20
16.828399999999998
 30
0.0
 70
    32
  0
VERTEX
  5
2E3
  8
CENTRALA
 62
     5
 10
-8.6848299999999981
 20
16.820699999999999
 30
0.0
 70
    32
  0
VERTEX
  5
2E4
  8
CENTRALA
 62
     5
 10
-8.5087200000000003
 20
16.810400000000001
 30
0.0
 70
    32
  0
VERTEX
  5
2E5
  8
CENTRALA
 62
     5
 10
-8.3324300000000004
 20
16.7974
 30
0.0
 70
    32
  0
VERTEX
  5
2E6
  8
CENTRALA
 62
     5
 10
-8.1559699999999982
 20
16.7818
 30
0.0
 70
    32
  0
VERTEX
  5
2E7
  8
CENTRALA
 62
     5
 10
-7.9793199999999969
 20
16.763500000000001
 30
0.0
 70
    32
  0
VERTEX
  5
2E8
  8
CENTRALA
 62
     5
 10
-7.8024800000000001
 20
16.7423
 30
0.0
 70
    32
  0
VERTEX
  5
2E9
  8
CENTRALA
 62
     5
 10
-7.6254399999999967
 20
16.718299999999999
 30
0.0
 70
    32
  0
VERTEX
  5
2EA
  8
CENTRALA
 62
     5
 10
-7.4482200000000001
 20
16.691500000000001
 30
0.0
 70
    32
  0
VERTEX
  5
2EB
  8
CENTRALA
 62
     5
 10
-7.2707899999999972
 20
16.6616
 30
0.0
 70
    32
  0
VERTEX
  5
2EC
  8
CENTRALA
 62
     5
 10
-7.093160000000001
 20
16.628799999999998
 30
0.0
 70
    32
  0
VERTEX
  5
2ED
  8
CENTRALA
 62
     5
 10
-6.9153199999999968
 20
16.5929
 30
0.0
 70
    32
  0
VERTEX
  5
2EE
  8
CENTRALA
 62
     5
 10
-6.737269999999997
 20
16.553899999999999
 30
0.0
 70
    32
  0
VERTEX
  5
2EF
  8
CENTRALA
 62
     5
 10
-6.5590099999999998
 20
16.511700000000001
 30
0.0
 70
    32
  0
VERTEX
  5
2F0
  8
CENTRALA
 62
     5
 10
-6.3805300000000003
 20
16.4663
 30
0.0
 70
    32
  0
VERTEX
  5
2F1
  8
CENTRALA
 62
     5
 10
-6.2018300000000002
 20
16.4177
 30
0.0
 70
    32
  0
VERTEX
  5
2F2
  8
CENTRALA
 62
     5
 10
-6.0229099999999969
 20
16.3657
 30
0.0
 70
    32
  0
VERTEX
  5
2F3
  8
CENTRALA
 62
     5
 10
-5.8437700000000001
 20
16.310600000000001
 30
0.0
 70
    32
  0
VERTEX
  5
2F4
  8
CENTRALA
 62
     5
 10
-5.664439999999999
 20
16.252400000000002
 30
0.0
 70
    32
  0
VERTEX
  5
2F5
  8
CENTRALA
 62
     5
 10
-5.4849100000000002
 20
16.191199999999998
 30
0.0
 70
    32
  0
VERTEX
  5
2F6
  8
CENTRALA
 62
     5
 10
-5.3052099999999971
 20
16.127099999999999
 30
0.0
 70
    32
  0
VERTEX
  5
2F7
  8
CENTRALA
 62
     5
 10
-5.1253399999999996
 20
16.060300000000002
 30
0.0
 70
    32
  0
VERTEX
  5
2F8
  8
CENTRALA
 62
     5
 10
-4.945299999999996
 20
15.9908
 30
0.0
 70
    32
  0
VERTEX
  5
2F9
  8
CENTRALA
 62
     5
 10
-4.765119999999996
 20
15.918699999999999
 30
0.0
 70
    32
  0
VERTEX
  5
2FA
  8
CENTRALA
 62
     5
 10
-4.5848000000000004
 20
15.844200000000001
 30
0.0
 70
    32
  0
VERTEX
  5
2FB
  8
CENTRALA
 62
     5
 10
-4.4043499999999991
 20
15.767300000000001
 30
0.0
 70
    32
  0
VERTEX
  5
2FC
  8
CENTRALA
 62
     5
 10
-4.2237900000000002
 20
15.6882
 30
0.0
 70
    32
  0
VERTEX
  5
2FD
  8
CENTRALA
 62
     5
 10
-4.0431099999999978
 20
15.6069
 30
0.0
 70
    32
  0
VERTEX
  5
2FE
  8
CENTRALA
 62
     5
 10
-3.8623400000000001
 20
15.5235
 30
0.0
 70
    32
  0
VERTEX
  5
2FF
  8
CENTRALA
 62
     5
 10
-3.6814900000000002
 20
15.4383
 30
0.0
 70
    32
  0
VERTEX
  5
300
  8
CENTRALA
 62
     5
 10
-3.5005500000000001
 20
15.351100000000001
 30
0.0
 70
    32
  0
VERTEX
  5
301
  8
CENTRALA
 62
     5
 10
-3.3195600000000001
 20
15.2623
 30
0.0
 70
    32
  0
VERTEX
  5
302
  8
CENTRALA
 62
     5
 10
-3.1385000000000001
 20
15.171799999999999
 30
0.0
 70
    32
  0
VERTEX
  5
303
  8
CENTRALA
 62
     5
 10
-2.957399999999998
 20
15.079700000000001
 30
0.0
 70
    32
  0
VERTEX
  5
304
  8
CENTRALA
 62
     5
 10
-2.7762699999999998
 20
14.9863
 30
0.0
 70
    32
  0
VERTEX
  5
305
  8
CENTRALA
 62
     5
 10
-2.59511
 20
14.891500000000001
 30
0.0
 70
    32
  0
VERTEX
  5
306
  8
CENTRALA
 62
     5
 10
-2.4139400000000002
 20
14.795500000000001
 30
0.0
 70
    32
  0
VERTEX
  5
307
  8
CENTRALA
 62
     5
 10
-2.232769999999999
 20
14.698399999999999
 30
0.0
 70
    32
  0
VERTEX
  5
308
  8
CENTRALA
 62
     5
 10
-2.0516000000000001
 20
14.600199999999999
 30
0.0
 70
    32
  0
VERTEX
  5
309
  8
CENTRALA
 62
     5
 10
-1.8704499999999991
 20
14.501200000000001
 30
0.0
 70
    32
  0
VERTEX
  5
30A
  8
CENTRALA
 62
     5
 10
-1.6893199999999999
 20
14.401300000000001
 30
0.0
 70
    32
  0
VERTEX
  5
30B
  8
CENTRALA
 62
     5
 10
-1.5082399999999989
 20
14.300800000000001
 30
0.0
 70
    32
  0
VERTEX
  5
30C
  8
CENTRALA
 62
     5
 10
-1.327199999999999
 20
14.1996
 30
0.0
 70
    32
  0
VERTEX
  5
30D
  8
CENTRALA
 62
     5
 10
-1.14622
 20
14.098000000000001
 30
0.0
 70
    32
  0
VERTEX
  5
30E
  8
CENTRALA
 62
     5
 10
-0.965315
 20
13.995900000000001
 30
0.0
 70
    32
  0
VERTEX
  5
30F
  8
CENTRALA
 62
     5
 10
-0.7844860000000004
 20
13.893599999999999
 30
0.0
 70
    32
  0
VERTEX
  5
310
  8
CENTRALA
 62
     5
 10
-0.6037470000000001
 20
13.791
 30
0.0
 70
    32
  0
VERTEX
  5
311
  8
CENTRALA
 62
     5
 10
-0.423108
 20
13.6884
 30
0.0
 70
    32
  0
VERTEX
  5
312
  8
CENTRALA
 62
     5
 10
-0.24258
 20
13.585800000000001
 30
0.0
 70
    32
  0
VERTEX
  5
313
  8
CENTRALA
 62
     5
 10
-0.0621731
 20
13.4834
 30
0.0
 70
    32
  0
VERTEX
  5
314
  8
CENTRALA
 62
     5
 10
0.118102
 20
13.3811
 30
0.0
 70
    32
  0
VERTEX
  5
315
  8
CENTRALA
 62
     5
 10
0.298236
 20
13.279199999999999
 30
0.0
 70
    32
  0
VERTEX
  5
316
  8
CENTRALA
 62
     5
 10
0.478217
 20
13.1777
 30
0.0
 70
    32
  0
VERTEX
  5
317
  8
CENTRALA
 62
     5
 10
0.6580350000000002
 20
13.0768
 30
0.0
 70
    32
  0
VERTEX
  5
318
  8
CENTRALA
 62
     5
 10
0.8376809999999997
 20
12.9765
 30
0.0
 70
    32
  0
VERTEX
  5
319
  8
CENTRALA
 62
     5
 10
1.017139999999999
 20
12.876899999999999
 30
0.0
 70
    32
  0
VERTEX
  5
31A
  8
CENTRALA
 62
     5
 10
1.1964099999999971
 20
12.7782
 30
0.0
 70
    32
  0
VERTEX
  5
31B
  8
CENTRALA
 62
     5
 10
1.37548
 20
12.680400000000001
 30
0.0
 70
    32
  0
VERTEX
  5
31C
  8
CENTRALA
 62
     5
 10
1.5543199999999999
 20
12.5837
 30
0.0
 70
    32
  0
VERTEX
  5
31D
  8
CENTRALA
 62
     5
 10
1.7329499999999991
 20
12.488099999999999
 30
0.0
 70
    32
  0
VERTEX
  5
31E
  8
CENTRALA
 62
     5
 10
1.91134
 20
12.393800000000001
 30
0.0
 70
    32
  0
VERTEX
  5
31F
  8
CENTRALA
 62
     5
 10
2.08948
 20
12.3009
 30
0.0
 70
    32
  0
VERTEX
  5
320
  8
CENTRALA
 62
     5
 10
2.2673700000000001
 20
12.2094
 30
0.0
 70
    32
  0
VERTEX
  5
321
  8
CENTRALA
 62
     5
 10
2.4449900000000002
 20
12.1195
 30
0.0
 70
    32
  0
VERTEX
  5
322
  8
CENTRALA
 62
     5
 10
2.6223299999999981
 20
12.0313
 30
0.0
 70
    32
  0
VERTEX
  5
323
  8
CENTRALA
 62
     5
 10
2.7993899999999998
 20
11.944900000000001
 30
0.0
 70
    32
  0
VERTEX
  5
324
  8
CENTRALA
 62
     5
 10
2.9761500000000001
 20
11.860300000000001
 30
0.0
 70
    32
  0
VERTEX
  5
325
  8
CENTRALA
 62
     5
 10
3.1526000000000001
 20
11.777699999999999
 30
0.0
 70
    32
  0
VERTEX
  5
326
  8
CENTRALA
 62
     5
 10
3.3287300000000002
 20
11.6972
 30
0.0
 70
    32
  0
VERTEX
  5
327
  8
CENTRALA
 62
     5
 10
3.5045399999999982
 20
11.6189
 30
0.0
 70
    32
  0
VERTEX
  5
328
  8
CENTRALA
 62
     5
 10
3.6800000000000002
 20
11.542899999999999
 30
0.0
 70
    32
  0
VERTEX
  5
329
  8
CENTRALA
 62
     5
 10
3.855119999999999
 20
11.469200000000001
 30
0.0
 70
    32
  0
VERTEX
  5
32A
  8
CENTRALA
 62
     5
 10
4.0298699999999981
 20
11.398099999999999
 30
0.0
 70
    32
  0
VERTEX
  5
32B
  8
CENTRALA
 62
     5
 10
4.2042599999999961
 20
11.329599999999999
 30
0.0
 70
    32
  0
VERTEX
  5
32C
  8
CENTRALA
 62
     5
 10
4.37826
 20
11.2638
 30
0.0
 70
    32
  0
VERTEX
  5
32D
  8
CENTRALA
 62
     5
 10
4.5518799999999997
 20
11.200799999999999
 30
0.0
 70
    32
  0
VERTEX
  5
32E
  8
CENTRALA
 62
     5
 10
4.725089999999998
 20
11.140700000000001
 30
0.0
 70
    32
  0
VERTEX
  5
32F
  8
CENTRALA
 62
     5
 10
4.8978900000000003
 20
11.083600000000001
 30
0.0
 70
    32
  0
VERTEX
  5
330
  8
CENTRALA
 62
     5
 10
5.0702699999999981
 20
11.0297
 30
0.0
 70
    32
  0
VERTEX
  5
331
  8
CENTRALA
 62
     5
 10
5.24221
 20
10.978899999999999
 30
0.0
 70
    32
  0
VERTEX
  5
332
  8
CENTRALA
 62
     5
 10
5.41371
 20
10.9315
 30
0.0
 70
    32
  0
VERTEX
  5
333
  8
CENTRALA
 62
     5
 10
5.5847600000000002
 20
10.887600000000001
 30
0.0
 70
    32
  0
VERTEX
  5
334
  8
CENTRALA
 62
     5
 10
5.7553499999999991
 20
10.847099999999999
 30
0.0
 70
    32
  0
VERTEX
  5
335
  8
CENTRALA
 62
     5
 10
5.9254600000000002
 20
10.8103
 30
0.0
 70
    32
  0
VERTEX
  5
336
  8
CENTRALA
 62
     5
 10
6.0950800000000003
 20
10.7773
 30
0.0
 70
    32
  0
VERTEX
  5
337
  8
CENTRALA
 62
     5
 10
6.2642100000000003
 20
10.748100000000001
 30
0.0
 70
    32
  0
VERTEX
  5
338
  8
CENTRALA
 62
     5
 10
6.4328399999999997
 20
10.722799999999999
 30
0.0
 70
    32
  0
VERTEX
  5
339
  8
CENTRALA
 62
     5
 10
6.6009500000000001
 20
10.701599999999999
 30
0.0
 70
    32
  0
VERTEX
  5
33A
  8
CENTRALA
 62
     5
 10
6.768539999999998
 20
10.6845
 30
0.0
 70
    32
  0
VERTEX
  5
33B
  8
CENTRALA
 62
     5
 10
6.9355799999999972
 20
10.6717
 30
0.0
 70
    32
  0
VERTEX
  5
33C
  8
CENTRALA
 62
     5
 10
7.1020899999999969
 20
10.6632
 30
0.0
 70
    32
  0
VERTEX
  5
33D
  8
CENTRALA
 62
     5
 10
7.2680300000000004
 20
10.6593
 30
0.0
 70
    32
  0
VERTEX
  5
33E
  8
CENTRALA
 62
     5
 10
7.4334100000000003
 20
10.659800000000001
 30
0.0
 70
    32
  0
VERTEX
  5
33F
  8
CENTRALA
 62
     5
 10
7.5982000000000003
 20
10.665100000000001
 30
0.0
 70
    32
  0
VERTEX
  5
340
  8
CENTRALA
 62
     5
 10
7.76241
 20
10.6751
 30
0.0
 70
    32
  0
VERTEX
  5
341
  8
CENTRALA
 62
     5
 10
7.926029999999999
 20
10.69
 30
0.0
 70
    32
  0
VERTEX
  5
342
  8
CENTRALA
 62
     5
 10
8.0890300000000011
 20
10.709899999999999
 30
0.0
 70
    32
  0
VERTEX
  5
343
  8
CENTRALA
 62
     5
 10
8.2514099999999981
 20
10.7349
 30
0.0
 70
    32
  0
VERTEX
  5
344
  8
CENTRALA
 62
     5
 10
8.4131600000000013
 20
10.765000000000001
 30
0.0
 70
    32
  0
VERTEX
  5
345
  8
CENTRALA
 62
     5
 10
8.5742799999999981
 20
10.8005
 30
0.0
 70
    32
  0
VERTEX
  5
346
  8
CENTRALA
 62
     5
 10
8.7347399999999968
 20
10.8413
 30
0.0
 70
    32
  0
VERTEX
  5
347
  8
CENTRALA
 62
     5
 10
8.8945399999999974
 20
10.887700000000001
 30
0.0
 70
    32
  0
VERTEX
  5
348
  8
CENTRALA
 62
     5
 10
9.0536700000000003
 20
10.9396
 30
0.0
 70
    32
  0
VERTEX
  5
349
  8
CENTRALA
 62
     5
 10
9.2121200000000005
 20
10.997199999999999
 30
0.0
 70
    32
  0
VERTEX
  5
34A
  8
CENTRALA
 62
     5
 10
9.3698700000000006
 20
11.060700000000001
 30
0.0
 70
    32
  0
VERTEX
  5
34B
  8
CENTRALA
 62
     5
 10
9.5269300000000001
 20
11.130000000000001
 30
0.0
 70
    32
  0
VERTEX
  5
34C
  8
CENTRALA
 62
     5
 10
9.6832700000000003
 20
11.205399999999999
 30
0.0
 70
    32
  0
VERTEX
  5
34D
  8
CENTRALA
 62
     5
 10
9.8388799999999996
 20
11.286899999999999
 30
0.0
 70
    32
  0
VERTEX
  5
34E
  8
CENTRALA
 62
     5
 10
9.9937699999999996
 20
11.374599999999999
 30
0.0
 70
    32
  0
VERTEX
  5
34F
  8
CENTRALA
 62
     5
 10
10.1479
 20
11.4687
 30
0.0
 70
    32
  0
VERTEX
  5
350
  8
CENTRALA
 62
     5
 10
10.301299999999999
 20
11.569100000000001
 30
0.0
 70
    32
  0
VERTEX
  5
351
  8
CENTRALA
 62
     5
 10
10.453900000000001
 20
11.6761
 30
0.0
 70
    32
  0
VERTEX
  5
352
  8
CENTRALA
 62
     5
 10
10.6058
 20
11.7898
 30
0.0
 70
    32
  0
VERTEX
  5
353
  8
CENTRALA
 62
     5
 10
10.7568
 20
11.9101
 30
0.0
 70
    32
  0
VERTEX
  5
354
  8
CENTRALA
 62
     5
 10
10.9071
 20
12.0372
 30
0.0
 70
    32
  0
VERTEX
  5
355
  8
CENTRALA
 62
     5
 10
11.0566
 20
12.1706
 30
0.0
 70
    32
  0
VERTEX
  5
356
  8
CENTRALA
 62
     5
 10
11.205399999999999
 20
12.31
 30
0.0
 70
    32
  0
VERTEX
  5
357
  8
CENTRALA
 62
     5
 10
11.353400000000001
 20
12.454800000000001
 30
0.0
 70
    32
  0
VERTEX
  5
358
  8
CENTRALA
 62
     5
 10
11.5008
 20
12.604799999999999
 30
0.0
 70
    32
  0
VERTEX
  5
359
  8
CENTRALA
 62
     5
 10
11.647399999999999
 20
12.759399999999999
 30
0.0
 70
    32
  0
VERTEX
  5
35A
  8
CENTRALA
 62
     5
 10
11.7935
 20
12.918200000000001
 30
0.0
 70
    32
  0
VERTEX
  5
35B
  8
CENTRALA
 62
     5
 10
11.9389
 20
13.0809
 30
0.0
 70
    32
  0
VERTEX
  5
35C
  8
CENTRALA
 62
     5
 10
12.0838
 20
13.2469
 30
0.0
 70
    32
  0
VERTEX
  5
35D
  8
CENTRALA
 62
     5
 10
12.228
 20
13.415900000000001
 30
0.0
 70
    32
  0
VERTEX
  5
35E
  8
CENTRALA
 62
     5
 10
12.3718
 20
13.5875
 30
0.0
 70
    32
  0
VERTEX
  5
35F
  8
CENTRALA
 62
     5
 10
12.515000000000001
 20
13.761100000000001
 30
0.0
 70
    32
  0
VERTEX
  5
360
  8
CENTRALA
 62
     5
 10
12.6577
 20
13.936500000000001
 30
0.0
 70
    32
  0
VERTEX
  5
361
  8
CENTRALA
 62
     5
 10
12.800000000000001
 20
14.113200000000001
 30
0.0
 70
    32
  0
VERTEX
  5
362
  8
CENTRALA
 62
     5
 10
12.941800000000001
 20
14.290699999999999
 30
0.0
 70
    32
  0
VERTEX
  5
363
  8
CENTRALA
 62
     5
 10
13.0832
 20
14.4687
 30
0.0
 70
    32
  0
VERTEX
  5
364
  8
CENTRALA
 62
     5
 10
13.2242
 20
14.646699999999999
 30
0.0
 70
    32
  0
VERTEX
  5
365
  8
CENTRALA
 62
     5
 10
13.364800000000001
 20
14.824199999999999
 30
0.0
 70
    32
  0
VERTEX
  5
366
  8
CENTRALA
 62
     5
 10
13.505100000000001
 20
15.000999999999999
 30
0.0
 70
    32
  0
VERTEX
  5
367
  8
CENTRALA
 62
     5
 10
13.645099999999999
 20
15.176500000000001
 30
0.0
 70
    32
  0
VERTEX
  5
368
  8
CENTRALA
 62
     5
 10
13.784700000000001
 20
15.350300000000001
 30
0.0
 70
    32
  0
VERTEX
  5
369
  8
CENTRALA
 62
     5
 10
13.924200000000001
 20
15.522
 30
0.0
 70
    32
  0
VERTEX
  5
36A
  8
CENTRALA
 62
     5
 10
14.0633
 20
15.6913
 30
0.0
 70
    32
  0
VERTEX
  5
36B
  8
CENTRALA
 62
     5
 10
14.202299999999999
 20
15.8575
 30
0.0
 70
    32
  0
VERTEX
  5
36C
  8
CENTRALA
 62
     5
 10
14.340999999999999
 20
16.020399999999999
 30
0.0
 70
    32
  0
VERTEX
  5
36D
  8
CENTRALA
 62
     5
 10
14.4796
 20
16.179600000000001
 30
0.0
 70
    32
  0
VERTEX
  5
36E
  8
CENTRALA
 62
     5
 10
14.6181
 20
16.334499999999998
 30
0.0
 70
    32
  0
VERTEX
  5
36F
  8
CENTRALA
 62
     5
 10
14.756399999999999
 20
16.4848
 30
0.0
 70
    32
  0
VERTEX
  5
370
  8
CENTRALA
 62
     5
 10
14.894600000000001
 20
16.629999999999999
 30
0.0
 70
    32
  0
VERTEX
  5
371
  8
CENTRALA
 62
     5
 10
15.0328
 20
16.7698
 30
0.0
 70
    32
  0
VERTEX
  5
372
  8
CENTRALA
 62
     5
 10
15.1709
 20
16.903700000000001
 30
0.0
 70
    32
  0
VERTEX
  5
373
  8
CENTRALA
 62
     5
 10
15.287699999999999
 20
16.957000000000001
 30
0.0
 70
    32
  0
VERTEX
  5
374
  8
CENTRALA
 62
     5
 10
15.3405
 20
16.7852
 30
0.0
 70
    32
  0
VERTEX
  5
375
  8
CENTRALA
 62
     5
 10
15.3933
 20
16.613399999999999
 30
0.0
 70
    32
  0
VERTEX
  5
376
  8
CENTRALA
 62
     5
 10
15.4459
 20
16.441500000000001
 30
0.0
 70
    32
  0
VERTEX
  5
377
  8
CENTRALA
 62
     5
 10
15.4983
 20
16.269600000000001
 30
0.0
 70
    32
  0
VERTEX
  5
378
  8
CENTRALA
 62
     5
 10
15.5505
 20
16.097799999999999
 30
0.0
 70
    32
  0
VERTEX
  5
379
  8
CENTRALA
 62
     5
 10
15.602399999999999
 20
15.9259
 30
0.0
 70
    32
  0
VERTEX
  5
37A
  8
CENTRALA
 62
     5
 10
15.654
 20
15.7539
 30
0.0
 70
    32
  0
VERTEX
  5
37B
  8
CENTRALA
 62
     5
 10
15.7052
 20
15.582000000000001
 30
0.0
 70
    32
  0
VERTEX
  5
37C
  8
CENTRALA
 62
     5
 10
15.756
 20
15.41
 30
0.0
 70
    32
  0
VERTEX
  5
37D
  8
CENTRALA
 62
     5
 10
15.8063
 20
15.238
 30
0.0
 70
    32
  0
VERTEX
  5
37E
  8
CENTRALA
 62
     5
 10
15.856
 20
15.065899999999999
 30
0.0
 70
    32
  0
VERTEX
  5
37F
  8
CENTRALA
 62
     5
 10
15.905099999999999
 20
14.8939
 30
0.0
 70
    32
  0
VERTEX
  5
380
  8
CENTRALA
 62
     5
 10
15.9535
 20
14.7217
 30
0.0
 70
    32
  0
VERTEX
  5
381
  8
CENTRALA
 62
     5
 10
16.001300000000001
 20
14.5495
 30
0.0
 70
    32
  0
VERTEX
  5
382
  8
CENTRALA
 62
     5
 10
16.048300000000001
 20
14.3773
 30
0.0
 70
    32
  0
VERTEX
  5
383
  8
CENTRALA
 62
     5
 10
16.0944
 20
14.205
 30
0.0
 70
    32
  0
VERTEX
  5
384
  8
CENTRALA
 62
     5
 10
16.139700000000001
 20
14.0327
 30
0.0
 70
    32
  0
VERTEX
  5
385
  8
CENTRALA
 62
     5
 10
16.184100000000001
 20
13.860300000000001
 30
0.0
 70
    32
  0
VERTEX
  5
386
  8
CENTRALA
 62
     5
 10
16.227499999999999
 20
13.687799999999999
 30
0.0
 70
    32
  0
VERTEX
  5
387
  8
CENTRALA
 62
     5
 10
16.2698
 20
13.5152
 30
0.0
 70
    32
  0
VERTEX
  5
388
  8
CENTRALA
 62
     5
 10
16.3111
 20
13.342599999999999
 30
0.0
 70
    32
  0
VERTEX
  5
389
  8
CENTRALA
 62
     5
 10
16.351199999999999
 20
13.1699
 30
0.0
 70
    32
  0
VERTEX
  5
38A
  8
CENTRALA
 62
     5
 10
16.3901
 20
12.9971
 30
0.0
 70
    32
  0
VERTEX
  5
38B
  8
CENTRALA
 62
     5
 10
16.427800000000001
 20
12.824299999999999
 30
0.0
 70
    32
  0
VERTEX
  5
38C
  8
CENTRALA
 62
     5
 10
16.464200000000002
 20
12.651300000000001
 30
0.0
 70
    32
  0
VERTEX
  5
38D
  8
CENTRALA
 62
     5
 10
16.499199999999998
 20
12.478300000000001
 30
0.0
 70
    32
  0
VERTEX
  5
38E
  8
CENTRALA
 62
     5
 10
16.532800000000002
 20
12.305099999999999
 30
0.0
 70
    32
  0
VERTEX
  5
38F
  8
CENTRALA
 62
     5
 10
16.565000000000001
 20
12.1319
 30
0.0
 70
    32
  0
VERTEX
  5
390
  8
CENTRALA
 62
     5
 10
16.595600000000001
 20
11.958600000000001
 30
0.0
 70
    32
  0
VERTEX
  5
391
  8
CENTRALA
 62
     5
 10
16.624700000000001
 20
11.7851
 30
0.0
 70
    32
  0
VERTEX
  5
392
  8
CENTRALA
 62
     5
 10
16.652100000000001
 20
11.611599999999999
 30
0.0
 70
    32
  0
VERTEX
  5
393
  8
CENTRALA
 62
     5
 10
16.677900000000001
 20
11.437900000000001
 30
0.0
 70
    32
  0
VERTEX
  5
394
  8
CENTRALA
 62
     5
 10
16.701899999999998
 20
11.264099999999999
 30
0.0
 70
    32
  0
VERTEX
  5
395
  8
CENTRALA
 62
     5
 10
16.7242
 20
11.090199999999999
 30
0.0
 70
    32
  0
VERTEX
  5
396
  8
CENTRALA
 62
     5
 10
16.744599999999998
 20
10.9162
 30
0.0
 70
    32
  0
VERTEX
  5
397
  8
CENTRALA
 62
     5
 10
16.763100000000001
 20
10.742000000000001
 30
0.0
 70
    32
  0
VERTEX
  5
398
  8
CENTRALA
 62
     5
 10
16.779699999999998
 20
10.5677
 30
0.0
 70
    32
  0
VERTEX
  5
399
  8
CENTRALA
 62
     5
 10
16.7943
 20
10.3933
 30
0.0
 70
    32
  0
VERTEX
  5
39A
  8
CENTRALA
 62
     5
 10
16.806799999999999
 20
10.2187
 30
0.0
 70
    32
  0
VERTEX
  5
39B
  8
CENTRALA
 62
     5
 10
16.8172
 20
10.044
 30
0.0
 70
    32
  0
VERTEX
  5
39C
  8
CENTRALA
 62
     5
 10
16.825500000000002
 20
9.8691800000000001
 30
0.0
 70
    32
  0
VERTEX
  5
39D
  8
CENTRALA
 62
     5
 10
16.831499999999998
 20
9.6941699999999997
 30
0.0
 70
    32
  0
VERTEX
  5
39E
  8
CENTRALA
 62
     5
 10
16.8353
 20
9.5190199999999994
 30
0.0
 70
    32
  0
VERTEX
  5
39F
  8
CENTRALA
 62
     5
 10
16.8368
 20
9.3437099999999997
 30
0.0
 70
    32
  0
VERTEX
  5
3A0
  8
CENTRALA
 62
     5
 10
16.835899999999999
 20
9.1682299999999994
 30
0.0
 70
    32
  0
VERTEX
  5
3A1
  8
CENTRALA
 62
     5
 10
16.8325
 20
8.9925999999999977
 30
0.0
 70
    32
  0
VERTEX
  5
3A2
  8
CENTRALA
 62
     5
 10
16.826699999999999
 20
8.8167899999999975
 30
0.0
 70
    32
  0
VERTEX
  5
3A3
  8
CENTRALA
 62
     5
 10
16.818300000000001
 20
8.6408199999999962
 30
0.0
 70
    32
  0
VERTEX
  5
3A4
  8
CENTRALA
 62
     5
 10
16.807400000000001
 20
8.4646699999999981
 30
0.0
 70
    32
  0
VERTEX
  5
3A5
  8
CENTRALA
 62
     5
 10
16.793800000000001
 20
8.288339999999998
 30
0.0
 70
    32
  0
VERTEX
  5
3A6
  8
CENTRALA
 62
     5
 10
16.7775
 20
8.111819999999998
 30
0.0
 70
    32
  0
VERTEX
  5
3A7
  8
CENTRALA
 62
     5
 10
16.758400000000002
 20
7.93513
 30
0.0
 70
    32
  0
VERTEX
  5
3A8
  8
CENTRALA
 62
     5
 10
16.736599999999999
 20
7.758239999999998
 30
0.0
 70
    32
  0
VERTEX
  5
3A9
  8
CENTRALA
 62
     5
 10
16.7119
 20
7.5811599999999997
 30
0.0
 70
    32
  0
VERTEX
  5
3AA
  8
CENTRALA
 62
     5
 10
16.6843
 20
7.40388
 30
0.0
 70
    32
  0
VERTEX
  5
3AB
  8
CENTRALA
 62
     5
 10
16.653700000000001
 20
7.226399999999999
 30
0.0
 70
    32
  0
VERTEX
  5
3AC
  8
CENTRALA
 62
     5
 10
16.620100000000001
 20
7.0487199999999968
 30
0.0
 70
    32
  0
VERTEX
  5
3AD
  8
CENTRALA
 62
     5
 10
16.583400000000001
 20
6.8708299999999998
 30
0.0
 70
    32
  0
VERTEX
  5
3AE
  8
CENTRALA
 62
     5
 10
16.543700000000001
 20
6.6927300000000001
 30
0.0
 70
    32
  0
VERTEX
  5
3AF
  8
CENTRALA
 62
     5
 10
16.500699999999998
 20
6.514409999999998
 30
0.0
 70
    32
  0
VERTEX
  5
3B0
  8
CENTRALA
 62
     5
 10
16.454499999999999
 20
6.335869999999999
 30
0.0
 70
    32
  0
VERTEX
  5
3B1
  8
CENTRALA
 62
     5
 10
16.405000000000001
 20
6.157119999999999
 30
0.0
 70
    32
  0
VERTEX
  5
3B2
  8
CENTRALA
 62
     5
 10
16.3522
 20
5.978139999999998
 30
0.0
 70
    32
  0
VERTEX
  5
3B3
  8
CENTRALA
 62
     5
 10
16.296299999999999
 20
5.7989600000000001
 30
0.0
 70
    32
  0
VERTEX
  5
3B4
  8
CENTRALA
 62
     5
 10
16.237400000000001
 20
5.6195699999999968
 30
0.0
 70
    32
  0
VERTEX
  5
3B5
  8
CENTRALA
 62
     5
 10
16.1754
 20
5.4400000000000004
 30
0.0
 70
    32
  0
VERTEX
  5
3B6
  8
CENTRALA
 62
     5
 10
16.110700000000001
 20
5.260259999999997
 30
0.0
 70
    32
  0
VERTEX
  5
3B7
  8
CENTRALA
 62
     5
 10
16.043199999999999
 20
5.0803399999999996
 30
0.0
 70
    32
  0
VERTEX
  5
3B8
  8
CENTRALA
 62
     5
 10
15.973000000000001
 20
4.900269999999999
 30
0.0
 70
    32
  0
VERTEX
  5
3B9
  8
CENTRALA
 62
     5
 10
15.9003
 20
4.7200499999999961
 30
0.0
 70
    32
  0
VERTEX
  5
3BA
  8
CENTRALA
 62
     5
 10
15.825200000000001
 20
4.5396999999999981
 30
0.0
 70
    32
  0
VERTEX
  5
3BB
  8
CENTRALA
 62
     5
 10
15.7477
 20
4.3592199999999961
 30
0.0
 70
    32
  0
VERTEX
  5
3BC
  8
CENTRALA
 62
     5
 10
15.667999999999999
 20
4.1786300000000001
 30
0.0
 70
    32
  0
VERTEX
  5
3BD
  8
CENTRALA
 62
     5
 10
15.5862
 20
3.9979300000000002
 30
0.0
 70
    32
  0
VERTEX
  5
3BE
  8
CENTRALA
 62
     5
 10
15.5024
 20
3.8171400000000002
 30
0.0
 70
    32
  0
VERTEX
  5
3BF
  8
CENTRALA
 62
     5
 10
15.416600000000001
 20
3.63626
 30
0.0
 70
    32
  0
VERTEX
  5
3C0
  8
CENTRALA
 62
     5
 10
15.3291
 20
3.4553099999999981
 30
0.0
 70
    32
  0
VERTEX
  5
3C1
  8
CENTRALA
 62
     5
 10
15.239800000000001
 20
3.2743000000000002
 30
0.0
 70
    32
  0
VERTEX
  5
3C2
  8
CENTRALA
 62
     5
 10
15.148899999999999
 20
3.0932300000000001
 30
0.0
 70
    32
  0
VERTEX
  5
3C3
  8
CENTRALA
 62
     5
 10
15.0565
 20
2.9121199999999998
 30
0.0
 70
    32
  0
VERTEX
  5
3C4
  8
CENTRALA
 62
     5
 10
14.9627
 20
2.730979999999998
 30
0.0
 70
    32
  0
VERTEX
  5
3C5
  8
CENTRALA
 62
     5
 10
14.867599999999999
 20
2.5498199999999991
 30
0.0
 70
    32
  0
VERTEX
  5
3C6
  8
CENTRALA
 62
     5
 10
14.7713
 20
2.3686500000000001
 30
0.0
 70
    32
  0
VERTEX
  5
3C7
  8
CENTRALA
 62
     5
 10
14.6739
 20
2.1874699999999998
 30
0.0
 70
    32
  0
VERTEX
  5
3C8
  8
CENTRALA
 62
     5
 10
14.5756
 20
2.00631
 30
0.0
 70
    32
  0
VERTEX
  5
3C9
  8
CENTRALA
 62
     5
 10
14.4763
 20
1.825159999999995
 30
0.0
 70
    32
  0
VERTEX
  5
3CA
  8
CENTRALA
 62
     5
 10
14.376300000000001
 20
1.64405
 30
0.0
 70
    32
  0
VERTEX
  5
3CB
  8
CENTRALA
 62
     5
 10
14.275499999999999
 20
1.4629700000000001
 30
0.0
 70
    32
  0
VERTEX
  5
3CC
  8
CENTRALA
 62
     5
 10
14.174200000000001
 20
1.281949999999999
 30
0.0
 70
    32
  0
VERTEX
  5
3CD
  8
CENTRALA
 62
     5
 10
14.0725
 20
1.100989999999999
 30
0.0
 70
    32
  0
VERTEX
  5
3CE
  8
CENTRALA
 62
     5
 10
13.9704
 20
0.9201
 30
0.0
 70
    32
  0
VERTEX
  5
3CF
  8
CENTRALA
 62
     5
 10
13.868
 20
0.7392920000000001
 30
0.0
 70
    32
  0
VERTEX
  5
3D0
  8
CENTRALA
 62
     5
 10
13.7654
 20
0.5585770000000001
 30
0.0
 70
    32
  0
VERTEX
  5
3D1
  8
CENTRALA
 62
     5
 10
13.662800000000001
 20
0.377965
 30
0.0
 70
    32
  0
VERTEX
  5
3D2
  8
CENTRALA
 62
     5
 10
13.5602
 20
0.197466
 30
0.0
 70
    32
  0
VERTEX
  5
3D3
  8
CENTRALA
 62
     5
 10
13.457800000000001
 20
0.0170916
 30
0.0
 70
    32
  0
VERTEX
  5
3D4
  8
CENTRALA
 62
     5
 10
13.355600000000001
 20
-0.163149
 30
0.0
 70
    32
  0
VERTEX
  5
3D5
  8
CENTRALA
 62
     5
 10
13.2538
 20
-0.343246
 30
0.0
 70
    32
  0
VERTEX
  5
3D6
  8
CENTRALA
 62
     5
 10
13.1524
 20
-0.523187
 30
0.0
 70
    32
  0
VERTEX
  5
3D7
  8
CENTRALA
 62
     5
 10
13.051600000000001
 20
-0.702963
 30
0.0
 70
    32
  0
VERTEX
  5
3D8
  8
CENTRALA
 62
     5
 10
12.951499999999999
 20
-0.8825639999999999
 30
0.0
 70
    32
  0
VERTEX
  5
3D9
  8
CENTRALA
 62
     5
 10
12.8521
 20
-1.061979999999999
 30
0.0
 70
    32
  0
VERTEX
  5
3DA
  8
CENTRALA
 62
     5
 10
12.7537
 20
-1.2412000000000001
 30
0.0
 70
    32
  0
VERTEX
  5
3DB
  8
CENTRALA
 62
     5
 10
12.6561
 20
-1.4202099999999991
 30
0.0
 70
    32
  0
VERTEX
  5
3DC
  8
CENTRALA
 62
     5
 10
12.559699999999999
 20
-1.599
 30
0.0
 70
    32
  0
VERTEX
  5
3DD
  8
CENTRALA
 62
     5
 10
12.464399999999999
 20
-1.7775700000000001
 30
0.0
 70
    32
  0
VERTEX
  5
3DE
  8
CENTRALA
 62
     5
 10
12.3705
 20
-1.9558999999999991
 30
0.0
 70
    32
  0
VERTEX
  5
3DF
  8
CENTRALA
 62
     5
 10
12.277900000000001
 20
-2.1339799999999989
 30
0.0
 70
    32
  0
VERTEX
  5
3E0
  8
CENTRALA
 62
     5
 10
12.1868
 20
-2.3117999999999981
 30
0.0
 70
    32
  0
VERTEX
  5
3E1
  8
CENTRALA
 62
     5
 10
12.097300000000001
 20
-2.4893499999999991
 30
0.0
 70
    32
  0
VERTEX
  5
3E2
  8
CENTRALA
 62
     5
 10
12.009499999999999
 20
-2.6666300000000001
 30
0.0
 70
    32
  0
VERTEX
  5
3E3
  8
CENTRALA
 62
     5
 10
11.923500000000001
 20
-2.8436099999999982
 30
0.0
 70
    32
  0
VERTEX
  5
3E4
  8
CENTRALA
 62
     5
 10
11.839399999999999
 20
-3.0202900000000001
 30
0.0
 70
    32
  0
VERTEX
  5
3E5
  8
CENTRALA
 62
     5
 10
11.757400000000001
 20
-3.1966600000000001
 30
0.0
 70
    32
  0
VERTEX
  5
3E6
  8
CENTRALA
 62
     5
 10
11.6774
 20
-3.3727199999999979
 30
0.0
 70
    32
  0
VERTEX
  5
3E7
  8
CENTRALA
 62
     5
 10
11.5997
 20
-3.5484399999999998
 30
0.0
 70
    32
  0
VERTEX
  5
3E8
  8
CENTRALA
 62
     5
 10
11.5242
 20
-3.7238099999999981
 30
0.0
 70
    32
  0
VERTEX
  5
3E9
  8
CENTRALA
 62
     5
 10
11.4512
 20
-3.8988399999999999
 30
0.0
 70
    32
  0
VERTEX
  5
3EA
  8
CENTRALA
 62
     5
 10
11.380699999999999
 20
-4.0735000000000001
 30
0.0
 70
    32
  0
VERTEX
  5
3EB
  8
CENTRALA
 62
     5
 10
11.312900000000001
 20
-4.247799999999998
 30
0.0
 70
    32
  0
VERTEX
  5
3EC
  8
CENTRALA
 62
     5
 10
11.2478
 20
-4.4217000000000004
 30
0.0
 70
    32
  0
VERTEX
  5
3ED
  8
CENTRALA
 62
     5
 10
11.185499999999999
 20
-4.5952199999999976
 30
0.0
 70
    32
  0
VERTEX
  5
3EE
  8
CENTRALA
 62
     5
 10
11.126099999999999
 20
-4.7683299999999997
 30
0.0
 70
    32
  0
VERTEX
  5
3EF
  8
CENTRALA
 62
     5
 10
11.069800000000001
 20
-4.9410199999999991
 30
0.0
 70
    32
  0
VERTEX
  5
3F0
  8
CENTRALA
 62
     5
 10
11.0167
 20
-5.1132900000000001
 30
0.0
 70
    32
  0
VERTEX
  5
3F1
  8
CENTRALA
 62
     5
 10
10.966799999999999
 20
-5.2851299999999997
 30
0.0
 70
    32
  0
VERTEX
  5
3F2
  8
CENTRALA
 62
     5
 10
10.920199999999999
 20
-5.4565199999999967
 30
0.0
 70
    32
  0
VERTEX
  5
3F3
  8
CENTRALA
 62
     5
 10
10.8771
 20
-5.627449999999997
 30
0.0
 70
    32
  0
VERTEX
  5
3F4
  8
CENTRALA
 62
     5
 10
10.8376
 20
-5.7979199999999969
 30
0.0
 70
    32
  0
VERTEX
  5
3F5
  8
CENTRALA
 62
     5
 10
10.8017
 20
-5.967909999999998
 30
0.0
 70
    32
  0
VERTEX
  5
3F6
  8
CENTRALA
 62
     5
 10
10.769600000000001
 20
-6.13741
 30
0.0
 70
    32
  0
VERTEX
  5
3F7
  8
CENTRALA
 62
     5
 10
10.741400000000001
 20
-6.3064200000000001
 30
0.0
 70
    32
  0
VERTEX
  5
3F8
  8
CENTRALA
 62
     5
 10
10.7171
 20
-6.47492
 30
0.0
 70
    32
  0
VERTEX
  5
3F9
  8
CENTRALA
 62
     5
 10
10.696899999999999
 20
-6.6429
 30
0.0
 70
    32
  0
VERTEX
  5
3FA
  8
CENTRALA
 62
     5
 10
10.680899999999999
 20
-6.810349999999997
 30
0.0
 70
    32
  0
VERTEX
  5
3FB
  8
CENTRALA
 62
     5
 10
10.6692
 20
-6.9772600000000002
 30
0.0
 70
    32
  0
VERTEX
  5
3FC
  8
CENTRALA
 62
     5
 10
10.661799999999999
 20
-7.1436199999999968
 30
0.0
 70
    32
  0
VERTEX
  5
3FD
  8
CENTRALA
 62
     5
 10
10.659000000000001
 20
-7.3094299999999972
 30
0.0
 70
    32
  0
VERTEX
  5
3FE
  8
CENTRALA
 62
     5
 10
10.6607
 20
-7.4746600000000001
 30
0.0
 70
    32
  0
VERTEX
  5
3FF
  8
CENTRALA
 62
     5
 10
10.6671
 20
-7.63931
 30
0.0
 70
    32
  0
VERTEX
  5
400
  8
CENTRALA
 62
     5
 10
10.6784
 20
-7.8033700000000001
 30
0.0
 70
    32
  0
VERTEX
  5
401
  8
CENTRALA
 62
     5
 10
10.6945
 20
-7.9668299999999972
 30
0.0
 70
    32
  0
VERTEX
  5
402
  8
CENTRALA
 62
     5
 10
10.7157
 20
-8.1296800000000005
 30
0.0
 70
    32
  0
VERTEX
  5
403
  8
CENTRALA
 62
     5
 10
10.741899999999999
 20
-8.2919100000000014
 30
0.0
 70
    32
  0
VERTEX
  5
404
  8
CENTRALA
 62
     5
 10
10.773400000000001
 20
-8.4535
 30
0.0
 70
    32
  0
VERTEX
  5
405
  8
CENTRALA
 62
     5
 10
10.8102
 20
-8.6144499999999962
 30
0.0
 70
    32
  0
VERTEX
  5
406
  8
CENTRALA
 62
     5
 10
10.852399999999999
 20
-8.7747499999999992
 30
0.0
 70
    32
  0
VERTEX
  5
407
  8
CENTRALA
 62
     5
 10
10.9001
 20
-8.9343899999999952
 30
0.0
 70
    32
  0
VERTEX
  5
408
  8
CENTRALA
 62
     5
 10
10.9535
 20
-9.0933499999999992
 30
0.0
 70
    32
  0
VERTEX
  5
409
  8
CENTRALA
 62
     5
 10
11.012600000000001
 20
-9.2516199999999991
 30
0.0
 70
    32
  0
VERTEX
  5
40A
  8
CENTRALA
 62
     5
 10
11.077500000000001
 20
-9.4092000000000002
 30
0.0
 70
    32
  0
VERTEX
  5
40B
  8
CENTRALA
 62
     5
 10
11.148300000000001
 20
-9.5660799999999995
 30
0.0
 70
    32
  0
VERTEX
  5
40C
  8
CENTRALA
 62
     5
 10
11.225199999999999
 20
-9.7222399999999993
 30
0.0
 70
    32
  0
VERTEX
  5
40D
  8
CENTRALA
 62
     5
 10
11.308299999999999
 20
-9.8776700000000002
 30
0.0
 70
    32
  0
VERTEX
  5
40E
  8
CENTRALA
 62
     5
 10
11.397500000000001
 20
-10.032400000000001
 30
0.0
 70
    32
  0
VERTEX
  5
40F
  8
CENTRALA
 62
     5
 10
11.4932
 20
-10.186299999999999
 30
0.0
 70
    32
  0
VERTEX
  5
410
  8
CENTRALA
 62
     5
 10
11.5953
 20
-10.339499999999999
 30
0.0
 70
    32
  0
VERTEX
  5
411
  8
CENTRALA
 62
     5
 10
11.703900000000001
 20
-10.491899999999999
 30
0.0
 70
    32
  0
VERTEX
  5
412
  8
CENTRALA
 62
     5
 10
11.8192
 20
-10.643599999999999
 30
0.0
 70
    32
  0
VERTEX
  5
413
  8
CENTRALA
 62
     5
 10
11.9413
 20
-10.794499999999999
 30
0.0
 70
    32
  0
VERTEX
  5
414
  8
CENTRALA
 62
     5
 10
12.07
 20
-10.9445
 30
0.0
 70
    32
  0
VERTEX
  5
415
  8
CENTRALA
 62
     5
 10
12.2049
 20
-11.0938
 30
0.0
 70
    32
  0
VERTEX
  5
416
  8
CENTRALA
 62
     5
 10
12.345700000000001
 20
-11.2424
 30
0.0
 70
    32
  0
VERTEX
  5
417
  8
CENTRALA
 62
     5
 10
12.491899999999999
 20
-11.3903
 30
0.0
 70
    32
  0
VERTEX
  5
418
  8
CENTRALA
 62
     5
 10
12.643000000000001
 20
-11.5375
 30
0.0
 70
    32
  0
VERTEX
  5
419
  8
CENTRALA
 62
     5
 10
12.7987
 20
-11.683999999999999
 30
0.0
 70
    32
  0
VERTEX
  5
41A
  8
CENTRALA
 62
     5
 10
12.958500000000001
 20
-11.8299
 30
0.0
 70
    32
  0
VERTEX
  5
41B
  8
CENTRALA
 62
     5
 10
13.1221
 20
-11.975199999999999
 30
0.0
 70
    32
  0
VERTEX
  5
41C
  8
CENTRALA
 62
     5
 10
13.2889
 20
-12.119899999999999
 30
0.0
 70
    32
  0
VERTEX
  5
41D
  8
CENTRALA
 62
     5
 10
13.458600000000001
 20
-12.263999999999999
 30
0.0
 70
    32
  0
VERTEX
  5
41E
  8
CENTRALA
 62
     5
 10
13.630699999999999
 20
-12.4076
 30
0.0
 70
    32
  0
VERTEX
  5
41F
  8
CENTRALA
 62
     5
 10
13.8048
 20
-12.550700000000001
 30
0.0
 70
    32
  0
VERTEX
  5
420
  8
CENTRALA
 62
     5
 10
13.980600000000001
 20
-12.693300000000001
 30
0.0
 70
    32
  0
VERTEX
  5
421
  8
CENTRALA
 62
     5
 10
14.157500000000001
 20
-12.8354
 30
0.0
 70
    32
  0
VERTEX
  5
422
  8
CENTRALA
 62
     5
 10
14.3352
 20
-12.9772
 30
0.0
 70
    32
  0
VERTEX
  5
423
  8
CENTRALA
 62
     5
 10
14.513199999999999
 20
-13.118399999999999
 30
0.0
 70
    32
  0
VERTEX
  5
424
  8
CENTRALA
 62
     5
 10
14.6911
 20
-13.259399999999999
 30
0.0
 70
    32
  0
VERTEX
  5
425
  8
CENTRALA
 62
     5
 10
14.868499999999999
 20
-13.399900000000001
 30
0.0
 70
    32
  0
VERTEX
  5
426
  8
CENTRALA
 62
     5
 10
15.045
 20
-13.540100000000001
 30
0.0
 70
    32
  0
VERTEX
  5
427
  8
CENTRALA
 62
     5
 10
15.2201
 20
-13.68
 30
0.0
 70
    32
  0
VERTEX
  5
428
  8
CENTRALA
 62
     5
 10
15.3935
 20
-13.819599999999999
 30
0.0
 70
    32
  0
VERTEX
  5
429
  8
CENTRALA
 62
     5
 10
15.5646
 20
-13.959
 30
0.0
 70
    32
  0
VERTEX
  5
42A
  8
CENTRALA
 62
     5
 10
15.7331
 20
-14.098100000000001
 30
0.0
 70
    32
  0
VERTEX
  5
42B
  8
CENTRALA
 62
     5
 10
15.8986
 20
-14.237
 30
0.0
 70
    32
  0
VERTEX
  5
42C
  8
CENTRALA
 62
     5
 10
16.060600000000001
 20
-14.3757
 30
0.0
 70
    32
  0
VERTEX
  5
42D
  8
CENTRALA
 62
     5
 10
16.218699999999998
 20
-14.5143
 30
0.0
 70
    32
  0
VERTEX
  5
42E
  8
CENTRALA
 62
     5
 10
16.372499999999999
 20
-14.652699999999999
 30
0.0
 70
    32
  0
VERTEX
  5
42F
  8
CENTRALA
 62
     5
 10
16.521599999999999
 20
-14.791
 30
0.0
 70
    32
  0
VERTEX
  5
430
  8
CENTRALA
 62
     5
 10
16.665500000000002
 20
-14.9292
 30
0.0
 70
    32
  0
VERTEX
  5
431
  8
CENTRALA
 62
     5
 10
16.803899999999999
 20
-15.067299999999999
 30
0.0
 70
    32
  0
VERTEX
  5
432
  8
CENTRALA
 62
     5
 10
16.936199999999999
 20
-15.205500000000001
 30
0.0
 70
    32
  0
VERTEX
  5
433
  8
CENTRALA
 62
     5
 10
16.914100000000001
 20
-15.3009
 30
0.0
 70
    32
  0
VERTEX
  5
434
  8
CENTRALA
 62
     5
 10
16.7422
 20
-15.3537
 30
0.0
 70
    32
  0
VERTEX
  5
435
  8
CENTRALA
 62
     5
 10
16.570399999999999
 20
-15.4064
 30
0.0
 70
    32
  0
VERTEX
  5
436
  8
CENTRALA
 62
     5
 10
16.398499999999999
 20
-15.459
 30
0.0
 70
    32
  0
VERTEX
  5
437
  8
CENTRALA
 62
     5
 10
16.226700000000001
 20
-15.5114
 30
0.0
 70
    32
  0
VERTEX
  5
438
  8
CENTRALA
 62
     5
 10
16.0548
 20
-15.563499999999999
 30
0.0
 70
    32
  0
VERTEX
  5
439
  8
CENTRALA
 62
     5
 10
15.882899999999999
 20
-15.615399999999999
 30
0.0
 70
    32
  0
VERTEX
  5
43A
  8
CENTRALA
 62
     5
 10
15.710900000000001
 20
-15.6669
 30
0.0
 70
    32
  0
VERTEX
  5
43B
  8
CENTRALA
 62
     5
 10
15.539
 20
-15.718
 30
0.0
 70
    32
  0
VERTEX
  5
43C
  8
CENTRALA
 62
     5
 10
15.367000000000001
 20
-15.768599999999999
 30
0.0
 70
    32
  0
VERTEX
  5
43D
  8
CENTRALA
 62
     5
 10
15.195
 20
-15.8187
 30
0.0
 70
    32
  0
VERTEX
  5
43E
  8
CENTRALA
 62
     5
 10
15.0229
 20
-15.8683
 30
0.0
 70
    32
  0
VERTEX
  5
43F
  8
CENTRALA
 62
     5
 10
14.8508
 20
-15.917299999999999
 30
0.0
 70
    32
  0
VERTEX
  5
440
  8
CENTRALA
 62
     5
 10
14.678699999999999
 20
-15.9655
 30
0.0
 70
    32
  0
VERTEX
  5
441
  8
CENTRALA
 62
     5
 10
14.506500000000001
 20
-16.013100000000001
 30
0.0
 70
    32
  0
VERTEX
  5
442
  8
CENTRALA
 62
     5
 10
14.334199999999999
 20
-16.059899999999999
 30
0.0
 70
    32
  0
VERTEX
  5
443
  8
CENTRALA
 62
     5
 10
14.161899999999999
 20
-16.105799999999999
 30
0.0
 70
    32
  0
VERTEX
  5
444
  8
CENTRALA
 62
     5
 10
13.989599999999999
 20
-16.1509
 30
0.0
 70
    32
  0
VERTEX
  5
445
  8
CENTRALA
 62
     5
 10
13.8171
 20
-16.195
 30
0.0
 70
    32
  0
VERTEX
  5
446
  8
CENTRALA
 62
     5
 10
13.644600000000001
 20
-16.238099999999999
 30
0.0
 70
    32
  0
VERTEX
  5
447
  8
CENTRALA
 62
     5
 10
13.472099999999999
 20
-16.280200000000001
 30
0.0
 70
    32
  0
VERTEX
  5
448
  8
CENTRALA
 62
     5
 10
13.2994
 20
-16.321200000000001
 30
0.0
 70
    32
  0
VERTEX
  5
449
  8
CENTRALA
 62
     5
 10
13.1267
 20
-16.361000000000001
 30
0.0
 70
    32
  0
VERTEX
  5
44A
  8
CENTRALA
 62
     5
 10
12.953900000000001
 20
-16.399699999999999
 30
0.0
 70
    32
  0
VERTEX
  5
44B
  8
CENTRALA
 62
     5
 10
12.781000000000001
 20
-16.437000000000001
 30
0.0
 70
    32
  0
VERTEX
  5
44C
  8
CENTRALA
 62
     5
 10
12.6081
 20
-16.473099999999999
 30
0.0
 70
    32
  0
VERTEX
  5
44D
  8
CENTRALA
 62
     5
 10
12.435
 20
-16.5077
 30
0.0
 70
    32
  0
VERTEX
  5
44E
  8
CENTRALA
 62
     5
 10
12.261799999999999
 20
-16.541
 30
0.0
 70
    32
  0
VERTEX
  5
44F
  8
CENTRALA
 62
     5
 10
12.0886
 20
-16.572800000000001
 30
0.0
 70
    32
  0
VERTEX
  5
450
  8
CENTRALA
 62
     5
 10
11.9152
 20
-16.603000000000002
 30
0.0
 70
    32
  0
VERTEX
  5
451
  8
CENTRALA
 62
     5
 10
11.7417
 20
-16.631699999999999
 30
0.0
 70
    32
  0
VERTEX
  5
452
  8
CENTRALA
 62
     5
 10
11.568199999999999
 20
-16.6587
 30
0.0
 70
    32
  0
VERTEX
  5
453
  8
CENTRALA
 62
     5
 10
11.394500000000001
 20
-16.684100000000001
 30
0.0
 70
    32
  0
VERTEX
  5
454
  8
CENTRALA
 62
     5
 10
11.220599999999999
 20
-16.707699999999999
 30
0.0
 70
    32
  0
VERTEX
  5
455
  8
CENTRALA
 62
     5
 10
11.0467
 20
-16.729500000000002
 30
0.0
 70
    32
  0
VERTEX
  5
456
  8
CENTRALA
 62
     5
 10
10.8726
 20
-16.749400000000001
 30
0.0
 70
    32
  0
VERTEX
  5
457
  8
CENTRALA
 62
     5
 10
10.698499999999999
 20
-16.767499999999998
 30
0.0
 70
    32
  0
VERTEX
  5
458
  8
CENTRALA
 62
     5
 10
10.524100000000001
 20
-16.7835
 30
0.0
 70
    32
  0
VERTEX
  5
459
  8
CENTRALA
 62
     5
 10
10.3497
 20
-16.797599999999999
 30
0.0
 70
    32
  0
VERTEX
  5
45A
  8
CENTRALA
 62
     5
 10
10.1751
 20
-16.8096
 30
0.0
 70
    32
  0
VERTEX
  5
45B
  8
CENTRALA
 62
     5
 10
10.000299999999999
 20
-16.819500000000001
 30
0.0
 70
    32
  0
VERTEX
  5
45C
  8
CENTRALA
 62
     5
 10
9.8254399999999968
 20
-16.827200000000001
 30
0.0
 70
    32
  0
VERTEX
  5
45D
  8
CENTRALA
 62
     5
 10
9.6503999999999994
 20
-16.832699999999999
 30
0.0
 70
    32
  0
VERTEX
  5
45E
  8
CENTRALA
 62
     5
 10
9.4752100000000006
 20
-16.835899999999999
 30
0.0
 70
    32
  0
VERTEX
  5
45F
  8
CENTRALA
 62
     5
 10
9.2998499999999993
 20
-16.8368
 30
0.0
 70
    32
  0
VERTEX
  5
460
  8
CENTRALA
 62
     5
 10
9.1243400000000001
 20
-16.8352
 30
0.0
 70
    32
  0
VERTEX
  5
461
  8
CENTRALA
 62
     5
 10
8.9486600000000003
 20
-16.831299999999999
 30
0.0
 70
    32
  0
VERTEX
  5
462
  8
CENTRALA
 62
     5
 10
8.7728199999999994
 20
-16.8248
 30
0.0
 70
    32
  0
VERTEX
  5
463
  8
CENTRALA
 62
     5
 10
8.5967999999999982
 20
-16.815799999999999
 30
0.0
 70
    32
  0
VERTEX
  5
464
  8
CENTRALA
 62
     5
 10
8.4206000000000003
 20
-16.804200000000002
 30
0.0
 70
    32
  0
VERTEX
  5
465
  8
CENTRALA
 62
     5
 10
8.2442200000000003
 20
-16.789999999999999
 30
0.0
 70
    32
  0
VERTEX
  5
466
  8
CENTRALA
 62
     5
 10
8.0676699999999997
 20
-16.773
 30
0.0
 70
    32
  0
VERTEX
  5
467
  8
CENTRALA
 62
     5
 10
7.8909199999999968
 20
-16.753299999999999
 30
0.0
 70
    32
  0
VERTEX
  5
468
  8
CENTRALA
 62
     5
 10
7.713989999999999
 20
-16.730699999999999
 30
0.0
 70
    32
  0
VERTEX
  5
469
  8
CENTRALA
 62
     5
 10
7.5368599999999999
 20
-16.705300000000001
 30
0.0
 70
    32
  0
VERTEX
  5
46A
  8
CENTRALA
 62
     5
 10
7.3595300000000003
 20
-16.6769
 30
0.0
 70
    32
  0
VERTEX
  5
46B
  8
CENTRALA
 62
     5
 10
7.1820000000000004
 20
-16.645600000000002
 30
0.0
 70
    32
  0
VERTEX
  5
46C
  8
CENTRALA
 62
     5
 10
7.0042600000000004
 20
-16.6112
 30
0.0
 70
    32
  0
VERTEX
  5
46D
  8
CENTRALA
 62
     5
 10
6.8263199999999991
 20
-16.573799999999999
 30
0.0
 70
    32
  0
VERTEX
  5
46E
  8
CENTRALA
 62
     5
 10
6.6481699999999968
 20
-16.533200000000001
 30
0.0
 70
    32
  0
VERTEX
  5
46F
  8
CENTRALA
 62
     5
 10
6.4698000000000002
 20
-16.4894
 30
0.0
 70
    32
  0
VERTEX
  5
470
  8
CENTRALA
 62
     5
 10
6.2912099999999969
 20
-16.442399999999999
 30
0.0
 70
    32
  0
VERTEX
  5
471
  8
CENTRALA
 62
     5
 10
6.1123900000000004
 20
-16.392099999999999
 30
0.0
 70
    32
  0
VERTEX
  5
472
  8
CENTRALA
 62
     5
 10
5.9333599999999969
 20
-16.3385
 30
0.0
 70
    32
  0
VERTEX
  5
473
  8
CENTRALA
 62
     5
 10
5.7541299999999991
 20
-16.2819
 30
0.0
 70
    32
  0
VERTEX
  5
474
  8
CENTRALA
 62
     5
 10
5.5746999999999991
 20
-16.222200000000001
 30
0.0
 70
    32
  0
VERTEX
  5
475
  8
CENTRALA
 62
     5
 10
5.3950800000000001
 20
-16.159500000000001
 30
0.0
 70
    32
  0
VERTEX
  5
476
  8
CENTRALA
 62
     5
 10
5.2152900000000004
 20
-16.094100000000001
 30
0.0
 70
    32
  0
VERTEX
  5
477
  8
CENTRALA
 62
     5
 10
5.035339999999997
 20
-16.0259
 30
0.0
 70
    32
  0
VERTEX
  5
478
  8
CENTRALA
 62
     5
 10
4.8552299999999997
 20
-15.9551
 30
0.0
 70
    32
  0
VERTEX
  5
479
  8
CENTRALA
 62
     5
 10
4.6749799999999997
 20
-15.8818
 30
0.0
 70
    32
  0
VERTEX
  5
47A
  8
CENTRALA
 62
     5
 10
4.4945899999999996
 20
-15.805999999999999
 30
0.0
 70
    32
  0
VERTEX
  5
47B
  8
CENTRALA
 62
     5
 10
4.3140799999999997
 20
-15.728
 30
0.0
 70
    32
  0
VERTEX
  5
47C
  8
CENTRALA
 62
     5
 10
4.1334599999999977
 20
-15.6478
 30
0.0
 70
    32
  0
VERTEX
  5
47D
  8
CENTRALA
 62
     5
 10
3.9527399999999999
 20
-15.5655
 30
0.0
 70
    32
  0
VERTEX
  5
47E
  8
CENTRALA
 62
     5
 10
3.7719299999999998
 20
-15.4811
 30
0.0
 70
    32
  0
VERTEX
  5
47F
  8
CENTRALA
 62
     5
 10
3.5910299999999999
 20
-15.3949
 30
0.0
 70
    32
  0
VERTEX
  5
480
  8
CENTRALA
 62
     5
 10
3.4100599999999979
 20
-15.306900000000001
 30
0.0
 70
    32
  0
VERTEX
  5
481
  8
CENTRALA
 62
     5
 10
3.2290399999999999
 20
-15.2172
 30
0.0
 70
    32
  0
VERTEX
  5
482
  8
CENTRALA
 62
     5
 10
3.047959999999998
 20
-15.1259
 30
0.0
 70
    32
  0
VERTEX
  5
483
  8
CENTRALA
 62
     5
 10
2.8668399999999998
 20
-15.033200000000001
 30
0.0
 70
    32
  0
VERTEX
  5
484
  8
CENTRALA
 62
     5
 10
2.6856900000000001
 20
-14.939
 30
0.0
 70
    32
  0
VERTEX
  5
485
  8
CENTRALA
 62
     5
 10
2.504529999999999
 20
-14.8436
 30
0.0
 70
    32
  0
VERTEX
  5
486
  8
CENTRALA
 62
     5
 10
2.32335
 20
-14.7471
 30
0.0
 70
    32
  0
VERTEX
  5
487
  8
CENTRALA
 62
     5
 10
2.1421799999999989
 20
-14.6494
 30
0.0
 70
    32
  0
VERTEX
  5
488
  8
CENTRALA
 62
     5
 10
1.9610199999999991
 20
-14.550800000000001
 30
0.0
 70
    32
  0
VERTEX
  5
489
  8
CENTRALA
 62
     5
 10
1.779879999999999
 20
-14.4514
 30
0.0
 70
    32
  0
VERTEX
  5
48A
  8
CENTRALA
 62
     5
 10
1.598779999999999
 20
-14.351100000000001
 30
0.0
 70
    32
  0
VERTEX
  5
48B
  8
CENTRALA
 62
     5
 10
1.41771
 20
-14.250299999999999
 30
0.0
 70
    32
  0
VERTEX
  5
48C
  8
CENTRALA
 62
     5
 10
1.236699999999999
 20
-14.1488
 30
0.0
 70
    32
  0
VERTEX
  5
48D
  8
CENTRALA
 62
     5
 10
1.05576
 20
-14.047000000000001
 30
0.0
 70
    32
  0
VERTEX
  5
48E
  8
CENTRALA
 62
     5
 10
0.87489
 20
-13.944800000000001
 30
0.0
 70
    32
  0
VERTEX
  5
48F
  8
CENTRALA
 62
     5
 10
0.6941040000000001
 20
-13.8423
 30
0.0
 70
    32
  0
VERTEX
  5
490
  8
CENTRALA
 62
     5
 10
0.5134140000000002
 20
-13.739699999999999
 30
0.0
 70
    32
  0
VERTEX
  5
491
  8
CENTRALA
 62
     5
 10
0.332829
 20
-13.6371
 30
0.0
 70
    32
  0
VERTEX
  5
492
  8
CENTRALA
 62
     5
 10
0.152361
 20
-13.534599999999999
 30
0.0
 70
    32
  0
VERTEX
  5
493
  8
CENTRALA
 62
     5
 10
-0.0279816
 20
-13.4322
 30
0.0
 70
    32
  0
VERTEX
  5
494
  8
CENTRALA
 62
     5
 10
-0.208187
 20
-13.3301
 30
0.0
 70
    32
  0
VERTEX
  5
495
  8
CENTRALA
 62
     5
 10
-0.388246
 20
-13.228400000000001
 30
0.0
 70
    32
  0
VERTEX
  5
496
  8
CENTRALA
 62
     5
 10
-0.5681470000000001
 20
-13.1272
 30
0.0
 70
    32
  0
VERTEX
  5
497
  8
CENTRALA
 62
     5
 10
-0.74788
 20
-13.0265
 30
0.0
 70
    32
  0
VERTEX
  5
498
  8
CENTRALA
 62
     5
 10
-0.927435
 20
-12.926600000000001
 30
0.0
 70
    32
  0
VERTEX
  5
499
  8
CENTRALA
 62
     5
 10
-1.1068
 20
-12.827400000000001
 30
0.0
 70
    32
  0
VERTEX
  5
49A
  8
CENTRALA
 62
     5
 10
-1.2859700000000001
 20
-12.729200000000001
 30
0.0
 70
    32
  0
VERTEX
  5
49B
  8
CENTRALA
 62
     5
 10
-1.464929999999999
 20
-12.6319
 30
0.0
 70
    32
  0
VERTEX
  5
49C
  8
CENTRALA
 62
     5
 10
-1.64367
 20
-12.5358
 30
0.0
 70
    32
  0
VERTEX
  5
49D
  8
CENTRALA
 62
     5
 10
-1.8221700000000001
 20
-12.440799999999999
 30
0.0
 70
    32
  0
VERTEX
  5
49E
  8
CENTRALA
 62
     5
 10
-2.0004400000000002
 20
-12.347200000000001
 30
0.0
 70
    32
  0
VERTEX
  5
49F
  8
CENTRALA
 62
     5
 10
-2.1784599999999981
 20
-12.255000000000001
 30
0.0
 70
    32
  0
VERTEX
  5
4A0
  8
CENTRALA
 62
     5
 10
-2.356209999999999
 20
-12.164300000000001
 30
0.0
 70
    32
  0
VERTEX
  5
4A1
  8
CENTRALA
 62
     5
 10
-2.5337000000000001
 20
-12.075200000000001
 30
0.0
 70
    32
  0
VERTEX
  5
4A2
  8
CENTRALA
 62
     5
 10
-2.7109000000000001
 20
-11.9879
 30
0.0
 70
    32
  0
VERTEX
  5
4A3
  8
CENTRALA
 62
     5
 10
-2.8878099999999982
 20
-11.9023
 30
0.0
 70
    32
  0
VERTEX
  5
4A4
  8
CENTRALA
 62
     5
 10
-3.0644099999999979
 20
-11.8187
 30
0.0
 70
    32
  0
VERTEX
  5
4A5
  8
CENTRALA
 62
     5
 10
-3.2407099999999982
 20
-11.7372
 30
0.0
 70
    32
  0
VERTEX
  5
4A6
  8
CENTRALA
 62
     5
 10
-3.4166799999999999
 20
-11.6578
 30
0.0
 70
    32
  0
VERTEX
  5
4A7
  8
CENTRALA
 62
     5
 10
-3.592309999999999
 20
-11.5806
 30
0.0
 70
    32
  0
VERTEX
  5
4A8
  8
CENTRALA
 62
     5
 10
-3.7675999999999981
 20
-11.505699999999999
 30
0.0
 70
    32
  0
VERTEX
  5
4A9
  8
CENTRALA
 62
     5
 10
-3.9425400000000002
 20
-11.433400000000001
 30
0.0
 70
    32
  0
VERTEX
  5
4AA
  8
CENTRALA
 62
     5
 10
-4.1171100000000003
 20
-11.3635
 30
0.0
 70
    32
  0
VERTEX
  5
4AB
  8
CENTRALA
 62
     5
 10
-4.2913100000000002
 20
-11.2964
 30
0.0
 70
    32
  0
VERTEX
  5
4AC
  8
CENTRALA
 62
     5
 10
-4.4651199999999971
 20
-11.2319
 30
0.0
 70
    32
  0
VERTEX
  5
4AD
  8
CENTRALA
 62
     5
 10
-4.6385300000000003
 20
-11.170400000000001
 30
0.0
 70
    32
  0
VERTEX
  5
4AE
  8
CENTRALA
 62
     5
 10
-4.811539999999999
 20
-11.111800000000001
 30
0.0
 70
    32
  0
VERTEX
  5
4AF
  8
CENTRALA
 62
     5
 10
-4.9841300000000004
 20
-11.0563
 30
0.0
 70
    32
  0
VERTEX
  5
4B0
  8
CENTRALA
 62
     5
 10
-5.1562900000000003
 20
-11.0039
 30
0.0
 70
    32
  0
VERTEX
  5
4B1
  8
CENTRALA
 62
     5
 10
-5.3280199999999978
 20
-10.954800000000001
 30
0.0
 70
    32
  0
VERTEX
  5
4B2
  8
CENTRALA
 62
     5
 10
-5.4992900000000002
 20
-10.9091
 30
0.0
 70
    32
  0
VERTEX
  5
4B3
  8
CENTRALA
 62
     5
 10
-5.6701100000000002
 20
-10.866899999999999
 30
0.0
 70
    32
  0
VERTEX
  5
4B4
  8
CENTRALA
 62
     5
 10
-5.8404600000000002
 20
-10.8283
 30
0.0
 70
    32
  0
VERTEX
  5
4B5
  8
CENTRALA
 62
     5
 10
-6.0103299999999997
 20
-10.7933
 30
0.0
 70
    32
  0
VERTEX
  5
4B6
  8
CENTRALA
 62
     5
 10
-6.17971
 20
-10.7622
 30
0.0
 70
    32
  0
VERTEX
  5
4B7
  8
CENTRALA
 62
     5
 10
-6.3485899999999971
 20
-10.7349
 30
0.0
 70
    32
  0
VERTEX
  5
4B8
  8
CENTRALA
 62
     5
 10
-6.5169600000000001
 20
-10.7117
 30
0.0
 70
    32
  0
VERTEX
  5
4B9
  8
CENTRALA
 62
     5
 10
-6.6848099999999997
 20
-10.692500000000001
 30
0.0
 70
    32
  0
VERTEX
  5
4BA
  8
CENTRALA
 62
     5
 10
-6.8521299999999998
 20
-10.6776
 30
0.0
 70
    32
  0
VERTEX
  5
4BB
  8
CENTRALA
 62
     5
 10
-7.0189000000000004
 20
-10.6669
 30
0.0
 70
    32
  0
VERTEX
  5
4BC
  8
CENTRALA
 62
     5
 10
-7.18513
 20
-10.6607
 30
0.0
 70
    32
  0
VERTEX
  5
4BD
  8
CENTRALA
 62
     5
 10
-7.350789999999999
 20
-10.659000000000001
 30
0.0
 70
    32
  0
VERTEX
  5
4BE
  8
CENTRALA
 62
     5
 10
-7.5158800000000001
 20
-10.661899999999999
 30
0.0
 70
    32
  0
VERTEX
  5
4BF
  8
CENTRALA
 62
     5
 10
-7.6803800000000004
 20
-10.669499999999999
 30
0.0
 70
    32
  0
VERTEX
  5
4C0
  8
CENTRALA
 62
     5
 10
-7.8442999999999969
 20
-10.682
 30
0.0
 70
    32
  0
VERTEX
  5
4C1
  8
CENTRALA
 62
     5
 10
-8.0076000000000001
 20
-10.699299999999999
 30
0.0
 70
    32
  0
VERTEX
  5
4C2
  8
CENTRALA
 62
     5
 10
-8.1702999999999992
 20
-10.7217
 30
0.0
 70
    32
  0
VERTEX
  5
4C3
  8
CENTRALA
 62
     5
 10
-8.3323699999999992
 20
-10.7493
 30
0.0
 70
    32
  0
VERTEX
  5
4C4
  8
CENTRALA
 62
     5
 10
-8.4938000000000002
 20
-10.7821
 30
0.0
 70
    32
  0
VERTEX
  5
4C5
  8
CENTRALA
 62
     5
 10
-8.6545899999999971
 20
-10.8202
 30
0.0
 70
    32
  0
VERTEX
  5
4C6
  8
CENTRALA
 62
     5
 10
-8.8147199999999977
 20
-10.863799999999999
 30
0.0
 70
    32
  0
VERTEX
  5
4C7
  8
CENTRALA
 62
     5
 10
-8.9741900000000001
 20
-10.9129
 30
0.0
 70
    32
  0
VERTEX
  5
4C8
  8
CENTRALA
 62
     5
 10
-9.1329799999999999
 20
-10.967700000000001
 30
0.0
 70
    32
  0
VERTEX
  5
4C9
  8
CENTRALA
 62
     5
 10
-9.2910799999999991
 20
-11.0282
 30
0.0
 70
    32
  0
VERTEX
  5
4CA
  8
CENTRALA
 62
     5
 10
-9.4484899999999996
 20
-11.0946
 30
0.0
 70
    32
  0
VERTEX
  5
4CB
  8
CENTRALA
 62
     5
 10
-9.6051899999999968
 20
-11.167
 30
0.0
 70
    32
  0
VERTEX
  5
4CC
  8
CENTRALA
 62
     5
 10
-9.7611699999999981
 20
-11.2454
 30
0.0
 70
    32
  0
VERTEX
  5
4CD
  8
CENTRALA
 62
     5
 10
-9.9164200000000005
 20
-11.33
 30
0.0
 70
    32
  0
VERTEX
  5
4CE
  8
CENTRALA
 62
     5
 10
-10.0709
 20
-11.4209
 30
0.0
 70
    32
  0
VERTEX
  5
4CF
  8
CENTRALA
 62
     5
 10
-10.2247
 20
-11.5181
 30
0.0
 70
    32
  0
VERTEX
  5
4D0
  8
CENTRALA
 62
     5
 10
-10.377700000000001
 20
-11.6218
 30
0.0
 70
    32
  0
VERTEX
  5
4D1
  8
CENTRALA
 62
     5
 10
-10.5299
 20
-11.732100000000001
 30
0.0
 70
    32
  0
VERTEX
  5
4D2
  8
CENTRALA
 62
     5
 10
-10.6814
 20
-11.8491
 30
0.0
 70
    32
  0
VERTEX
  5
4D3
  8
CENTRALA
 62
     5
 10
-10.832000000000001
 20
-11.972899999999999
 30
0.0
 70
    32
  0
VERTEX
  5
4D4
  8
CENTRALA
 62
     5
 10
-10.9819
 20
-12.103199999999999
 30
0.0
 70
    32
  0
VERTEX
  5
4D5
  8
CENTRALA
 62
     5
 10
-11.1311
 20
-12.239599999999999
 30
0.0
 70
    32
  0
VERTEX
  5
4D6
  8
CENTRALA
 62
     5
 10
-11.279500000000001
 20
-12.3818
 30
0.0
 70
    32
  0
VERTEX
  5
4D7
  8
CENTRALA
 62
     5
 10
-11.427199999999999
 20
-12.529199999999999
 30
0.0
 70
    32
  0
VERTEX
  5
4D8
  8
CENTRALA
 62
     5
 10
-11.574199999999999
 20
-12.6815
 30
0.0
 70
    32
  0
VERTEX
  5
4D9
  8
CENTRALA
 62
     5
 10
-11.720499999999999
 20
-12.8383
 30
0.0
 70
    32
  0
VERTEX
  5
4DA
  8
CENTRALA
 62
     5
 10
-11.866300000000001
 20
-12.9991
 30
0.0
 70
    32
  0
VERTEX
  5
4DB
  8
CENTRALA
 62
     5
 10
-12.0114
 20
-13.163500000000001
 30
0.0
 70
    32
  0
VERTEX
  5
4DC
  8
CENTRALA
 62
     5
 10
-12.156000000000001
 20
-13.331099999999999
 30
0.0
 70
    32
  0
VERTEX
  5
4DD
  8
CENTRALA
 62
     5
 10
-12.300000000000001
 20
-13.5014
 30
0.0
 70
    32
  0
VERTEX
  5
4DE
  8
CENTRALA
 62
     5
 10
-12.4434
 20
-13.674099999999999
 30
0.0
 70
    32
  0
VERTEX
  5
4DF
  8
CENTRALA
 62
     5
 10
-12.586399999999999
 20
-13.848599999999999
 30
0.0
 70
    32
  0
VERTEX
  5
4E0
  8
CENTRALA
 62
     5
 10
-12.728899999999999
 20
-14.024699999999999
 30
0.0
 70
    32
  0
VERTEX
  5
4E1
  8
CENTRALA
 62
     5
 10
-12.870900000000001
 20
-14.2019
 30
0.0
 70
    32
  0
VERTEX
  5
4E2
  8
CENTRALA
 62
     5
 10
-13.012499999999999
 20
-14.3797
 30
0.0
 70
    32
  0
VERTEX
  5
4E3
  8
CENTRALA
 62
     5
 10
-13.153700000000001
 20
-14.557700000000001
 30
0.0
 70
    32
  0
VERTEX
  5
4E4
  8
CENTRALA
 62
     5
 10
-13.294499999999999
 20
-14.7355
 30
0.0
 70
    32
  0
VERTEX
  5
4E5
  8
CENTRALA
 62
     5
 10
-13.435
 20
-14.912800000000001
 30
0.0
 70
    32
  0
VERTEX
  5
4E6
  8
CENTRALA
 62
     5
 10
-13.575100000000001
 20
-15.088900000000001
 30
0.0
 70
    32
  0
VERTEX
  5
4E7
  8
CENTRALA
 62
     5
 10
-13.7149
 20
-15.2636
 30
0.0
 70
    32
  0
VERTEX
  5
4E8
  8
CENTRALA
 62
     5
 10
-13.8545
 20
-15.436500000000001
 30
0.0
 70
    32
  0
VERTEX
  5
4E9
  8
CENTRALA
 62
     5
 10
-13.9938
 20
-15.606999999999999
 30
0.0
 70
    32
  0
VERTEX
  5
4EA
  8
CENTRALA
 62
     5
 10
-14.1328
 20
-15.774800000000001
 30
0.0
 70
    32
  0
VERTEX
  5
4EB
  8
CENTRALA
 62
     5
 10
-14.271699999999999
 20
-15.939399999999999
 30
0.0
 70
    32
  0
VERTEX
  5
4EC
  8
CENTRALA
 62
     5
 10
-14.410399999999999
 20
-16.1005
 30
0.0
 70
    32
  0
VERTEX
  5
4ED
  8
CENTRALA
 62
     5
 10
-14.5489
 20
-16.2576
 30
0.0
 70
    32
  0
VERTEX
  5
4EE
  8
CENTRALA
 62
     5
 10
-14.6873
 20
-16.410299999999999
 30
0.0
 70
    32
  0
VERTEX
  5
4EF
  8
CENTRALA
 62
     5
 10
-14.8255
 20
-16.5581
 30
0.0
 70
    32
  0
VERTEX
  5
4F0
  8
CENTRALA
 62
     5
 10
-14.963699999999999
 20
-16.700600000000001
 30
0.0
 70
    32
  0
VERTEX
  5
4F1
  8
CENTRALA
 62
     5
 10
-15.101900000000001
 20
-16.837499999999999
 30
0.0
 70
    32
  0
VERTEX
  5
4F2
  8
CENTRALA
 62
     5
 10
-15.24
 20
-16.968299999999999
 30
0.0
 70
    32
  0
VERTEX
  5
4F3
  8
CENTRALA
 62
     5
 10
-15.3141
 20
-16.871099999999998
 30
0.0
 70
    32
  0
VERTEX
  5
4F4
  8
CENTRALA
 62
     5
 10
-15.366899999999999
 20
-16.699300000000001
 30
0.0
 70
    32
  0
VERTEX
  5
4F5
  8
CENTRALA
 62
     5
 10
-15.419600000000001
 20
-16.5274
 30
0.0
 70
    32
  0
VERTEX
  5
4F6
  8
CENTRALA
 62
     5
 10
-15.472099999999999
 20
-16.355599999999999
 30
0.0
 70
    32
  0
VERTEX
  5
4F7
  8
CENTRALA
 62
     5
 10
-15.5244
 20
-16.183700000000002
 30
0.0
 70
    32
  0
VERTEX
  5
4F8
  8
CENTRALA
 62
     5
 10
-15.576499999999999
 20
-16.011800000000001
 30
0.0
 70
    32
  0
VERTEX
  5
4F9
  8
CENTRALA
 62
     5
 10
-15.628299999999999
 20
-15.8399
 30
0.0
 70
    32
  0
VERTEX
  5
4FA
  8
CENTRALA
 62
     5
 10
-15.6797
 20
-15.667999999999999
 30
0.0
 70
    32
  0
VERTEX
  5
4FB
  8
CENTRALA
 62
     5
 10
-15.730700000000001
 20
-15.496
 30
0.0
 70
    32
  0
VERTEX
  5
4FC
  8
CENTRALA
 62
     5
 10
-15.7812
 20
-15.324
 30
0.0
 70
    32
  0
VERTEX
  5
4FD
  8
CENTRALA
 62
     5
 10
-15.831200000000001
 20
-15.151999999999999
 30
0.0
 70
    32
  0
VERTEX
  5
4FE
  8
CENTRALA
 62
     5
 10
-15.880599999999999
 20
-14.979900000000001
 30
0.0
 70
    32
  0
VERTEX
  5
4FF
  8
CENTRALA
 62
     5
 10
-15.929399999999999
 20
-14.8078
 30
0.0
 70
    32
  0
VERTEX
  5
500
  8
CENTRALA
 62
     5
 10
-15.977499999999999
 20
-14.6356
 30
0.0
 70
    32
  0
VERTEX
  5
501
  8
CENTRALA
 62
     5
 10
-16.024899999999999
 20
-14.4634
 30
0.0
 70
    32
  0
VERTEX
  5
502
  8
CENTRALA
 62
     5
 10
-16.0715
 20
-14.2912
 30
0.0
 70
    32
  0
VERTEX
  5
503
  8
CENTRALA
 62
     5
 10
-16.1172
 20
-14.1188
 30
0.0
 70
    32
  0
VERTEX
  5
504
  8
CENTRALA
 62
     5
 10
-16.161999999999999
 20
-13.9465
 30
0.0
 70
    32
  0
VERTEX
  5
505
  8
CENTRALA
 62
     5
 10
-16.2059
 20
-13.773999999999999
 30
0.0
 70
    32
  0
VERTEX
  5
506
  8
CENTRALA
 62
     5
 10
-16.248799999999999
 20
-13.6015
 30
0.0
 70
    32
  0
VERTEX
  5
507
  8
CENTRALA
 62
     5
 10
-16.290600000000001
 20
-13.428900000000001
 30
0.0
 70
    32
  0
VERTEX
  5
508
  8
CENTRALA
 62
     5
 10
-16.331299999999999
 20
-13.2563
 30
0.0
 70
    32
  0
VERTEX
  5
509
  8
CENTRALA
 62
     5
 10
-16.370799999999999
 20
-13.083500000000001
 30
0.0
 70
    32
  0
VERTEX
  5
50A
  8
CENTRALA
 62
     5
 10
-16.409099999999999
 20
-12.9107
 30
0.0
 70
    32
  0
VERTEX
  5
50B
  8
CENTRALA
 62
     5
 10
-16.446200000000001
 20
-12.7378
 30
0.0
 70
    32
  0
VERTEX
  5
50C
  8
CENTRALA
 62
     5
 10
-16.4819
 20
-12.5648
 30
0.0
 70
    32
  0
VERTEX
  5
50D
  8
CENTRALA
 62
     5
 10
-16.516200000000001
 20
-12.3917
 30
0.0
 70
    32
  0
VERTEX
  5
50E
  8
CENTRALA
 62
     5
 10
-16.549099999999999
 20
-12.218500000000001
 30
0.0
 70
    32
  0
VERTEX
  5
50F
  8
CENTRALA
 62
     5
 10
-16.580500000000001
 20
-12.045199999999999
 30
0.0
 70
    32
  0
VERTEX
  5
510
  8
CENTRALA
 62
     5
 10
-16.610299999999999
 20
-11.8719
 30
0.0
 70
    32
  0
VERTEX
  5
511
  8
CENTRALA
 62
     5
 10
-16.6386
 20
-11.698399999999999
 30
0.0
 70
    32
  0
VERTEX
  5
512
  8
CENTRALA
 62
     5
 10
-16.665199999999999
 20
-11.524699999999999
 30
0.0
 70
    32
  0
VERTEX
  5
513
  8
CENTRALA
 62
     5
 10
-16.690100000000001
 20
-11.351000000000001
 30
0.0
 70
    32
  0
VERTEX
  5
514
  8
CENTRALA
 62
     5
 10
-16.7133
 20
-11.177199999999999
 30
0.0
 70
    32
  0
VERTEX
  5
515
  8
CENTRALA
 62
     5
 10
-16.7346
 20
-11.0032
 30
0.0
 70
    32
  0
VERTEX
  5
516
  8
CENTRALA
 62
     5
 10
-16.754100000000001
 20
-10.8291
 30
0.0
 70
    32
  0
VERTEX
  5
517
  8
CENTRALA
 62
     5
 10
-16.771699999999999
 20
-10.6549
 30
0.0
 70
    32
  0
VERTEX
  5
518
  8
CENTRALA
 62
     5
 10
-16.787199999999999
 20
-10.480499999999999
 30
0.0
 70
    32
  0
VERTEX
  5
519
  8
CENTRALA
 62
     5
 10
-16.800799999999999
 20
-10.305999999999999
 30
0.0
 70
    32
  0
VERTEX
  5
51A
  8
CENTRALA
 62
     5
 10
-16.8123
 20
-10.131399999999999
 30
0.0
 70
    32
  0
VERTEX
  5
51B
  8
CENTRALA
 62
     5
 10
-16.8216
 20
-9.9566199999999991
 30
0.0
 70
    32
  0
VERTEX
  5
51C
  8
CENTRALA
 62
     5
 10
-16.828800000000001
 20
-9.7816899999999993
 30
0.0
 70
    32
  0
VERTEX
  5
51D
  8
CENTRALA
 62
     5
 10
-16.8337
 20
-9.6066199999999995
 30
0.0
 70
    32
  0
VERTEX
  5
51E
  8
CENTRALA
 62
     5
 10
-16.836300000000001
 20
-9.4313800000000008
 30
0.0
 70
    32
  0
VERTEX
  5
51F
  8
CENTRALA
 62
     5
 10
-16.836600000000001
 20
-9.2559899999999971
 30
0.0
 70
    32
  0
VERTEX
  5
520
  8
CENTRALA
 62
     5
 10
-16.834499999999998
 20
-9.0804399999999994
 30
0.0
 70
    32
  0
VERTEX
  5
521
  8
CENTRALA
 62
     5
 10
-16.829899999999999
 20
-8.9047199999999975
 30
0.0
 70
    32
  0
VERTEX
  5
522
  8
CENTRALA
 62
     5
 10
-16.822800000000001
 20
-8.7288300000000003
 30
0.0
 70
    32
  0
VERTEX
  5
523
  8
CENTRALA
 62
     5
 10
-16.813199999999998
 20
-8.552760000000001
 30
0.0
 70
    32
  0
VERTEX
  5
524
  8
CENTRALA
 62
     5
 10
-16.800899999999999
 20
-8.3765199999999993
 30
0.0
 70
    32
  0
VERTEX
  5
525
  8
CENTRALA
 62
     5
 10
-16.786000000000001
 20
-8.2001000000000008
 30
0.0
 70
    32
  0
VERTEX
  5
526
  8
CENTRALA
 62
     5
 10
-16.7683
 20
-8.0235000000000003
 30
0.0
 70
    32
  0
VERTEX
  5
527
  8
CENTRALA
 62
     5
 10
-16.747900000000001
 20
-7.8467099999999999
 30
0.0
 70
    32
  0
VERTEX
  5
528
  8
CENTRALA
 62
     5
 10
-16.724599999999999
 20
-7.6697199999999972
 30
0.0
 70
    32
  0
VERTEX
  5
529
  8
CENTRALA
 62
     5
 10
-16.698499999999999
 20
-7.4925399999999991
 30
0.0
 70
    32
  0
VERTEX
  5
52A
  8
CENTRALA
 62
     5
 10
-16.6694
 20
-7.3151599999999997
 30
0.0
 70
    32
  0
VERTEX
  5
52B
  8
CENTRALA
 62
     5
 10
-16.6373
 20
-7.1375799999999998
 30
0.0
 70
    32
  0
VERTEX
  5
52C
  8
CENTRALA
 62
     5
 10
-16.6022
 20
-6.9598000000000004
 30
0.0
 70
    32
  0
VERTEX
  5
52D
  8
CENTRALA
 62
     5
 10
-16.5639
 20
-6.7817999999999969
 30
0.0
 70
    32
  0
VERTEX
  5
52E
  8
CENTRALA
 62
     5
 10
-16.522600000000001
 20
-6.603589999999997
 30
0.0
 70
    32
  0
VERTEX
  5
52F
  8
CENTRALA
 62
     5
 10
-16.478000000000002
 20
-6.4251699999999969
 30
0.0
 70
    32
  0
VERTEX
  5
530
  8
CENTRALA
 62
     5
 10
-16.430099999999999
 20
-6.2465199999999967
 30
0.0
 70
    32
  0
VERTEX
  5
531
  8
CENTRALA
 62
     5
 10
-16.379000000000001
 20
-6.0676600000000001
 30
0.0
 70
    32
  0
VERTEX
  5
532
  8
CENTRALA
 62
     5
 10
-16.3247
 20
-5.888569999999997
 30
0.0
 70
    32
  0
VERTEX
  5
533
  8
CENTRALA
 62
     5
 10
-16.267199999999999
 20
-5.7092900000000002
 30
0.0
 70
    32
  0
VERTEX
  5
534
  8
CENTRALA
 62
     5
 10
-16.206800000000001
 20
-5.5298099999999968
 30
0.0
 70
    32
  0
VERTEX
  5
535
  8
CENTRALA
 62
     5
 10
-16.1434
 20
-5.3501500000000002
 30
0.0
 70
    32
  0
VERTEX
  5
536
  8
CENTRALA
 62
     5
 10
-16.077300000000001
 20
-5.1703199999999976
 30
0.0
 70
    32
  0
VERTEX
  5
537
  8
CENTRALA
 62
     5
 10
-16.008400000000002
 20
-4.9903300000000002
 30
0.0
 70
    32
  0
VERTEX
  5
538
  8
CENTRALA
 62
     5
 10
-15.936999999999999
 20
-4.810179999999999
 30
0.0
 70
    32
  0
VERTEX
  5
539
  8
CENTRALA
 62
     5
 10
-15.863099999999999
 20
-4.6298899999999996
 30
0.0
 70
    32
  0
VERTEX
  5
53A
  8
CENTRALA
 62
     5
 10
-15.7867
 20
-4.4494800000000003
 30
0.0
 70
    32
  0
VERTEX
  5
53B
  8
CENTRALA
 62
     5
 10
-15.7082
 20
-4.2689399999999971
 30
0.0
 70
    32
  0
VERTEX
  5
53C
  8
CENTRALA
 62
     5
 10
-15.6274
 20
-4.0882899999999971
 30
0.0
 70
    32
  0
VERTEX
  5
53D
  8
CENTRALA
 62
     5
 10
-15.544600000000001
 20
-3.9075500000000001
 30
0.0
 70
    32
  0
VERTEX
  5
53E
  8
CENTRALA
 62
     5
 10
-15.4597
 20
-3.726709999999998
 30
0.0
 70
    32
  0
VERTEX
  5
53F
  8
CENTRALA
 62
     5
 10
-15.373100000000001
 20
-3.5457900000000002
 30
0.0
 70
    32
  0
VERTEX
  5
540
  8
CENTRALA
 62
     5
 10
-15.284599999999999
 20
-3.3648099999999981
 30
0.0
 70
    32
  0
VERTEX
  5
541
  8
CENTRALA
 62
     5
 10
-15.1945
 20
-3.1837699999999982
 30
0.0
 70
    32
  0
VERTEX
  5
542
  8
CENTRALA
 62
     5
 10
-15.1029
 20
-3.002679999999998
 30
0.0
 70
    32
  0
VERTEX
  5
543
  8
CENTRALA
 62
     5
 10
-15.0098
 20
-2.8215599999999981
 30
0.0
 70
    32
  0
VERTEX
  5
544
  8
CENTRALA
 62
     5
 10
-14.9153
 20
-2.6404000000000001
 30
0.0
 70
    32
  0
VERTEX
  5
545
  8
CENTRALA
 62
     5
 10
-14.819599999999999
 20
-2.459229999999998
 30
0.0
 70
    32
  0
VERTEX
  5
546
  8
CENTRALA
 62
     5
 10
-14.7227
 20
-2.2780599999999991
 30
0.0
 70
    32
  0
VERTEX
  5
547
  8
CENTRALA
 62
     5
 10
-14.6249
 20
-2.0968900000000001
 30
0.0
 70
    32
  0
VERTEX
  5
548
  8
CENTRALA
 62
     5
 10
-14.526
 20
-1.915729999999999
 30
0.0
 70
    32
  0
VERTEX
  5
549
  8
CENTRALA
 62
     5
 10
-14.426399999999999
 20
-1.734599999999999
 30
0.0
 70
    32
  0
VERTEX
  5
54A
  8
CENTRALA
 62
     5
 10
-14.326000000000001
 20
-1.5535099999999991
 30
0.0
 70
    32
  0
VERTEX
  5
54B
  8
CENTRALA
 62
     5
 10
-14.225
 20
-1.37246
 30
0.0
 70
    32
  0
VERTEX
  5
54C
  8
CENTRALA
 62
     5
 10
-14.1234
 20
-1.1914599999999971
 30
0.0
 70
    32
  0
VERTEX
  5
54D
  8
CENTRALA
 62
     5
 10
-14.0215
 20
-1.010529999999999
 30
0.0
 70
    32
  0
VERTEX
  5
54E
  8
CENTRALA
 62
     5
 10
-13.9192
 20
-0.8296849999999999
 30
0.0
 70
    32
  0
VERTEX
  5
54F
  8
CENTRALA
 62
     5
 10
-13.816700000000001
 20
-0.648922
 30
0.0
 70
    32
  0
VERTEX
  5
550
  8
CENTRALA
 62
     5
 10
-13.7141
 20
-0.468258
 30
0.0
 70
    32
  0
VERTEX
  5
551
  8
CENTRALA
 62
     5
 10
-13.611499999999999
 20
-0.287701
 30
0.0
 70
    32
  0
VERTEX
  5
552
  8
CENTRALA
 62
     5
 10
-13.509
 20
-0.107263
 30
0.0
 70
    32
  0
VERTEX
  5
553
  8
CENTRALA
 62
     5
 10
-13.406700000000001
 20
0.0730463
 30
0.0
 70
    32
  0
VERTEX
  5
554
  8
CENTRALA
 62
     5
 10
-13.304600000000001
 20
0.253216
 30
0.0
 70
    32
  0
VERTEX
  5
555
  8
CENTRALA
 62
     5
 10
-13.202999999999999
 20
0.433236
 30
0.0
 70
    32
  0
VERTEX
  5
556
  8
CENTRALA
 62
     5
 10
-13.102
 20
0.613096
 30
0.0
 70
    32
  0
VERTEX
  5
557
  8
CENTRALA
 62
     5
 10
-13.0015
 20
0.792786
 30
0.0
 70
    32
  0
VERTEX
  5
558
  8
CENTRALA
 62
     5
 10
-12.9017
 20
0.972295
 30
0.0
 70
    32
  0
VERTEX
  5
559
  8
CENTRALA
 62
     5
 10
-12.8028
 20
1.15161
 30
0.0
 70
    32
  0
VERTEX
  5
55A
  8
CENTRALA
 62
     5
 10
-12.704800000000001
 20
1.3307299999999971
 30
0.0
 70
    32
  0
VERTEX
  5
55B
  8
CENTRALA
 62
     5
 10
-12.607799999999999
 20
1.50963
 30
0.0
 70
    32
  0
VERTEX
  5
55C
  8
CENTRALA
 62
     5
 10
-12.511900000000001
 20
1.6883099999999991
 30
0.0
 70
    32
  0
VERTEX
  5
55D
  8
CENTRALA
 62
     5
 10
-12.417299999999999
 20
1.8667599999999991
 30
0.0
 70
    32
  0
VERTEX
  5
55E
  8
CENTRALA
 62
     5
 10
-12.324
 20
2.0449700000000002
 30
0.0
 70
    32
  0
VERTEX
  5
55F
  8
CENTRALA
 62
     5
 10
-12.232200000000001
 20
2.2229199999999998
 30
0.0
 70
    32
  0
VERTEX
  5
560
  8
CENTRALA
 62
     5
 10
-12.1419
 20
2.400609999999999
 30
0.0
 70
    32
  0
VERTEX
  5
561
  8
CENTRALA
 62
     5
 10
-12.0532
 20
2.5780199999999991
 30
0.0
 70
    32
  0
VERTEX
  5
562
  8
CENTRALA
 62
     5
 10
-11.9663
 20
2.7551499999999982
 30
0.0
 70
    32
  0
VERTEX
  5
563
  8
CENTRALA
 62
     5
 10
-11.8812
 20
2.9319899999999999
 30
0.0
 70
    32
  0
VERTEX
  5
564
  8
CENTRALA
 62
     5
 10
-11.7982
 20
3.1085199999999982
 30
0.0
 70
    32
  0
VERTEX
  5
565
  8
CENTRALA
 62
     5
 10
-11.7171
 20
3.2847300000000001
 30
0.0
 70
    32
  0
VERTEX
  5
566
  8
CENTRALA
 62
     5
 10
-11.638299999999999
 20
3.4606199999999978
 30
0.0
 70
    32
  0
VERTEX
  5
567
  8
CENTRALA
 62
     5
 10
-11.5616
 20
3.636169999999999
 30
0.0
 70
    32
  0
VERTEX
  5
568
  8
CENTRALA
 62
     5
 10
-11.487399999999999
 20
3.8113699999999979
 30
0.0
 70
    32
  0
VERTEX
  5
569
  8
CENTRALA
 62
     5
 10
-11.415699999999999
 20
3.986219999999999
 30
0.0
 70
    32
  0
VERTEX
  5
56A
  8
CENTRALA
 62
     5
 10
-11.346500000000001
 20
4.1607000000000003
 30
0.0
 70
    32
  0
VERTEX
  5
56B
  8
CENTRALA
 62
     5
 10
-11.279999999999999
 20
4.3348000000000004
 30
0.0
 70
    32
  0
VERTEX
  5
56C
  8
CENTRALA
 62
     5
 10
-11.2163
 20
4.5085100000000002
 30
0.0
 70
    32
  0
VERTEX
  5
56D
  8
CENTRALA
 62
     5
 10
-11.1554
 20
4.6818200000000001
 30
0.0
 70
    32
  0
VERTEX
  5
56E
  8
CENTRALA
 62
     5
 10
-11.0976
 20
4.8547299999999991
 30
0.0
 70
    32
  0
VERTEX
  5
56F
  8
CENTRALA
 62
     5
 10
-11.042899999999999
 20
5.0272100000000002
 30
0.0
 70
    32
  0
VERTEX
  5
570
  8
CENTRALA
 62
     5
 10
-10.991300000000001
 20
5.1992699999999976
 30
0.0
 70
    32
  0
VERTEX
  5
571
  8
CENTRALA
 62
     5
 10
-10.943099999999999
 20
5.3708799999999997
 30
0.0
 70
    32
  0
VERTEX
  5
572
  8
CENTRALA
 62
     5
 10
-10.898199999999999
 20
5.5420400000000001
 30
0.0
 70
    32
  0
VERTEX
  5
573
  8
CENTRALA
 62
     5
 10
-10.8569
 20
5.7127400000000002
 30
0.0
 70
    32
  0
VERTEX
  5
574
  8
CENTRALA
 62
     5
 10
-10.8192
 20
5.8829699999999967
 30
0.0
 70
    32
  0
VERTEX
  5
575
  8
CENTRALA
 62
     5
 10
-10.7852
 20
6.0527199999999972
 30
0.0
 70
    32
  0
VERTEX
  5
576
  8
CENTRALA
 62
     5
 10
-10.755000000000001
 20
6.2219800000000003
 30
0.0
 70
    32
  0
VERTEX
  5
577
  8
CENTRALA
 62
     5
 10
-10.7287
 20
6.3907299999999996
 30
0.0
 70
    32
  0
VERTEX
  5
578
  8
CENTRALA
 62
     5
 10
-10.7065
 20
6.5589699999999969
 30
0.0
 70
    32
  0
VERTEX
  5
579
  8
CENTRALA
 62
     5
 10
-10.6884
 20
6.7266899999999969
 30
0.0
 70
    32
  0
VERTEX
  5
57A
  8
CENTRALA
 62
     5
 10
-10.6745
 20
6.8938699999999971
 30
0.0
 70
    32
  0
VERTEX
  5
57B
  8
CENTRALA
 62
     5
 10
-10.664899999999999
 20
7.0605099999999998
 30
0.0
 70
    32
  0
VERTEX
  5
57C
  8
CENTRALA
 62
     5
 10
-10.659800000000001
 20
7.2266000000000004
 30
0.0
 70
    32
  0
VERTEX
  5
57D
  8
CENTRALA
 62
     5
 10
-10.6593
 20
7.3921199999999967
 30
0.0
 70
    32
  0
VERTEX
  5
57E
  8
CENTRALA
 62
     5
 10
-10.6633
 20
7.5570599999999999
 30
0.0
 70
    32
  0
VERTEX
  5
57F
  8
CENTRALA
 62
     5
 10
-10.6722
 20
7.7214199999999966
 30
0.0
 70
    32
  0
VERTEX
  5
580
  8
CENTRALA
 62
     5
 10
-10.6858
 20
7.8851800000000001
 30
0.0
 70
    32
  0
VERTEX
  5
581
  8
CENTRALA
 62
     5
 10
-10.704499999999999
 20
8.0483399999999996
 30
0.0
 70
    32
  0
VERTEX
  5
582
  8
CENTRALA
 62
     5
 10
-10.7281
 20
8.2108699999999981
 30
0.0
 70
    32
  0
VERTEX
  5
583
  8
CENTRALA
 62
     5
 10
-10.757
 20
8.3727900000000002
 30
0.0
 70
    32
  0
VERTEX
  5
584
  8
CENTRALA
 62
     5
 10
-10.7911
 20
8.5340600000000002
 30
0.0
 70
    32
  0
VERTEX
  5
585
  8
CENTRALA
 62
     5
 10
-10.8306
 20
8.6946799999999982
 30
0.0
 70
    32
  0
VERTEX
  5
586
  8
CENTRALA
 62
     5
 10
-10.875500000000001
 20
8.8546499999999977
 30
0.0
 70
    32
  0
VERTEX
  5
587
  8
CENTRALA
 62
     5
 10
-10.9261
 20
9.0139499999999995
 30
0.0
 70
    32
  0
VERTEX
  5
588
  8
CENTRALA
 62
     5
 10
-10.9823
 20
9.1725700000000003
 30
0.0
 70
    32
  0
VERTEX
  5
589
  8
CENTRALA
 62
     5
 10
-11.0443
 20
9.3305000000000007
 30
0.0
 70
    32
  0
VERTEX
  5
58A
  8
CENTRALA
 62
     5
 10
-11.1121
 20
9.4877300000000009
 30
0.0
 70
    32
  0
VERTEX
  5
58B
  8
CENTRALA
 62
     5
 10
-11.186
 20
9.6442499999999995
 30
0.0
 70
    32
  0
VERTEX
  5
58C
  8
CENTRALA
 62
     5
 10
-11.266
 20
9.8000500000000006
 30
0.0
 70
    32
  0
VERTEX
  5
58D
  8
CENTRALA
 62
     5
 10
-11.3521
 20
9.9551099999999995
 30
0.0
 70
    32
  0
VERTEX
  5
58E
  8
CENTRALA
 62
     5
 10
-11.444599999999999
 20
10.109400000000001
 30
0.0
 70
    32
  0
VERTEX
  5
58F
  8
CENTRALA
 62
     5
 10
-11.5434
 20
10.263
 30
0.0
 70
    32
  0
VERTEX
  5
590
  8
CENTRALA
 62
     5
 10
-11.6488
 20
10.415800000000001
 30
0.0
 70
    32
  0
VERTEX
  5
591
  8
CENTRALA
 62
     5
 10
-11.7607
 20
10.5679
 30
0.0
 70
    32
  0
VERTEX
  5
592
  8
CENTRALA
 62
     5
 10
-11.8794
 20
10.719099999999999
 30
0.0
 70
    32
  0
VERTEX
  5
593
  8
CENTRALA
 62
     5
 10
-12.004799999999999
 20
10.8696
 30
0.0
 70
    32
  0
VERTEX
  5
594
  8
CENTRALA
 62
     5
 10
-12.136699999999999
 20
11.019299999999999
 30
0.0
 70
    32
  0
VERTEX
  5
595
  8
CENTRALA
 62
     5
 10
-12.2746
 20
11.168200000000001
 30
0.0
 70
    32
  0
VERTEX
  5
596
  8
CENTRALA
 62
     5
 10
-12.418100000000001
 20
11.3165
 30
0.0
 70
    32
  0
VERTEX
  5
597
  8
CENTRALA
 62
     5
 10
-12.566800000000001
 20
11.464
 30
0.0
 70
    32
  0
VERTEX
  5
598
  8
CENTRALA
 62
     5
 10
-12.7203
 20
11.610799999999999
 30
0.0
 70
    32
  0
VERTEX
  5
599
  8
CENTRALA
 62
     5
 10
-12.8781
 20
11.757
 30
0.0
 70
    32
  0
VERTEX
  5
59A
  8
CENTRALA
 62
     5
 10
-13.039899999999999
 20
11.9026
 30
0.0
 70
    32
  0
VERTEX
  5
59B
  8
CENTRALA
 62
     5
 10
-13.2051
 20
12.047599999999999
 30
0.0
 70
    32
  0
VERTEX
  5
59C
  8
CENTRALA
 62
     5
 10
-13.3734
 20
12.192
 30
0.0
 70
    32
  0
VERTEX
  5
59D
  8
CENTRALA
 62
     5
 10
-13.5444
 20
12.335900000000001
 30
0.0
 70
    32
  0
VERTEX
  5
59E
  8
CENTRALA
 62
     5
 10
-13.717499999999999
 20
12.479200000000001
 30
0.0
 70
    32
  0
VERTEX
  5
59F
  8
CENTRALA
 62
     5
 10
-13.8925
 20
12.6221
 30
0.0
 70
    32
  0
VERTEX
  5
5A0
  8
CENTRALA
 62
     5
 10
-14.068899999999999
 20
12.7644
 30
0.0
 70
    32
  0
VERTEX
  5
5A1
  8
CENTRALA
 62
     5
 10
-14.2463
 20
12.9064
 30
0.0
 70
    32
  0
VERTEX
  5
5A2
  8
CENTRALA
 62
     5
 10
-14.424200000000001
 20
13.0479
 30
0.0
 70
    32
  0
VERTEX
  5
5A3
  8
CENTRALA
 62
     5
 10
-14.6022
 20
13.1889
 30
0.0
 70
    32
  0
VERTEX
  5
5A4
  8
CENTRALA
 62
     5
 10
-14.7799
 20
13.329700000000001
 30
0.0
 70
    32
  0
VERTEX
  5
5A5
  8
CENTRALA
 62
     5
 10
-14.956899999999999
 20
13.470000000000001
 30
0.0
 70
    32
  0
VERTEX
  5
5A6
  8
CENTRALA
 62
     5
 10
-15.1328
 20
13.610099999999999
 30
0.0
 70
    32
  0
VERTEX
  5
5A7
  8
CENTRALA
 62
     5
 10
-15.307
 20
13.7499
 30
0.0
 70
    32
  0
VERTEX
  5
5A8
  8
CENTRALA
 62
     5
 10
-15.4793
 20
13.8893
 30
0.0
 70
    32
  0
VERTEX
  5
5A9
  8
CENTRALA
 62
     5
 10
-15.6492
 20
14.028600000000001
 30
0.0
 70
    32
  0
VERTEX
  5
5AA
  8
CENTRALA
 62
     5
 10
-15.8163
 20
14.1676
 30
0.0
 70
    32
  0
VERTEX
  5
5AB
  8
CENTRALA
 62
     5
 10
-15.9801
 20
14.3064
 30
0.0
 70
    32
  0
VERTEX
  5
5AC
  8
CENTRALA
 62
     5
 10
-16.1402
 20
14.445
 30
0.0
 70
    32
  0
VERTEX
  5
5AD
  8
CENTRALA
 62
     5
 10
-16.296199999999999
 20
14.583500000000001
 30
0.0
 70
    32
  0
VERTEX
  5
5AE
  8
CENTRALA
 62
     5
 10
-16.447700000000001
 20
14.7218
 30
0.0
 70
    32
  0
VERTEX
  5
5AF
  8
CENTRALA
 62
     5
 10
-16.594200000000001
 20
14.860099999999999
 30
0.0
 70
    32
  0
VERTEX
  5
5B0
  8
CENTRALA
 62
     5
 10
-16.735399999999998
 20
14.9983
 30
0.0
 70
    32
  0
VERTEX
  5
5B1
  8
CENTRALA
 62
     5
 10
-16.870799999999999
 20
15.1364
 30
0.0
 70
    32
  0
VERTEX
  5
5B2
  8
CENTRALA
 62
     5
 10
-17.0
 20
15.2745
 30
0.0
 70
    32
  0
SEQEND
  5
5B3
  8
CENTRALA
 62
     5
  0
CIRCLE
  5
5B4
  8
CENTRALA
 62
     5
 10
0.0
 20
0.0
 30
0.0
 40
8.0
1001
ACDBBLOCKREPETAG
1070
     1
1071
        1
1005
5B4
  0
ENDBLK
  5
5B5
  8
0
  0
BLOCK
  8
0
  2
*D18
 70
     1
 10
0.0
 20
0.0
 30
0.0
  3
*D18
  1

  0
LINE
  5
5B8
  8
WARSTWA_1
 62
     0
 10
-4265.5324205522584
 20
1523.8757099424699
 30
0.0
 11
-4151.297787061555
 21
1640.4703039381191
 31
0.0
  0
SOLID
  5
5B9
  8
WARSTWA_1
 62
     0
 10
-4267.6753169380481
 20
1525.9752325262409
 30
0.0
 11
-4263.389524166465
 21
1521.7761873587001
 31
0.0
 12
-4278.1295560548806
 22
1511.018331627723
 32
0.0
 13
-4278.1295560548806
 23
1511.018331627723
 33
0.0
  0
SOLID
  5
5BA
  8
WARSTWA_1
 62
     0
 10
-4153.4406834473457
 20
1642.5698265218909
 30
0.0
 11
-4149.1548906757598
 21
1638.370781354349
 31
0.0
 12
-4138.7006515589328
 22
1653.3276822528669
 32
0.0
 13
-4138.7006515589328
 23
1653.3276822528669
 33
0.0
  0
INSERT
  5
5BB
  8
WYMIARY
  2
*U75
 10
0.0
 20
0.0
 30
0.0
  0
POINT
  5
5BC
  8
DEFPOINTS
 62
     0
 10
-4138.7006515589328
 20
1653.3276822528669
 30
0.0
  0
POINT
  5
5BD
  8
DEFPOINTS
 62
     0
 10
-4278.1295560548806
 20
1511.018331627723
 30
0.0
  0
ENDBLK
  5
5BE
  8
0
  0
BLOCK
  8
0
  2
*D19
 70
     1
 10
0.0
 20
0.0
 30
0.0
  3
*D19
  1

  0
LINE
  5
5C1
  8
WARSTWA_1
 62
     0
 10
-4243.4180624782757
 20
1259.8561537966741
 30
0.0
 11
-4129.1834289875787
 21
1376.450747792328
 31
0.0
  0
SOLID
  5
5C2
  8
WARSTWA_1
 62
     0
 10
-4245.5609588640682
 20
1261.9556763804439
 30
0.0
 11
-4241.275166092486
 21
1257.756631212904
 31
0.0
 12
-4256.0151979808988
 22
1246.9987754819249
 32
0.0
 13
-4256.0151979808988
 23
1246.9987754819249
 33
0.0
  0
SOLID
  5
5C3
  8
WARSTWA_1
 62
     0
 10
-4131.3263253733712
 20
1378.550270376099
 30
0.0
 11
-4127.0405326017881
 21
1374.3512252085579
 31
0.0
 12
-4116.5862934849574
 22
1389.3081261070761
 32
0.0
 13
-4116.5862934849574
 23
1389.3081261070761
 33
0.0
  0
INSERT
  5
5C4
  8
WYMIARY
  2
*U76
 10
0.0
 20
0.0
 30
0.0
  0
POINT
  5
5C5
  8
DEFPOINTS
 62
     0
 10
-4116.5862934849574
 20
1389.3081261070761
 30
0.0
  0
POINT
  5
5C6
  8
DEFPOINTS
 62
     0
 10
-4256.0151979808988
 20
1246.9987754819249
 30
0.0
  0
ENDBLK
  5
5C7
  8
0
  0
BLOCK
  8
0
  2
*D20
 70
     1
 10
0.0
 20
0.0
 30
0.0
  3
*D20
  1

  0
LINE
  5
5CA
  8
WYMIARY
 62
     0
 10
-6482.971045460039
 20
1727.173006940295
 30
0.0
 11
-6482.971045460039
 21
1789.933839930356
 31
0.0
  0
LINE
  5
5CB
  8
WYMIARY
 62
     0
 10
-6203.9710454600399
 20
1779.1730069402961
 30
0.0
 11
-6203.9710454600399
 21
1789.933839930356
 31
0.0
  0
LINE
  5
5CC
  8
WYMIARY
 62
     0
 10
-6464.971045460039
 20
1789.7538399303551
 30
0.0
 11
-6221.9710454600399
 21
1789.7538399303551
 31
0.0
  0
SOLID
  5
5CD
  8
WYMIARY
 62
     0
 10
-6464.971045460039
 20
1792.7538399303551
 30
0.0
 11
-6464.971045460039
 21
1786.753839930356
 31
0.0
 12
-6482.971045460039
 22
1789.7538399303551
 32
0.0
 13
-6482.971045460039
 23
1789.7538399303551
 33
0.0
  0
SOLID
  5
5CE
  8
WYMIARY
 62
     0
 10
-6221.9710454600399
 20
1792.7538399303551
 30
0.0
 11
-6221.9710454600399
 21
1786.753839930356
 31
0.0
 12
-6203.9710454600399
 22
1789.7538399303551
 32
0.0
 13
-6203.9710454600399
 23
1789.7538399303551
 33
0.0
  0
INSERT
  5
5CF
  8
WYMIARY
  2
*U77
 10
0.0
 20
0.0
 30
0.0
  0
POINT
  5
5D0
  8
DEFPOINTS
 62
     0
 10
-6482.971045460039
 20
1724.1730069402961
 30
0.0
  0
POINT
  5
5D1
  8
DEFPOINTS
 62
     0
 10
-6203.9710454600399
 20
1776.1730069402961
 30
0.0
  0
POINT
  5
5D2
  8
DEFPOINTS
 62
     0
 10
-6203.9710454600399
 20
1789.7538399303551
 30
0.0
  0
ENDBLK
  5
5D3
  8
0
  0
BLOCK
  8
0
  2
*D21
 70
     1
 10
0.0
 20
0.0
 30
0.0
  3
*D21
  1

  0
LINE
  5
5D6
  8
WYMIARY
 62
     0
 10
-6482.971045460039
 20
1727.173006940295
 30
0.0
 11
-6482.971045460039
 21
1828.007576123239
 31
0.0
  0
LINE
  5
5D7
  8
WYMIARY
 62
     0
 10
-5975.971045460039
 20
1727.173006940295
 30
0.0
 11
-5975.971045460039
 21
1828.007576123239
 31
0.0
  0
LINE
  5
5D8
  8
WYMIARY
 62
     0
 10
-6464.971045460039
 20
1827.8275761232401
 30
0.0
 11
-5993.971045460039
 21
1827.8275761232401
 31
0.0
  0
SOLID
  5
5D9
  8
WYMIARY
 62
     0
 10
-6464.971045460039
 20
1830.8275761232401
 30
0.0
 11
-6464.971045460039
 21
1824.8275761232401
 31
0.0
 12
-6482.971045460039
 22
1827.8275761232401
 32
0.0
 13
-6482.971045460039
 23
1827.8275761232401
 33
0.0
  0
SOLID
  5
5DA
  8
WYMIARY
 62
     0
 10
-5993.971045460039
 20
1830.8275761232401
 30
0.0
 11
-5993.971045460039
 21
1824.8275761232401
 31
0.0
 12
-5975.971045460039
 22
1827.8275761232401
 32
0.0
 13
-5975.971045460039
 23
1827.8275761232401
 33
0.0
  0
INSERT
  5
5DB
  8
WYMIARY
  2
*U78
 10
0.0
 20
0.0
 30
0.0
  0
POINT
  5
5DC
  8
DEFPOINTS
 62
     0
 10
-6482.971045460039
 20
1724.1730069402961
 30
0.0
  0
POINT
  5
5DD
  8
DEFPOINTS
 62
     0
 10
-5975.971045460039
 20
1724.1730069402961
 30
0.0
  0
POINT
  5
5DE
  8
DEFPOINTS
 62
     0
 10
-5975.971045460039
 20
1827.8275761232401
 30
0.0
  0
ENDBLK
  5
5DF
  8
0
  0
BLOCK
  8
0
  2
*D22
 70
     1
 10
0.0
 20
0.0
 30
0.0
  3
*D22
  1

  0
LINE
  5
5E2
  8
WYMIARY
 62
     0
 10
-4885.7252724229056
 20
812.94808599312375
 30
0.0
 11
-4885.7252724229056
 21
838.1575353396762
 31
0.0
  0
LINE
  5
5E3
  8
WYMIARY
 62
     0
 10
-4733.7252724229056
 20
812.94808599312375
 30
0.0
 11
-4733.7252724229056
 21
838.1575353396762
 31
0.0
  0
LINE
  5
5E4
  8
WYMIARY
 62
     0
 10
-4867.7252724229047
 20
837.97753533967625
 30
0.0
 11
-4751.7252724229047
 21
837.97753533967625
 31
0.0
  0
SOLID
  5
5E5
  8
WYMIARY
 62
     0
 10
-4867.7252724229047
 20
840.97753533967625
 30
0.0
 11
-4867.7252724229047
 21
834.97753533967602
 31
0.0
 12
-4885.7252724229056
 22
837.97753533967625
 32
0.0
 13
-4885.7252724229056
 23
837.97753533967625
 33
0.0
  0
SOLID
  5
5E6
  8
WYMIARY
 62
     0
 10
-4751.7252724229047
 20
840.97753533967625
 30
0.0
 11
-4751.7252724229047
 21
834.97753533967602
 31
0.0
 12
-4733.7252724229056
 22
837.97753533967625
 32
0.0
 13
-4733.7252724229056
 23
837.97753533967625
 33
0.0
  0
INSERT
  5
5E7
  8
WYMIARY
  2
*U79
 10
0.0
 20
0.0
 30
0.0
  0
POINT
  5
5E8
  8
DEFPOINTS
 62
     0
 10
-4885.7252724229056
 20
809.94808599312375
 30
0.0
  0
POINT
  5
5E9
  8
DEFPOINTS
 62
     0
 10
-4733.7252724229056
 20
809.94808599312375
 30
0.0
  0
POINT
  5
5EA
  8
DEFPOINTS
 62
     0
 10
-4733.7252724229056
 20
837.97753533967625
 30
0.0
  0
ENDBLK
  5
5EB
  8
0
  0
BLOCK
  8
0
  2
*D23
 70
     1
 10
0.0
 20
0.0
 30
0.0
  3
*D23
  1

  0
LINE
  5
5EE
  8
WYMIARY
 62
     0
 10
-5521.7252724229047
 20
812.94808599312375
 30
0.0
 11
-5521.7252724229047
 21
839.36364412945602
 31
0.0
  0
LINE
  5
5EF
  8
WYMIARY
 62
     0
 10
-5673.7252724229056
 20
812.94808599312375
 30
0.0
 11
-5673.7252724229056
 21
839.36364412945602
 31
0.0
  0
LINE
  5
5F0
  8
WYMIARY
 62
     0
 10
-5539.7252724229074
 20
839.18364412945607
 30
0.0
 11
-5655.7252724229047
 21
839.18364412945607
 31
0.0
  0
SOLID
  5
5F1
  8
WYMIARY
 62
     0
 10
-5539.7252724229074
 20
842.18364412945618
 30
0.0
 11
-5539.7252724229074
 21
836.18364412945618
 31
0.0
 12
-5521.7252724229047
 22
839.18364412945607
 32
0.0
 13
-5521.7252724229047
 23
839.18364412945607
 33
0.0
  0
SOLID
  5
5F2
  8
WYMIARY
 62
     0
 10
-5655.7252724229047
 20
842.18364412945618
 30
0.0
 11
-5655.7252724229047
 21
836.18364412945618
 31
0.0
 12
-5673.7252724229056
 22
839.18364412945607
 32
0.0
 13
-5673.7252724229056
 23
839.18364412945607
 33
0.0
  0
INSERT
  5
5F3
  8
WYMIARY
  2
*U80
 10
0.0
 20
0.0
 30
0.0
  0
POINT
  5
5F4
  8
DEFPOINTS
 62
     0
 10
-5521.7252724229047
 20
809.94808599312375
 30
0.0
  0
POINT
  5
5F5
  8
DEFPOINTS
 62
     0
 10
-5673.7252724229056
 20
809.94808599312375
 30
0.0
  0
POINT
  5
5F6
  8
DEFPOINTS
 62
     0
 10
-5673.7252724229056
 20
839.18364412945607
 30
0.0
  0
ENDBLK
  5
5F7
  8
0
  0
BLOCK
  8
0
  2
*D25
 70
     1
 10
0.0
 20
0.0
 30
0.0
  3
*D25
  1

  0
LINE
  5
83B
  8
WYMIARY
  6
CONTINUOUS
 62
     0
 10
-5673.7252724229056
 20
1727.1730069402961
 30
0.0
 11
-5673.7252724229056
 21
1812.244112510183
 31
0.0
  0
LINE
  5
83C
  8
WYMIARY
  6
CONTINUOUS
 62
     0
 10
-4733.7252724229056
 20
1727.1730069402961
 30
0.0
 11
-4733.7252724229056
 21
1812.244112510183
 31
0.0
  0
LINE
  5
83D
  8
WYMIARY
  6
CONTINUOUS
 62
     0
 10
-5655.7252724229056
 20
1812.0641125101829
 30
0.0
 11
-4751.7252724229047
 21
1812.0641125101829
 31
0.0
  0
SOLID
  5
83E
  8
WYMIARY
  6
CONTINUOUS
 62
     0
 10
-5655.7252724229056
 20
1815.0641125101829
 30
0.0
 11
-5655.7252724229056
 21
1809.0641125101829
 31
0.0
 12
-5673.7252724229056
 22
1812.0641125101829
 32
0.0
 13
-5673.7252724229056
 23
1812.0641125101829
 33
0.0
  0
SOLID
  5
83F
  8
WYMIARY
  6
CONTINUOUS
 62
     0
 10
-4751.7252724229047
 20
1815.0641125101829
 30
0.0
 11
-4751.7252724229047
 21
1809.0641125101829
 31
0.0
 12
-4733.7252724229056
 22
1812.0641125101829
 32
0.0
 13
-4733.7252724229056
 23
1812.0641125101829
 33
0.0
  0
INSERT
  5
840
  8
WYMIARY
  2
*U98
 10
0.0
 20
0.0
 30
0.0
  0
POINT
  5
841
  8
DEFPOINTS
  6
CONTINUOUS
 62
     0
 10
-5673.7252724229056
 20
1724.1730069402961
 30
0.0
  0
POINT
  5
842
  8
DEFPOINTS
  6
CONTINUOUS
 62
     0
 10
-4733.7252724229056
 20
1724.1730069402961
 30
0.0
  0
POINT
  5
843
  8
DEFPOINTS
  6
CONTINUOUS
 62
     0
 10
-4733.7252724229056
 20
1812.0641125101829
 30
0.0
  0
ENDBLK
  5
771
  8
0
  0
BLOCK
  8
0
  2
*D26
 70
     1
 10
0.0
 20
0.0
 30
0.0
  3
*D26
  1

  0
LINE
  5
844
  8
WYMIARY
  6
CONTINUOUS
 62
     0
 10
-5676.7252724229056
 20
1724.1730069402961
 30
0.0
 11
-5753.3081950969163
 21
1724.1730069402961
 31
0.0
  0
LINE
  5
845
  8
WYMIARY
  6
CONTINUOUS
 62
     0
 10
-5676.7252724229056
 20
1184.173006940295
 30
0.0
 11
-5753.3081950969163
 21
1184.173006940295
 31
0.0
  0
LINE
  5
846
  8
WYMIARY
  6
CONTINUOUS
 62
     0
 10
-5753.1281950969151
 20
1706.1730069402961
 30
0.0
 11
-5753.1281950969151
 21
1202.173006940295
 31
0.0
  0
SOLID
  5
847
  8
WYMIARY
  6
CONTINUOUS
 62
     0
 10
-5756.1281950969151
 20
1706.1730069402961
 30
0.0
 11
-5750.1281950969151
 21
1706.1730069402961
 31
0.0
 12
-5753.1281950969151
 22
1724.1730069402961
 32
0.0
 13
-5753.1281950969151
 23
1724.1730069402961
 33
0.0
  0
SOLID
  5
848
  8
WYMIARY
  6
CONTINUOUS
 62
     0
 10
-5756.1281950969151
 20
1202.173006940295
 30
0.0
 11
-5750.1281950969151
 21
1202.173006940295
 31
0.0
 12
-5753.1281950969151
 22
1184.173006940295
 32
0.0
 13
-5753.1281950969151
 23
1184.173006940295
 33
0.0
  0
INSERT
  5
849
  8
WYMIARY
  2
*U99
 10
0.0
 20
0.0
 30
0.0
  0
POINT
  5
84A
  8
DEFPOINTS
  6
CONTINUOUS
 62
     0
 10
-5673.7252724229056
 20
1724.1730069402961
 30
0.0
  0
POINT
  5
84B
  8
DEFPOINTS
  6
CONTINUOUS
 62
     0
 10
-5673.7252724229056
 20
1184.173006940295
 30
0.0
  0
POINT
  5
84C
  8
DEFPOINTS
  6
CONTINUOUS
 62
     0
 10
-5753.1281950969151
 20
1184.173006940295
 30
0.0
  0
ENDBLK
  5
77D
  8
0
  0
BLOCK
  8
0
  2
*D27
 70
     1
 10
0.0
 20
0.0
 30
0.0
  3
*D27
  1

  0
LINE
  5
C74
  8
WYMIARY
  6
CONTINUOUS
 62
     0
 10
-7459.2803505046322
 20
1675.4819234271481
 30
0.0
 11
-7499.8458833910563
 21
1675.4819234271481
 31
0.0
  0
LINE
  5
C75
  8
WYMIARY
  6
CONTINUOUS
 62
     0
 10
-7472.2803505046322
 20
1533.481923427147
 30
0.0
 11
-7499.8458833910563
 21
1533.481923427147
 31
0.0
  0
LINE
  5
C76
  8
WYMIARY
  6
CONTINUOUS
 62
     0
 10
-7499.665883391056
 20
1657.4819234271481
 30
0.0
 11
-7499.665883391056
 21
1551.481923427147
 31
0.0
  0
SOLID
  5
C77
  8
WYMIARY
  6
CONTINUOUS
 62
     0
 10
-7502.665883391056
 20
1657.4819234271481
 30
0.0
 11
-7496.665883391056
 21
1657.4819234271481
 31
0.0
 12
-7499.665883391056
 22
1675.4819234271481
 32
0.0
 13
-7499.665883391056
 23
1675.4819234271481
 33
0.0
  0
SOLID
  5
C78
  8
WYMIARY
  6
CONTINUOUS
 62
     0
 10
-7502.665883391056
 20
1551.481923427147
 30
0.0
 11
-7496.665883391056
 21
1551.481923427147
 31
0.0
 12
-7499.665883391056
 22
1533.481923427147
 32
0.0
 13
-7499.665883391056
 23
1533.481923427147
 33
0.0
  0
INSERT
  5
C79
  8
WYMIARY
  2
*U107
 10
0.0
 20
0.0
 30
0.0
  0
POINT
  5
C7A
  8
DEFPOINTS
  6
CONTINUOUS
 62
     0
 10
-7456.2803505046322
 20
1675.4819234271481
 30
0.0
  0
POINT
  5
C7B
  8
DEFPOINTS
  6
CONTINUOUS
 62
     0
 10
-7469.2803505046313
 20
1533.481923427147
 30
0.0
  0
POINT
  5
C7C
  8
DEFPOINTS
  6
CONTINUOUS
 62
     0
 10
-7499.665883391056
 20
1533.481923427147
 30
0.0
  0
ENDBLK
  5
789
  8
0
  0
BLOCK
  8
0
  2
*D28
 70
     1
 10
0.0
 20
0.0
 30
0.0
  3
*D28
  1

  0
LINE
  5
C7D
  8
WYMIARY
  6
CONTINUOUS
 62
     0
 10
-7472.2803505046322
 20
1135.481923427147
 30
0.0
 11
-7499.8458833910563
 21
1135.481923427147
 31
0.0
  0
LINE
  5
C7E
  8
WYMIARY
  6
CONTINUOUS
 62
     0
 10
-7472.2803505046322
 20
1269.4623672813541
 30
0.0
 11
-7499.8458833910563
 21
1269.4623672813541
 31
0.0
  0
LINE
  5
C7F
  8
WYMIARY
  6
CONTINUOUS
 62
     0
 10
-7499.665883391056
 20
1153.481923427147
 30
0.0
 11
-7499.665883391056
 21
1251.4623672813541
 31
0.0
  0
SOLID
  5
C80
  8
WYMIARY
  6
CONTINUOUS
 62
     0
 10
-7502.665883391056
 20
1153.481923427147
 30
0.0
 11
-7496.665883391056
 21
1153.481923427147
 31
0.0
 12
-7499.665883391056
 22
1135.481923427147
 32
0.0
 13
-7499.665883391056
 23
1135.481923427147
 33
0.0
  0
SOLID
  5
C81
  8
WYMIARY
  6
CONTINUOUS
 62
     0
 10
-7502.665883391056
 20
1251.4623672813541
 30
0.0
 11
-7496.665883391056
 21
1251.4623672813541
 31
0.0
 12
-7499.665883391056
 22
1269.4623672813541
 32
0.0
 13
-7499.665883391056
 23
1269.4623672813541
 33
0.0
  0
INSERT
  5
C82
  8
WYMIARY
  2
*U108
 10
0.0
 20
0.0
 30
0.0
  0
POINT
  5
C83
  8
DEFPOINTS
  6
CONTINUOUS
 62
     0
 10
-7469.2803505046313
 20
1135.481923427147
 30
0.0
  0
POINT
  5
C84
  8
DEFPOINTS
  6
CONTINUOUS
 62
     0
 10
-7469.2803505046313
 20
1269.4623672813541
 30
0.0
  0
POINT
  5
C85
  8
DEFPOINTS
  6
CONTINUOUS
 62
     0
 10
-7499.665883391056
 20
1269.4623672813541
 30
0.0
  0
ENDBLK
  5
795
  8
0
  0
BLOCK
  8
0
  2
*D29
 70
     1
 10
0.0
 20
0.0
 30
0.0
  3
*D29
  1

  0
LINE
  5
C86
  8
WYMIARY
  6
CONTINUOUS
 62
     0
 10
-7469.2803505046313
 20
1132.481923427147
 30
0.0
 11
-7469.2803505046313
 21
1069.032213445332
 31
0.0
  0
LINE
  5
C87
  8
WYMIARY
  6
CONTINUOUS
 62
     0
 10
-7212.2803505046322
 20
1132.481923427147
 30
0.0
 11
-7212.2803505046322
 21
1069.032213445332
 31
0.0
  0
LINE
  5
C88
  8
WYMIARY
  6
CONTINUOUS
 62
     0
 10
-7451.2803505046322
 20
1069.2122134453321
 30
0.0
 11
-7230.2803505046322
 21
1069.2122134453321
 31
0.0
  0
SOLID
  5
C89
  8
WYMIARY
  6
CONTINUOUS
 62
     0
 10
-7451.2803505046322
 20
1072.2122134453321
 30
0.0
 11
-7451.2803505046322
 21
1066.2122134453321
 31
0.0
 12
-7469.2803505046313
 22
1069.2122134453321
 32
0.0
 13
-7469.2803505046313
 23
1069.2122134453321
 33
0.0
  0
SOLID
  5
C8A
  8
WYMIARY
  6
CONTINUOUS
 62
     0
 10
-7230.2803505046322
 20
1072.2122134453321
 30
0.0
 11
-7230.2803505046322
 21
1066.2122134453321
 31
0.0
 12
-7212.2803505046322
 22
1069.2122134453321
 32
0.0
 13
-7212.2803505046322
 23
1069.2122134453321
 33
0.0
  0
INSERT
  5
C8B
  8
WYMIARY
  2
*U109
 10
0.0
 20
0.0
 30
0.0
  0
POINT
  5
C8C
  8
DEFPOINTS
  6
CONTINUOUS
 62
     0
 10
-7469.2803505046313
 20
1135.481923427147
 30
0.0
  0
POINT
  5
C8D
  8
DEFPOINTS
  6
CONTINUOUS
 62
     0
 10
-7212.2803505046322
 20
1135.481923427147
 30
0.0
  0
POINT
  5
C8E
  8
DEFPOINTS
  6
CONTINUOUS
 62
     0
 10
-7212.2803505046322
 20
1069.2122134453321
 30
0.0
  0
ENDBLK
  5
7A1
  8
0
  0
BLOCK
  8
0
  2
*D30
 70
     1
 10
0.0
 20
0.0
 30
0.0
  3
*D30
  1

  0
LINE
  5
C8F
  8
WARSTWA_1
 62
     0
 10
-7247.3976672499803
 20
1475.2746264293189
 30
0.0
 11
-7133.1630337592833
 21
1591.8692204249701
 31
0.0
  0
SOLID
  5
C90
  8
WARSTWA_1
 62
     0
 10
-7249.54056363577
 20
1477.3741490130899
 30
0.0
 11
-7245.2547708641869
 21
1473.1751038455491
 31
0.0
 12
-7259.9948027526007
 22
1462.4172481145711
 32
0.0
 13
-7259.9948027526007
 23
1462.4172481145711
 33
0.0
  0
SOLID
  5
C91
  8
WARSTWA_1
 62
     0
 10
-7135.3059301450739
 20
1593.968743008742
 30
0.0
 11
-7131.0201373734908
 21
1589.7696978412009
 31
0.0
 12
-7120.5658982566611
 22
1604.72659873972
 32
0.0
 13
-7120.5658982566611
 23
1604.72659873972
 33
0.0
  0
INSERT
  5
C92
  8
WYMIARY
  2
*U110
 10
0.0
 20
0.0
 30
0.0
  0
POINT
  5
C93
  8
DEFPOINTS
 62
     0
 10
-7120.5658982566611
 20
1604.72659873972
 30
0.0
  0
POINT
  5
C94
  8
DEFPOINTS
 62
     0
 10
-7259.9948027526007
 20
1462.4172481145711
 30
0.0
  0
ENDBLK
  5
7AD
  8
0
  0
BLOCK
  8
0
  2
*D31
 70
     1
 10
0.0
 20
0.0
 30
0.0
  3
*D31
  1

  0
LINE
  5
C95
  8
WARSTWA_1
 62
     0
 10
-7269.3976672499857
 20
1211.165070283525
 30
0.0
 11
-7155.1630337592896
 21
1327.7596642791791
 31
0.0
  0
SOLID
  5
C96
  8
WARSTWA_1
 62
     0
 10
-7271.5405636357773
 20
1213.2645928672951
 30
0.0
 11
-7267.2547708641951
 21
1209.0655476997549
 31
0.0
 12
-7281.9948027526079
 22
1198.307691968776
 32
0.0
 13
-7281.9948027526079
 23
1198.307691968776
 33
0.0
  0
SOLID
  5
C97
  8
WARSTWA_1
 62
     0
 10
-7157.3059301450812
 20
1329.8591868629501
 30
0.0
 11
-7153.0201373734981
 21
1325.660141695409
 31
0.0
 12
-7142.5658982566674
 22
1340.617042593927
 32
0.0
 13
-7142.5658982566674
 23
1340.617042593927
 33
0.0
  0
INSERT
  5
C98
  8
WYMIARY
  2
*U111
 10
0.0
 20
0.0
 30
0.0
  0
POINT
  5
C99
  8
DEFPOINTS
 62
     0
 10
-7142.5658982566674
 20
1340.617042593927
 30
0.0
  0
POINT
  5
C9A
  8
DEFPOINTS
 62
     0
 10
-7281.9948027526079
 20
1198.307691968776
 30
0.0
  0
ENDBLK
  5
7B6
  8
0
  0
BLOCK
  8
0
  2
*D32
 70
     1
 10
0.0
 20
0.0
 30
0.0
  3
*D32
  1

  0
LINE
  5
874
  8
WYMIARY
  6
CONTINUOUS
 62
     0
 10
-3929.4151038069072
 20
1727.1730069402961
 30
0.0
 11
-3929.4151038069072
 21
1828.1875761232391
 31
0.0
  0
LINE
  5
875
  8
WYMIARY
  6
CONTINUOUS
 62
     0
 10
-4436.4151038069067
 20
1727.1730069402961
 30
0.0
 11
-4436.4151038069067
 21
1828.1875761232391
 31
0.0
  0
LINE
  5
876
  8
WYMIARY
  6
CONTINUOUS
 62
     0
 10
-3947.4151038069072
 20
1828.007576123239
 30
0.0
 11
-4418.4151038069058
 21
1828.007576123239
 31
0.0
  0
INSERT
  5
877
  8
WYMIARY
  2
*U100
 10
0.0
 20
0.0
 30
0.0
  0
SOLID
  5
878
  8
WYMIARY
  6
CONTINUOUS
 62
     0
 10
-3947.4151038069072
 20
1831.007576123239
 30
0.0
 11
-3947.4151038069072
 21
1825.007576123239
 31
0.0
 12
-3929.4151038069072
 22
1828.007576123239
 32
0.0
 13
-3929.4151038069072
 23
1828.007576123239
 33
0.0
  0
SOLID
  5
879
  8
WYMIARY
  6
CONTINUOUS
 62
     0
 10
-4418.4151038069058
 20
1831.007576123239
 30
0.0
 11
-4418.4151038069058
 21
1825.007576123239
 31
0.0
 12
-4436.4151038069067
 22
1828.007576123239
 32
0.0
 13
-4436.4151038069067
 23
1828.007576123239
 33
0.0
  0
POINT
  5
87A
  8
DEFPOINTS
  6
CONTINUOUS
 62
     0
 10
-3929.4151038069072
 20
1724.1730069402961
 30
0.0
  0
POINT
  5
87B
  8
DEFPOINTS
  6
CONTINUOUS
 62
     0
 10
-4436.4151038069067
 20
1724.1730069402961
 30
0.0
  0
POINT
  5
87C
  8
DEFPOINTS
  6
CONTINUOUS
 62
     0
 10
-4436.4151038069067
 20
1828.007576123239
 30
0.0
  0
ENDBLK
  5
7BF
  8
0
  0
BLOCK
  8
0
  2
*D33
 70
     1
 10
0.0
 20
0.0
 30
0.0
  3
*D33
  1

  0
LINE
  5
87D
  8
WYMIARY
  6
CONTINUOUS
 62
     0
 10
-3926.4151038069058
 20
1724.1730069402961
 30
0.0
 11
-3898.849570920484
 21
1724.1730069402961
 31
0.0
  0
LINE
  5
87E
  8
WYMIARY
  6
CONTINUOUS
 62
     0
 10
-3926.4151038069058
 20
1582.173006940295
 30
0.0
 11
-3898.849570920484
 21
1582.173006940295
 31
0.0
  0
LINE
  5
87F
  8
WYMIARY
  6
CONTINUOUS
 62
     0
 10
-3899.0295709204838
 20
1706.1730069402961
 30
0.0
 11
-3899.0295709204838
 21
1600.173006940295
 31
0.0
  0
SOLID
  5
880
  8
WYMIARY
  6
CONTINUOUS
 62
     0
 10
-3902.0295709204838
 20
1706.1730069402961
 30
0.0
 11
-3896.0295709204838
 21
1706.1730069402961
 31
0.0
 12
-3899.0295709204838
 22
1724.1730069402961
 32
0.0
 13
-3899.0295709204838
 23
1724.1730069402961
 33
0.0
  0
SOLID
  5
881
  8
WYMIARY
  6
CONTINUOUS
 62
     0
 10
-3902.0295709204838
 20
1600.173006940295
 30
0.0
 11
-3896.0295709204838
 21
1600.173006940295
 31
0.0
 12
-3899.0295709204838
 22
1582.173006940295
 32
0.0
 13
-3899.0295709204838
 23
1582.173006940295
 33
0.0
  0
INSERT
  5
882
  8
WYMIARY
  2
*U101
 10
0.0
 20
0.0
 30
0.0
  0
POINT
  5
883
  8
DEFPOINTS
  6
CONTINUOUS
 62
     0
 10
-3929.4151038069072
 20
1724.1730069402961
 30
0.0
  0
POINT
  5
884
  8
DEFPOINTS
  6
CONTINUOUS
 62
     0
 10
-3929.4151038069058
 20
1582.173006940295
 30
0.0
  0
POINT
  5
885
  8
DEFPOINTS
  6
CONTINUOUS
 62
     0
 10
-3899.0295709204838
 20
1582.173006940295
 30
0.0
  0
ENDBLK
  5
7CB
  8
0
  0
BLOCK
  8
0
  2
*D34
 70
     1
 10
0.0
 20
0.0
 30
0.0
  3
*D34
  1

  0
LINE
  5
886
  8
WYMIARY
  6
CONTINUOUS
 62
     0
 10
-3926.4151038069058
 20
1184.173006940295
 30
0.0
 11
-3898.849570920484
 21
1184.173006940295
 31
0.0
  0
LINE
  5
887
  8
WYMIARY
  6
CONTINUOUS
 62
     0
 10
-3926.4151038069058
 20
1318.0367302098739
 30
0.0
 11
-3898.849570920484
 21
1318.0367302098739
 31
0.0
  0
LINE
  5
888
  8
WYMIARY
  6
CONTINUOUS
 62
     0
 10
-3899.0295709204838
 20
1202.173006940295
 30
0.0
 11
-3899.0295709204838
 21
1300.0367302098739
 31
0.0
  0
SOLID
  5
889
  8
WYMIARY
  6
CONTINUOUS
 62
     0
 10
-3902.0295709204838
 20
1202.173006940295
 30
0.0
 11
-3896.0295709204838
 21
1202.173006940295
 31
0.0
 12
-3899.0295709204838
 22
1184.173006940295
 32
0.0
 13
-3899.0295709204838
 23
1184.173006940295
 33
0.0
  0
SOLID
  5
88A
  8
WYMIARY
  6
CONTINUOUS
 62
     0
 10
-3902.0295709204838
 20
1300.0367302098739
 30
0.0
 11
-3896.0295709204838
 21
1300.0367302098739
 31
0.0
 12
-3899.0295709204838
 22
1318.0367302098739
 32
0.0
 13
-3899.0295709204838
 23
1318.0367302098739
 33
0.0
  0
INSERT
  5
88B
  8
WYMIARY
  2
*U102
 10
0.0
 20
0.0
 30
0.0
  0
POINT
  5
88C
  8
DEFPOINTS
  6
CONTINUOUS
 62
     0
 10
-3929.4151038069072
 20
1184.173006940295
 30
0.0
  0
POINT
  5
88D
  8
DEFPOINTS
  6
CONTINUOUS
 62
     0
 10
-3929.4151038069072
 20
1318.0367302098739
 30
0.0
  0
POINT
  5
88E
  8
DEFPOINTS
  6
CONTINUOUS
 62
     0
 10
-3899.0295709204838
 20
1318.0367302098739
 30
0.0
  0
ENDBLK
  5
7D7
  8
0
  0
BLOCK
  8
0
  2
*D35
 70
     1
 10
0.0
 20
0.0
 30
0.0
  3
*D35
  1

  0
LINE
  5
88F
  8
WYMIARY
  6
CONTINUOUS
 62
     0
 10
-3929.4151038069072
 20
1181.173006940295
 30
0.0
 11
-3929.4151038069072
 21
1120.4499013912809
 31
0.0
  0
LINE
  5
890
  8
WYMIARY
  6
CONTINUOUS
 62
     0
 10
-4186.4151038069067
 20
1181.173006940295
 30
0.0
 11
-4186.4151038069067
 21
1120.4499013912809
 31
0.0
  0
LINE
  5
891
  8
WYMIARY
  6
CONTINUOUS
 62
     0
 10
-3947.4151038069072
 20
1120.629901391281
 30
0.0
 11
-4168.4151038069058
 21
1120.629901391281
 31
0.0
  0
SOLID
  5
892
  8
WYMIARY
  6
CONTINUOUS
 62
     0
 10
-3947.4151038069072
 20
1123.629901391281
 30
0.0
 11
-3947.4151038069072
 21
1117.629901391281
 31
0.0
 12
-3929.4151038069072
 22
1120.629901391281
 32
0.0
 13
-3929.4151038069072
 23
1120.629901391281
 33
0.0
  0
SOLID
  5
893
  8
WYMIARY
  6
CONTINUOUS
 62
     0
 10
-4168.4151038069058
 20
1123.629901391281
 30
0.0
 11
-4168.4151038069058
 21
1117.629901391281
 31
0.0
 12
-4186.4151038069067
 22
1120.629901391281
 32
0.0
 13
-4186.4151038069067
 23
1120.629901391281
 33
0.0
  0
INSERT
  5
894
  8
WYMIARY
  2
*U103
 10
0.0
 20
0.0
 30
0.0
  0
POINT
  5
895
  8
DEFPOINTS
  6
CONTINUOUS
 62
     0
 10
-3929.4151038069072
 20
1184.173006940295
 30
0.0
  0
POINT
  5
896
  8
DEFPOINTS
  6
CONTINUOUS
 62
     0
 10
-4186.4151038069067
 20
1184.173006940295
 30
0.0
  0
POINT
  5
897
  8
DEFPOINTS
  6
CONTINUOUS
 62
     0
 10
-4186.4151038069067
 20
1120.629901391281
 30
0.0
  0
ENDBLK
  5
7E3
  8
0
  0
BLOCK
  8
0
  2
*D36
 70
     1
 10
0.0
 20
0.0
 30
0.0
  3
*D36
  1

  0
LINE
  5
242D
  8
WARSTWA_1
 62
     0
 10
-4208.5324205522538
 20
1515.875709942472
 30
0.0
 11
-4094.297787061555
 21
1632.47030393812
 31
0.0
  0
SOLID
  5
242E
  8
WARSTWA_1
 62
     0
 10
-4210.6753169380436
 20
1517.9752325262421
 30
0.0
 11
-4206.3895241664623
 21
1513.776187358701
 31
0.0
 12
-4221.129556054877
 22
1503.0183316277239
 32
0.0
 13
-4221.129556054877
 23
1503.0183316277239
 33
0.0
  0
SOLID
  5
242F
  8
WARSTWA_1
 62
     0
 10
-4096.4406834473466
 20
1634.5698265218909
 30
0.0
 11
-4092.1548906757639
 21
1630.3707813543499
 31
0.0
 12
-4081.700651558931
 22
1645.327682252868
 32
0.0
 13
-4081.700651558931
 23
1645.327682252868
 33
0.0
  0
TEXT
  8
WARSTWA_1
  40
18
  5
26B1
  62
0
  72
0
  71
0
 10
-4164.41
 20
1591.07
 30
0.000000
  1
%%C200
  0
POINT
  5
2431
  8
DEFPOINTS
 62
     0
 10
-4081.700651558931
 20
1645.327682252868
 30
0.0
  0
POINT
  5
2432
  8
DEFPOINTS
 62
     0
 10
-4221.129556054877
 20
1503.0183316277239
 30
0.0
  0
ENDBLK
  5
7EF
  8
0
  0
BLOCK
  8
0
  2
*D37
 70
     1
 10
0.0
 20
0.0
 30
0.0
  3
*D37
  1

  0
LINE
  5
2433
  8
WARSTWA_1
 62
     0
 10
-4208.5324205522529
 20
1219.8561537966721
 30
0.0
 11
-4094.29778706156
 21
1336.4507477923271
 31
0.0
  0
SOLID
  5
2434
  8
WARSTWA_1
 62
     0
 10
-4210.6753169380436
 20
1221.9556763804419
 30
0.0
 11
-4206.3895241664613
 21
1217.7566312129011
 31
0.0
 12
-4221.1295560548751
 22
1206.9987754819231
 32
0.0
 13
-4221.1295560548751
 23
1206.9987754819231
 33
0.0
  0
SOLID
  5
2435
  8
WARSTWA_1
 62
     0
 10
-4096.4406834473521
 20
1338.5502703760981
 30
0.0
 11
-4092.1548906757689
 21
1334.351225208557
 31
0.0
 12
-4081.7006515589378
 22
1349.3081261070761
 32
0.0
 13
-4081.7006515589378
 23
1349.3081261070761
 33
0.0
  0
TEXT
  8
WARSTWA_1
  40
18
  5
26B2
  62
0
  72
0
  71
0
 10
-4164.41
 20
1295.05
 30
0.000000
  1
%%C200
  0
POINT
  5
2437
  8
DEFPOINTS
 62
     0
 10
-4081.7006515589378
 20
1349.3081261070761
 30
0.0
  0
POINT
  5
2438
  8
DEFPOINTS
 62
     0
 10
-4221.1295560548751
 20
1206.9987754819231
 30
0.0
  0
ENDBLK
  5
7F8
  8
0
  0
BLOCK
  8
0
  2
*D38
 70
     1
 10
0.0
 20
0.0
 30
0.0
  3
*D38
  1

  0
LINE
  5
C9B
  8
WYMIARY
 62
     0
 10
-7469.2803505046313
 20
1678.4819234271481
 30
0.0
 11
-7469.2803505046313
 21
1741.2427564172069
 31
0.0
  0
LINE
  5
C9C
  8
WYMIARY
 62
     0
 10
-7190.2803505046322
 20
1730.4819234271481
 30
0.0
 11
-7190.2803505046322
 21
1741.2427564172069
 31
0.0
  0
LINE
  5
C9D
  8
WYMIARY
 62
     0
 10
-7451.2803505046322
 20
1741.0627564172071
 30
0.0
 11
-7208.2803505046331
 21
1741.0627564172071
 31
0.0
  0
SOLID
  5
C9E
  8
WYMIARY
 62
     0
 10
-7451.2803505046322
 20
1744.0627564172071
 30
0.0
 11
-7451.2803505046322
 21
1738.0627564172071
 31
0.0
 12
-7469.2803505046313
 22
1741.0627564172071
 32
0.0
 13
-7469.2803505046313
 23
1741.0627564172071
 33
0.0
  0
SOLID
  5
C9F
  8
WYMIARY
 62
     0
 10
-7208.2803505046331
 20
1744.0627564172071
 30
0.0
 11
-7208.2803505046331
 21
1738.0627564172071
 31
0.0
 12
-7190.2803505046322
 22
1741.0627564172071
 32
0.0
 13
-7190.2803505046322
 23
1741.0627564172071
 33
0.0
  0
INSERT
  5
CA0
  8
WYMIARY
  2
*U112
 10
0.0
 20
0.0
 30
0.0
  0
POINT
  5
CA1
  8
DEFPOINTS
 62
     0
 10
-7469.2803505046313
 20
1675.4819234271481
 30
0.0
  0
POINT
  5
CA2
  8
DEFPOINTS
 62
     0
 10
-7190.2803505046322
 20
1727.4819234271481
 30
0.0
  0
POINT
  5
CA3
  8
DEFPOINTS
 62
     0
 10
-7190.2803505046322
 20
1741.0627564172071
 30
0.0
  0
ENDBLK
  5
801
  8
0
  0
BLOCK
  8
0
  2
*D39
 70
     1
 10
0.0
 20
0.0
 30
0.0
  3
*D39
  1

  0
LINE
  5
CA4
  8
WYMIARY
 62
     0
 10
-7469.2803505046313
 20
1678.4819234271481
 30
0.0
 11
-7469.2803505046313
 21
1779.3164926100919
 31
0.0
  0
LINE
  5
CA5
  8
WYMIARY
 62
     0
 10
-6962.2803505046322
 20
1678.4819234271481
 30
0.0
 11
-6962.2803505046322
 21
1779.3164926100919
 31
0.0
  0
LINE
  5
CA6
  8
WYMIARY
 62
     0
 10
-7451.2803505046322
 20
1779.1364926100921
 30
0.0
 11
-6980.2803505046322
 21
1779.1364926100921
 31
0.0
  0
SOLID
  5
CA7
  8
WYMIARY
 62
     0
 10
-7451.2803505046322
 20
1782.1364926100921
 30
0.0
 11
-7451.2803505046322
 21
1776.1364926100921
 31
0.0
 12
-7469.2803505046313
 22
1779.1364926100921
 32
0.0
 13
-7469.2803505046313
 23
1779.1364926100921
 33
0.0
  0
SOLID
  5
CA8
  8
WYMIARY
 62
     0
 10
-6980.2803505046322
 20
1782.1364926100921
 30
0.0
 11
-6980.2803505046322
 21
1776.1364926100921
 31
0.0
 12
-6962.2803505046322
 22
1779.1364926100921
 32
0.0
 13
-6962.2803505046322
 23
1779.1364926100921
 33
0.0
  0
INSERT
  5
CA9
  8
WYMIARY
  2
*U113
 10
0.0
 20
0.0
 30
0.0
  0
POINT
  5
CAA
  8
DEFPOINTS
 62
     0
 10
-7469.2803505046313
 20
1675.4819234271481
 30
0.0
  0
POINT
  5
CAB
  8
DEFPOINTS
 62
     0
 10
-6962.2803505046322
 20
1675.4819234271481
 30
0.0
  0
POINT
  5
CAC
  8
DEFPOINTS
 62
     0
 10
-6962.2803505046322
 20
1779.1364926100921
 30
0.0
  0
ENDBLK
  5
80D
  8
0
  0
BLOCK
  8
0
  2
*D40
 70
     1
 10
0.0
 20
0.0
 30
0.0
  3
*D40
  1

  0
LINE
  5
BB3
  8
WYMIARY
 62
     0
 10
-4885.7252724229056
 20
772.94808599312375
 30
0.0
 11
-4885.7252724229056
 21
798.15753533967609
 31
0.0
  0
LINE
  5
BB4
  8
WYMIARY
 62
     0
 10
-4733.7252724229056
 20
772.94808599312375
 30
0.0
 11
-4733.7252724229056
 21
798.15753533967609
 31
0.0
  0
LINE
  5
BB5
  8
WYMIARY
 62
     0
 10
-4867.7252724229047
 20
797.97753533967625
 30
0.0
 11
-4751.7252724229047
 21
797.97753533967625
 31
0.0
  0
SOLID
  5
BB6
  8
WYMIARY
 62
     0
 10
-4867.7252724229047
 20
800.97753533967614
 30
0.0
 11
-4867.7252724229047
 21
794.97753533967625
 31
0.0
 12
-4885.7252724229056
 22
797.97753533967625
 32
0.0
 13
-4885.7252724229056
 23
797.97753533967625
 33
0.0
  0
SOLID
  5
BB7
  8
WYMIARY
 62
     0
 10
-4751.7252724229047
 20
800.97753533967614
 30
0.0
 11
-4751.7252724229047
 21
794.97753533967625
 31
0.0
 12
-4733.7252724229056
 22
797.97753533967625
 32
0.0
 13
-4733.7252724229056
 23
797.97753533967625
 33
0.0
  0
INSERT
  5
BB8
  8
WYMIARY
  2
*U105
 10
0.0
 20
0.0
 30
0.0
  0
POINT
  5
BB9
  8
DEFPOINTS
 62
     0
 10
-4885.7252724229056
 20
769.94808599312375
 30
0.0
  0
POINT
  5
BBA
  8
DEFPOINTS
 62
     0
 10
-4733.7252724229056
 20
769.94808599312375
 30
0.0
  0
POINT
  5
BBB
  8
DEFPOINTS
 62
     0
 10
-4733.7252724229056
 20
797.97753533967625
 30
0.0
  0
ENDBLK
  5
819
  8
0
  0
BLOCK
  8
0
  2
*D41
 70
     1
 10
0.0
 20
0.0
 30
0.0
  3
*D41
  1

  0
LINE
  5
BBC
  8
WYMIARY
 62
     0
 10
-5521.7252724229047
 20
772.94808599312375
 30
0.0
 11
-5521.7252724229047
 21
799.36364412945613
 31
0.0
  0
LINE
  5
BBD
  8
WYMIARY
 62
     0
 10
-5673.7252724229056
 20
772.94808599312375
 30
0.0
 11
-5673.7252724229056
 21
799.36364412945613
 31
0.0
  0
LINE
  5
BBE
  8
WYMIARY
 62
     0
 10
-5539.7252724229056
 20
799.18364412945607
 30
0.0
 11
-5655.7252724229056
 21
799.18364412945607
 31
0.0
  0
SOLID
  5
BBF
  8
WYMIARY
 62
     0
 10
-5539.7252724229056
 20
802.18364412945618
 30
0.0
 11
-5539.7252724229056
 21
796.18364412945607
 31
0.0
 12
-5521.7252724229047
 22
799.18364412945607
 32
0.0
 13
-5521.7252724229047
 23
799.18364412945607
 33
0.0
  0
SOLID
  5
BC0
  8
WYMIARY
 62
     0
 10
-5655.7252724229056
 20
802.18364412945618
 30
0.0
 11
-5655.7252724229056
 21
796.18364412945607
 31
0.0
 12
-5673.7252724229056
 22
799.18364412945607
 32
0.0
 13
-5673.7252724229056
 23
799.18364412945607
 33
0.0
  0
INSERT
  5
BC1
  8
WYMIARY
  2
*U106
 10
0.0
 20
0.0
 30
0.0
  0
POINT
  5
BC2
  8
DEFPOINTS
 62
     0
 10
-5521.7252724229047
 20
769.94808599312375
 30
0.0
  0
POINT
  5
BC3
  8
DEFPOINTS
 62
     0
 10
-5673.7252724229056
 20
769.94808599312375
 30
0.0
  0
POINT
  5
BC4
  8
DEFPOINTS
 62
     0
 10
-5673.7252724229056
 20
799.18364412945607
 30
0.0
  0
ENDBLK
  5
825
  8
0
  0
BLOCK
  8
0
  2
*D42
 70
     1
 10
0.0
 20
0.0
 30
0.0
  3
*D42
  1

  0
LINE
  5
8C8
  8
WYMIARY
 62
     0
 10
-4208.4151038069049
 20
1779.1730069402961
 30
0.0
 11
-4208.4151038069049
 21
1791.075478612499
 31
0.0
  0
LINE
  5
8C9
  8
WYMIARY
 62
     0
 10
-3929.4151038069072
 20
1727.1730069402961
 30
0.0
 11
-3929.4151038069072
 21
1791.075478612499
 31
0.0
  0
LINE
  5
8CA
  8
WYMIARY
 62
     0
 10
-4190.4151038069049
 20
1790.8954786124989
 30
0.0
 11
-3947.4151038069072
 21
1790.8954786124989
 31
0.0
  0
SOLID
  5
8CB
  8
WYMIARY
 62
     0
 10
-4190.4151038069049
 20
1793.8954786124989
 30
0.0
 11
-4190.4151038069049
 21
1787.8954786124989
 31
0.0
 12
-4208.4151038069049
 22
1790.8954786124989
 32
0.0
 13
-4208.4151038069049
 23
1790.8954786124989
 33
0.0
  0
SOLID
  5
8CC
  8
WYMIARY
 62
     0
 10
-3947.4151038069072
 20
1793.8954786124989
 30
0.0
 11
-3947.4151038069072
 21
1787.8954786124989
 31
0.0
 12
-3929.4151038069072
 22
1790.8954786124989
 32
0.0
 13
-3929.4151038069072
 23
1790.8954786124989
 33
0.0
  0
INSERT
  5
8CD
  8
WYMIARY
  2
*U104
 10
0.0
 20
0.0
 30
0.0
  0
POINT
  5
8CE
  8
DEFPOINTS
 62
     0
 10
-4208.4151038069049
 20
1776.1730069402961
 30
0.0
  0
POINT
  5
8CF
  8
DEFPOINTS
 62
     0
 10
-3929.4151038069072
 20
1724.1730069402961
 30
0.0
  0
POINT
  5
8D0
  8
DEFPOINTS
 62
     0
 10
-3929.4151038069072
 20
1790.8954786124989
 30
0.0
  0
ENDBLK
  5
831
  8
0
  0
BLOCK
  8
0
  2
*D45
 70
     1
 10
0.0
 20
0.0
 30
0.0
  3
*D45
  1

  0
LINE
  5
249E
  8
WARSTWA_1
 62
     0
 10
-6203.8537287146873
 20
1515.875709942474
 30
0.0
 11
-6318.088362205388
 21
1632.4703039381161
 31
0.0
  0
SOLID
  5
249F
  8
WARSTWA_1
 62
     0
 10
-6201.7108323288949
 20
1517.975232526245
 30
0.0
 11
-6205.996625100478
 21
1513.776187358704
 31
0.0
 12
-6191.2565932120633
 22
1503.0183316277271
 32
0.0
 13
-6191.2565932120633
 23
1503.0183316277271
 33
0.0
  0
SOLID
  5
24A0
  8
WARSTWA_1
 62
     0
 10
-6315.9454658195982
 20
1634.5698265218871
 30
0.0
 11
-6320.2312585911814
 21
1630.3707813543449
 31
0.0
 12
-6330.6854977080129
 22
1645.327682252863
 32
0.0
 13
-6330.6854977080129
 23
1645.327682252863
 33
0.0
  0
TEXT
  8
WARSTWA_1
  40
18
  5
26B3
  62
0
  72
0
  71
0
 10
-6319.97
 20
1591.07
 30
0.000000
  1
%%C200
  0
POINT
  5
24A2
  8
DEFPOINTS
 62
     0
 10
-6330.6854977080129
 20
1645.327682252863
 30
0.0
  0
POINT
  5
24A3
  8
DEFPOINTS
 62
     0
 10
-6191.2565932120633
 20
1503.0183316277271
 30
0.0
  0
ENDBLK
  5
C27
  8
0
  0
BLOCK
  8
0
  2
*D46
 70
     1
 10
0.0
 20
0.0
 30
0.0
  3
*D46
  1

  0
LINE
  5
24A4
  8
WARSTWA_1
 62
     0
 10
-6203.8537287146873
 20
1219.8561537966759
 30
0.0
 11
-6318.088362205388
 21
1336.4507477923239
 31
0.0
  0
SOLID
  5
24A5
  8
WARSTWA_1
 62
     0
 10
-6201.710832328894
 20
1221.955676380446
 30
0.0
 11
-6205.9966251004771
 21
1217.7566312129049
 31
0.0
 12
-6191.2565932120633
 22
1206.9987754819281
 32
0.0
 13
-6191.2565932120633
 23
1206.9987754819281
 33
0.0
  0
SOLID
  5
24A6
  8
WARSTWA_1
 62
     0
 10
-6315.9454658195946
 20
1338.550270376094
 30
0.0
 11
-6320.2312585911786
 21
1334.3512252085529
 31
0.0
 12
-6330.6854977080111
 22
1349.3081261070711
 32
0.0
 13
-6330.6854977080111
 23
1349.3081261070711
 33
0.0
  0
TEXT
  8
WARSTWA_1
  40
18
  5
26B4
  62
0
  72
0
  71
0
 10
-6319.97
 20
1295.05
 30
0.000000
  1
%%C200
  0
POINT
  5
24A8
  8
DEFPOINTS
 62
     0
 10
-6330.6854977080111
 20
1349.3081261070711
 30
0.0
  0
POINT
  5
24A9
  8
DEFPOINTS
 62
     0
 10
-6191.2565932120633
 20
1206.9987754819281
 30
0.0
  0
ENDBLK
  5
C30
  8
0
  0
BLOCK
  8
0
  2
*D47
 70
     1
 10
0.0
 20
0.0
 30
0.0
  3
*D47
  1

  0
LINE
  5
CBB
  8
WYMIARY
 62
     0
 10
-5689.3502724229029
 20
1144.173006940295
 30
0.0
 11
-5779.8661210570826
 21
1144.173006940295
 31
0.0
  0
LINE
  5
CBC
  8
WYMIARY
 62
     0
 10
-5689.3502724229029
 20
1724.173006940295
 30
0.0
 11
-5779.8661210570826
 21
1724.173006940295
 31
0.0
  0
LINE
  5
CBD
  8
WYMIARY
 62
     0
 10
-5778.6161210570826
 20
1146.673006940295
 30
0.0
 11
-5778.6161210570826
 21
1721.673006940295
 31
0.0
  0
SOLID
  5
CBE
  8
WYMIARY
 62
     0
 10
-5779.0327877237514
 20
1146.673006940295
 30
0.0
 11
-5778.1994543904166
 21
1146.673006940295
 31
0.0
 12
-5778.6161210570826
 22
1144.173006940295
 32
0.0
 13
-5778.6161210570826
 23
1144.173006940295
 33
0.0
  0
SOLID
  5
CBF
  8
WYMIARY
 62
     0
 10
-5779.0327877237514
 20
1721.673006940295
 30
0.0
 11
-5778.1994543904166
 21
1721.673006940295
 31
0.0
 12
-5778.6161210570826
 22
1724.173006940295
 32
0.0
 13
-5778.6161210570826
 23
1724.173006940295
 33
0.0
  0
INSERT
  5
CC0
  8
WYMIARY
  2
*U114
 10
0.0
 20
0.0
 30
0.0
  0
POINT
  5
CC1
  8
DEFPOINTS
 62
     0
 10
-5688.7252724229029
 20
1144.173006940295
 30
0.0
  0
POINT
  5
CC2
  8
DEFPOINTS
 62
     0
 10
-5688.7252724229029
 20
1724.173006940295
 30
0.0
  0
POINT
  5
CC3
  8
DEFPOINTS
 62
     0
 10
-5778.6161210570826
 20
1724.173006940295
 30
0.0
  0
ENDBLK
  5
CB0
  8
0
  0
BLOCK
  8
0
  2
*D48
 70
     1
 10
0.0
 20
0.0
 30
0.0
  3
*D48
  1

  0
LINE
  5
CE0
  8
WYMIARY
 62
     0
 10
-5691.7252724229029
 20
1144.173006940295
 30
0.0
 11
-5773.5927490326021
 21
1144.173006940295
 31
0.0
  0
LINE
  5
CE1
  8
WYMIARY
 62
     0
 10
-5691.7252724229029
 20
1724.173006940295
 30
0.0
 11
-5773.5927490326021
 21
1724.173006940295
 31
0.0
  0
LINE
  5
CE2
  8
WYMIARY
 62
     0
 10
-5772.342749032603
 20
1162.173006940295
 30
0.0
 11
-5772.342749032603
 21
1706.173006940295
 31
0.0
  0
SOLID
  5
CE3
  8
WYMIARY
 62
     0
 10
-5775.342749032603
 20
1162.173006940295
 30
0.0
 11
-5769.342749032603
 21
1162.173006940295
 31
0.0
 12
-5772.342749032603
 22
1144.173006940295
 32
0.0
 13
-5772.342749032603
 23
1144.173006940295
 33
0.0
  0
SOLID
  5
CE4
  8
WYMIARY
 62
     0
 10
-5775.342749032603
 20
1706.173006940295
 30
0.0
 11
-5769.342749032603
 21
1706.173006940295
 31
0.0
 12
-5772.342749032603
 22
1724.173006940295
 32
0.0
 13
-5772.342749032603
 23
1724.173006940295
 33
0.0
  0
INSERT
  5
CE5
  8
WYMIARY
  2
*U115
 10
0.0
 20
0.0
 30
0.0
  0
POINT
  5
CE6
  8
DEFPOINTS
 62
     0
 10
-5688.7252724229029
 20
1144.173006940295
 30
0.0
  0
POINT
  5
CE7
  8
DEFPOINTS
 62
     0
 10
-5688.7252724229029
 20
1724.173006940295
 30
0.0
  0
POINT
  5
CE8
  8
DEFPOINTS
 62
     0
 10
-5772.342749032603
 20
1724.173006940295
 30
0.0
  0
ENDBLK
  5
CC8
  8
0
  0
BLOCK
  8
0
  2
*D49
 70
     1
 10
0.0
 20
0.0
 30
0.0
  3
*D49
  1

  0
LINE
  5
CF7
  8
WYMIARY
 62
     0
 10
-5688.7252724229029
 20
1727.173006940295
 30
0.0
 11
-5688.7252724229029
 21
1814.7837757374091
 31
0.0
  0
LINE
  5
CF8
  8
WYMIARY
 62
     0
 10
-4718.7252724229074
 20
1727.173006940295
 30
0.0
 11
-4718.7252724229074
 21
1814.7837757374091
 31
0.0
  0
LINE
  5
CF9
  8
WYMIARY
 62
     0
 10
-5670.7252724229029
 20
1813.5337757374091
 30
0.0
 11
-4736.7252724229083
 21
1813.5337757374091
 31
0.0
  0
SOLID
  5
CFA
  8
WYMIARY
 62
     0
 10
-5670.7252724229029
 20
1816.5337757374091
 30
0.0
 11
-5670.7252724229029
 21
1810.5337757374091
 31
0.0
 12
-5688.7252724229029
 22
1813.5337757374091
 32
0.0
 13
-5688.7252724229029
 23
1813.5337757374091
 33
0.0
  0
SOLID
  5
CFB
  8
WYMIARY
 62
     0
 10
-4736.7252724229083
 20
1816.5337757374091
 30
0.0
 11
-4736.7252724229083
 21
1810.5337757374091
 31
0.0
 12
-4718.7252724229074
 22
1813.5337757374091
 32
0.0
 13
-4718.7252724229074
 23
1813.5337757374091
 33
0.0
  0
INSERT
  5
CFC
  8
WYMIARY
  2
*U116
 10
0.0
 20
0.0
 30
0.0
  0
POINT
  5
CFD
  8
DEFPOINTS
 62
     0
 10
-5688.7252724229029
 20
1724.173006940295
 30
0.0
  0
POINT
  5
CFE
  8
DEFPOINTS
 62
     0
 10
-4718.7252724229074
 20
1724.173006940295
 30
0.0
  0
POINT
  5
CFF
  8
DEFPOINTS
 62
     0
 10
-4718.7252724229074
 20
1813.5337757374091
 30
0.0
  0
ENDBLK
  5
CEC
  8
0
  0
BLOCK
  8
0
  2
*D50
 70
     1
 10
0.0
 20
0.0
 30
0.0
  3
*D50
  1

  0
LINE
  5
1925
  8
WYMIARY
 62
     0
 10
-6545.971045460039
 20
1727.173006940295
 30
0.0
 11
-6545.971045460039
 21
1792.694841102013
 31
0.0
  0
LINE
  5
1926
  8
WYMIARY
 62
     0
 10
-6260.9710454600381
 20
1762.9339240211541
 30
0.0
 11
-6260.9710454600381
 21
1792.694841102013
 31
0.0
  0
LINE
  5
1927
  8
WYMIARY
 62
     0
 10
-6527.971045460039
 20
1791.4448411020121
 30
0.0
 11
-6278.971045460039
 21
1791.4448411020121
 31
0.0
  0
SOLID
  5
1928
  8
WYMIARY
 62
     0
 10
-6527.971045460039
 20
1794.4448411020121
 30
0.0
 11
-6527.971045460039
 21
1788.444841102013
 31
0.0
 12
-6545.971045460039
 22
1791.4448411020121
 32
0.0
 13
-6545.971045460039
 23
1791.4448411020121
 33
0.0
  0
SOLID
  5
1929
  8
WYMIARY
 62
     0
 10
-6278.971045460039
 20
1794.4448411020121
 30
0.0
 11
-6278.971045460039
 21
1788.444841102013
 31
0.0
 12
-6260.9710454600381
 22
1791.4448411020121
 32
0.0
 13
-6260.9710454600381
 23
1791.4448411020121
 33
0.0
  0
INSERT
  5
192A
  8
WYMIARY
  2
*U124
 10
0.0
 20
0.0
 30
0.0
  0
POINT
  5
192B
  8
DEFPOINTS
 62
     0
 10
-6545.971045460039
 20
1724.1730069402961
 30
0.0
  0
POINT
  5
192C
  8
DEFPOINTS
 62
     0
 10
-6260.9710454600381
 20
1759.9339240211541
 30
0.0
  0
POINT
  5
192D
  8
DEFPOINTS
 62
     0
 10
-6260.9710454600381
 20
1791.4448411020121
 30
0.0
  0
ENDBLK
  5
129A
  8
0
  0
BLOCK
  8
0
  2
*D51
 70
     1
 10
0.0
 20
0.0
 30
0.0
  3
*D51
  1

  0
LINE
  5
12BD
  8
WYMIARY
 62
     0
 10
-6545.971045460039
 20
1727.173006940295
 30
0.0
 11
-6545.971045460039
 21
1828.0529324570341
 31
0.0
  0
LINE
  5
12BE
  8
WYMIARY
 62
     0
 10
-5975.971045460039
 20
1727.173006940295
 30
0.0
 11
-5975.971045460039
 21
1828.0529324570341
 31
0.0
  0
LINE
  5
12BF
  8
WYMIARY
 62
     0
 10
-6527.971045460039
 20
1826.8029324570341
 30
0.0
 11
-5993.971045460039
 21
1826.8029324570341
 31
0.0
  0
SOLID
  5
12C0
  8
WYMIARY
 62
     0
 10
-6527.971045460039
 20
1829.8029324570341
 30
0.0
 11
-6527.971045460039
 21
1823.8029324570341
 31
0.0
 12
-6545.971045460039
 22
1826.8029324570341
 32
0.0
 13
-6545.971045460039
 23
1826.8029324570341
 33
0.0
  0
SOLID
  5
12C1
  8
WYMIARY
 62
     0
 10
-5993.971045460039
 20
1829.8029324570341
 30
0.0
 11
-5993.971045460039
 21
1823.8029324570341
 31
0.0
 12
-5975.971045460039
 22
1826.8029324570341
 32
0.0
 13
-5975.971045460039
 23
1826.8029324570341
 33
0.0
  0
INSERT
  5
12C2
  8
WYMIARY
  2
*U117
 10
0.0
 20
0.0
 30
0.0
  0
POINT
  5
12C3
  8
DEFPOINTS
 62
     0
 10
-6545.971045460039
 20
1724.1730069402961
 30
0.0
  0
POINT
  5
12C4
  8
DEFPOINTS
 62
     0
 10
-5975.971045460039
 20
1724.1730069402961
 30
0.0
  0
POINT
  5
12C5
  8
DEFPOINTS
 62
     0
 10
-5975.971045460039
 20
1826.8029324570341
 30
0.0
  0
ENDBLK
  5
12B2
  8
0
  0
BLOCK
  8
0
  2
*D52
 70
     1
 10
0.0
 20
0.0
 30
0.0
  3
*D52
  1

  0
LINE
  5
12CB
  8
WYMIARY
 62
     0
 10
-6548.971045460039
 20
1574.173006940295
 30
0.0
 11
-6580.2126794003198
 21
1574.173006940295
 31
0.0
  0
LINE
  5
12CC
  8
WYMIARY
 62
     0
 10
-6548.971045460039
 20
1724.1730069402961
 30
0.0
 11
-6580.2126794003198
 21
1724.1730069402961
 31
0.0
  0
LINE
  5
12CD
  8
WYMIARY
 62
     0
 10
-6578.9626794003188
 20
1592.173006940295
 30
0.0
 11
-6578.9626794003188
 21
1706.173006940295
 31
0.0
  0
SOLID
  5
12CE
  8
WYMIARY
 62
     0
 10
-6581.9626794003188
 20
1592.173006940295
 30
0.0
 11
-6575.9626794003188
 21
1592.173006940295
 31
0.0
 12
-6578.9626794003188
 22
1574.173006940295
 32
0.0
 13
-6578.9626794003188
 23
1574.173006940295
 33
0.0
  0
SOLID
  5
12CF
  8
WYMIARY
 62
     0
 10
-6581.9626794003188
 20
1706.173006940295
 30
0.0
 11
-6575.9626794003188
 21
1706.173006940295
 31
0.0
 12
-6578.9626794003188
 22
1724.1730069402961
 32
0.0
 13
-6578.9626794003188
 23
1724.1730069402961
 33
0.0
  0
INSERT
  5
12D0
  8
WYMIARY
  2
*U118
 10
0.0
 20
0.0
 30
0.0
  0
POINT
  5
12D1
  8
DEFPOINTS
 62
     0
 10
-6545.971045460039
 20
1574.173006940295
 30
0.0
  0
POINT
  5
12D2
  8
DEFPOINTS
 62
     0
 10
-6545.971045460039
 20
1724.1730069402961
 30
0.0
  0
POINT
  5
12D3
  8
DEFPOINTS
 62
     0
 10
-6578.9626794003188
 20
1724.1730069402961
 30
0.0
  0
ENDBLK
  5
12CA
  8
0
  0
BLOCK
  8
0
  2
*D53
 70
     1
 10
0.0
 20
0.0
 30
0.0
  3
*D53
  1

  0
LINE
  5
12E2
  8
WYMIARY
 62
     0
 10
-6548.971045460039
 20
1278.0367302098739
 30
0.0
 11
-6577.6375434373113
 21
1278.0367302098739
 31
0.0
  0
LINE
  5
12E3
  8
WYMIARY
 62
     0
 10
-6548.971045460039
 20
1144.173006940295
 30
0.0
 11
-6577.6375434373113
 21
1144.173006940295
 31
0.0
  0
LINE
  5
12E4
  8
WYMIARY
 62
     0
 10
-6576.3875434373103
 20
1260.0367302098739
 30
0.0
 11
-6576.3875434373103
 21
1162.173006940295
 31
0.0
  0
SOLID
  5
12E5
  8
WYMIARY
 62
     0
 10
-6579.3875434373103
 20
1260.0367302098739
 30
0.0
 11
-6573.3875434373103
 21
1260.0367302098739
 31
0.0
 12
-6576.3875434373103
 22
1278.0367302098739
 32
0.0
 13
-6576.3875434373103
 23
1278.0367302098739
 33
0.0
  0
SOLID
  5
12E6
  8
WYMIARY
 62
     0
 10
-6579.3875434373103
 20
1162.173006940295
 30
0.0
 11
-6573.3875434373103
 21
1162.173006940295
 31
0.0
 12
-6576.3875434373103
 22
1144.173006940295
 32
0.0
 13
-6576.3875434373103
 23
1144.173006940295
 33
0.0
  0
INSERT
  5
12E7
  8
WYMIARY
  2
*U119
 10
0.0
 20
0.0
 30
0.0
  0
POINT
  5
12E8
  8
DEFPOINTS
 62
     0
 10
-6545.971045460039
 20
1278.0367302098739
 30
0.0
  0
POINT
  5
12E9
  8
DEFPOINTS
 62
     0
 10
-6545.971045460039
 20
1144.173006940295
 30
0.0
  0
POINT
  5
12EA
  8
DEFPOINTS
 62
     0
 10
-6576.3875434373103
 20
1144.173006940295
 30
0.0
  0
ENDBLK
  5
12D7
  8
0
  0
BLOCK
  8
0
  2
*D54
 70
     1
 10
0.0
 20
0.0
 30
0.0
  3
*D54
  1

  0
LINE
  5
12FA
  8
WYMIARY
 62
     0
 10
-6260.8566873860591
 20
1141.173006940295
 30
0.0
 11
-6260.8566873860591
 21
1073.312729041721
 31
0.0
  0
LINE
  5
12FB
  8
WYMIARY
 62
     0
 10
-6545.971045460039
 20
1141.173006940295
 30
0.0
 11
-6545.971045460039
 21
1073.312729041721
 31
0.0
  0
LINE
  5
12FC
  8
WYMIARY
 62
     0
 10
-6278.85668738606
 20
1074.562729041721
 30
0.0
 11
-6527.971045460039
 21
1074.562729041721
 31
0.0
  0
SOLID
  5
12FD
  8
WYMIARY
 62
     0
 10
-6278.85668738606
 20
1077.562729041721
 30
0.0
 11
-6278.85668738606
 21
1071.562729041721
 31
0.0
 12
-6260.8566873860591
 22
1074.562729041721
 32
0.0
 13
-6260.8566873860591
 23
1074.562729041721
 33
0.0
  0
SOLID
  5
12FE
  8
WYMIARY
 62
     0
 10
-6527.971045460039
 20
1077.562729041721
 30
0.0
 11
-6527.971045460039
 21
1071.562729041721
 31
0.0
 12
-6545.971045460039
 22
1074.562729041721
 32
0.0
 13
-6545.971045460039
 23
1074.562729041721
 33
0.0
  0
INSERT
  5
12FF
  8
WYMIARY
  2
*U120
 10
0.0
 20
0.0
 30
0.0
  0
POINT
  5
1300
  8
DEFPOINTS
 62
     0
 10
-6260.8566873860591
 20
1144.173006940295
 30
0.0
  0
POINT
  5
1301
  8
DEFPOINTS
 62
     0
 10
-6545.971045460039
 20
1144.173006940295
 30
0.0
  0
POINT
  5
1302
  8
DEFPOINTS
 62
     0
 10
-6545.971045460039
 20
1074.562729041721
 30
0.0
  0
ENDBLK
  5
12EF
  8
0
  0
BLOCK
  8
0
  2
*D55
 70
     1
 10
0.0
 20
0.0
 30
0.0
  3
*D55
  1

  0
LINE
  5
18D3
  8
WYMIARY
 62
     0
 10
-5538.7252724229047
 20
835.94808599312375
 30
0.0
 11
-5538.7252724229047
 21
870.71098188683936
 31
0.0
  0
LINE
  5
18D4
  8
WYMIARY
 62
     0
 10
-5688.7252724229056
 20
835.94808599312375
 30
0.0
 11
-5688.7252724229056
 21
870.71098188683936
 31
0.0
  0
LINE
  5
18D5
  8
WYMIARY
 62
     0
 10
-5556.7252724229047
 20
869.46098188683925
 30
0.0
 11
-5670.7252724229056
 21
869.46098188683925
 31
0.0
  0
SOLID
  5
18D6
  8
WYMIARY
 62
     0
 10
-5556.7252724229047
 20
872.46098188683936
 30
0.0
 11
-5556.7252724229047
 21
866.46098188683925
 31
0.0
 12
-5538.7252724229047
 22
869.46098188683925
 32
0.0
 13
-5538.7252724229047
 23
869.46098188683925
 33
0.0
  0
SOLID
  5
18D7
  8
WYMIARY
 62
     0
 10
-5670.7252724229056
 20
872.46098188683936
 30
0.0
 11
-5670.7252724229056
 21
866.46098188683925
 31
0.0
 12
-5688.7252724229056
 22
869.46098188683925
 32
0.0
 13
-5688.7252724229056
 23
869.46098188683925
 33
0.0
  0
INSERT
  5
18D8
  8
WYMIARY
  2
*U121
 10
0.0
 20
0.0
 30
0.0
  0
POINT
  5
18D9
  8
DEFPOINTS
 62
     0
 10
-5538.7252724229047
 20
832.94808599312387
 30
0.0
  0
POINT
  5
18DA
  8
DEFPOINTS
 62
     0
 10
-5688.7252724229056
 20
832.94808599312387
 30
0.0
  0
POINT
  5
18DB
  8
DEFPOINTS
 62
     0
 10
-5688.7252724229056
 20
869.46098188683925
 30
0.0
  0
ENDBLK
  5
18C8
  8
0
  0
BLOCK
  8
0
  2
*D56
 70
     1
 10
0.0
 20
0.0
 30
0.0
  3
*D56
  1

  0
LINE
  5
18EB
  8
WYMIARY
 62
     0
 10
-4868.7252724229047
 20
835.94808599312375
 30
0.0
 11
-4868.7252724229047
 21
866.86020794760225
 31
0.0
  0
LINE
  5
18EC
  8
WYMIARY
 62
     0
 10
-4718.7252724229047
 20
835.94808599312375
 30
0.0
 11
-4718.7252724229047
 21
866.86020794760225
 31
0.0
  0
LINE
  5
18ED
  8
WYMIARY
 62
     0
 10
-4850.7252724229056
 20
865.61020794760225
 30
0.0
 11
-4736.7252724229047
 21
865.61020794760225
 31
0.0
  0
SOLID
  5
18EE
  8
WYMIARY
 62
     0
 10
-4850.7252724229056
 20
868.61020794760225
 30
0.0
 11
-4850.7252724229056
 21
862.61020794760225
 31
0.0
 12
-4868.7252724229047
 22
865.61020794760225
 32
0.0
 13
-4868.7252724229047
 23
865.61020794760225
 33
0.0
  0
SOLID
  5
18EF
  8
WYMIARY
 62
     0
 10
-4736.7252724229047
 20
868.61020794760225
 30
0.0
 11
-4736.7252724229047
 21
862.61020794760225
 31
0.0
 12
-4718.7252724229047
 22
865.61020794760225
 32
0.0
 13
-4718.7252724229047
 23
865.61020794760225
 33
0.0
  0
INSERT
  5
18F0
  8
WYMIARY
  2
*U122
 10
0.0
 20
0.0
 30
0.0
  0
POINT
  5
18F1
  8
DEFPOINTS
 62
     0
 10
-4868.7252724229047
 20
832.94808599312387
 30
0.0
  0
POINT
  5
18F2
  8
DEFPOINTS
 62
     0
 10
-4718.7252724229047
 20
832.94808599312387
 30
0.0
  0
POINT
  5
18F3
  8
DEFPOINTS
 62
     0
 10
-4718.7252724229047
 20
865.61020794760225
 30
0.0
  0
ENDBLK
  5
18E0
  8
0
  0
BLOCK
  8
0
  2
*D57
 70
     1
 10
0.0
 20
0.0
 30
0.0
  3
*D57
  1

  0
LINE
  5
1903
  8
WYMIARY
 62
     0
 10
-5691.7252724229056
 20
262.94808599312393
 30
0.0
 11
-5767.4394574793459
 21
262.94808599312393
 31
0.0
  0
LINE
  5
1904
  8
WYMIARY
 62
     0
 10
-5691.7252724229056
 20
832.94808599312387
 30
0.0
 11
-5767.4394574793459
 21
832.94808599312387
 31
0.0
  0
LINE
  5
1905
  8
WYMIARY
 62
     0
 10
-5766.189457479345
 20
280.94808599312393
 30
0.0
 11
-5766.189457479345
 21
814.94808599312387
 31
0.0
  0
SOLID
  5
1906
  8
WYMIARY
 62
     0
 10
-5769.189457479345
 20
280.94808599312393
 30
0.0
 11
-5763.1894574793459
 21
280.94808599312393
 31
0.0
 12
-5766.189457479345
 22
262.94808599312393
 32
0.0
 13
-5766.189457479345
 23
262.94808599312393
 33
0.0
  0
SOLID
  5
1907
  8
WYMIARY
 62
     0
 10
-5769.189457479345
 20
814.94808599312387
 30
0.0
 11
-5763.1894574793459
 21
814.94808599312387
 31
0.0
 12
-5766.189457479345
 22
832.94808599312387
 32
0.0
 13
-5766.189457479345
 23
832.94808599312387
 33
0.0
  0
INSERT
  5
1908
  8
WYMIARY
  2
*U123
 10
0.0
 20
0.0
 30
0.0
  0
POINT
  5
1909
  8
DEFPOINTS
 62
     0
 10
-5688.7252724229056
 20
262.94808599312393
 30
0.0
  0
POINT
  5
190A
  8
DEFPOINTS
 62
     0
 10
-5688.7252724229056
 20
832.94808599312387
 30
0.0
  0
POINT
  5
190B
  8
DEFPOINTS
 62
     0
 10
-5766.189457479345
 20
832.94808599312387
 30
0.0
  0
ENDBLK
  5
18F8
  8
0
  0
BLOCK
  8
0
  2
*D58
 70
     1
 10
0.0
 20
0.0
 30
0.0
  3
*D58
  1

  0
LINE
  5
192E
  8
WYMIARY
 62
     0
 10
-4151.4151038069067
 20
1762.957486807351
 30
0.0
 11
-4151.4151038069067
 21
1792.7419666744061
 31
0.0
  0
LINE
  5
192F
  8
WYMIARY
 62
     0
 10
-3866.4151038069072
 20
1727.1730069402961
 30
0.0
 11
-3866.4151038069072
 21
1792.7419666744061
 31
0.0
  0
LINE
  5
1930
  8
WYMIARY
 62
     0
 10
-4133.4151038069058
 20
1791.4919666744061
 30
0.0
 11
-3884.4151038069072
 21
1791.4919666744061
 31
0.0
  0
SOLID
  5
1931
  8
WYMIARY
 62
     0
 10
-4133.4151038069058
 20
1794.4919666744061
 30
0.0
 11
-4133.4151038069058
 21
1788.4919666744061
 31
0.0
 12
-4151.4151038069067
 22
1791.4919666744061
 32
0.0
 13
-4151.4151038069067
 23
1791.4919666744061
 33
0.0
  0
SOLID
  5
1932
  8
WYMIARY
 62
     0
 10
-3884.4151038069072
 20
1794.4919666744061
 30
0.0
 11
-3884.4151038069072
 21
1788.4919666744061
 31
0.0
 12
-3866.4151038069072
 22
1791.4919666744061
 32
0.0
 13
-3866.4151038069072
 23
1791.4919666744061
 33
0.0
  0
INSERT
  5
1933
  8
WYMIARY
  2
*U125
 10
0.0
 20
0.0
 30
0.0
  0
POINT
  5
1934
  8
DEFPOINTS
 62
     0
 10
-4151.4151038069067
 20
1759.957486807351
 30
0.0
  0
POINT
  5
1935
  8
DEFPOINTS
 62
     0
 10
-3866.4151038069072
 20
1724.1730069402961
 30
0.0
  0
POINT
  5
1936
  8
DEFPOINTS
 62
     0
 10
-3866.4151038069072
 20
1791.4919666744061
 30
0.0
  0
ENDBLK
  5
1910
  8
0
  0
BLOCK
  8
0
  2
*D59
 70
     1
 10
0.0
 20
0.0
 30
0.0
  3
*D59
  1

  0
LINE
  5
1945
  8
WYMIARY
 62
     0
 10
-4436.4151038069067
 20
1727.1730069402961
 30
0.0
 11
-4436.4151038069067
 21
1829.695090295065
 31
0.0
  0
LINE
  5
1946
  8
WYMIARY
 62
     0
 10
-3866.4151038069072
 20
1727.1730069402961
 30
0.0
 11
-3866.4151038069072
 21
1829.695090295065
 31
0.0
  0
LINE
  5
1947
  8
WYMIARY
 62
     0
 10
-4418.4151038069058
 20
1828.445090295065
 30
0.0
 11
-3884.4151038069072
 21
1828.445090295065
 31
0.0
  0
SOLID
  5
1948
  8
WYMIARY
 62
     0
 10
-4418.4151038069058
 20
1831.445090295065
 30
0.0
 11
-4418.4151038069058
 21
1825.445090295065
 31
0.0
 12
-4436.4151038069067
 22
1828.445090295065
 32
0.0
 13
-4436.4151038069067
 23
1828.445090295065
 33
0.0
  0
SOLID
  5
1949
  8
WYMIARY
 62
     0
 10
-3884.4151038069072
 20
1831.445090295065
 30
0.0
 11
-3884.4151038069072
 21
1825.445090295065
 31
0.0
 12
-3866.4151038069072
 22
1828.445090295065
 32
0.0
 13
-3866.4151038069072
 23
1828.445090295065
 33
0.0
  0
INSERT
  5
194A
  8
WYMIARY
  2
*U126
 10
0.0
 20
0.0
 30
0.0
  0
POINT
  5
194B
  8
DEFPOINTS
 62
     0
 10
-4436.4151038069067
 20
1724.1730069402961
 30
0.0
  0
POINT
  5
194C
  8
DEFPOINTS
 62
     0
 10
-3866.4151038069072
 20
1724.1730069402961
 30
0.0
  0
POINT
  5
194D
  8
DEFPOINTS
 62
     0
 10
-3866.4151038069072
 20
1828.445090295065
 30
0.0
  0
ENDBLK
  5
193A
  8
0
  0
BLOCK
  8
0
  2
*D60
 70
     1
 10
0.0
 20
0.0
 30
0.0
  3
*D60
  1

  0
LINE
  5
195D
  8
WYMIARY
 62
     0
 10
-4151.4151038069067
 20
1141.1730069402961
 30
0.0
 11
-4151.4151038069067
 21
1070.3523816716349
 31
0.0
  0
LINE
  5
195E
  8
WYMIARY
 62
     0
 10
-3866.4151038069072
 20
1141.1730069402961
 30
0.0
 11
-3866.4151038069072
 21
1070.3523816716349
 31
0.0
  0
LINE
  5
195F
  8
WYMIARY
 62
     0
 10
-4133.4151038069058
 20
1071.6023816716349
 30
0.0
 11
-3884.4151038069072
 21
1071.6023816716349
 31
0.0
  0
SOLID
  5
1960
  8
WYMIARY
 62
     0
 10
-4133.4151038069058
 20
1074.6023816716349
 30
0.0
 11
-4133.4151038069058
 21
1068.6023816716349
 31
0.0
 12
-4151.4151038069067
 22
1071.6023816716349
 32
0.0
 13
-4151.4151038069067
 23
1071.6023816716349
 33
0.0
  0
SOLID
  5
1961
  8
WYMIARY
 62
     0
 10
-3884.4151038069072
 20
1074.6023816716349
 30
0.0
 11
-3884.4151038069072
 21
1068.6023816716349
 31
0.0
 12
-3866.4151038069072
 22
1071.6023816716349
 32
0.0
 13
-3866.4151038069072
 23
1071.6023816716349
 33
0.0
  0
INSERT
  5
1962
  8
WYMIARY
  2
*U127
 10
0.0
 20
0.0
 30
0.0
  0
POINT
  5
1963
  8
DEFPOINTS
 62
     0
 10
-4151.4151038069067
 20
1144.1730069402961
 30
0.0
  0
POINT
  5
1964
  8
DEFPOINTS
 62
     0
 10
-3866.4151038069072
 20
1144.1730069402961
 30
0.0
  0
POINT
  5
1965
  8
DEFPOINTS
 62
     0
 10
-3866.4151038069072
 20
1071.6023816716349
 30
0.0
  0
ENDBLK
  5
1952
  8
0
  0
BLOCK
  8
0
  2
*D61
 70
     1
 10
0.0
 20
0.0
 30
0.0
  3
*D61
  1

  0
LINE
  5
1975
  8
WYMIARY
 62
     0
 10
-3863.4151038069072
 20
1278.0367302098739
 30
0.0
 11
-3818.8535154880142
 21
1278.0367302098739
 31
0.0
  0
LINE
  5
1976
  8
WYMIARY
 62
     0
 10
-3863.4151038069072
 20
1144.1730069402961
 30
0.0
 11
-3818.8535154880142
 21
1144.1730069402961
 31
0.0
  0
LINE
  5
1977
  8
WYMIARY
 62
     0
 10
-3820.1035154880142
 20
1260.0367302098739
 30
0.0
 11
-3820.1035154880142
 21
1162.1730069402961
 31
0.0
  0
SOLID
  5
1978
  8
WYMIARY
 62
     0
 10
-3823.1035154880142
 20
1260.0367302098739
 30
0.0
 11
-3817.1035154880142
 21
1260.0367302098739
 31
0.0
 12
-3820.1035154880142
 22
1278.0367302098739
 32
0.0
 13
-3820.1035154880142
 23
1278.0367302098739
 33
0.0
  0
SOLID
  5
1979
  8
WYMIARY
 62
     0
 10
-3823.1035154880142
 20
1162.1730069402961
 30
0.0
 11
-3817.1035154880142
 21
1162.1730069402961
 31
0.0
 12
-3820.1035154880142
 22
1144.1730069402961
 32
0.0
 13
-3820.1035154880142
 23
1144.1730069402961
 33
0.0
  0
INSERT
  5
197A
  8
WYMIARY
  2
*U128
 10
0.0
 20
0.0
 30
0.0
  0
POINT
  5
197B
  8
DEFPOINTS
 62
     0
 10
-3866.4151038069072
 20
1278.0367302098739
 30
0.0
  0
POINT
  5
197C
  8
DEFPOINTS
 62
     0
 10
-3866.4151038069072
 20
1144.1730069402961
 30
0.0
  0
POINT
  5
197D
  8
DEFPOINTS
 62
     0
 10
-3820.1035154880142
 20
1144.1730069402961
 30
0.0
  0
ENDBLK
  5
196A
  8
0
  0
BLOCK
  8
0
  2
*D62
 70
     1
 10
0.0
 20
0.0
 30
0.0
  3
*D62
  1

  0
LINE
  5
198D
  8
WYMIARY
 62
     0
 10
-3863.4151038069072
 20
1574.1730069402961
 30
0.0
 11
-3817.9244571184022
 21
1574.1730069402961
 31
0.0
  0
LINE
  5
198E
  8
WYMIARY
 62
     0
 10
-3863.4151038069072
 20
1724.1730069402961
 30
0.0
 11
-3817.9244571184022
 21
1724.1730069402961
 31
0.0
  0
LINE
  5
198F
  8
WYMIARY
 62
     0
 10
-3819.1744571184022
 20
1592.1730069402961
 30
0.0
 11
-3819.1744571184022
 21
1706.1730069402961
 31
0.0
  0
SOLID
  5
1990
  8
WYMIARY
 62
     0
 10
-3822.1744571184022
 20
1592.1730069402961
 30
0.0
 11
-3816.1744571184022
 21
1592.1730069402961
 31
0.0
 12
-3819.1744571184022
 22
1574.1730069402961
 32
0.0
 13
-3819.1744571184022
 23
1574.1730069402961
 33
0.0
  0
SOLID
  5
1991
  8
WYMIARY
 62
     0
 10
-3822.1744571184022
 20
1706.1730069402961
 30
0.0
 11
-3816.1744571184022
 21
1706.1730069402961
 31
0.0
 12
-3819.1744571184022
 22
1724.1730069402961
 32
0.0
 13
-3819.1744571184022
 23
1724.1730069402961
 33
0.0
  0
INSERT
  5
1992
  8
WYMIARY
  2
*U129
 10
0.0
 20
0.0
 30
0.0
  0
POINT
  5
1993
  8
DEFPOINTS
 62
     0
 10
-3866.4151038069072
 20
1574.1730069402961
 30
0.0
  0
POINT
  5
1994
  8
DEFPOINTS
 62
     0
 10
-3866.4151038069072
 20
1724.1730069402961
 30
0.0
  0
POINT
  5
1995
  8
DEFPOINTS
 62
     0
 10
-3819.1744571184022
 20
1724.1730069402961
 30
0.0
  0
ENDBLK
  5
1982
  8
0
  0
BLOCK
  8
0
  2
*U63
 70
     1
 10
0.0
 20
0.0
 30
0.0
  3
*U63
  1

  0
TEXT
  5
2249
  8
WYMIARY
 62
     0
 10
-5224.6229531868894
 20
1820.217591364207
 30
0.0
 40
18.0
  1
940
  0
ENDBLK
  5
224B
  8
0
  0
BLOCK
  8
0
  2
*U64
 70
     1
 10
0.0
 20
0.0
 30
0.0
  3
*U64
  1

  0
TEXT
  5
224D
  8
WYMIARY
 62
     0
 10
-5761.2816739509408
 20
1433.27532617631
 30
0.0
 40
18.0
  1
540
 50
90.0
  0
ENDBLK
  5
224F
  8
0
  0
BLOCK
  8
0
  2
*U65
 70
     1
 10
0.0
 20
0.0
 30
0.0
  3
*U65
  1

  0
TEXT
  5
2251
  8
WYMIARY
 62
     0
 10
-6521.3565783464619
 20
1631.489514443705
 30
0.0
 40
18.0
  1
142
 50
90.0
  0
ENDBLK
  5
2253
  8
0
  0
BLOCK
  8
0
  2
*U66
 70
     1
 10
0.0
 20
0.0
 30
0.0
  3
*U66
  1

  0
TEXT
  5
2255
  8
WYMIARY
 62
     0
 10
-6521.5161963546479
 20
1229.42448398336
 30
0.0
 40
18.0
  1
134
 50
90.0
  0
ENDBLK
  5
2257
  8
0
  0
BLOCK
  8
0
  2
*U67
 70
     1
 10
0.0
 20
0.0
 30
0.0
  3
*U67
  1

  0
TEXT
  5
2259
  8
WYMIARY
 62
     0
 10
-6375.2459431408042
 20
1126.0567758125051
 30
0.0
 40
18.0
  1
257
  0
ENDBLK
  5
225B
  8
0
  0
BLOCK
  8
0
  2
*U68
 70
     1
 10
0.0
 20
0.0
 30
0.0
  3
*U68
  1

  0
TEXT
  5
225D
  8
WARSTWA_1
 62
     0
 10
-6195.7651541856249
 20
1602.5871536632139
 30
0.0
 40
18.0
  1
\U+00D8200
 50
45.585762328679408
  0
ENDBLK
  5
225F
  8
0
  0
BLOCK
  8
0
  2
*U69
 70
     1
 10
0.0
 20
0.0
 30
0.0
  3
*U69
  1

  0
TEXT
  5
2261
  8
WARSTWA_1
 62
     0
 10
-6217.7651541856267
 20
1338.47759751742
 30
0.0
 40
18.0
  1
\U+00D8200
 50
45.585762328684602
  0
ENDBLK
  5
2263
  8
0
  0
BLOCK
  8
0
  2
*U70
 70
     1
 10
0.0
 20
0.0
 30
0.0
  3
*U70
  1

  0
TEXT
  5
2265
  8
WYMIARY
 62
     0
 10
-4207.3434803416958
 20
1846.4418052904309
 30
0.0
 40
18.0
  1
507
  0
ENDBLK
  5
2267
  8
0
  0
BLOCK
  8
0
  2
*U71
 70
     1
 10
0.0
 20
0.0
 30
0.0
  3
*U71
  1

  0
TEXT
  5
2269
  8
WYMIARY
 62
     0
 10
-3907.0295709204852
 20
1631.489514443705
 30
0.0
 40
18.0
  1
142
 50
90.0
  0
ENDBLK
  5
226B
  8
0
  0
BLOCK
  8
0
  2
*U72
 70
     1
 10
0.0
 20
0.0
 30
0.0
  3
*U72
  1

  0
TEXT
  5
226D
  8
WYMIARY
 62
     0
 10
-3907.1891889286708
 20
1229.3661236910459
 30
0.0
 40
18.0
  1
134
 50
90.0
  0
ENDBLK
  5
226F
  8
0
  0
BLOCK
  8
0
  2
*U73
 70
     1
 10
0.0
 20
0.0
 30
0.0
  3
*U73
  1

  0
TEXT
  5
2271
  8
WYMIARY
 62
     0
 10
-4078.690001487671
 20
1128.7833802453049
 30
0.0
 40
18.0
  1
257
  0
ENDBLK
  5
2273
  8
0
  0
BLOCK
  8
0
  2
*U74
 70
     1
 10
0.0
 20
0.0
 30
0.0
  3
*U74
  1

  0
TEXT
  5
2275
  8
WYMIARY
 62
     0
 10
-4089.708418950152
 20
1799.0489574665239
 30
0.0
 40
18.0
  1
279
  0
ENDBLK
  5
2277
  8
0
  0
BLOCK
  8
0
  2
*U75
 70
     1
 10
0.0
 20
0.0
 30
0.0
  3
*U75
  1

  0
TEXT
  5
22AF
  8
WARSTWA_1
 62
     0
 10
-4200.2092125324871
 20
1602.4971536632131
 30
0.0
 40
18.0
  1
\U+00D8200
 50
45.585762328680438
  0
ENDBLK
  5
22B1
  8
0
  0
BLOCK
  8
0
  2
*U76
 70
     1
 10
0.0
 20
0.0
 30
0.0
  3
*U76
  1

  0
TEXT
  5
22B3
  8
WARSTWA_1
 62
     0
 10
-4178.0948544585126
 20
1338.4775975174209
 30
0.0
 40
18.0
  1
\U+00D8200
 50
45.585762328683039
  0
ENDBLK
  5
22B5
  8
0
  0
BLOCK
  8
0
  2
*U77
 70
     1
 10
0.0
 20
0.0
 30
0.0
  3
*U77
  1

  0
TEXT
  5
22B7
  8
WYMIARY
 62
     0
 10
-6364.2643606032861
 20
1797.907318784381
 30
0.0
 40
18.0
  1
279
  0
ENDBLK
  5
22B9
  8
0
  0
BLOCK
  8
0
  2
*U78
 70
     1
 10
0.0
 20
0.0
 30
0.0
  3
*U78
  1

  0
TEXT
  5
22BB
  8
WYMIARY
 62
     0
 10
-6250.3994219948281
 20
1835.981054977264
 30
0.0
 40
18.0
  1
507
  0
ENDBLK
  5
22BD
  8
0
  0
BLOCK
  8
0
  2
*U79
 70
     1
 10
0.0
 20
0.0
 30
0.0
  3
*U79
  1

  0
TEXT
  5
22BF
  8
WYMIARY
 62
     0
 10
-4831.4087649194944
 20
846.13101419370082
 30
0.0
 40
18.0
  1
152
  0
ENDBLK
  5
22C1
  8
0
  0
BLOCK
  8
0
  2
*U80
 70
     1
 10
0.0
 20
0.0
 30
0.0
  3
*U80
  1

  0
TEXT
  5
22C3
  8
WYMIARY
 62
     0
 10
-5619.4087649194953
 20
847.33712298348075
 30
0.0
 40
18.0
  1
152
  0
ENDBLK
  5
22C5
  8
0
  0
BLOCK
  8
0
  2
*U81
 70
     1
 10
0.0
 20
0.0
 30
0.0
  3
*U81
  1

  0
TEXT
  5
22D0
  8
WARSTWA_1
 10
1306.4331888639381
 20
1699.8726388046621
 30
0.0
 40
20.0
  1
Rzut od przodu
  0
ENDBLK
  5
22D2
  8
0
  0
BLOCK
  8
0
  2
*U82
 70
     1
 10
0.0
 20
0.0
 30
0.0
  3
*U82
  1

  0
TEXT
  5
22D4
  8
WARSTWA_1
 10
1310.6318443490379
 20
752.80540289089561
 30
0.0
 40
20.0
  1
Rzut od 
  0
TEXT
  5
22D5
  8
WARSTWA_1
 10
1450.6318443490379
 20
752.80540289089561
 30
0.0
 40
20.0
  1
góry
  0
ENDBLK
  5
22D7
  8
0
  0
BLOCK
  8
0
  2
*U83
 70
     1
 10
0.0
 20
0.0
 30
0.0
  3
*U83
  1

  0
TEXT
  5
22D9
  8
WARSTWA_1
 10
247.79489348803509
 20
1699.8726388046621
 30
0.0
 40
20.0
  1
Rzut od 
  0
TEXT
  5
22DA
  8
WARSTWA_1
 10
387.79489348803509
 20
1699.8726388046621
 30
0.0
 40
20.0
  1
lewej strony
  0
ENDBLK
  5
22DC
  8
0
  0
BLOCK
  8
0
  2
*U84
 70
     1
 10
0.0
 20
0.0
 30
0.0
  3
*U84
  1

  0
TEXT
  5
22DE
  8
WARSTWA_1
 10
2264.0395724120249
 20
1699.8726388046621
 30
0.0
 40
20.0
  1
Rzut od
  0
TEXT
  5
22DF
  8
WARSTWA_1
 10
2385.9443343167859
 20
1699.8726388046621
 30
0.0
 40
20.0
  1
 prawej strony
  0
ENDBLK
  5
22E1
  8
0
  0
BLOCK
  8
0
  2
*U85
 70
     1
 10
0.0
 20
0.0
 30
0.0
  3
*U85
  1

  0
TEXT
  5
22E3
  8
WARSTWA_1
 10
2223.8136800576608
 20
642.52069578521014
 30
0.0
 40
30.0
  1
MISTRAL PRO-450 EC
  0
ENDBLK
  5
22E5
  8
0
  0
BLOCK
  8
0
  2
*U86
 70
     1
 10
0.0
 20
0.0
 30
0.0
  3
*U86
  1

  0
TEXT
  5
22E7
  8
WARSTWA_1
 10
977.52866599327808
 20
709.99808848682085
 30
0.0
 40
20.0
  1
odpływ skroplin
  0
ENDBLK
  5
22E9
  8
0
  0
BLOCK
  8
0
  2
*U87
 70
     1
 10
0.0
 20
0.0
 30
0.0
  3
*U87
  1

  0
TEXT
  5
22EB
  8
WARSTWA_1
 10
2337.4408201659398
 20
498.26266630192907
 30
0.0
 40
30.0
  1
Możliwe jest
  0
TEXT
  5
22EC
  8
WARSTWA_1
 10
2226.0122487373678
 20
448.26266630192907
 30
0.0
 40
30.0
  1
wykorzystanie również
  0
TEXT
  5
22ED
  8
WARSTWA_1
 10
2243.1551058802252
 20
398.26266630192907
 30
0.0
 40
30.0
  1
otworów pod króćce
  0
TEXT
  5
22EE
  8
WARSTWA_1
 10
2257.4408201659389
 20
348.26266630192907
 30
0.0
 40
30.0
  1
oznaczone kolorem
  0
TEXT
  5
22EF
  8
WARSTWA_1
 10
2212.4408201659398
 20
298.26266630192907
 30
0.0
 40
30.0
  1
czerwonym. Dodatkowe
  0
TEXT
  5
22F0
  8
WARSTWA_1
 10
2208.1551058802252
 20
248.2626663019291
 30
0.0
 40
30.0
  1
króćce instalator może
  0
TEXT
  5
22F1
  8
WARSTWA_1
 10
2186.0122487373678
 20
198.2626663019291
 30
0.0
 40
30.0
  1
zamontować w dowolnym
  0
TEXT
  5
22F2
  8
WARSTWA_1
 10
2356.0122487373678
 20
148.2626663019291
 30
0.0
 40
30.0
  1
momencie.
  0
ENDBLK
  5
22F4
  8
0
  0
BLOCK
  8
0
  2
*U88
 70
     1
 10
0.0
 20
0.0
 30
0.0
  3
*U88
  1

  0
LINE
  5
22F6
  8
CENTRALA
  6
CONTINUOUS
 10
960.18848941144279
 20
990.55869280164086
 30
0.0
 11
1900.188489411443
 21
990.55869280164086
 31
0.0
  0
LINE
  5
22F7
  8
CENTRALA
  6
CONTINUOUS
 10
1900.188489411443
 20
990.55869280164086
 30
0.0
 11
1900.188489411443
 21
1530.558692801641
 31
0.0
  0
LINE
  5
22F8
  8
CENTRALA
  6
CONTINUOUS
 10
960.18848941144279
 20
1530.558692801641
 30
0.0
 11
960.18848941144279
 21
990.55869280164086
 31
0.0
  0
LINE
  5
22F9
  8
CENTRALA
  6
CONTINUOUS
 10
1900.188489411443
 20
1530.558692801641
 30
0.0
 11
960.18848941144279
 21
1530.558692801641
 31
0.0
  0
ENDBLK
  5
22FB
  8
0
  0
BLOCK
  8
0
  2
*U89
 70
     1
 10
0.0
 20
0.0
 30
0.0
  3
*U89
  1

  0
TEXT
  5
2383
  8
WARSTWA_1
 10
1089.1675830608051
 20
878.22778075305416
 30
0.0
 40
20.0
  1
odpływ skroplin
  0
ENDBLK
  5
2385
  8
0
  0
BLOCK
  8
0
  2
*U90
 70
     1
 10
0.0
 20
0.0
 30
0.0
  3
*U90
  1

  0
TEXT
  5
239A
  8
WARSTWA_1
 10
-5327.4805729704112
 20
1893.486952943317
 30
0.0
 40
20.0
  1
Rzut od przodu
  0
ENDBLK
  5
239C
  8
0
  0
BLOCK
  8
0
  2
*U91
 70
     1
 10
0.0
 20
0.0
 30
0.0
  3
*U91
  1

  0
TEXT
  5
239E
  8
WARSTWA_1
 10
-5323.2819174853103
 20
946.41971702955016
 30
0.0
 40
20.0
  1
Rzut od 
  0
TEXT
  5
239F
  8
WARSTWA_1
 10
-5183.2819174853103
 20
946.41971702955016
 30
0.0
 40
20.0
  1
góry
  0
ENDBLK
  5
23A1
  8
0
  0
BLOCK
  8
0
  2
*U92
 70
     1
 10
0.0
 20
0.0
 30
0.0
  3
*U92
  1

  0
TEXT
  5
23A3
  8
WARSTWA_1
 10
-6386.1188683463133
 20
1893.486952943317
 30
0.0
 40
20.0
  1
Rzut od 
  0
TEXT
  5
23A4
  8
WARSTWA_1
 10
-6246.1188683463142
 20
1893.486952943317
 30
0.0
 40
20.0
  1
lewej strony
  0
ENDBLK
  5
23A6
  8
0
  0
BLOCK
  8
0
  2
*U93
 70
     1
 10
0.0
 20
0.0
 30
0.0
  3
*U93
  1

  0
TEXT
  5
23A8
  8
WARSTWA_1
 10
-4369.874189422324
 20
1893.486952943317
 30
0.0
 40
20.0
  1
Rzut od
  0
TEXT
  5
23A9
  8
WARSTWA_1
 10
-4247.9694275175634
 20
1893.486952943317
 30
0.0
 40
20.0
  1
 prawej strony
  0
ENDBLK
  5
23AB
  8
0
  0
BLOCK
  8
0
  2
*U94
 70
     1
 10
0.0
 20
0.0
 30
0.0
  3
*U94
  1

  0
TEXT
  5
23AD
  8
WARSTWA_1
 10
-4410.1000817766871
 20
836.13500992386469
 30
0.0
 40
30.0
  1
MISTRAL PRO-550 EC
  0
ENDBLK
  5
23AF
  8
0
  0
BLOCK
  8
0
  2
*U95
 70
     1
 10
0.0
 20
0.0
 30
0.0
  3
*U95
  1

  0
TEXT
  5
23B1
  8
WARSTWA_1
 10
-5656.3850958410703
 20
926.61240262547562
 30
0.0
 40
20.0
  1
odpływ skroplin
  0
ENDBLK
  5
23B3
  8
0
  0
BLOCK
  8
0
  2
*U96
 70
     1
 10
0.0
 20
0.0
 30
0.0
  3
*U96
  1

  0
TEXT
  5
23B5
  8
WARSTWA_1
 10
-4296.4693519663206
 20
691.87698044058379
 30
0.0
 40
30.0
  1
Możliwe jest
  0
TEXT
  5
23B6
  8
WARSTWA_1
 10
-4407.9013519663204
 20
641.87698044058379
 30
0.0
 40
30.0
  1
wykorzystanie również
  0
TEXT
  5
23B7
  8
WARSTWA_1
 10
-4390.7583519663203
 20
591.87698044058379
 30
0.0
 40
30.0
  1
otworów pod króćce
  0
TEXT
  5
23B8
  8
WARSTWA_1
 10
-4376.4733519663196
 20
541.87698044058379
 30
0.0
 40
30.0
  1
oznaczone kolorem
  0
TEXT
  5
23B9
  8
WARSTWA_1
 10
-4421.4733519663196
 20
491.87698044058379
 30
0.0
 40
30.0
  1
czerwonym. Dodatkowe
  0
TEXT
  5
23BA
  8
WARSTWA_1
 10
-4425.7583519663212
 20
441.87698044058379
 30
0.0
 40
30.0
  1
króćce instalator może
  0
TEXT
  5
23BB
  8
WARSTWA_1
 10
-4447.9013519663204
 20
391.87698044058379
 30
0.0
 40
30.0
  1
zamontować w dowolnym
  0
TEXT
  5
23BC
  8
WARSTWA_1
 10
-4277.8993519663209
 20
341.87698044058379
 30
0.0
 40
30.0
  1
momencie.
  0
ENDBLK
  5
23BE
  8
0
  0
BLOCK
  8
0
  2
*U97
 70
     1
 10
0.0
 20
0.0
 30
0.0
  3
*U97
  1

  0
TEXT
  5
242A
  8
WARSTWA_1
 10
-5544.7461787735429
 20
1031.8420948917089
 30
0.0
 40
20.0
  1
odpływ skroplin
  0
ENDBLK
  5
242C
  8
0
  0
BLOCK
  8
0
  2
*U98
 70
     1
 10
0.0
 20
0.0
 30
0.0
  3
*U98
  1

  0
TEXT
  5
2444
  8
WYMIARY
 62
     0
 10
-5224.6229531868894
 20
1820.4079051431979
 30
0.0
 40
18.0
  1
940
  0
ENDBLK
  5
2446
  8
0
  0
BLOCK
  8
0
  2
*U99
 70
     1
 10
0.0
 20
0.0
 30
0.0
  3
*U99
  1

  0
TEXT
  5
2448
  8
WYMIARY
 62
     0
 10
-5761.4719877299303
 20
1433.275326176311
 30
0.0
 40
18.0
  1
540
 50
90.0
  0
ENDBLK
  5
244A
  8
0
  0
BLOCK
  8
0
  2
*U100
 70
     1
 10
0.0
 20
0.0
 30
0.0
  3
*U100
  1

  0
TEXT
  5
244C
  8
WYMIARY
 62
     0
 10
-4207.3434803416958
 20
1846.4418052904309
 30
0.0
 40
18.0
  1
507
  0
ENDBLK
  5
244E
  8
0
  0
BLOCK
  8
0
  2
*U101
 70
     1
 10
0.0
 20
0.0
 30
0.0
  3
*U101
  1

  0
TEXT
  5
2450
  8
WYMIARY
 62
     0
 10
-3907.0664058454508
 20
1631.489514443705
 30
0.0
 40
18.0
  1
142
 50
90.0
  0
ENDBLK
  5
2452
  8
0
  0
BLOCK
  8
0
  2
*U102
 70
     1
 10
0.0
 20
0.0
 30
0.0
  3
*U102
  1

  0
TEXT
  5
2454
  8
WYMIARY
 62
     0
 10
-3907.385641861822
 20
1229.366123691045
 30
0.0
 40
18.0
  1
134
 50
90.0
  0
ENDBLK
  5
2456
  8
0
  0
BLOCK
  8
0
  2
*U103
 70
     1
 10
0.0
 20
0.0
 30
0.0
  3
*U103
  1

  0
TEXT
  5
2458
  8
WYMIARY
 62
     0
 10
-4078.690001487671
 20
1128.973694024296
 30
0.0
 40
18.0
  1
257
  0
ENDBLK
  5
245A
  8
0
  0
BLOCK
  8
0
  2
*U104
 70
     1
 10
0.0
 20
0.0
 30
0.0
  3
*U104
  1

  0
TEXT
  5
245C
  8
WYMIARY
 62
     0
 10
-4089.708418950152
 20
1799.2392712455139
 30
0.0
 40
18.0
  1
279
  0
ENDBLK
  5
245E
  8
0
  0
BLOCK
  8
0
  2
*U105
 70
     1
 10
0.0
 20
0.0
 30
0.0
  3
*U105
  1

  0
TEXT
  5
2483
  8
WYMIARY
 62
     0
 10
-4831.4087649194944
 20
806.32132797269117
 30
0.0
 40
18.0
  1
152
  0
ENDBLK
  5
2485
  8
0
  0
BLOCK
  8
0
  2
*U106
 70
     1
 10
0.0
 20
0.0
 30
0.0
  3
*U106
  1

  0
TEXT
  5
2487
  8
WYMIARY
 62
     0
 10
-5619.4087649194944
 20
807.5274367624711
 30
0.0
 40
18.0
  1
152
  0
ENDBLK
  5
2489
  8
0
  0
BLOCK
  8
0
  2
*U107
 70
     1
 10
0.0
 20
0.0
 30
0.0
  3
*U107
  1

  0
TEXT
  5
24B0
  8
WYMIARY
 62
     0
 10
-7507.7027183160208
 20
1582.7984309305571
 30
0.0
 40
18.0
  1
142
 50
90.0
  0
ENDBLK
  5
24B2
  8
0
  0
BLOCK
  8
0
  2
*U108
 70
     1
 10
0.0
 20
0.0
 30
0.0
  3
*U108
  1

  0
TEXT
  5
24B4
  8
WYMIARY
 62
     0
 10
-7508.0219543323929
 20
1180.7334004702111
 30
0.0
 40
18.0
  1
134
 50
90.0
  0
ENDBLK
  5
24B6
  8
0
  0
BLOCK
  8
0
  2
*U109
 70
     1
 10
0.0
 20
0.0
 30
0.0
  3
*U109
  1

  0
TEXT
  5
24B8
  8
WYMIARY
 62
     0
 10
-7361.5552481853947
 20
1077.5560060783471
 30
0.0
 40
18.0
  1
257
  0
ENDBLK
  5
24BA
  8
0
  0
BLOCK
  8
0
  2
*U110
 70
     1
 10
0.0
 20
0.0
 30
0.0
  3
*U110
  1

  0
TEXT
  5
24BC
  8
WARSTWA_1
 62
     0
 10
-7182.5699857478039
 20
1554.3815668457651
 30
0.0
 40
18.0
  1
\U+00D8200
 50
45.585762328682478
  0
ENDBLK
  5
24BE
  8
0
  0
BLOCK
  8
0
  2
*U111
 70
     1
 10
0.0
 20
0.0
 30
0.0
  3
*U111
  1

  0
TEXT
  5
24C0
  8
WARSTWA_1
 62
     0
 10
-7204.5699857478076
 20
1290.272010699975
 30
0.0
 40
18.0
  1
\U+00D8200
 50
45.585762328683479
  0
ENDBLK
  5
24C2
  8
0
  0
BLOCK
  8
0
  2
*U112
 70
     1
 10
0.0
 20
0.0
 30
0.0
  3
*U112
  1

  0
TEXT
  5
24C4
  8
WYMIARY
 62
     0
 10
-7350.5736656478784
 20
1749.4065490502221
 30
0.0
 40
18.0
  1
279
  0
ENDBLK
  5
24C6
  8
0
  0
BLOCK
  8
0
  2
*U113
 70
     1
 10
0.0
 20
0.0
 30
0.0
  3
*U113
  1

  0
TEXT
  5
24C8
  8
WYMIARY
 62
     0
 10
-7236.7087270394204
 20
1787.4802852431069
 30
0.0
 40
18.0
  1
507
  0
ENDBLK
  5
24CA
  8
0
  0
BLOCK
  8
0
  2
*U114
 70
     1
 10
0.0
 20
0.0
 30
0.0
  3
*U114
  1

  0
TEXT
  5
24CC
  8
WYMIARY
 62
     0
 10
-5779.2837540720902
 20
1431.2705512786299
 30
0.0
 40
2.5
  1
580
 50
90.0
  0
ENDBLK
  5
24CE
  8
0
  0
BLOCK
  8
0
  2
*U115
 70
     1
 10
0.0
 20
0.0
 30
0.0
  3
*U115
  1

  0
TEXT
  5
24D0
  8
WYMIARY
 62
     0
 10
-5780.6497067406508
 20
1413.275326176311
 30
0.0
 40
18.0
  1
580
 50
90.0
  0
ENDBLK
  5
24D2
  8
0
  0
BLOCK
  8
0
  2
*U116
 70
     1
 10
0.0
 20
0.0
 30
0.0
  3
*U116
  1

  0
TEXT
  5
24D4
  8
WYMIARY
 62
     0
 10
-5224.6229531868894
 20
1821.840733445458
 30
0.0
 40
18.0
  1
970
  0
ENDBLK
  5
24D6
  8
0
  0
BLOCK
  8
0
  2
*U117
 70
     1
 10
0.0
 20
0.0
 30
0.0
  3
*U117
  1

  0
TEXT
  5
24D8
  8
WYMIARY
 62
     0
 10
-6281.8687262240228
 20
1835.109890165083
 30
0.0
 40
18.0
  1
570
  0
ENDBLK
  5
24DA
  8
0
  0
BLOCK
  8
0
  2
*U118
 70
     1
 10
0.0
 20
0.0
 30
0.0
  3
*U118
  1

  0
TEXT
  5
24DC
  8
WYMIARY
 62
     0
 10
-6587.2696371083694
 20
1627.4281229020951
 30
0.0
 40
18.0
  1
150
 50
90.0
  0
ENDBLK
  5
24DE
  8
0
  0
BLOCK
  8
0
  2
*U119
 70
     1
 10
0.0
 20
0.0
 30
0.0
  3
*U119
  1

  0
TEXT
  5
24E0
  8
WYMIARY
 62
     0
 10
-6584.7067794536806
 20
1189.366123691045
 30
0.0
 40
18.0
  1
134
 50
90.0
  0
ENDBLK
  5
24E2
  8
0
  0
BLOCK
  8
0
  2
*U120
 70
     1
 10
0.0
 20
0.0
 30
0.0
  3
*U120
  1

  0
TEXT
  5
24E4
  8
WYMIARY
 62
     0
 10
-6424.256294799583
 20
1082.8696867497699
 30
0.0
 40
18.0
  1
285
  0
ENDBLK
  5
24E6
  8
0
  0
BLOCK
  8
0
  2
*U121
 70
     1
 10
0.0
 20
0.0
 30
0.0
  3
*U121
  1

  0
TEXT
  5
24E8
  8
WYMIARY
 62
     0
 10
-5635.4701564611041
 20
877.7679395948885
 30
0.0
 40
18.0
  1
150
  0
ENDBLK
  5
24EA
  8
0
  0
BLOCK
  8
0
  2
*U122
 70
     1
 10
0.0
 20
0.0
 30
0.0
  3
*U122
  1

  0
TEXT
  5
24EC
  8
WYMIARY
 62
     0
 10
-4815.4701564611041
 20
873.91716565565139
 30
0.0
 40
18.0
  1
150
  0
ENDBLK
  5
24EE
  8
0
  0
BLOCK
  8
0
  2
*U123
 70
     1
 10
0.0
 20
0.0
 30
0.0
  3
*U123
  1

  0
TEXT
  5
24F0
  8
WYMIARY
 62
     0
 10
-5774.4964151873937
 20
527.0504052291393
 30
0.0
 40
18.0
  1
570
 50
90.0
  0
ENDBLK
  5
24F2
  8
0
  0
BLOCK
  8
0
  2
*U124
 70
     1
 10
0.0
 20
0.0
 30
0.0
  3
*U124
  1

  0
TEXT
  5
24F4
  8
WYMIARY
 62
     0
 10
-6424.3134738365743
 20
1799.7517988100619
 30
0.0
 40
18.0
  1
285
  0
ENDBLK
  5
24F6
  8
0
  0
BLOCK
  8
0
  2
*U125
 70
     1
 10
0.0
 20
0.0
 30
0.0
  3
*U125
  1

  0
TEXT
  5
24F8
  8
WYMIARY
 62
     0
 10
-4029.7575321834411
 20
1799.798924382455
 30
0.0
 40
18.0
  1
285
  0
ENDBLK
  5
24FA
  8
0
  0
BLOCK
  8
0
  2
*U126
 70
     1
 10
0.0
 20
0.0
 30
0.0
  3
*U126
  1

  0
TEXT
  5
24FC
  8
WYMIARY
 62
     0
 10
-4172.3127845708896
 20
1836.7520480031139
 30
0.0
 40
18.0
  1
570
  0
ENDBLK
  5
24FE
  8
0
  0
BLOCK
  8
0
  2
*U127
 70
     1
 10
0.0
 20
0.0
 30
0.0
  3
*U127
  1

  0
TEXT
  5
2500
  8
WYMIARY
 62
     0
 10
-4029.7575321834411
 20
1079.9093393796841
 30
0.0
 40
18.0
  1
285
  0
ENDBLK
  5
2502
  8
0
  0
BLOCK
  8
0
  2
*U128
 70
     1
 10
0.0
 20
0.0
 30
0.0
  3
*U128
  1

  0
TEXT
  5
2504
  8
WYMIARY
 62
     0
 10
-3828.4227515043849
 20
1189.3661236910459
 30
0.0
 40
18.0
  1
134
 50
90.0
  0
ENDBLK
  5
2506
  8
0
  0
BLOCK
  8
0
  2
*U129
 70
     1
 10
0.0
 20
0.0
 30
0.0
  3
*U129
  1

  0
TEXT
  5
2508
  8
WYMIARY
 62
     0
 10
-3827.4814148264509
 20
1627.428122902096
 30
0.0
 40
18.0
  1
150
 50
90.0
  0
ENDBLK
  5
250A
  8
0
  0
ENDSEC
  0
SECTION
  2
ENTITIES
  0
LINE
  5
6C0
  8
WARSTWA_1
 10
-5837.6497266491951
 20
1963.2863367357161
 30
0.0
 11
-5837.6497266491951
 21
193.61431550413471
 31
0.0
  0
LINE
  5
6C1
  8
WARSTWA_1
 10
-6633.9137675321208
 20
193.61431550413471
 30
0.0
 11
-5206.1930746334729
 21
193.61431550413471
 31
0.0
  0
POLYLINE
  5
6C2
  8
WARSTWA_1
 66
     1
 10
0.0
 20
0.0
 30
0.0
  0
VERTEX
  5
2390
  8
WARSTWA_1
 10
-6050.8016545637556
 20
1963.2863367357161
 30
0.0
  0
VERTEX
  5
2391
  8
WARSTWA_1
 10
-4361.5844947031901
 20
1963.2863367357161
 30
0.0
  0
SEQEND
  5
2392
  8
WARSTWA_1
  0
LINE
  5
6C3
  8
WARSTWA_1
 10
-4568.2772815718399
 20
1963.2863367357161
 30
0.0
 11
-4568.2772815718399
 21
193.61431550413471
 31
0.0
  0
LINE
  5
6C4
  8
WARSTWA_1
 10
-4361.5844947031901
 20
193.61431550413471
 30
0.0
 11
-5206.1930746334729
 21
193.61431550413471
 31
0.0
  0
POLYLINE
  5
6C5
  8
WARSTWA_1
 66
     1
 10
0.0
 20
0.0
 30
0.0
  0
VERTEX
  5
2393
  8
WARSTWA_1
 10
-6050.8016545637556
 20
1963.2863367357161
 30
0.0
  0
VERTEX
  5
2394
  8
WARSTWA_1
 10
-6633.9137675321208
 20
1963.2863367357161
 30
0.0
  0
SEQEND
  5
2395
  8
WARSTWA_1
  0
POLYLINE
  5
6C6
  8
WARSTWA_1
 66
     1
 10
0.0
 20
0.0
 30
0.0
  0
VERTEX
  5
2396
  8
WARSTWA_1
 10
-3778.472381734824
 20
1003.8581738366501
 30
0.0
  0
VERTEX
  5
2397
  8
WARSTWA_1
 10
-6633.9137675321208
 20
1003.8581738366501
 30
0.0
  0
SEQEND
  5
2398
  8
WARSTWA_1
  0
LINE
  5
6C7
  8
WARSTWA_1
 10
-4529.5223767107691
 20
1963.2863367357161
 30
0.0
 11
-3778.472381734824
 21
1963.2863367357161
 31
0.0
  0
LINE
  5
6C8
  8
WARSTWA_1
 10
-3778.472381734824
 20
1963.2863367357161
 30
0.0
 11
-3778.472381734824
 21
193.61431550413471
 31
0.0
  0
LINE
  5
6C9
  8
WARSTWA_1
 10
-3778.472381734824
 20
193.61431550413471
 30
0.0
 11
-4529.5223767107691
 21
193.61431550413471
 31
0.0
  0
LINE
  5
6CA
  8
WARSTWA_1
 10
-6633.9137675321208
 20
1963.2863367357161
 30
0.0
 11
-6633.9137675321208
 21
193.61431550413471
 31
0.0
  0
INSERT
  5
6CB
  8
WYMIARY
  2
*U90
 10
0.0
 20
0.0
 30
0.0
  0
INSERT
  5
6CC
  8
WYMIARY
  2
*U91
 10
0.0
 20
0.0
 30
0.0
  0
INSERT
  5
6CD
  8
WYMIARY
  2
*U92
 10
0.0
 20
0.0
 30
0.0
  0
INSERT
  5
6CE
  8
WYMIARY
  2
*U93
 10
0.0
 20
0.0
 30
0.0
  0
INSERT
  5
6CF
  8
WYMIARY
  2
*U94
 10
0.0
 20
0.0
 30
0.0
  0
INSERT
  5
6D2
  8
WYMIARY
  2
*U95
 10
0.0
 20
0.0
 30
0.0
  0
LINE
  5
6D3
  8
WARSTWA_1
  6
CONTINUOUS
 10
-5676.6623175690311
 20
919.67811316883206
 30
0.0
 11
-5422.491928302924
 21
919.67811316883069
 31
0.0
  0
LINE
  5
6D9
  8
WARSTWA_1
  6
CONTINUOUS
 10
-5203.7252724229047
 20
781.94808599312398
 30
0.0
 11
-5422.491928302924
 21
919.67811316883069
 31
0.0
  0
INSERT
  5
6DE
  8
WYMIARY
  2
*U96
 10
0.0
 20
0.0
 30
0.0
  0
LINE
  5
6DF
  8
CENTRALA
  6
CONTINUOUS
 10
-5688.7252724229074
 20
1378.1563486991661
 30
0.0
 11
-5728.7252724229056
 21
1378.1563486991661
 31
0.0
  0
LINE
  5
6E0
  8
CENTRALA
  6
CONTINUOUS
 10
-4678.7252724229038
 20
1178.150552889839
 30
0.0
 11
-4718.7252724229029
 21
1178.1505528898399
 31
0.0
  0
TEXT
  5
6E1
  8
CENTRALA
 10
-5352.0473503464764
 20
1483.165796306434
 30
0.0
 40
38.100023999999998
  1
PRO 550EC
 51
359.99999800000001
  7
ARIAL
  0
LINE
  5
6E3
  8
CENTRALA
  6
CONTINUOUS
 10
-5728.7252724229056
 20
1378.1563486991661
 30
0.0
 11
-5728.7252724229056
 21
1178.150552889839
 31
0.0
  0
LINE
  5
6E4
  8
CENTRALA
  6
CONTINUOUS
 10
-5728.7252724229056
 20
1178.150552889839
 30
0.0
 11
-5688.7252724229074
 21
1178.150552889839
 31
0.0
  0
LINE
  5
6E5
  8
CENTRALA
  6
CONTINUOUS
 10
-4718.7252724229029
 20
1378.156348699167
 30
0.0
 11
-4678.7252724229038
 21
1378.156348699167
 31
0.0
  0
LINE
  5
6E6
  8
CENTRALA
  6
CONTINUOUS
 10
-4678.7252724229038
 20
1378.156348699167
 30
0.0
 11
-4678.7252724229038
 21
1178.150552889839
 31
0.0
  0
LINE
  5
6E7
  8
OSIE
  6
DASHDOT
 10
-5777.6297461179474
 20
1614.173006940295
 30
0.0
 11
-5667.0860777945109
 21
1614.173006940295
 31
0.0
  0
LINE
  5
6E8
  8
OSIE
  6
DASHDOT
 10
-5777.6297461179402
 20
1318.1534507945021
 30
0.0
 11
-5667.0860777945036
 21
1318.1534507945021
 31
0.0
  0
LINE
  5
6E9
  8
OSIE
  6
DASHDOT
 10
-4752.629746117942
 20
1574.173006940295
 30
0.0
 11
-4642.0860777945036
 21
1574.173006940295
 31
0.0
  0
LINE
  5
6EA
  8
OSIE
  6
DASHDOT
 10
-4752.6297461179383
 20
1278.153450794503
 30
0.0
 11
-4642.0860777945009
 21
1278.153450794503
 31
0.0
  0
LINE
  5
6EB
  8
OSIE
  6
DASHDOT
 10
-5538.7252724229047
 20
1798.0774806353299
 30
0.0
 11
-5538.7252724229047
 21
1687.5338123118941
 31
0.0
  0
LINE
  5
6EC
  8
OSIE
  6
DASHDOT
 10
-4868.7252724229047
 20
1798.0774806353311
 30
0.0
 11
-4868.7252724229047
 21
1687.5338123118941
 31
0.0
  0
LINE
  5
712
  8
0
 62
     4
 39
5.0
 10
-4206.4151038069058
 20
1806.494793194054
 30
0.0
 11
-4206.4151038069058
 21
1806.494793194054
 31
0.0
1001
ACDBBLOCKREPETAG
1070
     1
1071
        4
1005
712
  0
LINE
  5
713
  8
0
 62
     4
 39
5.0
 10
-4202.4151038069067
 20
1802.494793194054
 30
0.0
 11
-4202.4151038069067
 21
1802.494793194054
 31
0.0
1001
ACDBBLOCKREPETAG
1070
     1
1071
        5
1005
713
  0
LINE
  5
714
  8
0
 62
     4
 39
5.0
 10
-4210.4151038069067
 20
1802.494793194054
 30
0.0
 11
-4210.4151038069067
 21
1802.494793194054
 31
0.0
1001
ACDBBLOCKREPETAG
1070
     1
1071
        6
1005
714
  0
LINE
  5
715
  8
0
 62
     4
 39
5.0
 10
-4096.4151038069067
 20
1806.494793194054
 30
0.0
 11
-4096.4151038069067
 21
1806.494793194054
 31
0.0
1001
ACDBBLOCKREPETAG
1070
     1
1071
        7
1005
715
  0
LINE
  5
716
  8
0
 62
     4
 39
5.0
 10
-4092.4151038069058
 20
1802.494793194054
 30
0.0
 11
-4092.4151038069058
 21
1802.494793194054
 31
0.0
1001
ACDBBLOCKREPETAG
1070
     1
1071
        8
1005
716
  0
LINE
  5
717
  8
0
 62
     4
 39
5.0
 10
-4096.4151038069067
 20
1798.494793194054
 30
0.0
 11
-4096.4151038069067
 21
1798.494793194054
 31
0.0
1001
ACDBBLOCKREPETAG
1070
     1
1071
        9
1005
717
  0
LINE
  5
718
  8
0
 62
     4
 39
5.0
 10
-4100.4151038069067
 20
1802.494793194054
 30
0.0
 11
-4100.4151038069067
 21
1802.494793194054
 31
0.0
1001
ACDBBLOCKREPETAG
1070
     1
1071
       10
1005
718
  0
LINE
  5
719
  8
0
 39
5.0
 10
-4151.4151038069031
 20
1650.4946931940549
 30
0.0
 11
-4151.4151038069031
 21
1650.4946931940549
 31
0.0
1001
ACDBBLOCKREPETAG
1070
     1
1071
       11
1005
719
  0
LINE
  5
71A
  8
0
 62
     4
 39
5.0
 10
-4096.415103806904
 20
1661.4947931940551
 30
0.0
 11
-4096.415103806904
 21
1661.4947931940551
 31
0.0
1001
ACDBBLOCKREPETAG
1070
     1
1071
       12
1005
71A
  0
LINE
  5
71B
  8
0
 62
     4
 39
5.0
 10
-4092.4151038069031
 20
1657.4947931940551
 30
0.0
 11
-4092.4151038069031
 21
1657.4947931940551
 31
0.0
1001
ACDBBLOCKREPETAG
1070
     1
1071
       13
1005
71B
  0
LINE
  5
71C
  8
0
 62
     4
 39
5.0
 10
-4096.415103806904
 20
1653.4947931940551
 30
0.0
 11
-4096.415103806904
 21
1653.4947931940551
 31
0.0
1001
ACDBBLOCKREPETAG
1070
     1
1071
       14
1005
71C
  0
LINE
  5
71D
  8
0
 62
     4
 39
5.0
 10
-4206.415103806904
 20
1661.4947931940551
 30
0.0
 11
-4206.415103806904
 21
1661.4947931940551
 31
0.0
1001
ACDBBLOCKREPETAG
1070
     1
1071
       15
1005
71D
  0
LINE
  5
71E
  8
0
 62
     4
 39
5.0
 10
-4202.415103806904
 20
1657.4947931940551
 30
0.0
 11
-4202.415103806904
 21
1657.4947931940551
 31
0.0
1001
ACDBBLOCKREPETAG
1070
     1
1071
       16
1005
71E
  0
LINE
  5
71F
  8
0
 62
     4
 39
5.0
 10
-4206.415103806904
 20
1653.4947931940551
 30
0.0
 11
-4206.415103806904
 21
1653.4947931940551
 31
0.0
1001
ACDBBLOCKREPETAG
1070
     1
1071
       17
1005
71F
  0
LINE
  5
720
  8
0
  6
CONTINUOUS
 10
-4436.4151038069067
 20
1144.173006940295
 30
0.0
 11
-4436.4151038069067
 21
1684.1730069402961
 31
0.0
1001
ACDBBLOCKREPETAG
1070
     1
1071
       18
1005
720
  0
LINE
  5
722
  8
0
  6
CONTINUOUS
 10
-3929.4151038069072
 20
1144.173006940295
 30
0.0
 11
-4436.4151038069067
 21
1144.173006940295
 31
0.0
1001
ACDBBLOCKREPETAG
1070
     1
1071
       20
1005
722
  0
LINE
  5
724
  8
OSIE
 10
-4151.4151038069031
 20
1463.9692765342379
 30
0.0
 11
-4151.4151038069031
 21
1684.376737346355
 31
0.0
1001
ACDBBLOCKREPETAG
1070
     1
1071
       27
1005
724
  0
LINE
  5
725
  8
OSIE
 10
-4041.2113734008472
 20
1574.1730069402961
 30
0.0
 11
-4261.6188342129644
 21
1574.1730069402961
 31
0.0
1001
ACDBBLOCKREPETAG
1070
     1
1071
       28
1005
725
  0
LINE
  5
726
  8
OSIE
 10
-4151.5294618808857
 20
1167.832999803815
 30
0.0
 11
-4151.5294618808857
 21
1388.2404606159321
 31
0.0
1001
ACDBBLOCKREPETAG
1070
     1
1071
       29
1005
726
  0
LINE
  5
727
  8
OSIE
 10
-4041.3257314748262
 20
1278.0367302098739
 30
0.0
 11
-4261.7331922869434
 21
1278.0367302098739
 31
0.0
1001
ACDBBLOCKREPETAG
1070
     1
1071
       30
1005
727
  0
LINE
  5
728
  8
0
  6
CONTINUOUS
 62
     1
 10
-4251.4180017115732
 20
1736.1730069402961
 30
0.0
 11
-4251.4180017115732
 21
1776.1730069402961
 31
0.0
1001
ACDBBLOCKREPETAG
1070
     1
1071
       31
1005
728
  0
LINE
  5
729
  8
0
  6
CONTINUOUS
 62
     1
 10
-4251.4180017115732
 20
1776.1730069402961
 30
0.0
 11
-4051.4122059022438
 21
1776.1730069402961
 31
0.0
1001
ACDBBLOCKREPETAG
1070
     1
1071
       32
1005
729
  0
LINE
  5
72A
  8
0
  6
CONTINUOUS
 62
     1
 10
-4051.4122059022438
 20
1776.1730069402961
 30
0.0
 11
-4051.4122059022438
 21
1736.1730069402961
 31
0.0
1001
ACDBBLOCKREPETAG
1070
     1
1071
       33
1005
72A
  0
LINE
  5
72B
  8
OSIE
  6
DASHDOT
 10
-4151.4151038069067
 20
1791.444841102013
 30
0.0
 11
-4151.4151038069067
 21
1680.9011727785769
 31
0.0
1001
ACDBBLOCKREPETAG
1070
     1
1071
       34
1005
72B
  0
INSERT
  5
72D
  8
0
  2
NÓŻKA_53
 10
10872.24478124338
 20
-67.016022393050875
 30
0.0
 43
-1.0
210
0.0
220
0.0
230
-1.0
1001
ACDBBLOCKREPETAG
1070
     1
1071
       37
1005
72D
  0
INSERT
  5
72E
  8
0
  2
NÓŻKA_53
 10
11342.24478124338
 20
-67.016022393050875
 30
0.0
 43
-1.0
210
0.0
220
0.0
230
-1.0
1001
ACDBBLOCKREPETAG
1070
     1
1071
       38
1005
72E
  0
POLYLINE
  5
72F
  8
0
 62
     5
 66
     1
 10
0.0
 20
0.0
 30
0.0
 70
     1
1001
ACDBBLOCKREPETAG
1070
     1
1071
       39
1005
72F
  0
VERTEX
  5
23BF
  8
0
 62
     5
 10
-4436.4151038069067
 20
1611.173006940297
 30
0.0
  0
VERTEX
  5
23C0
  8
0
 62
     5
 10
-4461.415103806904
 20
1611.173006940297
 30
0.0
  0
VERTEX
  5
23C1
  8
0
 62
     5
 10
-4461.415103806904
 20
1161.173006940295
 30
0.0
  0
VERTEX
  5
23C2
  8
0
 62
     5
 10
-4436.4151038069067
 20
1161.173006940295
 30
0.0
  0
SEQEND
  5
23C3
  8
0
 62
     5
  0
POLYLINE
  5
730
  8
0
 66
     1
 10
0.0
 20
0.0
 30
0.0
 70
     1
1001
ACDBBLOCKREPETAG
1070
     1
1071
       40
1005
730
  0
VERTEX
  5
23C4
  8
0
 10
-4008.9151038069081
 20
1736.173006940295
 30
0.0
  0
VERTEX
  5
23C5
  8
0
 10
-4293.9151038069049
 20
1736.173006940295
 30
0.0
  0
VERTEX
  5
23C6
  8
0
 10
-4293.9151038069049
 20
1724.1730069402961
 30
0.0
  0
VERTEX
  5
23C7
  8
0
 10
-4008.9151038069081
 20
1724.1730069402961
 30
0.0
  0
SEQEND
  5
23C8
  8
0
  0
INSERT
  5
731
  8
0
  2
GALKA-BOK
 10
-4718.2093346204601
 20
1038.5673229419381
 30
0.0
 50
90.0
1001
ACDBBLOCKREPETAG
1070
     1
1071
       42
1005
731
  0
INSERT
  5
732
  8
0
  2
GALKA-BOK
 10
-4718.2093346204601
 20
688.56732294193887
 30
0.0
 50
90.0
1001
ACDBBLOCKREPETAG
1070
     1
1071
       43
1005
732
  0
CIRCLE
  5
733
  8
0
 10
-4151.5294618808857
 20
1278.0367302098739
 30
0.0
 40
100.0
1001
ACDBBLOCKREPETAG
1070
     1
1071
       44
1005
733
  0
POLYLINE
  5
734
  8
0
 62
     9
 66
     1
 10
0.0
 20
0.0
 30
0.0
 70
     1
1001
ACDBBLOCKREPETAG
1070
     1
1071
       45
1005
734
  0
VERTEX
  5
23C9
  8
0
 62
     9
 10
-3917.4151038069072
 20
1144.173006940295
 30
0.0
  0
VERTEX
  5
23CA
  8
0
 62
     9
 10
-3939.4151038069072
 20
1144.173006940295
 30
0.0
  0
VERTEX
  5
23CB
  8
0
 62
     9
 10
-3939.4151038069072
 20
1122.173006940295
 30
0.0
  0
VERTEX
  5
23CC
  8
0
 62
     9
 10
-3917.4151038069072
 20
1122.173006940295
 30
0.0
  0
SEQEND
  5
23CD
  8
0
 62
     9
  0
POLYLINE
  5
735
  8
0
 66
     1
 10
0.0
 20
0.0
 30
0.0
 70
     1
  0
VERTEX
  5
23CE
  8
0
 10
-5700.7252724229083
 20
1696.673006940295
 30
0.0
  0
VERTEX
  5
23CF
  8
0
 10
-5688.7252724229083
 20
1696.673006940295
 30
0.0
  0
VERTEX
  5
23D0
  8
0
 10
-5688.7252724229083
 20
1451.673006940295
 30
0.0
  0
VERTEX
  5
23D1
  8
0
 10
-5700.7252724229083
 20
1451.673006940295
 30
0.0
  0
SEQEND
  5
23D2
  8
0
  0
POLYLINE
  5
736
  8
0
 66
     1
 10
0.0
 20
0.0
 30
0.0
 70
     1
  0
VERTEX
  5
23D3
  8
0
 10
-4718.7252724229074
 20
1696.673006940295
 30
0.0
  0
VERTEX
  5
23D4
  8
0
 10
-4706.7252724229074
 20
1696.673006940295
 30
0.0
  0
VERTEX
  5
23D5
  8
0
 10
-4706.7252724229074
 20
1451.673006940295
 30
0.0
  0
VERTEX
  5
23D6
  8
0
 10
-4718.7252724229074
 20
1451.673006940295
 30
0.0
  0
SEQEND
  5
23D7
  8
0
  0
POLYLINE
  5
737
  8
0
 66
     1
 10
0.0
 20
0.0
 30
0.0
 70
     1
  0
VERTEX
  5
23D8
  8
0
 10
-5661.2252724229074
 20
1724.1730069402961
 30
0.0
  0
VERTEX
  5
23D9
  8
0
 10
-5661.2252724229074
 20
1736.173006940295
 30
0.0
  0
VERTEX
  5
23DA
  8
0
 10
-5416.2252724229056
 20
1736.173006940295
 30
0.0
  0
VERTEX
  5
23DB
  8
0
 10
-5416.2252724229056
 20
1724.1730069402961
 30
0.0
  0
SEQEND
  5
23DC
  8
0
  0
POLYLINE
  5
738
  8
0
 66
     1
 10
0.0
 20
0.0
 30
0.0
 70
     1
  0
VERTEX
  5
23DD
  8
0
 10
-4991.2252724229047
 20
1724.1730069402961
 30
0.0
  0
VERTEX
  5
23DE
  8
0
 10
-4991.2252724229047
 20
1736.173006940295
 30
0.0
  0
VERTEX
  5
23DF
  8
0
 10
-4746.2252724229056
 20
1736.173006940295
 30
0.0
  0
VERTEX
  5
23E0
  8
0
 10
-4746.2252724229056
 20
1724.1730069402961
 30
0.0
  0
SEQEND
  5
23E1
  8
0
  0
POLYLINE
  5
739
  8
0
 66
     1
 10
0.0
 20
0.0
 30
0.0
 70
     1
  0
VERTEX
  5
23E2
  8
0
 10
-5740.7252724229083
 20
1674.175904844958
 30
0.0
  0
VERTEX
  5
23E3
  8
0
 10
-5700.7252724229083
 20
1674.175904844958
 30
0.0
  0
VERTEX
  5
23E4
  8
0
 10
-5700.7252724229083
 20
1474.170109035631
 30
0.0
  0
VERTEX
  5
23E5
  8
0
 10
-5740.7252724229083
 20
1474.170109035631
 30
0.0
  0
SEQEND
  5
23E6
  8
0
  0
POLYLINE
  5
73A
  8
0
 66
     1
 10
0.0
 20
0.0
 30
0.0
 70
     1
  0
VERTEX
  5
23E7
  8
0
 10
-4706.7252724229074
 20
1674.175904844958
 30
0.0
  0
VERTEX
  5
23E8
  8
0
 10
-4666.7252724229074
 20
1674.175904844958
 30
0.0
  0
VERTEX
  5
23E9
  8
0
 10
-4666.7252724229074
 20
1474.1701090356321
 30
0.0
  0
VERTEX
  5
23EA
  8
0
 10
-4706.7252724229074
 20
1474.1701090356321
 30
0.0
  0
SEQEND
  5
23EB
  8
0
  0
POLYLINE
  5
73B
  8
0
 62
     1
 66
     1
 10
0.0
 20
0.0
 30
0.0
 70
     1
  0
VERTEX
  5
23EC
  8
0
 62
     1
 10
-5638.7281703275703
 20
1736.173006940295
 30
0.0
  0
VERTEX
  5
23ED
  8
0
 62
     1
 10
-5638.7281703275703
 20
1776.173006940295
 30
0.0
  0
VERTEX
  5
23EE
  8
0
 62
     1
 10
-5438.7223745182428
 20
1776.173006940295
 30
0.0
  0
VERTEX
  5
23EF
  8
0
 62
     1
 10
-5438.7223745182428
 20
1736.173006940295
 30
0.0
  0
SEQEND
  5
23F0
  8
0
 62
     1
  0
POLYLINE
  5
73C
  8
0
 62
     1
 66
     1
 10
0.0
 20
0.0
 30
0.0
 70
     1
  0
VERTEX
  5
23F1
  8
0
 62
     1
 10
-4968.7281703275694
 20
1736.173006940295
 30
0.0
  0
VERTEX
  5
23F2
  8
0
 62
     1
 10
-4968.7281703275694
 20
1776.173006940295
 30
0.0
  0
VERTEX
  5
23F3
  8
0
 62
     1
 10
-4768.7223745182418
 20
1776.173006940295
 30
0.0
  0
VERTEX
  5
23F4
  8
0
 62
     1
 10
-4768.7223745182418
 20
1736.173006940295
 30
0.0
  0
SEQEND
  5
23F5
  8
0
 62
     1
  0
POLYLINE
  5
73D
  8
0
 62
     5
 66
     1
 10
0.0
 20
0.0
 30
0.0
 70
     1
  0
VERTEX
  5
23F6
  8
0
 62
     5
 10
-5627.7252724229074
 20
1416.173006940295
 30
0.0
  0
VERTEX
  5
23F7
  8
0
 62
     5
 10
-5542.7252724229056
 20
1416.173006940295
 30
0.0
  0
VERTEX
  5
23F8
  8
0
 62
     5
 10
-5542.7252724229056
 20
1149.173006940295
 30
0.0
  0
VERTEX
  5
23F9
  8
0
 62
     5
 10
-5627.7252724229074
 20
1149.173006940295
 30
0.0
  0
SEQEND
  5
23FA
  8
0
 62
     5
  0
POLYLINE
  5
73E
  8
0
 62
     5
 66
     1
 10
0.0
 20
0.0
 30
0.0
 70
     1
  0
VERTEX
  5
23FB
  8
0
 62
     5
 10
-4864.7252724229047
 20
1416.173006940295
 30
0.0
  0
VERTEX
  5
23FC
  8
0
 62
     5
 10
-4779.7252724229047
 20
1416.173006940295
 30
0.0
  0
VERTEX
  5
23FD
  8
0
 62
     5
 10
-4779.7252724229047
 20
1149.173006940295
 30
0.0
  0
VERTEX
  5
23FE
  8
0
 62
     5
 10
-4864.7252724229047
 20
1149.173006940295
 30
0.0
  0
SEQEND
  5
23FF
  8
0
 62
     5
  0
POLYLINE
  5
73F
  8
0
 62
     5
 66
     1
 10
0.0
 20
0.0
 30
0.0
 70
     1
  0
VERTEX
  5
2400
  8
0
 62
     5
 10
-5503.7252724229056
 20
1611.173006940295
 30
0.0
  0
VERTEX
  5
2401
  8
0
 62
     5
 10
-4903.7252724229074
 20
1611.173006940295
 30
0.0
  0
VERTEX
  5
2402
  8
0
 62
     5
 10
-4903.7252724229074
 20
1161.173006940295
 30
0.0
  0
VERTEX
  5
2403
  8
0
 62
     5
 10
-5503.7252724229056
 20
1161.173006940295
 30
0.0
  0
SEQEND
  5
2404
  8
0
 62
     5
  0
INSERT
  5
740
  8
CENTRALA
 62
     5
  2
GALKA
 10
-5438.7252724229056
 20
1561.173006940295
 30
0.0
  0
INSERT
  5
741
  8
CENTRALA
 62
     5
  2
GALKA
 10
-4968.7252724229047
 20
1561.173006940295
 30
0.0
  0
INSERT
  5
742
  8
CENTRALA
 62
     5
  2
GALKA
 10
-4968.7252724229047
 20
1211.173006940295
 30
0.0
  0
INSERT
  5
743
  8
CENTRALA
 62
     5
  2
GALKA
 10
-5438.7252724229056
 20
1211.173006940295
 30
0.0
  0
INSERT
  5
744
  8
0
  2
NÓŻKA_53
 10
1317.1044050135681
 20
-67.016022393051571
 30
0.0
1001
ACDBBLOCKREPETAG
1070
     1
1071
       38
1005
70A
  0
INSERT
  5
745
  8
0
  2
NÓŻKA_53
 10
2187.1044050135679
 20
-67.016022393051571
 30
0.0
1001
ACDBBLOCKREPETAG
1070
     1
1071
       38
1005
70A
  0
POLYLINE
  5
746
  8
0
 66
     1
 10
0.0
 20
0.0
 30
0.0
 70
     1
1001
ACDBBLOCKREPETAG
1070
     1
1071
       45
1005
711
  0
VERTEX
  5
2405
  8
0
 10
-5214.7252724229056
 20
1144.173006940295
 30
0.0
  0
VERTEX
  5
2406
  8
0
 10
-5192.7252724229047
 20
1144.173006940295
 30
0.0
  0
VERTEX
  5
2407
  8
0
 10
-5192.7252724229047
 20
1122.173006940295
 30
0.0
  0
VERTEX
  5
2408
  8
0
 10
-5214.7252724229056
 20
1122.173006940295
 30
0.0
  0
SEQEND
  5
2409
  8
0
  0
LINE
  5
748
  8
0
 39
5.0
 10
-5972.3702059956904
 20
502.94808599312358
 30
0.0
 11
-5972.3702059956904
 21
502.94808599312358
 31
0.0
1001
ACDBBLOCKREPETAG
1070
     1
1071
        3
1005
6ED
  0
LINE
  5
749
  8
0
 62
     4
 39
5.0
 10
-5975.3701059956902
 20
475.94808599312472
 30
0.0
 11
-5975.3701059956902
 21
475.94808599312472
 31
0.0
1001
ACDBBLOCKREPETAG
1070
     1
1071
        4
1005
6EE
  0
LINE
  5
74A
  8
0
 62
     4
 39
5.0
 10
-5975.3701059956902
 20
585.94808599312466
 30
0.0
 11
-5975.3701059956902
 21
585.94808599312466
 31
0.0
1001
ACDBBLOCKREPETAG
1070
     1
1071
        7
1005
6F1
  0
POLYLINE
  5
74C
  8
0
 66
     1
 10
0.0
 20
0.0
 30
0.0
  0
VERTEX
  5
240A
  8
0
 10
-5688.7252724229056
 20
669.95098389778639
 30
0.0
  0
VERTEX
  5
240B
  8
0
 10
-5688.7252724229056
 20
469.94518808845959
 30
0.0
  0
SEQEND
  5
240C
  8
0
  0
POLYLINE
  5
74D
  8
0
 66
     1
 10
0.0
 20
0.0
 30
0.0
  0
VERTEX
  5
240D
  8
0
 10
-4718.7252724229029
 20
469.9451880884605
 30
0.0
  0
VERTEX
  5
240E
  8
0
 10
-4718.7252724229029
 20
669.95098389778752
 30
0.0
  0
SEQEND
  5
240F
  8
0
  0
LINE
  5
74F
  8
OSIE
 10
-5648.9290028289643
 20
547.84808599312726
 30
0.0
 11
-5428.521542016847
 21
547.84808599312726
 31
0.0
1001
ACDBBLOCKREPETAG
1070
     1
1071
       27
1005
700
  0
LINE
  5
750
  8
OSIE
 10
-5538.7252724229047
 20
658.05181639918612
 30
0.0
 11
-5538.7252724229047
 21
437.6443555870697
 31
0.0
1001
ACDBBLOCKREPETAG
1070
     1
1071
       28
1005
701
  0
LINE
  5
751
  8
OSIE
 10
-4978.9290028289643
 20
547.84808599312726
 30
0.0
 11
-4758.5215420168479
 21
547.84808599312726
 31
0.0
1001
ACDBBLOCKREPETAG
1070
     1
1071
       27
1005
700
  0
LINE
  5
752
  8
OSIE
 10
-4868.7252724229047
 20
658.05181639918612
 30
0.0
 11
-4868.7252724229047
 21
437.6443555870697
 31
0.0
1001
ACDBBLOCKREPETAG
1070
     1
1071
       28
1005
701
  0
POLYLINE
  5
753
  8
0
 66
     1
 10
0.0
 20
0.0
 30
0.0
 70
     1
  0
VERTEX
  5
2410
  8
0
 10
-5740.7252724229056
 20
647.95098389778741
 30
0.0
  0
VERTEX
  5
2411
  8
0
 10
-5700.7252724229047
 20
647.95098389778741
 30
0.0
  0
VERTEX
  5
2412
  8
0
 10
-5700.7252724229047
 20
447.9451880884605
 30
0.0
  0
VERTEX
  5
2413
  8
0
 10
-5740.7252724229056
 20
447.9451880884605
 30
0.0
  0
SEQEND
  5
2414
  8
0
  0
POLYLINE
  5
754
  8
0
 66
     1
 10
0.0
 20
0.0
 30
0.0
 70
     1
1001
ACDBBLOCKREPETAG
1070
     1
1071
       40
1005
70C
  0
VERTEX
  5
2415
  8
0
 10
-5688.7252724229056
 20
690.44808599312398
 30
0.0
  0
VERTEX
  5
2416
  8
0
 10
-5688.7252724229056
 20
405.44808599312398
 30
0.0
  0
VERTEX
  5
2417
  8
0
 10
-5700.7252724229047
 20
405.44808599312398
 30
0.0
  0
VERTEX
  5
2418
  8
0
 10
-5700.7252724229047
 20
690.44808599312398
 30
0.0
  0
SEQEND
  5
2419
  8
0
  0
POLYLINE
  5
755
  8
0
 66
     1
 10
0.0
 20
0.0
 30
0.0
 70
     1
1001
ACDBBLOCKREPETAG
1070
     1
1071
       40
1005
70C
  0
VERTEX
  5
241A
  8
0
 10
-4706.7252724229056
 20
690.44808599312375
 30
0.0
  0
VERTEX
  5
241B
  8
0
 10
-4706.7252724229056
 20
405.44808599312381
 30
0.0
  0
VERTEX
  5
241C
  8
0
 10
-4718.7252724229047
 20
405.44808599312381
 30
0.0
  0
VERTEX
  5
241D
  8
0
 10
-4718.7252724229047
 20
690.44808599312375
 30
0.0
  0
SEQEND
  5
241E
  8
0
  0
POLYLINE
  5
756
  8
0
 66
     1
 10
0.0
 20
0.0
 30
0.0
 70
     1
  0
VERTEX
  5
241F
  8
0
 10
-4706.7252724229056
 20
647.9509838977873
 30
0.0
  0
VERTEX
  5
2420
  8
0
 10
-4666.7252724229056
 20
647.9509838977873
 30
0.0
  0
VERTEX
  5
2421
  8
0
 10
-4666.7252724229056
 20
447.94518808846033
 30
0.0
  0
VERTEX
  5
2422
  8
0
 10
-4706.7252724229056
 20
447.94518808846033
 30
0.0
  0
SEQEND
  5
2423
  8
0
  0
INSERT
  5
757
  8
0
 62
     1
  2
A$C5F6C7F99
 10
-5538.7252724229047
 20
547.94808599312375
 30
0.0
 41
-1.0
 50
270.0
1001
ACDBBLOCKREPETAG
1070
     1
1071
       36
1005
708
  0
INSERT
  5
758
  8
0
 62
     1
  2
A$C5F6C7F99
 10
-4868.7252724229047
 20
547.94808599312285
 30
0.0
 41
-1.0
 50
270.0
1001
ACDBBLOCKREPETAG
1070
     1
1071
       36
1005
708
  0
CIRCLE
  5
759
  8
0
 62
     1
 10
-4868.7252724229047
 20
547.84808599312726
 30
0.0
 40
100.0
1001
ACDBBLOCKREPETAG
1070
     1
1071
       44
1005
733
  0
CIRCLE
  5
75A
  8
0
 62
     1
 10
-5538.7252724229047
 20
547.84808599312794
 30
0.0
 40
100.0
1001
ACDBBLOCKREPETAG
1070
     1
1071
       44
1005
733
  0
CIRCLE
  5
75D
  8
0
 62
     9
 10
-5203.7252724229047
 20
770.94808599312375
 30
0.0
 40
11.0
  0
LINE
  5
75E
  8
OSIE
  6
DASHDOT
 10
-5759.6297461179383
 20
547.94808599312375
 30
0.0
 11
-5649.0860777945027
 21
547.94808599312375
 31
0.0
  0
LINE
  5
75F
  8
OSIE
  6
DASHDOT
 10
-4755.6297461179383
 20
547.94808599312489
 30
0.0
 11
-4645.0860777945009
 21
547.94808599312489
 31
0.0
  0
POLYLINE
  5
760
  8
0
 62
     5
 66
     1
 10
0.0
 20
0.0
 30
0.0
 70
     1
  0
VERTEX
  5
2424
  8
0
 62
     5
 10
-5528.7252724229074
 20
262.94808599312393
 30
0.0
  0
VERTEX
  5
2425
  8
0
 62
     5
 10
-4878.7252724229047
 20
262.94808599312393
 30
0.0
  0
VERTEX
  5
2426
  8
0
 62
     5
 10
-4878.7252724229047
 20
237.9480859931239
 30
0.0
  0
VERTEX
  5
2427
  8
0
 62
     5
 10
-5528.7252724229074
 20
237.9480859931239
 30
0.0
  0
SEQEND
  5
2428
  8
0
 62
     5
  0
INSERT
  5
761
  8
0
  2
GALKA-BOK
 10
-5961.3309564212641
 20
-18.846144820429458
 30
0.0
 41
-1.0
 50
180.0
1001
ACDBBLOCKREPETAG
1070
     1
1071
       43
1005
70F
  0
INSERT
  5
762
  8
0
  2
GALKA-BOK
 10
-5491.3309564212632
 20
-18.846144820429458
 30
0.0
 41
-1.0
 50
180.0
1001
ACDBBLOCKREPETAG
1070
     1
1071
       43
1005
70F
  0
INSERT
  5
763
  8
WYMIARY
  2
*U97
 10
0.0
 20
0.0
 30
0.0
  0
LINE
  5
764
  8
WARSTWA_1
  6
CONTINUOUS
 10
-5565.0234005015027
 20
1024.907805435065
 30
0.0
 11
-5310.8530112353938
 21
1024.9078054350639
 31
0.0
  0
LINE
  5
765
  8
0
 62
     1
 10
-5310.8530112353938
 20
1024.9078054350639
 30
0.0
 11
-5203.7252724229047
 21
1122.173006940295
 31
0.0
  0
DIMENSION
  5
766
  8
WARSTWA_1
  2
*D36
 10
-4221.129556054877
 20
1503.0183316277239
 30
0.0
 11
-4115.7754234131598
 21
1610.5489635015051
 31
0.0
 70
   131
  1
%%C200
 15
-4081.700651558931
 25
1645.327682252868
 35
0.0
 40
0.0
1001
ACAD_DSTYLE_DIMRADIAL_EXTENSION
1070
   387
1070
     1
1070
   388
1040
0.0
1070
   390
1040
0.0
1001
ACAD
1000
DSTYLE
1002
{
1070
   287
1070
     0
1070
   279
1070
     0
1070
   288
1070
     1
1002
}
  0
DIMENSION
  5
767
  8
WARSTWA_1
  2
*D37
 10
-4221.1295560548751
 20
1206.9987754819231
 30
0.0
 11
-4115.7754234131608
 21
1314.5294073557129
 31
0.0
 70
   131
  1
%%C200
 15
-4081.7006515589378
 25
1349.3081261070761
 35
0.0
 40
0.0
1001
ACAD_DSTYLE_DIMRADIAL_EXTENSION
1070
   387
1070
     1
1070
   388
1040
0.0
1070
   390
1040
0.0
1001
ACAD
1000
DSTYLE
1002
{
1070
   287
1070
     0
1070
   279
1070
     0
1070
   288
1070
     1
1002
}
  0
POLYLINE
  5
76D
  8
0
 62
     5
 66
     1
 10
0.0
 20
0.0
 30
0.0
 70
     1
  0
VERTEX
  5
2439
  8
0
 62
     5
 10
-5627.7252724229074
 20
262.94808599312393
 30
0.0
  0
VERTEX
  5
243A
  8
0
 62
     5
 10
-5542.7252724229056
 20
262.94808599312393
 30
0.0
  0
VERTEX
  5
243B
  8
0
 62
     5
 10
-5542.7252724229056
 20
250.9480859931239
 30
0.0
  0
VERTEX
  5
243C
  8
0
 62
     5
 10
-5627.7252724229074
 20
250.9480859931239
 30
0.0
  0
SEQEND
  5
243D
  8
0
 62
     5
  0
POLYLINE
  5
76E
  8
0
 62
     5
 66
     1
 10
0.0
 20
0.0
 30
0.0
 70
     1
  0
VERTEX
  5
243E
  8
0
 62
     5
 10
-4866.2252724229047
 20
262.94808599312393
 30
0.0
  0
VERTEX
  5
243F
  8
0
 62
     5
 10
-4781.2252724229047
 20
262.94808599312393
 30
0.0
  0
VERTEX
  5
2440
  8
0
 62
     5
 10
-4781.2252724229047
 20
250.9480859931239
 30
0.0
  0
VERTEX
  5
2441
  8
0
 62
     5
 10
-4866.2252724229047
 20
250.9480859931239
 30
0.0
  0
SEQEND
  5
2442
  8
0
 62
     5
  0
POLYLINE
  5
8D9
  8
0
 62
     0
 66
     1
 10
0.0
 20
0.0
 30
0.0
 70
     1
  0
VERTEX
  5
2464
  8
0
 62
     0
 10
-5688.7252724229029
 20
1724.173006940295
 30
0.0
  0
VERTEX
  5
2465
  8
0
 62
     0
 10
-4718.7252724229074
 20
1724.173006940295
 30
0.0
  0
VERTEX
  5
2466
  8
0
 62
     0
 10
-4718.7252724229074
 20
1144.173006940295
 30
0.0
  0
VERTEX
  5
2467
  8
0
 62
     0
 10
-5688.7252724229029
 20
1144.173006940295
 30
0.0
  0
SEQEND
  5
2468
  8
0
 62
     0
  0
POLYLINE
  5
B63
  8
0
 66
     1
 10
0.0
 20
0.0
 30
0.0
 70
     1
  0
VERTEX
  5
2469
  8
0
 10
-4436.4151038069067
 20
1724.1730069402961
 30
0.0
  0
VERTEX
  5
246A
  8
0
 10
-3866.4151038069072
 20
1724.1730069402961
 30
0.0
  0
VERTEX
  5
246B
  8
0
 10
-3866.4151038069072
 20
1144.1730069402961
 30
0.0
  0
VERTEX
  5
246C
  8
0
 10
-4436.4151038069067
 20
1144.1730069402961
 30
0.0
  0
SEQEND
  5
246D
  8
0
  0
CIRCLE
  5
B94
  8
0
 10
-4151.4151038069067
 20
1574.1730069402961
 30
0.0
 40
100.0
  0
INSERT
  5
B98
  8
0
 62
     1
  2
A$C5F6C7F99
 10
-4151.426925473228
 20
1574.1730069402961
 30
0.0
 41
-1.0
1001
ACDBBLOCKREPETAG
1070
     1
1071
       36
1005
708
  0
POLYLINE
  5
BC5
  8
0
 66
     1
 10
0.0
 20
0.0
 30
0.0
 70
     1
  0
VERTEX
  5
248A
  8
0
 10
-5688.7252724229056
 20
832.94808599312387
 30
0.0
  0
VERTEX
  5
248B
  8
0
 10
-4718.7252724229047
 20
832.94808599312387
 30
0.0
  0
VERTEX
  5
248C
  8
0
 10
-4718.7252724229047
 20
262.94808599312393
 30
0.0
  0
VERTEX
  5
248D
  8
0
 10
-5688.7252724229056
 20
262.94808599312393
 30
0.0
  0
SEQEND
  5
248E
  8
0
  0
LINE
  5
C06
  8
0
 62
     4
 39
5.0
 10
-6315.9710454600381
 20
1798.494793194053
 30
0.0
 11
-6315.9710454600381
 21
1798.494793194053
 31
0.0
1001
ACDBBLOCKREPETAG
1070
     1
1071
        9
1005
717
  0
LINE
  5
C07
  8
0
 39
5.0
 10
-6260.9710454600418
 20
1650.494693194054
 30
0.0
 11
-6260.9710454600418
 21
1650.494693194054
 31
0.0
1001
ACDBBLOCKREPETAG
1070
     1
1071
       11
1005
719
  0
LINE
  5
C08
  8
0
 62
     4
 39
5.0
 10
-6315.9710454600408
 20
1661.494793194054
 30
0.0
 11
-6315.9710454600408
 21
1661.494793194054
 31
0.0
1001
ACDBBLOCKREPETAG
1070
     1
1071
       12
1005
71A
  0
LINE
  5
C09
  8
0
 62
     4
 39
5.0
 10
-6319.9710454600427
 20
1657.494793194054
 30
0.0
 11
-6319.9710454600427
 21
1657.494793194054
 31
0.0
1001
ACDBBLOCKREPETAG
1070
     1
1071
       13
1005
71B
  0
LINE
  5
C0A
  8
0
 62
     4
 39
5.0
 10
-6315.9710454600408
 20
1653.494793194054
 30
0.0
 11
-6315.9710454600408
 21
1653.494793194054
 31
0.0
1001
ACDBBLOCKREPETAG
1070
     1
1071
       14
1005
71C
  0
LINE
  5
C0B
  8
0
 62
     4
 39
5.0
 10
-6205.9710454600418
 20
1661.494793194054
 30
0.0
 11
-6205.9710454600418
 21
1661.494793194054
 31
0.0
1001
ACDBBLOCKREPETAG
1070
     1
1071
       15
1005
71D
  0
LINE
  5
C0C
  8
0
 62
     4
 39
5.0
 10
-6209.9710454600418
 20
1657.494793194054
 30
0.0
 11
-6209.9710454600418
 21
1657.494793194054
 31
0.0
1001
ACDBBLOCKREPETAG
1070
     1
1071
       16
1005
71E
  0
LINE
  5
C0D
  8
0
 62
     4
 39
5.0
 10
-6205.9710454600418
 20
1653.494793194054
 30
0.0
 11
-6205.9710454600418
 21
1653.494793194054
 31
0.0
1001
ACDBBLOCKREPETAG
1070
     1
1071
       17
1005
71F
  0
LINE
  5
C0E
  8
0
  6
CONTINUOUS
 10
-5975.971045460039
 20
1144.173006940295
 30
0.0
 11
-5975.971045460039
 21
1684.1730069402961
 31
0.0
1001
ACDBBLOCKREPETAG
1070
     1
1071
       18
1005
720
  0
LINE
  5
C0F
  8
0
  6
CONTINUOUS
 10
-6482.971045460039
 20
1144.173006940295
 30
0.0
 11
-5975.971045460039
 21
1144.173006940295
 31
0.0
1001
ACDBBLOCKREPETAG
1070
     1
1071
       20
1005
722
  0
LINE
  5
C10
  8
OSIE
 10
-6260.9710454600418
 20
1463.969276534237
 30
0.0
 11
-6260.9710454600418
 21
1684.376737346354
 31
0.0
1001
ACDBBLOCKREPETAG
1070
     1
1071
       27
1005
724
  0
LINE
  5
C11
  8
OSIE
 10
-6371.1747758660977
 20
1574.173006940295
 30
0.0
 11
-6150.7673150539822
 21
1574.173006940295
 31
0.0
1001
ACDBBLOCKREPETAG
1070
     1
1071
       28
1005
725
  0
LINE
  5
C12
  8
OSIE
 10
-6260.8566873860591
 20
1167.832999803815
 30
0.0
 11
-6260.8566873860591
 21
1388.2404606159309
 31
0.0
1001
ACDBBLOCKREPETAG
1070
     1
1071
       29
1005
726
  0
LINE
  5
C13
  8
OSIE
 10
-6371.0604177921186
 20
1278.0367302098739
 30
0.0
 11
-6150.6529569800023
 21
1278.0367302098739
 31
0.0
1001
ACDBBLOCKREPETAG
1070
     1
1071
       30
1005
727
  0
LINE
  5
C14
  8
0
  6
CONTINUOUS
 62
     1
 10
-6160.9681475553734
 20
1736.173006940295
 30
0.0
 11
-6160.9681475553734
 21
1776.1730069402961
 31
0.0
1001
ACDBBLOCKREPETAG
1070
     1
1071
       31
1005
728
  0
LINE
  5
C15
  8
0
  6
CONTINUOUS
 62
     1
 10
-6160.9681475553734
 20
1776.1730069402961
 30
0.0
 11
-6360.9739433647019
 21
1776.1730069402961
 31
0.0
1001
ACDBBLOCKREPETAG
1070
     1
1071
       32
1005
729
  0
LINE
  5
C16
  8
0
  6
CONTINUOUS
 62
     1
 10
-6360.9739433647019
 20
1776.1730069402961
 30
0.0
 11
-6360.9739433647019
 21
1736.173006940295
 31
0.0
1001
ACDBBLOCKREPETAG
1070
     1
1071
       33
1005
72A
  0
LINE
  5
C17
  8
OSIE
  6
DASHDOT
 10
-6260.9710454600381
 20
1791.4448411020121
 30
0.0
 11
-6260.9710454600381
 21
1680.901172778576
 31
0.0
1001
ACDBBLOCKREPETAG
1070
     1
1071
       34
1005
72B
  0
INSERT
  5
C18
  8
0
  2
NÓŻKA_53
 10
-459.85863197643442
 20
-67.016022393051344
 30
0.0
 41
-1.0
 43
-1.0
210
0.0
220
0.0
230
-1.0
1001
ACDBBLOCKREPETAG
1070
     1
1071
       37
1005
72D
  0
INSERT
  5
C19
  8
0
  2
NÓŻKA_53
 10
-929.85863197643266
 20
-67.016022393051344
 30
0.0
 41
-1.0
 43
-1.0
210
0.0
220
0.0
230
-1.0
1001
ACDBBLOCKREPETAG
1070
     1
1071
       38
1005
72E
  0
POLYLINE
  5
C1A
  8
0
 62
     5
 66
     1
 10
0.0
 20
0.0
 30
0.0
 70
     1
1001
ACDBBLOCKREPETAG
1070
     1
1071
       39
1005
72F
  0
VERTEX
  5
248F
  8
0
 62
     5
 10
-5975.971045460039
 20
1611.1730069402961
 30
0.0
  0
VERTEX
  5
2490
  8
0
 62
     5
 10
-5950.9710454600408
 20
1611.1730069402961
 30
0.0
  0
VERTEX
  5
2491
  8
0
 62
     5
 10
-5950.9710454600408
 20
1161.173006940295
 30
0.0
  0
VERTEX
  5
2492
  8
0
 62
     5
 10
-5975.971045460039
 20
1161.173006940295
 30
0.0
  0
SEQEND
  5
2493
  8
0
 62
     5
  0
POLYLINE
  5
C1B
  8
0
 66
     1
 10
0.0
 20
0.0
 30
0.0
 70
     1
1001
ACDBBLOCKREPETAG
1070
     1
1071
       40
1005
730
  0
VERTEX
  5
2494
  8
0
 10
-6403.4710454600372
 20
1736.173006940295
 30
0.0
  0
VERTEX
  5
2495
  8
0
 10
-6118.4710454600399
 20
1736.173006940295
 30
0.0
  0
VERTEX
  5
2496
  8
0
 10
-6118.4710454600399
 20
1724.1730069402961
 30
0.0
  0
VERTEX
  5
2497
  8
0
 10
-6403.4710454600372
 20
1724.1730069402961
 30
0.0
  0
SEQEND
  5
2498
  8
0
  0
INSERT
  5
C1C
  8
0
  2
GALKA-BOK
 10
-5694.1768146464847
 20
1038.5673229419381
 30
0.0
 41
-1.0
 50
270.0
1001
ACDBBLOCKREPETAG
1070
     1
1071
       42
1005
731
  0
INSERT
  5
C1D
  8
0
  2
GALKA-BOK
 10
-5694.1768146464847
 20
688.56732294193853
 30
0.0
 41
-1.0
 50
270.0
1001
ACDBBLOCKREPETAG
1070
     1
1071
       43
1005
732
  0
CIRCLE
  5
C1E
  8
0
 10
-6260.8566873860591
 20
1278.0367302098739
 30
0.0
 40
100.0
1001
ACDBBLOCKREPETAG
1070
     1
1071
       44
1005
733
  0
POLYLINE
  5
C1F
  8
0
 62
     9
 66
     1
 10
0.0
 20
0.0
 30
0.0
 70
     1
1001
ACDBBLOCKREPETAG
1070
     1
1071
       45
1005
734
  0
VERTEX
  5
2499
  8
0
 62
     9
 10
-6494.971045460039
 20
1144.173006940295
 30
0.0
  0
VERTEX
  5
249A
  8
0
 62
     9
 10
-6472.971045460039
 20
1144.173006940295
 30
0.0
  0
VERTEX
  5
249B
  8
0
 62
     9
 10
-6472.971045460039
 20
1122.173006940295
 30
0.0
  0
VERTEX
  5
249C
  8
0
 62
     9
 10
-6494.971045460039
 20
1122.173006940295
 30
0.0
  0
SEQEND
  5
249D
  8
0
 62
     9
  0
DIMENSION
  5
C20
  8
WARSTWA_1
  2
*D45
 10
-6191.2565932120633
 20
1503.0183316277271
 30
0.0
 11
-6296.6107258537868
 21
1610.5489635015051
 31
0.0
 70
   131
  1
%%C200
 15
-6330.6854977080129
 25
1645.327682252863
 35
0.0
 40
0.0
1001
ACAD_DSTYLE_DIMRADIAL_EXTENSION
1070
   387
1070
     1
1070
   388
1040
0.0
1070
   390
1040
0.0
1001
ACAD
1000
DSTYLE
1002
{
1070
   287
1070
     0
1070
   279
1070
     0
1070
   288
1070
     1
1002
}
  0
DIMENSION
  5
C21
  8
WARSTWA_1
  2
*D46
 10
-6191.2565932120633
 20
1206.9987754819281
 30
0.0
 11
-6296.6107258537868
 21
1314.5294073557129
 31
0.0
 70
   131
  1
%%C200
 15
-6330.6854977080111
 25
1349.3081261070711
 35
0.0
 40
0.0
1001
ACAD_DSTYLE_DIMRADIAL_EXTENSION
1070
   387
1070
     1
1070
   388
1040
0.0
1070
   390
1040
0.0
1001
ACAD
1000
DSTYLE
1002
{
1070
   287
1070
     0
1070
   279
1070
     0
1070
   288
1070
     1
1002
}
  0
POLYLINE
  5
C22
  8
0
 66
     1
 10
0.0
 20
0.0
 30
0.0
 70
     1
  0
VERTEX
  5
24AA
  8
0
 10
-5975.971045460039
 20
1724.1730069402961
 30
0.0
  0
VERTEX
  5
24AB
  8
0
 10
-6545.971045460039
 20
1724.1730069402961
 30
0.0
  0
VERTEX
  5
24AC
  8
0
 10
-6545.971045460039
 20
1144.173006940295
 30
0.0
  0
VERTEX
  5
24AD
  8
0
 10
-5975.971045460039
 20
1144.173006940295
 30
0.0
  0
SEQEND
  5
24AE
  8
0
  0
CIRCLE
  5
C23
  8
0
 10
-6260.9710454600381
 20
1574.173006940295
 30
0.0
 40
100.0
  0
INSERT
  5
C24
  8
0
 62
     1
  2
A$C5F6C7F99
 10
-6260.9592237937177
 20
1574.173006940295
 30
0.0
1001
ACDBBLOCKREPETAG
1070
     1
1071
       36
1005
708
  0
DIMENSION
  5
CC5
  8
WYMIARY
  2
*D48
 10
-5772.342749032603
 20
1724.173006940295
 30
0.0
 11
-5789.5330628115917
 21
1434.173006940294
 31
0.0
 70
     0
 13
-5688.7252724229029
 23
1144.173006940295
 33
0.0
 14
-5688.7252724229029
 24
1724.173006940295
 34
0.0
 50
90.0
  0
DIMENSION
  5
CE9
  8
WYMIARY
  2
*D49
 10
-4718.7252724229074
 20
1813.5337757374091
 30
0.0
 11
-5203.7252724229047
 21
1830.7240895163991
 31
0.0
 70
     0
 13
-5688.7252724229029
 23
1724.173006940295
 33
0.0
 14
-4718.7252724229074
 24
1724.173006940295
 34
0.0
  0
DIMENSION
  5
1297
  8
WYMIARY
  2
*D50
 10
-6260.9710454600381
 20
1791.4448411020121
 30
0.0
 11
-6403.4710454600381
 21
1808.635154881003
 31
0.0
 70
     0
 13
-6545.971045460039
 23
1724.1730069402961
 33
0.0
 14
-6260.9710454600381
 24
1759.9339240211541
 34
0.0
  0
DIMENSION
  5
12AF
  8
WYMIARY
  2
*D51
 10
-5975.971045460039
 20
1826.8029324570341
 30
0.0
 11
-6260.9710454600381
 21
1843.9932462360241
 31
0.0
 70
     0
 13
-6545.971045460039
 23
1724.1730069402961
 33
0.0
 14
-5975.971045460039
 24
1724.1730069402961
 34
0.0
  0
DIMENSION
  5
12C7
  8
WYMIARY
  2
*D52
 10
-6578.9626794003188
 20
1724.1730069402961
 30
0.0
 11
-6596.1529931793111
 21
1649.173006940294
 31
0.0
 70
     0
 13
-6545.971045460039
 23
1574.173006940295
 33
0.0
 14
-6545.971045460039
 24
1724.1730069402961
 34
0.0
 50
90.0
  0
DIMENSION
  5
12D4
  8
WYMIARY
  2
*D53
 10
-6576.3875434373103
 20
1144.173006940295
 30
0.0
 11
-6593.583996370462
 21
1211.1048685750841
 31
0.0
 70
     0
 13
-6545.971045460039
 23
1278.0367302098739
 33
0.0
 14
-6545.971045460039
 24
1144.173006940295
 34
0.0
 50
90.0
  0
DIMENSION
  5
12EC
  8
WYMIARY
  2
*D54
 10
-6545.971045460039
 20
1074.562729041721
 30
0.0
 11
-6403.4138664230477
 21
1091.7530428207119
 31
0.0
 70
     0
 13
-6260.8566873860591
 23
1144.173006940295
 33
0.0
 14
-6545.971045460039
 24
1144.173006940295
 34
0.0
  0
DIMENSION
  5
18C5
  8
WYMIARY
  2
*D55
 10
-5688.7252724229056
 20
869.46098188683925
 30
0.0
 11
-5613.7252724229056
 21
886.65129566582971
 31
0.0
 70
     0
 13
-5538.7252724229047
 23
832.94808599312387
 33
0.0
 14
-5688.7252724229056
 24
832.94808599312387
 34
0.0
  0
DIMENSION
  5
18DD
  8
WYMIARY
  2
*D56
 10
-4718.7252724229047
 20
865.61020794760225
 30
0.0
 11
-4793.7252724229047
 21
882.80052172659271
 31
0.0
 70
     0
 13
-4868.7252724229047
 23
832.94808599312387
 33
0.0
 14
-4718.7252724229047
 24
832.94808599312387
 34
0.0
  0
DIMENSION
  5
18F5
  8
WYMIARY
  2
*D57
 10
-5766.189457479345
 20
832.94808599312387
 30
0.0
 11
-5783.3797712583364
 21
547.94808599312285
 31
0.0
 70
     0
 13
-5688.7252724229056
 23
262.94808599312393
 33
0.0
 14
-5688.7252724229056
 24
832.94808599312387
 34
0.0
 50
90.0
  0
DIMENSION
  5
190D
  8
WYMIARY
  2
*D58
 10
-3866.4151038069072
 20
1791.4919666744061
 30
0.0
 11
-4008.9151038069072
 21
1808.6822804533961
 31
0.0
 70
     0
 13
-4151.4151038069067
 23
1759.957486807351
 33
0.0
 14
-3866.4151038069072
 24
1724.1730069402961
 34
0.0
  0
DIMENSION
  5
1937
  8
WYMIARY
  2
*D59
 10
-3866.4151038069072
 20
1828.445090295065
 30
0.0
 11
-4151.4151038069067
 21
1845.635404074055
 31
0.0
 70
     0
 13
-4436.4151038069067
 23
1724.1730069402961
 33
0.0
 14
-3866.4151038069072
 24
1724.1730069402961
 34
0.0
  0
DIMENSION
  5
194F
  8
WYMIARY
  2
*D60
 10
-3866.4151038069072
 20
1071.6023816716349
 30
0.0
 11
-4008.9151038069072
 21
1088.7926954506249
 31
0.0
 70
     0
 13
-4151.4151038069067
 23
1144.1730069402961
 33
0.0
 14
-3866.4151038069072
 24
1144.1730069402961
 34
0.0
  0
DIMENSION
  5
1967
  8
WYMIARY
  2
*D61
 10
-3820.1035154880142
 20
1144.1730069402961
 30
0.0
 11
-3837.2999684211659
 21
1211.1048685750841
 31
0.0
 70
     0
 13
-3866.4151038069072
 23
1278.0367302098739
 33
0.0
 14
-3866.4151038069072
 24
1144.1730069402961
 34
0.0
 50
90.0
  0
DIMENSION
  5
197F
  8
WYMIARY
  2
*D62
 10
-3819.1744571184022
 20
1724.1730069402961
 30
0.0
 11
-3836.3647708973931
 21
1649.173006940295
 31
0.0
 70
     0
 13
-3866.4151038069072
 23
1574.1730069402961
 33
0.0
 14
-3866.4151038069072
 24
1724.1730069402961
 34
0.0
 50
90.0
  0
ENDSEC
  0
EOF
