  0
SECTION
  2
HEADER
  9
$ACADVER
  1
AC1021
  9
$ACADMAINTVER
 70
    53
  9
$DWGCODEPAGE
  3
ANSI_1250
  9
$LASTSAVEDBY
  1
Darek
  9
$INSBASE
 10
0.0
 20
0.0
 30
0.0
  9
$EXTMIN
 10
0.0
 20
-1685.878701180031
 30
0.0
  9
$EXTMAX
 10
3414.391836159012
 20
0.000000000001819
 30
0.0
  9
$LIMMIN
 10
0.0
 20
0.0
  9
$LIMMAX
 10
420.0
 20
297.0
  9
$ORTHOMODE
 70
     0
  9
$REGENMODE
 70
     1
  9
$FILLMODE
 70
     1
  9
$QTEXTMODE
 70
     0
  9
$MIRRTEXT
 70
     0
  9
$LTSCALE
 40
1.0
  9
$ATTMODE
 70
     1
  9
$TEXTSIZE
 40
2.5
  9
$TRACEWID
 40
1.0
  9
$TEXTSTYLE
  7
Standard
  9
$CLAYER
  8
wymiary
  9
$CELTYPE
  6
ByLayer
  9
$CECOLOR
 62
   256
  9
$CELTSCALE
 40
1.0
  9
$DISPSILH
 70
     0
  9
$DIMSCALE
 40
1.0
  9
$DIMASZ
 40
18.0
  9
$DIMEXO
 40
5.0
  9
$DIMDLI
 40
3.75
  9
$DIMRND
 40
0.0
  9
$DIMDLE
 40
0.0
  9
$DIMEXE
 40
0.5
  9
$DIMTP
 40
0.0
  9
$DIMTM
 40
0.0
  9
$DIMTXT
 40
18.0
  9
$DIMCEN
 40
2.5
  9
$DIMTSZ
 40
0.0
  9
$DIMTOL
 70
     0
  9
$DIMLIM
 70
     0
  9
$DIMTIH
 70
     0
  9
$DIMTOH
 70
     1
  9
$DIMSE1
 70
     0
  9
$DIMSE2
 70
     0
  9
$DIMTAD
 70
     1
  9
$DIMZIN
 70
     8
  9
$DIMBLK
  1

  9
$DIMASO
 70
     1
  9
$DIMSHO
 70
     1
  9
$DIMPOST
  1

  9
$DIMAPOST
  1

  9
$DIMALT
 70
     0
  9
$DIMALTD
 70
     3
  9
$DIMALTF
 40
0.03937007874016
  9
$DIMLFAC
 40
1.0
  9
$DIMTOFL
 70
     1
  9
$DIMTVP
 40
0.0
  9
$DIMTIX
 70
     0
  9
$DIMSOXD
 70
     0
  9
$DIMSAH
 70
     0
  9
$DIMBLK1
  1

  9
$DIMBLK2
  1

  9
$DIMSTYLE
  2
ISO-25
  9
$DIMCLRD
 70
     0
  9
$DIMCLRE
 70
     0
  9
$DIMCLRT
 70
     0
  9
$DIMTFAC
 40
1.0
  9
$DIMGAP
 40
8.0
  9
$DIMJUST
 70
     0
  9
$DIMSD1
 70
     0
  9
$DIMSD2
 70
     0
  9
$DIMTOLJ
 70
     0
  9
$DIMTZIN
 70
     8
  9
$DIMALTZ
 70
     0
  9
$DIMALTTZ
 70
     0
  9
$DIMUPT
 70
     0
  9
$DIMDEC
 70
     0
  9
$DIMTDEC
 70
     0
  9
$DIMALTU
 70
     2
  9
$DIMALTTD
 70
     3
  9
$DIMTXSTY
  7
Standard
  9
$DIMAUNIT
 70
     0
  9
$DIMADEC
 70
     0
  9
$DIMALTRND
 40
0.0
  9
$DIMAZIN
 70
     0
  9
$DIMDSEP
 70
    44
  9
$DIMATFIT
 70
     0
  9
$DIMFRAC
 70
     0
  9
$DIMLDRBLK
  1

  9
$DIMLUNIT
 70
     2
  9
$DIMLWD
 70
    -2
  9
$DIMLWE
 70
    -2
  9
$DIMTMOVE
 70
     0
  9
$DIMFXL
 40
1.0
  9
$DIMFXLON
 70
     0
  9
$DIMJOGANG
 40
0.7853981633974483
  9
$DIMTFILL
 70
     0
  9
$DIMTFILLCLR
 70
     0
  9
$DIMARCSYM
 70
     0
  9
$DIMLTYPE
  6

  9
$DIMLTEX1
  6

  9
$DIMLTEX2
  6

  9
$LUNITS
 70
     2
  9
$LUPREC
 70
     4
  9
$SKETCHINC
 40
1.0
  9
$FILLETRAD
 40
0.0
  9
$AUNITS
 70
     0
  9
$AUPREC
 70
     0
  9
$MENU
  1
.
  9
$ELEVATION
 40
0.0
  9
$PELEVATION
 40
0.0
  9
$THICKNESS
 40
0.0
  9
$LIMCHECK
 70
     0
  9
$CHAMFERA
 40
0.0
  9
$CHAMFERB
 40
0.0
  9
$CHAMFERC
 40
0.0
  9
$CHAMFERD
 40
0.0
  9
$SKPOLY
 70
     0
  9
$TDCREATE
 40
2458026.348557211
  9
$TDUCREATE
 40
2458026.306890544
  9
$TDUPDATE
 40
2458887.518141990
  9
$TDUUPDATE
 40
2458887.476475324
  9
$TDINDWG
 40
0.3086064005
  9
$TDUSRTIMER
 40
0.3086034954
  9
$USRTIMER
 70
     1
  9
$ANGBASE
 50
0.0
  9
$ANGDIR
 70
     0
  9
$PDMODE
 70
     0
  9
$PDSIZE
 40
0.0
  9
$PLINEWID
 40
0.0
  9
$SPLFRAME
 70
     0
  9
$SPLINETYPE
 70
     6
  9
$SPLINESEGS
 70
     8
  9
$HANDSEED
  5
C16
  9
$SURFTAB1
 70
     6
  9
$SURFTAB2
 70
     6
  9
$SURFTYPE
 70
     6
  9
$SURFU
 70
     6
  9
$SURFV
 70
     6
  9
$UCSBASE
  2

  9
$UCSNAME
  2

  9
$UCSORG
 10
0.0
 20
0.0
 30
0.0
  9
$UCSXDIR
 10
1.0
 20
0.0
 30
0.0
  9
$UCSYDIR
 10
0.0
 20
1.0
 30
0.0
  9
$UCSORTHOREF
  2

  9
$UCSORTHOVIEW
 70
     0
  9
$UCSORGTOP
 10
0.0
 20
0.0
 30
0.0
  9
$UCSORGBOTTOM
 10
0.0
 20
0.0
 30
0.0
  9
$UCSORGLEFT
 10
0.0
 20
0.0
 30
0.0
  9
$UCSORGRIGHT
 10
0.0
 20
0.0
 30
0.0
  9
$UCSORGFRONT
 10
0.0
 20
0.0
 30
0.0
  9
$UCSORGBACK
 10
0.0
 20
0.0
 30
0.0
  9
$PUCSBASE
  2

  9
$PUCSNAME
  2

  9
$PUCSORG
 10
0.0
 20
0.0
 30
0.0
  9
$PUCSXDIR
 10
1.0
 20
0.0
 30
0.0
  9
$PUCSYDIR
 10
0.0
 20
1.0
 30
0.0
  9
$PUCSORTHOREF
  2

  9
$PUCSORTHOVIEW
 70
     0
  9
$PUCSORGTOP
 10
0.0
 20
0.0
 30
0.0
  9
$PUCSORGBOTTOM
 10
0.0
 20
0.0
 30
0.0
  9
$PUCSORGLEFT
 10
0.0
 20
0.0
 30
0.0
  9
$PUCSORGRIGHT
 10
0.0
 20
0.0
 30
0.0
  9
$PUCSORGFRONT
 10
0.0
 20
0.0
 30
0.0
  9
$PUCSORGBACK
 10
0.0
 20
0.0
 30
0.0
  9
$USERI1
 70
     0
  9
$USERI2
 70
     0
  9
$USERI3
 70
     0
  9
$USERI4
 70
     0
  9
$USERI5
 70
     0
  9
$USERR1
 40
0.0
  9
$USERR2
 40
0.0
  9
$USERR3
 40
0.0
  9
$USERR4
 40
0.0
  9
$USERR5
 40
0.0
  9
$WORLDVIEW
 70
     1
  9
$SHADEDGE
 70
     3
  9
$SHADEDIF
 70
    70
  9
$TILEMODE
 70
     1
  9
$MAXACTVP
 70
    64
  9
$PINSBASE
 10
0.0
 20
0.0
 30
0.0
  9
$PLIMCHECK
 70
     0
  9
$PEXTMIN
 10
0.0
 20
0.0
 30
0.0
  9
$PEXTMAX
 10
0.0
 20
0.0
 30
0.0
  9
$PLIMMIN
 10
0.0
 20
0.0
  9
$PLIMMAX
 10
12.0
 20
9.0
  9
$UNITMODE
 70
     0
  9
$VISRETAIN
 70
     1
  9
$PLINEGEN
 70
     0
  9
$PSLTSCALE
 70
     1
  9
$TREEDEPTH
 70
  3020
  9
$CMLSTYLE
  2
Standard
  9
$CMLJUST
 70
     0
  9
$CMLSCALE
 40
20.0
  9
$PROXYGRAPHICS
 70
     1
  9
$MEASUREMENT
 70
     1
  9
$CELWEIGHT
370
    -1
  9
$ENDCAPS
280
     0
  9
$JOINSTYLE
280
     0
  9
$LWDISPLAY
290
     0
  9
$INSUNITS
 70
     4
  9
$HYPERLINKBASE
  1

  9
$STYLESHEET
  1

  9
$XEDIT
290
     1
  9
$CEPSNTYPE
380
     0
  9
$PSTYLEMODE
290
     1
  9
$FINGERPRINTGUID
  2
{EF7E686A-BD5A-45A9-BEB8-64996BD5BBA5}
  9
$VERSIONGUID
  2
{A7D8F2AC-0F12-4DD3-9A2F-3D49693F26A7}
  9
$EXTNAMES
290
     1
  9
$PSVPSCALE
 40
0.0
  9
$OLESTARTUP
290
     0
  9
$SORTENTS
280
   127
  9
$INDEXCTL
280
     0
  9
$HIDETEXT
280
     1
  9
$XCLIPFRAME
290
     0
  9
$HALOGAP
280
     0
  9
$OBSCOLOR
 70
   257
  9
$OBSLTYPE
280
     0
  9
$INTERSECTIONDISPLAY
280
     0
  9
$INTERSECTIONCOLOR
 70
   257
  9
$DIMASSOC
280
     2
  9
$PROJECTNAME
  1

  9
$CAMERADISPLAY
290
     0
  9
$LENSLENGTH
 40
50.0
  9
$CAMERAHEIGHT
 40
0.0
  9
$STEPSPERSEC
 40
2.0
  9
$STEPSIZE
 40
6.0
  9
$3DDWFPREC
 40
2.0
  9
$PSOLWIDTH
 40
5.0
  9
$PSOLHEIGHT
 40
80.0
  9
$LOFTANG1
 40
1.570796326794896
  9
$LOFTANG2
 40
1.570796326794896
  9
$LOFTMAG1
 40
0.0
  9
$LOFTMAG2
 40
0.0
  9
$LOFTPARAM
 70
     7
  9
$LOFTNORMALS
280
     1
  9
$LATITUDE
 40
37.795
  9
$LONGITUDE
 40
-122.394
  9
$NORTHDIRECTION
 40
0.0
  9
$TIMEZONE
 70
 -8000
  9
$LIGHTGLYPHDISPLAY
280
     1
  9
$TILEMODELIGHTSYNCH
280
     1
  9
$CMATERIAL
347
EC
  9
$SOLIDHIST
280
     1
  9
$SHOWHIST
280
     1
  9
$DWFFRAME
280
     2
  9
$DGNFRAME
280
     0
  9
$REALWORLDSCALE
290
     1
  9
$INTERFERECOLOR
 62
     1
  9
$INTERFEREOBJVS
345
F9
  9
$INTERFEREVPVS
346
F6
  9
$CSHADOW
280
     0
  9
$SHADOWPLANELOCATION
 40
0.0
  0
ENDSEC
  0
SECTION
  2
CLASSES
  0
CLASS
  1
ACDBDICTIONARYWDFLT
  2
AcDbDictionaryWithDefault
  3
ObjectDBX Classes
 90
        0
 91
        1
280
     0
281
     0
  0
CLASS
  1
DICTIONARYVAR
  2
AcDbDictionaryVar
  3
ObjectDBX Classes
 90
        0
 91
        7
280
     0
281
     0
  0
CLASS
  1
TABLESTYLE
  2
AcDbTableStyle
  3
ObjectDBX Classes
 90
     4095
 91
        1
280
     0
281
     0
  0
CLASS
  1
MATERIAL
  2
AcDbMaterial
  3
ObjectDBX Classes
 90
     1153
 91
        3
280
     0
281
     0
  0
CLASS
  1
VISUALSTYLE
  2
AcDbVisualStyle
  3
ObjectDBX Classes
 90
     4095
 91
       16
280
     0
281
     0
  0
CLASS
  1
SCALE
  2
AcDbScale
  3
ObjectDBX Classes
 90
     1153
 91
       17
280
     0
281
     0
  0
CLASS
  1
MLEADERSTYLE
  2
AcDbMLeaderStyle
  3
ACDB_MLEADERSTYLE_CLASS
 90
     4095
 91
        2
280
     0
281
     0
  0
CLASS
  1
CELLSTYLEMAP
  2
AcDbCellStyleMap
  3
ObjectDBX Classes
 90
     1152
 91
        4
280
     0
281
     0
  0
CLASS
  1
EXACXREFPANELOBJECT
  2
ExAcXREFPanelObject
  3
EXAC_ESW
 90
     1025
 91
        0
280
     0
281
     0
  0
CLASS
  1
NPOCOLLECTION
  2
AcDbImpNonPersistentObjectsCollection
  3
ObjectDBX Classes
 90
     1153
 91
        0
280
     0
281
     0
  0
CLASS
  1
LAYER_INDEX
  2
AcDbLayerIndex
  3
ObjectDBX Classes
 90
        0
 91
        0
280
     0
281
     0
  0
CLASS
  1
SPATIAL_INDEX
  2
AcDbSpatialIndex
  3
ObjectDBX Classes
 90
        0
 91
        0
280
     0
281
     0
  0
CLASS
  1
IDBUFFER
  2
AcDbIdBuffer
  3
ObjectDBX Classes
 90
        0
 91
        0
280
     0
281
     0
  0
CLASS
  1
AEC_REFEDIT_STATUS_TRACKER
  2
AecDbRefEditStatusTracker
  3
AecArchBase50|Product Desc: Autodesk Architectural Desktop 2007 |Company: Autodesk,Inc. |WEB Address: www.autodesk.com
 90
      129
 91
        0
280
     0
281
     0
  0
CLASS
  1
ACAD_EVALUATION_GRAPH
  2
AcDbEvalGraph
  3
ObjectDBX Classes
 90
     1153
 91
        1
280
     0
281
     0
  0
CLASS
  1
ACAECUSTOBJ
  2
AcAeEditorObj
  3
AcAeEditorObj
 90
     1024
 91
        0
280
     0
281
     0
  0
CLASS
  1
ACDB_DYNAMICBLOCKPURGEPREVENTER_VERSION
  2
AcDbDynamicBlockPurgePreventer
  3
ObjectDBX Classes
 90
     1153
 91
        1
280
     0
281
     0
  0
CLASS
  1
SORTENTSTABLE
  2
AcDbSortentsTable
  3
ObjectDBX Classes
 90
        0
 91
        2
280
     0
281
     0
  0
CLASS
  1
DIMASSOC
  2
AcDbDimAssoc
  3
"AcDbDimAssoc|Product Desc:     AcDim ARX App For Dimension|Company:          Autodesk, Inc.|WEB Address:      www.autodesk.com"
 90
        0
 91
       14
280
     0
281
     0
  0
ENDSEC
  0
SECTION
  2
TABLES
  0
TABLE
  2
VPORT
  5
8
330
0
100
AcDbSymbolTable
 70
     1
  0
VPORT
  5
EA
330
8
100
AcDbSymbolTableRecord
100
AcDbViewportTableRecord
  2
*Active
 70
     0
 10
0.0
 20
0.0
 11
1.0
 21
1.0
 12
2101.821767099068
 22
-1288.484986741682
 13
0.0
 23
0.0
 14
10.0
 24
10.0
 15
10.0
 25
10.0
 16
0.0
 26
0.0
 36
1.0
 17
0.0
 27
0.0
 37
0.0
 40
2991.569356308015
 41
2.005082592121982
 42
50.0
 43
0.0
 44
0.0
 50
0.0
 51
0.0
 71
     0
 72
  1000
 73
     1
 74
     3
 75
     0
 76
     0
 77
     0
 78
     0
281
     0
 65
     1
110
0.0
120
0.0
130
0.0
111
1.0
121
0.0
131
0.0
112
0.0
122
1.0
132
0.0
 79
     0
146
0.0
348
F5
 60
     2
 61
     5
292
     1
282
     1
141
0.0
142
0.0
 63
   250
421
  3355443
  0
ENDTAB
  0
TABLE
  2
LTYPE
  5
5
330
0
100
AcDbSymbolTable
 70
     2
  0
LTYPE
  5
14
330
5
100
AcDbSymbolTableRecord
100
AcDbLinetypeTableRecord
  2
ByBlock
 70
     0
  3

 72
    65
 73
     0
 40
0.0
  0
LTYPE
  5
15
330
5
100
AcDbSymbolTableRecord
100
AcDbLinetypeTableRecord
  2
ByLayer
 70
     0
  3

 72
    65
 73
     0
 40
0.0
  0
LTYPE
  5
16
330
5
100
AcDbSymbolTableRecord
100
AcDbLinetypeTableRecord
  2
Continuous
 70
     0
  3
Solid line
 72
    65
 73
     0
 40
0.0
  0
LTYPE
  5
694
330
5
100
AcDbSymbolTableRecord
100
AcDbLinetypeTableRecord
  2
DASHDOT
 70
     0
  3
Dash dot __ . __ . __ . __ . __ . __ . __ . __
 72
    65
 73
     4
 40
1.0
 49
0.5
 74
     0
 49
-0.25
 74
     0
 49
0.0
 74
     0
 49
-0.25
 74
     0
  0
ENDTAB
  0
TABLE
  2
LAYER
  5
2
102
{ACAD_XDICTIONARY
360
23C
102
}
330
0
100
AcDbSymbolTable
 70
    23
  0
LAYER
  5
10
102
{ACAD_XDICTIONARY
360
13C
102
}
330
2
100
AcDbSymbolTableRecord
100
AcDbLayerTableRecord
  2
0
 70
     0
 62
     7
  6
Continuous
370
    -3
390
F
347
EE
  0
LAYER
  5
1F4
330
2
100
AcDbSymbolTableRecord
100
AcDbLayerTableRecord
  2
PIONOWE
 70
     0
 62
     3
  6
Continuous
370
    -3
390
F
347
EE
  0
LAYER
  5
1F5
330
2
100
AcDbSymbolTableRecord
100
AcDbLayerTableRecord
  2
POMOCNICZE
 70
     0
 62
     9
  6
Continuous
370
    -3
390
F
347
EE
  0
LAYER
  5
1F6
330
2
100
AcDbSymbolTableRecord
100
AcDbLayerTableRecord
  2
KONTURY
 70
     0
 62
     1
  6
Continuous
370
    -3
390
F
347
EE
  0
LAYER
  5
1F7
330
2
100
AcDbSymbolTableRecord
100
AcDbLayerTableRecord
  2
POLKI_PRZEDNIE
 70
     0
 62
     7
  6
Continuous
370
    -3
390
F
347
EE
  0
LAYER
  5
1F8
330
2
100
AcDbSymbolTableRecord
100
AcDbLayerTableRecord
  2
BLOKI
 70
     0
 62
     7
  6
Continuous
370
    -3
390
F
347
EE
  0
LAYER
  5
236
102
{ACAD_XDICTIONARY
360
237
102
}
330
2
100
AcDbSymbolTableRecord
100
AcDbLayerTableRecord
  2
WARSTWA_1
 70
     0
 62
     1
  6
Continuous
370
    -3
390
F
347
EE
  0
LAYER
  5
55D
102
{ACAD_XDICTIONARY
360
55E
102
}
330
2
100
AcDbSymbolTableRecord
100
AcDbLayerTableRecord
  2
CENTRALA
 70
     0
 62
     7
  6
Continuous
370
    -3
390
F
347
EE
  0
LAYER
  5
58D
330
2
100
AcDbSymbolTableRecord
100
AcDbLayerTableRecord
  2
BOKI
 70
     0
 62
     7
  6
Continuous
370
    -3
390
F
347
EE
  0
LAYER
  5
58E
330
2
100
AcDbSymbolTableRecord
100
AcDbLayerTableRecord
  2
45_ST
 70
     0
 62
     7
  6
Continuous
370
    -3
390
F
347
EE
  0
LAYER
  5
58F
330
2
100
AcDbSymbolTableRecord
100
AcDbLayerTableRecord
  2
PIANKA_45
 70
     0
 62
     3
  6
Continuous
370
    -3
390
F
347
EE
  0
LAYER
  5
590
330
2
100
AcDbSymbolTableRecord
100
AcDbLayerTableRecord
  2
PIANKA12
 70
     0
 62
   136
  6
Continuous
370
    -3
390
F
347
EE
  0
LAYER
  5
591
330
2
100
AcDbSymbolTableRecord
100
AcDbLayerTableRecord
  2
WIERCENIE
 70
     0
 62
     7
  6
Continuous
370
    -3
390
F
347
EE
  0
LAYER
  5
592
330
2
100
AcDbSymbolTableRecord
100
AcDbLayerTableRecord
  2
GNIAZDO_ZASILANIA
 70
     0
 62
     7
  6
Continuous
370
    -3
390
F
347
EE
  0
LAYER
  5
664
330
2
100
AcDbSymbolTableRecord
100
AcDbLayerTableRecord
  2
WYCINKA
 70
     0
 62
     2
  6
Continuous
370
    -3
390
F
347
EE
  0
LAYER
  5
695
330
2
100
AcDbSymbolTableRecord
100
AcDbLayerTableRecord
  2
osie
 70
     0
 62
     2
  6
DASHDOT
370
    -3
390
F
347
EE
1001
AcAecLayerStandard
1000

1000

  0
LAYER
  5
6E5
330
2
100
AcDbSymbolTableRecord
100
AcDbLayerTableRecord
  2
ROZCIECIE
 70
     0
 62
     3
  6
Continuous
370
    -3
390
F
347
EE
  0
LAYER
  5
6E6
330
2
100
AcDbSymbolTableRecord
100
AcDbLayerTableRecord
  2
POLKI
 70
     0
 62
     5
  6
Continuous
370
    -3
390
F
347
EE
  0
LAYER
  5
6E7
330
2
100
AcDbSymbolTableRecord
100
AcDbLayerTableRecord
  2
ODPLYW
 70
     0
 62
     7
  6
Continuous
370
    -3
390
F
347
EE
  0
LAYER
  5
6E8
330
2
100
AcDbSymbolTableRecord
100
AcDbLayerTableRecord
  2
BYPASS_1_37
 70
     0
 62
     4
  6
Continuous
370
    -3
390
F
347
EE
  0
LAYER
  5
6E9
330
2
100
AcDbSymbolTableRecord
100
AcDbLayerTableRecord
  2
BYPASS_7_5
 70
     0
 62
     6
  6
Continuous
370
    -3
390
F
347
EE
  0
LAYER
  5
7B6
102
{ACAD_XDICTIONARY
360
7B7
102
}
330
2
100
AcDbSymbolTableRecord
100
AcDbLayerTableRecord
  2
wymiary
 70
     0
 62
     1
  6
Continuous
370
    -3
390
F
347
EE
  0
LAYER
  5
810
330
2
100
AcDbSymbolTableRecord
100
AcDbLayerTableRecord
  2
Defpoints
 70
     0
 62
     7
  6
Continuous
290
     0
370
    -3
390
F
347
EE
  0
ENDTAB
  0
TABLE
  2
STYLE
  5
3
330
0
100
AcDbSymbolTable
 70
     3
  0
STYLE
  5
11
330
3
100
AcDbSymbolTableRecord
100
AcDbTextStyleTableRecord
  2
Standard
 70
     0
 40
0.0
 41
1.0
 50
0.0
 71
     0
 42
2.5
  3
ARIAL.TTF
  4

1001
ACAD
1000
Arial
1071
       34
  0
STYLE
  5
132
330
3
100
AcDbSymbolTableRecord
100
AcDbTextStyleTableRecord
  2
Opisowy
 70
     0
 40
0.0
 41
1.0
 50
0.0
 71
     0
 42
2.5
  3
ARIAL.TTF
  4

1001
AcadAnnotative
1000
AnnotativeData
1002
{
1070
     1
1070
     1
1002
}
1001
ACAD
1000
Arial
1071
       34
  0
STYLE
  5
576
330
3
100
AcDbSymbolTableRecord
100
AcDbTextStyleTableRecord
  2
ARIAL
 70
     0
 40
1.0
 41
1.0
 50
0.0
 71
     0
 42
1.0
  3
Arial
  4

  0
ENDTAB
  0
TABLE
  2
VIEW
  5
6
330
0
100
AcDbSymbolTable
 70
     0
  0
ENDTAB
  0
TABLE
  2
UCS
  5
7
330
0
100
AcDbSymbolTable
 70
     0
  0
ENDTAB
  0
TABLE
  2
APPID
  5
9
330
0
100
AcDbSymbolTable
 70
    15
  0
APPID
  5
12
330
9
100
AcDbSymbolTableRecord
100
AcDbRegAppTableRecord
  2
ACAD
 70
     0
  0
APPID
  5
9E
330
9
100
AcDbSymbolTableRecord
100
AcDbRegAppTableRecord
  2
ACAD_PSEXT
 70
     0
  0
APPID
  5
133
330
9
100
AcDbSymbolTableRecord
100
AcDbRegAppTableRecord
  2
AcadAnnoPO
 70
     0
  0
APPID
  5
134
330
9
100
AcDbSymbolTableRecord
100
AcDbRegAppTableRecord
  2
AcadAnnotative
 70
     0
  0
APPID
  5
135
330
9
100
AcDbSymbolTableRecord
100
AcDbRegAppTableRecord
  2
ACAD_DSTYLE_DIMJAG
 70
     0
  0
APPID
  5
136
330
9
100
AcDbSymbolTableRecord
100
AcDbRegAppTableRecord
  2
ACAD_DSTYLE_DIMTALN
 70
     0
  0
APPID
  5
165
330
9
100
AcDbSymbolTableRecord
100
AcDbRegAppTableRecord
  2
ACAD_MLEADERVER
 70
     0
  0
APPID
  5
217
330
9
100
AcDbSymbolTableRecord
100
AcDbRegAppTableRecord
  2
ACAUTHENVIRON
 70
     0
  0
APPID
  5
239
330
9
100
AcDbSymbolTableRecord
100
AcDbRegAppTableRecord
  2
ACAD_DSTYLE_DIMBREAK
 70
     0
  0
APPID
  5
23A
330
9
100
AcDbSymbolTableRecord
100
AcDbRegAppTableRecord
  2
AcDbDynamicBlockGUID
 70
     0
  0
APPID
  5
23B
330
9
100
AcDbSymbolTableRecord
100
AcDbRegAppTableRecord
  2
AcDbBlockRepETag
 70
     0
  0
APPID
  5
249
330
9
100
AcDbSymbolTableRecord
100
AcDbRegAppTableRecord
  2
AcDbDynamicBlockTrueName
 70
     0
  0
APPID
  5
580
330
9
100
AcDbSymbolTableRecord
100
AcDbRegAppTableRecord
  2
ACAD_EXEMPT_FROM_CAD_STANDARDS
 70
     0
  0
APPID
  5
696
330
9
100
AcDbSymbolTableRecord
100
AcDbRegAppTableRecord
  2
AcAecLayerStandard
 70
     0
  0
APPID
  5
852
330
9
100
AcDbSymbolTableRecord
100
AcDbRegAppTableRecord
  2
ACAD_DSTYLE_DIMRADIAL_EXTENSION
 70
     0
  0
ENDTAB
  0
TABLE
  2
DIMSTYLE
  5
A
330
0
100
AcDbSymbolTable
 70
     4
100
AcDbDimStyleTable
 71
     2
340
27
340
137
  0
DIMSTYLE
105
1B0
330
A
100
AcDbSymbolTableRecord
100
AcDbDimStyleTableRecord
  2
Standard
 70
     0
340
11
  0
DIMSTYLE
105
137
330
A
100
AcDbSymbolTableRecord
100
AcDbDimStyleTableRecord
  2
Opisowy
 70
     0
 40
0.0
 41
2.5
 42
0.625
 43
3.75
 44
1.25
 73
     0
 74
     0
 77
     1
 78
     8
140
2.5
141
2.5
143
0.03937007874016
147
0.625
171
     3
172
     1
271
     2
272
     2
274
     3
278
    44
283
     0
284
     8
340
11
1001
AcadAnnotative
1000
AnnotativeData
1002
{
1070
     1
1070
     1
1002
}
1001
ACAD_DSTYLE_DIMJAG
1070
   388
1040
1.5
1001
ACAD_DSTYLE_DIMTALN
1070
   392
1070
     0
  0
DIMSTYLE
105
27
102
{ACAD_REACTORS
330
80F
330
83A
330
91D
330
937
330
961
330
979
330
991
330
9DF
330
9F7
330
A21
330
A39
330
A51
330
B20
330
B32
330
B44
330
B56
330
BA1
330
BB9
330
BE6
102
}
330
A
100
AcDbSymbolTableRecord
100
AcDbDimStyleTableRecord
  2
ISO-25
 70
     0
 41
18.0
 42
5.0
 43
3.75
 44
1.25
 73
     0
 77
     1
 78
     8
140
18.0
141
2.5
143
0.03937007874016
147
8.0
171
     3
172
     1
271
     0
272
     0
274
     3
278
    44
283
     0
284
     8
340
11
1001
ACAD_DSTYLE_DIMJAG
1070
   388
1040
1.5
1001
ACAD_DSTYLE_DIMTALN
1070
   392
1070
     0
  0
DIMSTYLE
105
238
330
A
100
AcDbSymbolTableRecord
100
AcDbDimStyleTableRecord
  2
CENTRALA
 70
     0
 41
15.0
 42
3.0
 73
     0
 74
     0
 77
     1
 90
     1
140
15.0
147
5.0
271
     0
272
     0
279
     2
340
11
1001
ACAD_DSTYLE_DIMBREAK
1070
   391
1040
0.125
1001
ACAD_DSTYLE_DIMJAG
1070
   388
1040
1.5
1001
ACAD_DSTYLE_DIMTALN
1070
   392
1070
     0
  0
ENDTAB
  0
TABLE
  2
BLOCK_RECORD
  5
1
330
0
100
AcDbSymbolTable
 70
    39
  0
BLOCK_RECORD
  5
1F
102
{ACAD_XDICTIONARY
360
1CE
102
}
330
1
100
AcDbSymbolTableRecord
100
AcDbBlockTableRecord
  2
*Model_Space
340
22
 70
     0
280
     1
281
     0
  0
BLOCK_RECORD
  5
D2
330
1
100
AcDbSymbolTableRecord
100
AcDbBlockTableRecord
  2
*Paper_Space
340
D3
 70
     0
280
     1
281
     0
  0
BLOCK_RECORD
  5
D6
330
1
100
AcDbSymbolTableRecord
100
AcDbBlockTableRecord
  2
*Paper_Space0
340
D7
 70
     0
280
     1
281
     0
  0
BLOCK_RECORD
  5
1ED
330
1
100
AcDbSymbolTableRecord
100
AcDbBlockTableRecord
  2
GNIAZDO_DEKIEL
340
0
102
{BLKREFS
331
1FD
331
1FE
331
200
331
201
102
}
 70
     0
280
     1
281
     0
  0
BLOCK_RECORD
  5
1F9
330
1
100
AcDbSymbolTableRecord
100
AcDbBlockTableRecord
  2
A$C4BC5773B
340
0
 70
     0
280
     1
281
     0
  0
BLOCK_RECORD
  5
256
102
{ACAD_XDICTIONARY
360
257
102
}
330
1
100
AcDbSymbolTableRecord
100
AcDbBlockTableRecord
  2
GALKA
340
0
102
{BLKREFS
331
565
331
566
331
567
331
568
102
}
 70
     0
280
     1
281
     0
1001
AcDbDynamicBlockGUID
1000
{11DD13DA-2B0D-4CEF-8BBD-7FA81B7EA628}
1001
AcDbBlockRepETag
1070
     1
1071
        2
  0
BLOCK_RECORD
  5
583
330
1
100
AcDbSymbolTableRecord
100
AcDbBlockTableRecord
  2
HAK_DUZY
340
0
102
{BLKREFS
331
5FC
331
5FD
331
6C4
331
6C5
331
78F
331
790
331
791
331
792
102
}
 70
     0
280
     1
281
     0
  0
BLOCK_RECORD
  5
636
330
1
100
AcDbSymbolTableRecord
100
AcDbBlockTableRecord
  2
GNIAZDO_ZASILANIA_20_A
340
0
 70
     0
280
     1
281
     0
  0
BLOCK_RECORD
  5
649
330
1
100
AcDbSymbolTableRecord
100
AcDbBlockTableRecord
  2
Galka-bok
340
0
310
2800000020000000200000000100080000000000000400000000000000000000000000000000000000000000000080000080000000808000800000008000800080800000C0C0C000C0DCC000F0CAA6000020400000206000002080000020A0000020C0000020E00000400000004020000040400000406000004080000040A0
310
000040C0000040E00000600000006020000060400000606000006080000060A0000060C0000060E00000800000008020000080400000806000008080000080A0000080C0000080E00000A0000000A0200000A0400000A0600000A0800000A0A00000A0C00000A0E00000C0000000C0200000C0400000C0600000C0800000C0
310
A00000C0C00000C0E00000E0000000E0200000E0400000E0600000E0800000E0A00000E0C00000E0E00040000000400020004000400040006000400080004000A0004000C0004000E00040200000402020004020400040206000402080004020A0004020C0004020E000404000004040200040404000404060004040800040
310
40A0004040C0004040E00040600000406020004060400040606000406080004060A0004060C0004060E00040800000408020004080400040806000408080004080A0004080C0004080E00040A0000040A0200040A0400040A0600040A0800040A0A00040A0C00040A0E00040C0000040C0200040C0400040C0600040C08000
310
40C0A00040C0C00040C0E00040E0000040E0200040E0400040E0600040E0800040E0A00040E0C00040E0E00080000000800020008000400080006000800080008000A0008000C0008000E00080200000802020008020400080206000802080008020A0008020C0008020E00080400000804020008040400080406000804080
310
008040A0008040C0008040E00080600000806020008060400080606000806080008060A0008060C0008060E00080800000808020008080400080806000808080008080A0008080C0008080E00080A0000080A0200080A0400080A0600080A0800080A0A00080A0C00080A0E00080C0000080C0200080C0400080C0600080C0
310
800080C0A00080C0C00080C0E00080E0000080E0200080E0400080E0600080E0800080E0A00080E0C00080E0E000C0000000C0002000C0004000C0006000C0008000C000A000C000C000C000E000C0200000C0202000C0204000C0206000C0208000C020A000C020C000C020E000C0400000C0402000C0404000C0406000C0
310
408000C040A000C040C000C040E000C0600000C0602000C0604000C0606000C0608000C060A000C060C000C060E000C0800000C0802000C0804000C0806000C0808000C080A000C080C000C080E000C0A00000C0A02000C0A04000C0A06000C0A08000C0A0A000C0A0C000C0A0E000C0C00000C0C02000C0C04000C0C06000
310
C0C08000C0C0A000F0FBFF00A4A0A000808080000000FF0000FF000000FFFF00FF000000FF00FF00FFFF0000FFFFFF00FFFFFFFFFFFFFFFFFFFFFFFFFFFFFFFFFFFFFFFFFFFFFFFFFFFFFFFFFFFFFFFFFFFFFFFFFFFFFFFFFFFFFFFFFFFFFFFFFFFFFFFFFFFFFFFFFFFFFFFFFFFFFFFFFFFFFFFFFFFFFFFFFFFFFFFFFFFFFF
310
FFFFFFFFFFFFFFFFFFFFFFFFFFFFFFFFFFFFFFFFFFFFFFFFFFFFFFFFFFFFFFFFFFFFFFFFFFFFFFFFFFFFFFFFFFFFFFFFFFFFFFFFFFFFFFFFFFFFFFFFFFFFFFFFFFFFFFFFFFFFFFFFFFFFFFFFFFFFFFFFFFFFFFFFFFFFFFFFFFFFFFFFFFFFFFFFFFFFFFFFFFFFFFFFFFFFFFFFFFFFFFFFFFFFFFFFFFFFFFFFFFFFFFFFFFFFFF
310
FFFFFFFFFFFFFFFFFFFFFFFFFFFFFFFFFFFFFFFFFFFFFFFFFFFFFCFCFCFCFCFCFCFCFCFCFCFCFCFCFCFCFFFFFFFFFFFFFFFFFFFFFFFFFFFFFFFFFCFFFFFFFFFFFFFFFFFFFFFFFFFFFFFCFFFFFFFFFFFFFFFFFFFFFFFFFFFFFFFFFCFFFFFFFFFFFFFFFFFFFFFFFFFFFFFCFFFFFFFFFFFFFFFFFFFFFFFFFFFFFFFFFCFFFFFFFF
310
FFFFFFFFFFFFFFFFFFFFFCFFFFFFFFFFFFFFFFFFFFFFFFFFFFFFFFFCFFFFFFFFFFFFFFFFFFFFFFFFFFFFFCFFFFFFFFFFFFFFFFFFFFFFFFFFFFFFFFFCFFFFFFFFFFFFFFFFFFFFFFFFFFFFFCFFFFFFFFFFFFFFFFFFFCFCFCFCFCFCFCFCFCFCFCFCFCFCFCFCFCFCFCFCFCFCFCFCFCFCFCFCFCFCFFFFFCFFFFFCFFFFFFFFFFFFFF
310
FFFFFFFFFFFFFFFFFFFFFFFFFFFFFFFFFFFFFCFFFFFCFFFFFCFFFFFFFFFFFFFFFFFFFFFFFFFFFFFFFFFFFFFFFFFFFFFFFFFFFCFFFFFCFFFFFCFFFFFFFFFFFFFFFFFFFFFFFFFFFFFFFFFFFFFFFFFFFFFFFFFFFCFFFFFCFFFFFCFFFFFFFFFFFFFFFFFFFFFFFFFFFFFFFFFFFFFFFFFFFFFFFFFFFCFFFFFCFFFCFCFFFFFFFFFFFF
310
FFFFFFFFFFFFFFFFFFFFFFFFFFFFFFFFFFFCFCFCFFFFFFFCFCFCFCFFFFFFFFFFFFFFFFFFFFFFFFFFFFFFFFFFFFFFFFFFFCFCFFFCFFFFFFFCFCFFFCFFFFFFFFFFFFFFFFFFFFFFFFFFFFFFFFFFFFFFFFFCFCFFFCFFFFFFFFFFFCFFFFFCFFFFFFFFFFFFFFFFFFFFFFFFFFFFFFFFFFFCFCFFFFFFFCFFFFFFFFFFFCFCFFFCFCFFFF
310
FFFFFFFFFFFFFFFFFFFFFFFFFCFCFCFFFFFFFCFFFFFFFFFFFFFFFCFCFFFCFCFFFFFFFFFFFFFFFFFFFFFCFCFCFCFFFFFFFCFCFFFFFFFFFFFFFFFFFFFCFCFCFCFCFCFCFCFCFCFCFCFCFCFCFCFCFCFCFCFCFFFFFFFFFFFFFFFFFFFFFFFFFFFFFFFFFFFFFFFFFFFFFFFFFFFFFFFFFFFFFFFFFFFFFFFFFFFFFFFFFFFFFFFFFFFFFF
310
FFFFFFFFFFFFFFFFFFFFFFFFFFFFFFFFFFFFFFFFFFFFFFFFFFFFFFFFFFFFFFFFFFFFFFFFFFFFFFFFFFFFFFFFFFFFFFFFFFFFFFFFFFFFFFFFFFFFFFFFFFFFFFFFFFFFFFFFFFFFFFFFFFFFFFFFFFFFFFFFFFFFFFFFFFFFFFFFFFFFFFFFFFFFFFFFFFFFFFFFFFFFFFFFFFFFFFFFFFFFFFFFFFFFFFFFFFFFFFFFFFFFFFFFFFFFFF
310
FFFFFFFFFFFFFFFFFFFFFFFFFFFFFFFFFFFFFFFFFFFFFFFFFFFFFFFFFFFFFFFFFFFFFFFFFFFFFFFFFFFFFFFFFFFFFFFFFFFFFFFFFFFFFFFF
102
{BLKREFS
331
65B
331
662
331
663
331
6D3
331
6D4
331
75E
331
75F
102
}
 70
     4
280
     1
281
     0
  0
BLOCK_RECORD
  5
65A
102
{ACAD_XDICTIONARY
360
65C
102
}
330
1
100
AcDbSymbolTableRecord
100
AcDbBlockTableRecord
  2
A$C1F7916CD
340
0
 70
     4
280
     1
281
     0
  0
BLOCK_RECORD
  5
6A9
102
{ACAD_XDICTIONARY
360
6AB
102
}
330
1
100
AcDbSymbolTableRecord
100
AcDbBlockTableRecord
  2
*U8
340
0
 70
     4
280
     1
281
     0
1001
AcDbDynamicBlockTrueName
1000
A$C29337A88
1001
AcDbDynamicBlockGUID
1000
{C5079F15-6ABB-43A9-9B87-F25A0D2BEFCB}
  0
BLOCK_RECORD
  5
811
330
1
100
AcDbSymbolTableRecord
100
AcDbBlockTableRecord
  2
*D9
340
0
 70
     0
280
     1
281
     0
  0
BLOCK_RECORD
  5
83B
330
1
100
AcDbSymbolTableRecord
100
AcDbBlockTableRecord
  2
*D10
340
0
 70
     0
280
     1
281
     0
  0
BLOCK_RECORD
  5
854
330
1
100
AcDbSymbolTableRecord
100
AcDbBlockTableRecord
  2
*D11
340
0
 70
     0
280
     1
281
     0
  0
BLOCK_RECORD
  5
864
330
1
100
AcDbSymbolTableRecord
100
AcDbBlockTableRecord
  2
*D12
340
0
 70
     0
280
     1
281
     0
  0
BLOCK_RECORD
  5
87C
330
1
100
AcDbSymbolTableRecord
100
AcDbBlockTableRecord
  2
*D13
340
0
 70
     0
280
     1
281
     0
  0
BLOCK_RECORD
  5
894
330
1
100
AcDbSymbolTableRecord
100
AcDbBlockTableRecord
  2
*D14
340
0
 70
     0
280
     1
281
     0
  0
BLOCK_RECORD
  5
8A4
330
1
100
AcDbSymbolTableRecord
100
AcDbBlockTableRecord
  2
*D15
340
0
 70
     0
280
     1
281
     0
  0
BLOCK_RECORD
  5
8B4
330
1
100
AcDbSymbolTableRecord
100
AcDbBlockTableRecord
  2
*D16
340
0
 70
     0
280
     1
281
     0
  0
BLOCK_RECORD
  5
8CA
330
1
100
AcDbSymbolTableRecord
100
AcDbBlockTableRecord
  2
*D17
340
0
 70
     0
280
     1
281
     0
  0
BLOCK_RECORD
  5
8DA
330
1
100
AcDbSymbolTableRecord
100
AcDbBlockTableRecord
  2
*D18
340
0
 70
     0
280
     1
281
     0
  0
BLOCK_RECORD
  5
8EA
330
1
100
AcDbSymbolTableRecord
100
AcDbBlockTableRecord
  2
*D19
340
0
 70
     0
280
     1
281
     0
  0
BLOCK_RECORD
  5
906
330
1
100
AcDbSymbolTableRecord
100
AcDbBlockTableRecord
  2
*D20
340
0
 70
     0
280
     1
281
     0
  0
BLOCK_RECORD
  5
91E
330
1
100
AcDbSymbolTableRecord
100
AcDbBlockTableRecord
  2
*D21
340
0
 70
     0
280
     1
281
     0
  0
BLOCK_RECORD
  5
938
330
1
100
AcDbSymbolTableRecord
100
AcDbBlockTableRecord
  2
*D22
340
0
 70
     0
280
     1
281
     0
  0
BLOCK_RECORD
  5
962
330
1
100
AcDbSymbolTableRecord
100
AcDbBlockTableRecord
  2
*D23
340
0
 70
     0
280
     1
281
     0
  0
BLOCK_RECORD
  5
97A
330
1
100
AcDbSymbolTableRecord
100
AcDbBlockTableRecord
  2
*D24
340
0
 70
     0
280
     1
281
     0
  0
BLOCK_RECORD
  5
992
330
1
100
AcDbSymbolTableRecord
100
AcDbBlockTableRecord
  2
*D25
340
0
 70
     0
280
     1
281
     0
  0
BLOCK_RECORD
  5
9E0
330
1
100
AcDbSymbolTableRecord
100
AcDbBlockTableRecord
  2
*D26
340
0
 70
     0
280
     1
281
     0
  0
BLOCK_RECORD
  5
9F8
330
1
100
AcDbSymbolTableRecord
100
AcDbBlockTableRecord
  2
*D27
340
0
 70
     0
280
     1
281
     0
  0
BLOCK_RECORD
  5
A22
330
1
100
AcDbSymbolTableRecord
100
AcDbBlockTableRecord
  2
*D28
340
0
 70
     0
280
     1
281
     0
  0
BLOCK_RECORD
  5
A3A
330
1
100
AcDbSymbolTableRecord
100
AcDbBlockTableRecord
  2
*D29
340
0
 70
     0
280
     1
281
     0
  0
BLOCK_RECORD
  5
A52
330
1
100
AcDbSymbolTableRecord
100
AcDbBlockTableRecord
  2
*D30
340
0
 70
     0
280
     1
281
     0
  0
BLOCK_RECORD
  5
B0B
330
1
100
AcDbSymbolTableRecord
100
AcDbBlockTableRecord
  2
*D31
340
0
 70
     0
280
     1
281
     0
  0
BLOCK_RECORD
  5
B21
330
1
100
AcDbSymbolTableRecord
100
AcDbBlockTableRecord
  2
*D32
340
0
 70
     0
280
     1
281
     0
  0
BLOCK_RECORD
  5
B33
330
1
100
AcDbSymbolTableRecord
100
AcDbBlockTableRecord
  2
*D33
340
0
 70
     0
280
     1
281
     0
  0
BLOCK_RECORD
  5
B45
330
1
100
AcDbSymbolTableRecord
100
AcDbBlockTableRecord
  2
*D34
340
0
 70
     0
280
     1
281
     0
  0
BLOCK_RECORD
  5
B57
330
1
100
AcDbSymbolTableRecord
100
AcDbBlockTableRecord
  2
*D35
340
0
 70
     0
280
     1
281
     0
  0
BLOCK_RECORD
  5
BA2
330
1
100
AcDbSymbolTableRecord
100
AcDbBlockTableRecord
  2
*D36
340
0
 70
     0
280
     1
281
     0
  0
BLOCK_RECORD
  5
BBA
330
1
100
AcDbSymbolTableRecord
100
AcDbBlockTableRecord
  2
*D37
340
0
 70
     0
280
     1
281
     0
  0
BLOCK_RECORD
  5
BE7
330
1
100
AcDbSymbolTableRecord
100
AcDbBlockTableRecord
  2
*D38
340
0
 70
     0
280
     1
281
     0
  0
ENDTAB
  0
ENDSEC
  0
SECTION
  2
BLOCKS
  0
BLOCK
  5
20
330
1F
100
AcDbEntity
  8
0
100
AcDbBlockBegin
  2
*Model_Space
 70
     0
 10
0.0
 20
0.0
 30
0.0
  3
*Model_Space
  1

  0
ENDBLK
  5
21
330
1F
100
AcDbEntity
  8
0
100
AcDbBlockEnd
  0
BLOCK
  5
D4
330
D2
100
AcDbEntity
 67
     1
  8
0
100
AcDbBlockBegin
  2
*Paper_Space
 70
     0
 10
0.0
 20
0.0
 30
0.0
  3
*Paper_Space
  1

  0
ENDBLK
  5
D5
330
D2
100
AcDbEntity
 67
     1
  8
0
100
AcDbBlockEnd
  0
BLOCK
  5
D8
330
D6
100
AcDbEntity
 67
     1
  8
0
100
AcDbBlockBegin
  2
*Paper_Space0
 70
     0
 10
0.0
 20
0.0
 30
0.0
  3
*Paper_Space0
  1

  0
ENDBLK
  5
D9
330
D6
100
AcDbEntity
 67
     1
  8
0
100
AcDbBlockEnd
  0
BLOCK
  5
1EE
330
1ED
100
AcDbEntity
  8
0
100
AcDbBlockBegin
  2
GNIAZDO_DEKIEL
 70
     0
 10
0.0
 20
0.0
 30
0.0
  3
GNIAZDO_DEKIEL
  1

  0
CIRCLE
  5
1EF
330
1ED
100
AcDbEntity
  8
POMOCNICZE
  6
Continuous
100
AcDbCircle
 10
0.0
 20
10.25
 30
0.0
 40
1.75
  0
CIRCLE
  5
1F0
330
1ED
100
AcDbEntity
  8
POMOCNICZE
  6
Continuous
100
AcDbCircle
 10
0.0
 20
-10.25
 30
0.0
 40
1.75
  0
LWPOLYLINE
  5
1F1
330
1ED
100
AcDbEntity
  8
POMOCNICZE
  6
Continuous
100
AcDbPolyline
 90
        8
 70
     1
 43
0.0
 10
4.61654632815475
 20
2.5
 10
8.5
 20
2.5
 10
8.5
 20
-2.5
 10
4.61654632815475
 20
-2.5
 42
-0.5956833971812652
 10
-4.61654632815475
 20
-2.5
 10
-8.5
 20
-2.5
 10
-8.5
 20
2.5
 10
-4.61654632815475
 20
2.5
 42
-0.595683397181265
  0
LWPOLYLINE
  5
1F2
330
1ED
100
AcDbEntity
  8
POMOCNICZE
  6
Continuous
100
AcDbPolyline
 90
        4
 70
     1
 43
0.0
 10
4.898979485566313
 20
11.5
 42
0.8164965809277243
 10
-4.898979485566313
 20
11.5
 42
0.6609583056029279
 10
-4.898979485566313
 20
-11.5
 42
0.8164965809277243
 10
4.898979485566313
 20
-11.5
 42
0.6609583056029279
  0
ENDBLK
  5
1F3
330
1ED
100
AcDbEntity
  8
0
100
AcDbBlockEnd
  0
BLOCK
  5
20B
330
1F9
100
AcDbEntity
  8
0
100
AcDbBlockBegin
  2
A$C4BC5773B
 70
     0
 10
0.0
 20
0.0
 30
0.0
  3
A$C4BC5773B
  1

  0
LWPOLYLINE
  5
1FA
330
1F9
100
AcDbEntity
  8
KONTURY
100
AcDbPolyline
 90
        4
 70
     1
 43
0.0
 10
0.0000032061161619
 20
0.0000018587836905
 10
0.0000032061161619
 20
300.0000018587834
 10
900.0000032061187
 20
300.0000018587834
 10
900.0000032061187
 20
0.0000018587836905
  0
LWPOLYLINE
  5
1FB
330
1F9
100
AcDbEntity
  8
POMOCNICZE
100
AcDbPolyline
 90
        4
 70
     1
 43
0.0
 10
10.00000320611755
 20
10.00000185878366
 10
10.00000320611755
 20
290.0000018587834
 10
890.0000032061175
 20
290.0000018587834
 10
890.0000032061175
 20
10.00000185878366
  0
LWPOLYLINE
  5
1FC
330
1F9
100
AcDbEntity
  8
KONTURY
100
AcDbPolyline
 90
        4
 70
     1
 43
0.0
 10
0.0000032061161619
 20
0.0000018587836905
 10
0.0000032061161619
 20
300.0000018587834
 10
160.0000032061185
 20
300.0000018587834
 10
160.0000032061185
 20
0.0000018587836905
  0
INSERT
  5
1FD
330
1F9
100
AcDbEntity
  8
BLOKI
100
AcDbBlockReference
  2
GNIAZDO_DEKIEL
 10
146.5000032061166
 20
246.5000018587834
 30
0.0
  0
INSERT
  5
1FE
330
1F9
100
AcDbEntity
  8
BLOKI
100
AcDbBlockReference
  2
GNIAZDO_DEKIEL
 10
146.5000032061166
 20
53.50000185878338
 30
0.0
  0
LWPOLYLINE
  5
1FF
330
1F9
100
AcDbEntity
  8
KONTURY
100
AcDbPolyline
 90
        4
 70
     1
 43
0.0
 10
740.0000032061178
 20
0.0000018587836905
 10
740.0000032061178
 20
300.0000018587834
 10
900.0000032061187
 20
300.0000018587834
 10
900.0000032061187
 20
0.0000018587836905
  0
INSERT
  5
200
330
1F9
100
AcDbEntity
  8
BLOKI
100
AcDbBlockReference
  2
GNIAZDO_DEKIEL
 10
753.5000032061202
 20
246.5000018587834
 30
0.0
  0
INSERT
  5
201
330
1F9
100
AcDbEntity
  8
BLOKI
100
AcDbBlockReference
  2
GNIAZDO_DEKIEL
 10
753.5000032061202
 20
53.50000185878338
 30
0.0
  0
LWPOLYLINE
  5
202
330
1F9
100
AcDbEntity
  8
KONTURY
100
AcDbPolyline
 90
        4
 70
     1
 43
0.0
 10
119.0000032061184
 20
299.0000018587835
 10
781.0000032061187
 20
299.0000018587835
 10
781.0000032061187
 20
1.000001858783689
 10
119.0000032061184
 20
1.000001858783689
  0
CIRCLE
  5
203
330
1F9
100
AcDbEntity
  8
KONTURY
100
AcDbCircle
 10
146.5000032061166
 20
246.5000018587834
 30
0.0
 40
0.5
  0
CIRCLE
  5
204
330
1F9
100
AcDbEntity
  8
KONTURY
100
AcDbCircle
 10
146.5000032061166
 20
53.50000185878338
 30
0.0
 40
0.5
  0
CIRCLE
  5
205
330
1F9
100
AcDbEntity
  8
KONTURY
100
AcDbCircle
 10
753.5000032061202
 20
53.50000185878338
 30
0.0
 40
0.5
  0
CIRCLE
  5
206
330
1F9
100
AcDbEntity
  8
KONTURY
100
AcDbCircle
 10
753.5000032061202
 20
246.5000018587834
 30
0.0
 40
0.5
  0
LWPOLYLINE
  5
207
330
1F9
100
AcDbEntity
  8
KONTURY
100
AcDbPolyline
 90
        4
 70
     1
 43
0.0
 10
806.000003206123
 20
268.5000018587834
 10
861.0000032061229
 20
268.5000018587834
 10
861.0000032061229
 20
31.50000185878349
 10
806.000003206123
 20
31.50000185878349
  0
LWPOLYLINE
  5
208
330
1F9
100
AcDbEntity
  8
POLKI_PRZEDNIE
100
AcDbPolyline
 90
        4
 70
     1
 43
0.0
 10
809.0000032061228
 20
265.5000018587834
 10
858.0000032061231
 20
265.5000018587834
 10
858.0000032061231
 20
34.50000185878338
 10
809.0000032061228
 20
34.50000185878338
  0
LWPOLYLINE
  5
209
330
1F9
100
AcDbEntity
  8
KONTURY
100
AcDbPolyline
 90
        4
 70
     1
 43
0.0
 10
39.00000320611207
 20
268.5000018587834
 10
94.00000320611194
 20
268.5000018587834
 10
94.00000320611194
 20
31.50000185878349
 10
39.00000320611207
 20
31.50000185878349
  0
LWPOLYLINE
  5
20A
330
1F9
100
AcDbEntity
  8
POLKI_PRZEDNIE
100
AcDbPolyline
 90
        4
 70
     1
 43
0.0
 10
42.00000320611207
 20
265.5000018587834
 10
91.00000320611199
 20
265.5000018587834
 10
91.00000320611199
 20
34.50000185878338
 10
42.00000320611207
 20
34.50000185878338
  0
ENDBLK
  5
20C
330
1F9
100
AcDbEntity
  8
0
100
AcDbBlockEnd
  0
BLOCK
  5
258
330
256
100
AcDbEntity
  8
0
100
AcDbBlockBegin
  2
GALKA
 70
     0
 10
0.0
 20
0.0
 30
0.0
  3
GALKA
  1

  0
POLYLINE
  5
259
330
256
100
AcDbEntity
  8
CENTRALA
 62
     5
100
AcDb3dPolyline
 66
     1
 10
0.0
 20
0.0
 30
0.0
 70
     8
1001
AcDbBlockRepETag
1070
     1
1071
        0
1005
259
  0
VERTEX
  5
25A
330
259
100
AcDbEntity
  8
CENTRALA
 62
     5
100
AcDbVertex
100
AcDb3dPolylineVertex
 10
-17.0
 20
15.2745
 30
0.0
 70
    32
  0
VERTEX
  5
25B
330
259
100
AcDbEntity
  8
CENTRALA
 62
     5
100
AcDbVertex
100
AcDb3dPolylineVertex
 10
-16.8282
 20
15.3273
 30
0.0
 70
    32
  0
VERTEX
  5
25C
330
259
100
AcDbEntity
  8
CENTRALA
 62
     5
100
AcDbVertex
100
AcDb3dPolylineVertex
 10
-16.6563
 20
15.3801
 30
0.0
 70
    32
  0
VERTEX
  5
25D
330
259
100
AcDbEntity
  8
CENTRALA
 62
     5
100
AcDbVertex
100
AcDb3dPolylineVertex
 10
-16.4845
 20
15.4327
 30
0.0
 70
    32
  0
VERTEX
  5
25E
330
259
100
AcDbEntity
  8
CENTRALA
 62
     5
100
AcDbVertex
100
AcDb3dPolylineVertex
 10
-16.3126
 20
15.4852
 30
0.0
 70
    32
  0
VERTEX
  5
25F
330
259
100
AcDbEntity
  8
CENTRALA
 62
     5
100
AcDbVertex
100
AcDb3dPolylineVertex
 10
-16.1407
 20
15.5375
 30
0.0
 70
    32
  0
VERTEX
  5
260
330
259
100
AcDbEntity
  8
CENTRALA
 62
     5
100
AcDbVertex
100
AcDb3dPolylineVertex
 10
-15.9688
 20
15.5895
 30
0.0
 70
    32
  0
VERTEX
  5
261
330
259
100
AcDbEntity
  8
CENTRALA
 62
     5
100
AcDbVertex
100
AcDb3dPolylineVertex
 10
-15.7969
 20
15.6412
 30
0.0
 70
    32
  0
VERTEX
  5
262
330
259
100
AcDbEntity
  8
CENTRALA
 62
     5
100
AcDbVertex
100
AcDb3dPolylineVertex
 10
-15.625
 20
15.6925
 30
0.0
 70
    32
  0
VERTEX
  5
263
330
259
100
AcDbEntity
  8
CENTRALA
 62
     5
100
AcDbVertex
100
AcDb3dPolylineVertex
 10
-15.453
 20
15.7434
 30
0.0
 70
    32
  0
VERTEX
  5
264
330
259
100
AcDbEntity
  8
CENTRALA
 62
     5
100
AcDbVertex
100
AcDb3dPolylineVertex
 10
-15.281
 20
15.7937
 30
0.0
 70
    32
  0
VERTEX
  5
265
330
259
100
AcDbEntity
  8
CENTRALA
 62
     5
100
AcDbVertex
100
AcDb3dPolylineVertex
 10
-15.109
 20
15.8436
 30
0.0
 70
    32
  0
VERTEX
  5
266
330
259
100
AcDbEntity
  8
CENTRALA
 62
     5
100
AcDbVertex
100
AcDb3dPolylineVertex
 10
-14.9369
 20
15.8929
 30
0.0
 70
    32
  0
VERTEX
  5
267
330
259
100
AcDbEntity
  8
CENTRALA
 62
     5
100
AcDbVertex
100
AcDb3dPolylineVertex
 10
-14.7648
 20
15.9415
 30
0.0
 70
    32
  0
VERTEX
  5
268
330
259
100
AcDbEntity
  8
CENTRALA
 62
     5
100
AcDbVertex
100
AcDb3dPolylineVertex
 10
-14.5926
 20
15.9894
 30
0.0
 70
    32
  0
VERTEX
  5
269
330
259
100
AcDbEntity
  8
CENTRALA
 62
     5
100
AcDbVertex
100
AcDb3dPolylineVertex
 10
-14.4204
 20
16.0366
 30
0.0
 70
    32
  0
VERTEX
  5
26A
330
259
100
AcDbEntity
  8
CENTRALA
 62
     5
100
AcDbVertex
100
AcDb3dPolylineVertex
 10
-14.2481
 20
16.083
 30
0.0
 70
    32
  0
VERTEX
  5
26B
330
259
100
AcDbEntity
  8
CENTRALA
 62
     5
100
AcDbVertex
100
AcDb3dPolylineVertex
 10
-14.0758
 20
16.1285
 30
0.0
 70
    32
  0
VERTEX
  5
26C
330
259
100
AcDbEntity
  8
CENTRALA
 62
     5
100
AcDbVertex
100
AcDb3dPolylineVertex
 10
-13.9034
 20
16.1731
 30
0.0
 70
    32
  0
VERTEX
  5
26D
330
259
100
AcDbEntity
  8
CENTRALA
 62
     5
100
AcDbVertex
100
AcDb3dPolylineVertex
 10
-13.7309
 20
16.2167
 30
0.0
 70
    32
  0
VERTEX
  5
26E
330
259
100
AcDbEntity
  8
CENTRALA
 62
     5
100
AcDbVertex
100
AcDb3dPolylineVertex
 10
-13.5584
 20
16.2593
 30
0.0
 70
    32
  0
VERTEX
  5
26F
330
259
100
AcDbEntity
  8
CENTRALA
 62
     5
100
AcDbVertex
100
AcDb3dPolylineVertex
 10
-13.3858
 20
16.3009
 30
0.0
 70
    32
  0
VERTEX
  5
270
330
259
100
AcDbEntity
  8
CENTRALA
 62
     5
100
AcDbVertex
100
AcDb3dPolylineVertex
 10
-13.2131
 20
16.3413
 30
0.0
 70
    32
  0
VERTEX
  5
271
330
259
100
AcDbEntity
  8
CENTRALA
 62
     5
100
AcDbVertex
100
AcDb3dPolylineVertex
 10
-13.0403
 20
16.3805
 30
0.0
 70
    32
  0
VERTEX
  5
272
330
259
100
AcDbEntity
  8
CENTRALA
 62
     5
100
AcDbVertex
100
AcDb3dPolylineVertex
 10
-12.8675
 20
16.4185
 30
0.0
 70
    32
  0
VERTEX
  5
273
330
259
100
AcDbEntity
  8
CENTRALA
 62
     5
100
AcDbVertex
100
AcDb3dPolylineVertex
 10
-12.6946
 20
16.4552
 30
0.0
 70
    32
  0
VERTEX
  5
274
330
259
100
AcDbEntity
  8
CENTRALA
 62
     5
100
AcDbVertex
100
AcDb3dPolylineVertex
 10
-12.5215
 20
16.4906
 30
0.0
 70
    32
  0
VERTEX
  5
275
330
259
100
AcDbEntity
  8
CENTRALA
 62
     5
100
AcDbVertex
100
AcDb3dPolylineVertex
 10
-12.3484
 20
16.5246
 30
0.0
 70
    32
  0
VERTEX
  5
276
330
259
100
AcDbEntity
  8
CENTRALA
 62
     5
100
AcDbVertex
100
AcDb3dPolylineVertex
 10
-12.1752
 20
16.5571
 30
0.0
 70
    32
  0
VERTEX
  5
277
330
259
100
AcDbEntity
  8
CENTRALA
 62
     5
100
AcDbVertex
100
AcDb3dPolylineVertex
 10
-12.0019
 20
16.5881
 30
0.0
 70
    32
  0
VERTEX
  5
278
330
259
100
AcDbEntity
  8
CENTRALA
 62
     5
100
AcDbVertex
100
AcDb3dPolylineVertex
 10
-11.8285
 20
16.6176
 30
0.0
 70
    32
  0
VERTEX
  5
279
330
259
100
AcDbEntity
  8
CENTRALA
 62
     5
100
AcDbVertex
100
AcDb3dPolylineVertex
 10
-11.655
 20
16.6454
 30
0.0
 70
    32
  0
VERTEX
  5
27A
330
259
100
AcDbEntity
  8
CENTRALA
 62
     5
100
AcDbVertex
100
AcDb3dPolylineVertex
 10
-11.4813
 20
16.6716
 30
0.0
 70
    32
  0
VERTEX
  5
27B
330
259
100
AcDbEntity
  8
CENTRALA
 62
     5
100
AcDbVertex
100
AcDb3dPolylineVertex
 10
-11.3076
 20
16.6961
 30
0.0
 70
    32
  0
VERTEX
  5
27C
330
259
100
AcDbEntity
  8
CENTRALA
 62
     5
100
AcDbVertex
100
AcDb3dPolylineVertex
 10
-11.1337
 20
16.7188
 30
0.0
 70
    32
  0
VERTEX
  5
27D
330
259
100
AcDbEntity
  8
CENTRALA
 62
     5
100
AcDbVertex
100
AcDb3dPolylineVertex
 10
-10.9597
 20
16.7397
 30
0.0
 70
    32
  0
VERTEX
  5
27E
330
259
100
AcDbEntity
  8
CENTRALA
 62
     5
100
AcDbVertex
100
AcDb3dPolylineVertex
 10
-10.7856
 20
16.7587
 30
0.0
 70
    32
  0
VERTEX
  5
27F
330
259
100
AcDbEntity
  8
CENTRALA
 62
     5
100
AcDbVertex
100
AcDb3dPolylineVertex
 10
-10.6113
 20
16.7757
 30
0.0
 70
    32
  0
VERTEX
  5
280
330
259
100
AcDbEntity
  8
CENTRALA
 62
     5
100
AcDbVertex
100
AcDb3dPolylineVertex
 10
-10.4369
 20
16.7908
 30
0.0
 70
    32
  0
VERTEX
  5
281
330
259
100
AcDbEntity
  8
CENTRALA
 62
     5
100
AcDbVertex
100
AcDb3dPolylineVertex
 10
-10.2624
 20
16.8039
 30
0.0
 70
    32
  0
VERTEX
  5
282
330
259
100
AcDbEntity
  8
CENTRALA
 62
     5
100
AcDbVertex
100
AcDb3dPolylineVertex
 10
-10.0877
 20
16.8148
 30
0.0
 70
    32
  0
VERTEX
  5
283
330
259
100
AcDbEntity
  8
CENTRALA
 62
     5
100
AcDbVertex
100
AcDb3dPolylineVertex
 10
-9.9129
 20
16.8236
 30
0.0
 70
    32
  0
VERTEX
  5
284
330
259
100
AcDbEntity
  8
CENTRALA
 62
     5
100
AcDbVertex
100
AcDb3dPolylineVertex
 10
-9.73794
 20
16.8302
 30
0.0
 70
    32
  0
VERTEX
  5
285
330
259
100
AcDbEntity
  8
CENTRALA
 62
     5
100
AcDbVertex
100
AcDb3dPolylineVertex
 10
-9.56282
 20
16.8346
 30
0.0
 70
    32
  0
VERTEX
  5
286
330
259
100
AcDbEntity
  8
CENTRALA
 62
     5
100
AcDbVertex
100
AcDb3dPolylineVertex
 10
-9.387549999999999
 20
16.8366
 30
0.0
 70
    32
  0
VERTEX
  5
287
330
259
100
AcDbEntity
  8
CENTRALA
 62
     5
100
AcDbVertex
100
AcDb3dPolylineVertex
 10
-9.21212
 20
16.8363
 30
0.0
 70
    32
  0
VERTEX
  5
288
330
259
100
AcDbEntity
  8
CENTRALA
 62
     5
100
AcDbVertex
100
AcDb3dPolylineVertex
 10
-9.036519999999999
 20
16.8336
 30
0.0
 70
    32
  0
VERTEX
  5
289
330
259
100
AcDbEntity
  8
CENTRALA
 62
     5
100
AcDbVertex
100
AcDb3dPolylineVertex
 10
-8.86076
 20
16.8284
 30
0.0
 70
    32
  0
VERTEX
  5
28A
330
259
100
AcDbEntity
  8
CENTRALA
 62
     5
100
AcDbVertex
100
AcDb3dPolylineVertex
 10
-8.684829999999998
 20
16.8207
 30
0.0
 70
    32
  0
VERTEX
  5
28B
330
259
100
AcDbEntity
  8
CENTRALA
 62
     5
100
AcDbVertex
100
AcDb3dPolylineVertex
 10
-8.50872
 20
16.8104
 30
0.0
 70
    32
  0
VERTEX
  5
28C
330
259
100
AcDbEntity
  8
CENTRALA
 62
     5
100
AcDbVertex
100
AcDb3dPolylineVertex
 10
-8.33243
 20
16.7974
 30
0.0
 70
    32
  0
VERTEX
  5
28D
330
259
100
AcDbEntity
  8
CENTRALA
 62
     5
100
AcDbVertex
100
AcDb3dPolylineVertex
 10
-8.155969999999998
 20
16.7818
 30
0.0
 70
    32
  0
VERTEX
  5
28E
330
259
100
AcDbEntity
  8
CENTRALA
 62
     5
100
AcDbVertex
100
AcDb3dPolylineVertex
 10
-7.979319999999997
 20
16.7635
 30
0.0
 70
    32
  0
VERTEX
  5
28F
330
259
100
AcDbEntity
  8
CENTRALA
 62
     5
100
AcDbVertex
100
AcDb3dPolylineVertex
 10
-7.80248
 20
16.7423
 30
0.0
 70
    32
  0
VERTEX
  5
290
330
259
100
AcDbEntity
  8
CENTRALA
 62
     5
100
AcDbVertex
100
AcDb3dPolylineVertex
 10
-7.625439999999997
 20
16.7183
 30
0.0
 70
    32
  0
VERTEX
  5
291
330
259
100
AcDbEntity
  8
CENTRALA
 62
     5
100
AcDbVertex
100
AcDb3dPolylineVertex
 10
-7.44822
 20
16.6915
 30
0.0
 70
    32
  0
VERTEX
  5
292
330
259
100
AcDbEntity
  8
CENTRALA
 62
     5
100
AcDbVertex
100
AcDb3dPolylineVertex
 10
-7.270789999999997
 20
16.6616
 30
0.0
 70
    32
  0
VERTEX
  5
293
330
259
100
AcDbEntity
  8
CENTRALA
 62
     5
100
AcDbVertex
100
AcDb3dPolylineVertex
 10
-7.093160000000001
 20
16.6288
 30
0.0
 70
    32
  0
VERTEX
  5
294
330
259
100
AcDbEntity
  8
CENTRALA
 62
     5
100
AcDbVertex
100
AcDb3dPolylineVertex
 10
-6.915319999999997
 20
16.5929
 30
0.0
 70
    32
  0
VERTEX
  5
295
330
259
100
AcDbEntity
  8
CENTRALA
 62
     5
100
AcDbVertex
100
AcDb3dPolylineVertex
 10
-6.737269999999997
 20
16.5539
 30
0.0
 70
    32
  0
VERTEX
  5
296
330
259
100
AcDbEntity
  8
CENTRALA
 62
     5
100
AcDbVertex
100
AcDb3dPolylineVertex
 10
-6.55901
 20
16.5117
 30
0.0
 70
    32
  0
VERTEX
  5
297
330
259
100
AcDbEntity
  8
CENTRALA
 62
     5
100
AcDbVertex
100
AcDb3dPolylineVertex
 10
-6.38053
 20
16.4663
 30
0.0
 70
    32
  0
VERTEX
  5
298
330
259
100
AcDbEntity
  8
CENTRALA
 62
     5
100
AcDbVertex
100
AcDb3dPolylineVertex
 10
-6.20183
 20
16.4177
 30
0.0
 70
    32
  0
VERTEX
  5
299
330
259
100
AcDbEntity
  8
CENTRALA
 62
     5
100
AcDbVertex
100
AcDb3dPolylineVertex
 10
-6.022909999999997
 20
16.3657
 30
0.0
 70
    32
  0
VERTEX
  5
29A
330
259
100
AcDbEntity
  8
CENTRALA
 62
     5
100
AcDbVertex
100
AcDb3dPolylineVertex
 10
-5.84377
 20
16.3106
 30
0.0
 70
    32
  0
VERTEX
  5
29B
330
259
100
AcDbEntity
  8
CENTRALA
 62
     5
100
AcDbVertex
100
AcDb3dPolylineVertex
 10
-5.664439999999999
 20
16.2524
 30
0.0
 70
    32
  0
VERTEX
  5
29C
330
259
100
AcDbEntity
  8
CENTRALA
 62
     5
100
AcDbVertex
100
AcDb3dPolylineVertex
 10
-5.48491
 20
16.1912
 30
0.0
 70
    32
  0
VERTEX
  5
29D
330
259
100
AcDbEntity
  8
CENTRALA
 62
     5
100
AcDbVertex
100
AcDb3dPolylineVertex
 10
-5.305209999999997
 20
16.1271
 30
0.0
 70
    32
  0
VERTEX
  5
29E
330
259
100
AcDbEntity
  8
CENTRALA
 62
     5
100
AcDbVertex
100
AcDb3dPolylineVertex
 10
-5.12534
 20
16.0603
 30
0.0
 70
    32
  0
VERTEX
  5
29F
330
259
100
AcDbEntity
  8
CENTRALA
 62
     5
100
AcDbVertex
100
AcDb3dPolylineVertex
 10
-4.945299999999996
 20
15.9908
 30
0.0
 70
    32
  0
VERTEX
  5
2A0
330
259
100
AcDbEntity
  8
CENTRALA
 62
     5
100
AcDbVertex
100
AcDb3dPolylineVertex
 10
-4.765119999999996
 20
15.9187
 30
0.0
 70
    32
  0
VERTEX
  5
2A1
330
259
100
AcDbEntity
  8
CENTRALA
 62
     5
100
AcDbVertex
100
AcDb3dPolylineVertex
 10
-4.5848
 20
15.8442
 30
0.0
 70
    32
  0
VERTEX
  5
2A2
330
259
100
AcDbEntity
  8
CENTRALA
 62
     5
100
AcDbVertex
100
AcDb3dPolylineVertex
 10
-4.404349999999999
 20
15.7673
 30
0.0
 70
    32
  0
VERTEX
  5
2A3
330
259
100
AcDbEntity
  8
CENTRALA
 62
     5
100
AcDbVertex
100
AcDb3dPolylineVertex
 10
-4.22379
 20
15.6882
 30
0.0
 70
    32
  0
VERTEX
  5
2A4
330
259
100
AcDbEntity
  8
CENTRALA
 62
     5
100
AcDbVertex
100
AcDb3dPolylineVertex
 10
-4.043109999999998
 20
15.6069
 30
0.0
 70
    32
  0
VERTEX
  5
2A5
330
259
100
AcDbEntity
  8
CENTRALA
 62
     5
100
AcDbVertex
100
AcDb3dPolylineVertex
 10
-3.86234
 20
15.5235
 30
0.0
 70
    32
  0
VERTEX
  5
2A6
330
259
100
AcDbEntity
  8
CENTRALA
 62
     5
100
AcDbVertex
100
AcDb3dPolylineVertex
 10
-3.68149
 20
15.4383
 30
0.0
 70
    32
  0
VERTEX
  5
2A7
330
259
100
AcDbEntity
  8
CENTRALA
 62
     5
100
AcDbVertex
100
AcDb3dPolylineVertex
 10
-3.50055
 20
15.3511
 30
0.0
 70
    32
  0
VERTEX
  5
2A8
330
259
100
AcDbEntity
  8
CENTRALA
 62
     5
100
AcDbVertex
100
AcDb3dPolylineVertex
 10
-3.31956
 20
15.2623
 30
0.0
 70
    32
  0
VERTEX
  5
2A9
330
259
100
AcDbEntity
  8
CENTRALA
 62
     5
100
AcDbVertex
100
AcDb3dPolylineVertex
 10
-3.1385
 20
15.1718
 30
0.0
 70
    32
  0
VERTEX
  5
2AA
330
259
100
AcDbEntity
  8
CENTRALA
 62
     5
100
AcDbVertex
100
AcDb3dPolylineVertex
 10
-2.957399999999998
 20
15.0797
 30
0.0
 70
    32
  0
VERTEX
  5
2AB
330
259
100
AcDbEntity
  8
CENTRALA
 62
     5
100
AcDbVertex
100
AcDb3dPolylineVertex
 10
-2.77627
 20
14.9863
 30
0.0
 70
    32
  0
VERTEX
  5
2AC
330
259
100
AcDbEntity
  8
CENTRALA
 62
     5
100
AcDbVertex
100
AcDb3dPolylineVertex
 10
-2.59511
 20
14.8915
 30
0.0
 70
    32
  0
VERTEX
  5
2AD
330
259
100
AcDbEntity
  8
CENTRALA
 62
     5
100
AcDbVertex
100
AcDb3dPolylineVertex
 10
-2.41394
 20
14.7955
 30
0.0
 70
    32
  0
VERTEX
  5
2AE
330
259
100
AcDbEntity
  8
CENTRALA
 62
     5
100
AcDbVertex
100
AcDb3dPolylineVertex
 10
-2.232769999999999
 20
14.6984
 30
0.0
 70
    32
  0
VERTEX
  5
2AF
330
259
100
AcDbEntity
  8
CENTRALA
 62
     5
100
AcDbVertex
100
AcDb3dPolylineVertex
 10
-2.0516
 20
14.6002
 30
0.0
 70
    32
  0
VERTEX
  5
2B0
330
259
100
AcDbEntity
  8
CENTRALA
 62
     5
100
AcDbVertex
100
AcDb3dPolylineVertex
 10
-1.870449999999999
 20
14.5012
 30
0.0
 70
    32
  0
VERTEX
  5
2B1
330
259
100
AcDbEntity
  8
CENTRALA
 62
     5
100
AcDbVertex
100
AcDb3dPolylineVertex
 10
-1.68932
 20
14.4013
 30
0.0
 70
    32
  0
VERTEX
  5
2B2
330
259
100
AcDbEntity
  8
CENTRALA
 62
     5
100
AcDbVertex
100
AcDb3dPolylineVertex
 10
-1.508239999999999
 20
14.3008
 30
0.0
 70
    32
  0
VERTEX
  5
2B3
330
259
100
AcDbEntity
  8
CENTRALA
 62
     5
100
AcDbVertex
100
AcDb3dPolylineVertex
 10
-1.327199999999999
 20
14.1996
 30
0.0
 70
    32
  0
VERTEX
  5
2B4
330
259
100
AcDbEntity
  8
CENTRALA
 62
     5
100
AcDbVertex
100
AcDb3dPolylineVertex
 10
-1.14622
 20
14.098
 30
0.0
 70
    32
  0
VERTEX
  5
2B5
330
259
100
AcDbEntity
  8
CENTRALA
 62
     5
100
AcDbVertex
100
AcDb3dPolylineVertex
 10
-0.965315
 20
13.9959
 30
0.0
 70
    32
  0
VERTEX
  5
2B6
330
259
100
AcDbEntity
  8
CENTRALA
 62
     5
100
AcDbVertex
100
AcDb3dPolylineVertex
 10
-0.7844860000000004
 20
13.8936
 30
0.0
 70
    32
  0
VERTEX
  5
2B7
330
259
100
AcDbEntity
  8
CENTRALA
 62
     5
100
AcDbVertex
100
AcDb3dPolylineVertex
 10
-0.6037470000000002
 20
13.791
 30
0.0
 70
    32
  0
VERTEX
  5
2B8
330
259
100
AcDbEntity
  8
CENTRALA
 62
     5
100
AcDbVertex
100
AcDb3dPolylineVertex
 10
-0.423108
 20
13.6884
 30
0.0
 70
    32
  0
VERTEX
  5
2B9
330
259
100
AcDbEntity
  8
CENTRALA
 62
     5
100
AcDbVertex
100
AcDb3dPolylineVertex
 10
-0.24258
 20
13.5858
 30
0.0
 70
    32
  0
VERTEX
  5
2BA
330
259
100
AcDbEntity
  8
CENTRALA
 62
     5
100
AcDbVertex
100
AcDb3dPolylineVertex
 10
-0.0621731
 20
13.4834
 30
0.0
 70
    32
  0
VERTEX
  5
2BB
330
259
100
AcDbEntity
  8
CENTRALA
 62
     5
100
AcDbVertex
100
AcDb3dPolylineVertex
 10
0.118102
 20
13.3811
 30
0.0
 70
    32
  0
VERTEX
  5
2BC
330
259
100
AcDbEntity
  8
CENTRALA
 62
     5
100
AcDbVertex
100
AcDb3dPolylineVertex
 10
0.298236
 20
13.2792
 30
0.0
 70
    32
  0
VERTEX
  5
2BD
330
259
100
AcDbEntity
  8
CENTRALA
 62
     5
100
AcDbVertex
100
AcDb3dPolylineVertex
 10
0.478217
 20
13.1777
 30
0.0
 70
    32
  0
VERTEX
  5
2BE
330
259
100
AcDbEntity
  8
CENTRALA
 62
     5
100
AcDbVertex
100
AcDb3dPolylineVertex
 10
0.6580350000000001
 20
13.0768
 30
0.0
 70
    32
  0
VERTEX
  5
2BF
330
259
100
AcDbEntity
  8
CENTRALA
 62
     5
100
AcDbVertex
100
AcDb3dPolylineVertex
 10
0.8376809999999997
 20
12.9765
 30
0.0
 70
    32
  0
VERTEX
  5
2C0
330
259
100
AcDbEntity
  8
CENTRALA
 62
     5
100
AcDbVertex
100
AcDb3dPolylineVertex
 10
1.017139999999999
 20
12.8769
 30
0.0
 70
    32
  0
VERTEX
  5
2C1
330
259
100
AcDbEntity
  8
CENTRALA
 62
     5
100
AcDbVertex
100
AcDb3dPolylineVertex
 10
1.196409999999997
 20
12.7782
 30
0.0
 70
    32
  0
VERTEX
  5
2C2
330
259
100
AcDbEntity
  8
CENTRALA
 62
     5
100
AcDbVertex
100
AcDb3dPolylineVertex
 10
1.37548
 20
12.6804
 30
0.0
 70
    32
  0
VERTEX
  5
2C3
330
259
100
AcDbEntity
  8
CENTRALA
 62
     5
100
AcDbVertex
100
AcDb3dPolylineVertex
 10
1.55432
 20
12.5837
 30
0.0
 70
    32
  0
VERTEX
  5
2C4
330
259
100
AcDbEntity
  8
CENTRALA
 62
     5
100
AcDbVertex
100
AcDb3dPolylineVertex
 10
1.732949999999999
 20
12.4881
 30
0.0
 70
    32
  0
VERTEX
  5
2C5
330
259
100
AcDbEntity
  8
CENTRALA
 62
     5
100
AcDbVertex
100
AcDb3dPolylineVertex
 10
1.91134
 20
12.3938
 30
0.0
 70
    32
  0
VERTEX
  5
2C6
330
259
100
AcDbEntity
  8
CENTRALA
 62
     5
100
AcDbVertex
100
AcDb3dPolylineVertex
 10
2.08948
 20
12.3009
 30
0.0
 70
    32
  0
VERTEX
  5
2C7
330
259
100
AcDbEntity
  8
CENTRALA
 62
     5
100
AcDbVertex
100
AcDb3dPolylineVertex
 10
2.26737
 20
12.2094
 30
0.0
 70
    32
  0
VERTEX
  5
2C8
330
259
100
AcDbEntity
  8
CENTRALA
 62
     5
100
AcDbVertex
100
AcDb3dPolylineVertex
 10
2.44499
 20
12.1195
 30
0.0
 70
    32
  0
VERTEX
  5
2C9
330
259
100
AcDbEntity
  8
CENTRALA
 62
     5
100
AcDbVertex
100
AcDb3dPolylineVertex
 10
2.622329999999998
 20
12.0313
 30
0.0
 70
    32
  0
VERTEX
  5
2CA
330
259
100
AcDbEntity
  8
CENTRALA
 62
     5
100
AcDbVertex
100
AcDb3dPolylineVertex
 10
2.79939
 20
11.9449
 30
0.0
 70
    32
  0
VERTEX
  5
2CB
330
259
100
AcDbEntity
  8
CENTRALA
 62
     5
100
AcDbVertex
100
AcDb3dPolylineVertex
 10
2.97615
 20
11.8603
 30
0.0
 70
    32
  0
VERTEX
  5
2CC
330
259
100
AcDbEntity
  8
CENTRALA
 62
     5
100
AcDbVertex
100
AcDb3dPolylineVertex
 10
3.1526
 20
11.7777
 30
0.0
 70
    32
  0
VERTEX
  5
2CD
330
259
100
AcDbEntity
  8
CENTRALA
 62
     5
100
AcDbVertex
100
AcDb3dPolylineVertex
 10
3.32873
 20
11.6972
 30
0.0
 70
    32
  0
VERTEX
  5
2CE
330
259
100
AcDbEntity
  8
CENTRALA
 62
     5
100
AcDbVertex
100
AcDb3dPolylineVertex
 10
3.504539999999998
 20
11.6189
 30
0.0
 70
    32
  0
VERTEX
  5
2CF
330
259
100
AcDbEntity
  8
CENTRALA
 62
     5
100
AcDbVertex
100
AcDb3dPolylineVertex
 10
3.68
 20
11.5429
 30
0.0
 70
    32
  0
VERTEX
  5
2D0
330
259
100
AcDbEntity
  8
CENTRALA
 62
     5
100
AcDbVertex
100
AcDb3dPolylineVertex
 10
3.855119999999999
 20
11.4692
 30
0.0
 70
    32
  0
VERTEX
  5
2D1
330
259
100
AcDbEntity
  8
CENTRALA
 62
     5
100
AcDbVertex
100
AcDb3dPolylineVertex
 10
4.029869999999998
 20
11.3981
 30
0.0
 70
    32
  0
VERTEX
  5
2D2
330
259
100
AcDbEntity
  8
CENTRALA
 62
     5
100
AcDbVertex
100
AcDb3dPolylineVertex
 10
4.204259999999996
 20
11.3296
 30
0.0
 70
    32
  0
VERTEX
  5
2D3
330
259
100
AcDbEntity
  8
CENTRALA
 62
     5
100
AcDbVertex
100
AcDb3dPolylineVertex
 10
4.37826
 20
11.2638
 30
0.0
 70
    32
  0
VERTEX
  5
2D4
330
259
100
AcDbEntity
  8
CENTRALA
 62
     5
100
AcDbVertex
100
AcDb3dPolylineVertex
 10
4.55188
 20
11.2008
 30
0.0
 70
    32
  0
VERTEX
  5
2D5
330
259
100
AcDbEntity
  8
CENTRALA
 62
     5
100
AcDbVertex
100
AcDb3dPolylineVertex
 10
4.725089999999998
 20
11.1407
 30
0.0
 70
    32
  0
VERTEX
  5
2D6
330
259
100
AcDbEntity
  8
CENTRALA
 62
     5
100
AcDbVertex
100
AcDb3dPolylineVertex
 10
4.89789
 20
11.0836
 30
0.0
 70
    32
  0
VERTEX
  5
2D7
330
259
100
AcDbEntity
  8
CENTRALA
 62
     5
100
AcDbVertex
100
AcDb3dPolylineVertex
 10
5.070269999999998
 20
11.0297
 30
0.0
 70
    32
  0
VERTEX
  5
2D8
330
259
100
AcDbEntity
  8
CENTRALA
 62
     5
100
AcDbVertex
100
AcDb3dPolylineVertex
 10
5.24221
 20
10.9789
 30
0.0
 70
    32
  0
VERTEX
  5
2D9
330
259
100
AcDbEntity
  8
CENTRALA
 62
     5
100
AcDbVertex
100
AcDb3dPolylineVertex
 10
5.41371
 20
10.9315
 30
0.0
 70
    32
  0
VERTEX
  5
2DA
330
259
100
AcDbEntity
  8
CENTRALA
 62
     5
100
AcDbVertex
100
AcDb3dPolylineVertex
 10
5.58476
 20
10.8876
 30
0.0
 70
    32
  0
VERTEX
  5
2DB
330
259
100
AcDbEntity
  8
CENTRALA
 62
     5
100
AcDbVertex
100
AcDb3dPolylineVertex
 10
5.755349999999999
 20
10.8471
 30
0.0
 70
    32
  0
VERTEX
  5
2DC
330
259
100
AcDbEntity
  8
CENTRALA
 62
     5
100
AcDbVertex
100
AcDb3dPolylineVertex
 10
5.92546
 20
10.8103
 30
0.0
 70
    32
  0
VERTEX
  5
2DD
330
259
100
AcDbEntity
  8
CENTRALA
 62
     5
100
AcDbVertex
100
AcDb3dPolylineVertex
 10
6.09508
 20
10.7773
 30
0.0
 70
    32
  0
VERTEX
  5
2DE
330
259
100
AcDbEntity
  8
CENTRALA
 62
     5
100
AcDbVertex
100
AcDb3dPolylineVertex
 10
6.26421
 20
10.7481
 30
0.0
 70
    32
  0
VERTEX
  5
2DF
330
259
100
AcDbEntity
  8
CENTRALA
 62
     5
100
AcDbVertex
100
AcDb3dPolylineVertex
 10
6.43284
 20
10.7228
 30
0.0
 70
    32
  0
VERTEX
  5
2E0
330
259
100
AcDbEntity
  8
CENTRALA
 62
     5
100
AcDbVertex
100
AcDb3dPolylineVertex
 10
6.60095
 20
10.7016
 30
0.0
 70
    32
  0
VERTEX
  5
2E1
330
259
100
AcDbEntity
  8
CENTRALA
 62
     5
100
AcDbVertex
100
AcDb3dPolylineVertex
 10
6.768539999999998
 20
10.6845
 30
0.0
 70
    32
  0
VERTEX
  5
2E2
330
259
100
AcDbEntity
  8
CENTRALA
 62
     5
100
AcDbVertex
100
AcDb3dPolylineVertex
 10
6.935579999999997
 20
10.6717
 30
0.0
 70
    32
  0
VERTEX
  5
2E3
330
259
100
AcDbEntity
  8
CENTRALA
 62
     5
100
AcDbVertex
100
AcDb3dPolylineVertex
 10
7.102089999999997
 20
10.6632
 30
0.0
 70
    32
  0
VERTEX
  5
2E4
330
259
100
AcDbEntity
  8
CENTRALA
 62
     5
100
AcDbVertex
100
AcDb3dPolylineVertex
 10
7.26803
 20
10.6593
 30
0.0
 70
    32
  0
VERTEX
  5
2E5
330
259
100
AcDbEntity
  8
CENTRALA
 62
     5
100
AcDbVertex
100
AcDb3dPolylineVertex
 10
7.43341
 20
10.6598
 30
0.0
 70
    32
  0
VERTEX
  5
2E6
330
259
100
AcDbEntity
  8
CENTRALA
 62
     5
100
AcDbVertex
100
AcDb3dPolylineVertex
 10
7.5982
 20
10.6651
 30
0.0
 70
    32
  0
VERTEX
  5
2E7
330
259
100
AcDbEntity
  8
CENTRALA
 62
     5
100
AcDbVertex
100
AcDb3dPolylineVertex
 10
7.76241
 20
10.6751
 30
0.0
 70
    32
  0
VERTEX
  5
2E8
330
259
100
AcDbEntity
  8
CENTRALA
 62
     5
100
AcDbVertex
100
AcDb3dPolylineVertex
 10
7.926029999999999
 20
10.69
 30
0.0
 70
    32
  0
VERTEX
  5
2E9
330
259
100
AcDbEntity
  8
CENTRALA
 62
     5
100
AcDbVertex
100
AcDb3dPolylineVertex
 10
8.089030000000001
 20
10.7099
 30
0.0
 70
    32
  0
VERTEX
  5
2EA
330
259
100
AcDbEntity
  8
CENTRALA
 62
     5
100
AcDbVertex
100
AcDb3dPolylineVertex
 10
8.251409999999998
 20
10.7349
 30
0.0
 70
    32
  0
VERTEX
  5
2EB
330
259
100
AcDbEntity
  8
CENTRALA
 62
     5
100
AcDbVertex
100
AcDb3dPolylineVertex
 10
8.413160000000001
 20
10.765
 30
0.0
 70
    32
  0
VERTEX
  5
2EC
330
259
100
AcDbEntity
  8
CENTRALA
 62
     5
100
AcDbVertex
100
AcDb3dPolylineVertex
 10
8.574279999999998
 20
10.8005
 30
0.0
 70
    32
  0
VERTEX
  5
2ED
330
259
100
AcDbEntity
  8
CENTRALA
 62
     5
100
AcDbVertex
100
AcDb3dPolylineVertex
 10
8.734739999999996
 20
10.8413
 30
0.0
 70
    32
  0
VERTEX
  5
2EE
330
259
100
AcDbEntity
  8
CENTRALA
 62
     5
100
AcDbVertex
100
AcDb3dPolylineVertex
 10
8.894539999999997
 20
10.8877
 30
0.0
 70
    32
  0
VERTEX
  5
2EF
330
259
100
AcDbEntity
  8
CENTRALA
 62
     5
100
AcDbVertex
100
AcDb3dPolylineVertex
 10
9.05367
 20
10.9396
 30
0.0
 70
    32
  0
VERTEX
  5
2F0
330
259
100
AcDbEntity
  8
CENTRALA
 62
     5
100
AcDbVertex
100
AcDb3dPolylineVertex
 10
9.21212
 20
10.9972
 30
0.0
 70
    32
  0
VERTEX
  5
2F1
330
259
100
AcDbEntity
  8
CENTRALA
 62
     5
100
AcDbVertex
100
AcDb3dPolylineVertex
 10
9.36987
 20
11.0607
 30
0.0
 70
    32
  0
VERTEX
  5
2F2
330
259
100
AcDbEntity
  8
CENTRALA
 62
     5
100
AcDbVertex
100
AcDb3dPolylineVertex
 10
9.52693
 20
11.13
 30
0.0
 70
    32
  0
VERTEX
  5
2F3
330
259
100
AcDbEntity
  8
CENTRALA
 62
     5
100
AcDbVertex
100
AcDb3dPolylineVertex
 10
9.68327
 20
11.2054
 30
0.0
 70
    32
  0
VERTEX
  5
2F4
330
259
100
AcDbEntity
  8
CENTRALA
 62
     5
100
AcDbVertex
100
AcDb3dPolylineVertex
 10
9.838879999999999
 20
11.2869
 30
0.0
 70
    32
  0
VERTEX
  5
2F5
330
259
100
AcDbEntity
  8
CENTRALA
 62
     5
100
AcDbVertex
100
AcDb3dPolylineVertex
 10
9.993769999999999
 20
11.3746
 30
0.0
 70
    32
  0
VERTEX
  5
2F6
330
259
100
AcDbEntity
  8
CENTRALA
 62
     5
100
AcDbVertex
100
AcDb3dPolylineVertex
 10
10.1479
 20
11.4687
 30
0.0
 70
    32
  0
VERTEX
  5
2F7
330
259
100
AcDbEntity
  8
CENTRALA
 62
     5
100
AcDbVertex
100
AcDb3dPolylineVertex
 10
10.3013
 20
11.5691
 30
0.0
 70
    32
  0
VERTEX
  5
2F8
330
259
100
AcDbEntity
  8
CENTRALA
 62
     5
100
AcDbVertex
100
AcDb3dPolylineVertex
 10
10.4539
 20
11.6761
 30
0.0
 70
    32
  0
VERTEX
  5
2F9
330
259
100
AcDbEntity
  8
CENTRALA
 62
     5
100
AcDbVertex
100
AcDb3dPolylineVertex
 10
10.6058
 20
11.7898
 30
0.0
 70
    32
  0
VERTEX
  5
2FA
330
259
100
AcDbEntity
  8
CENTRALA
 62
     5
100
AcDbVertex
100
AcDb3dPolylineVertex
 10
10.7568
 20
11.9101
 30
0.0
 70
    32
  0
VERTEX
  5
2FB
330
259
100
AcDbEntity
  8
CENTRALA
 62
     5
100
AcDbVertex
100
AcDb3dPolylineVertex
 10
10.9071
 20
12.0372
 30
0.0
 70
    32
  0
VERTEX
  5
2FC
330
259
100
AcDbEntity
  8
CENTRALA
 62
     5
100
AcDbVertex
100
AcDb3dPolylineVertex
 10
11.0566
 20
12.1706
 30
0.0
 70
    32
  0
VERTEX
  5
2FD
330
259
100
AcDbEntity
  8
CENTRALA
 62
     5
100
AcDbVertex
100
AcDb3dPolylineVertex
 10
11.2054
 20
12.31
 30
0.0
 70
    32
  0
VERTEX
  5
2FE
330
259
100
AcDbEntity
  8
CENTRALA
 62
     5
100
AcDbVertex
100
AcDb3dPolylineVertex
 10
11.3534
 20
12.4548
 30
0.0
 70
    32
  0
VERTEX
  5
2FF
330
259
100
AcDbEntity
  8
CENTRALA
 62
     5
100
AcDbVertex
100
AcDb3dPolylineVertex
 10
11.5008
 20
12.6048
 30
0.0
 70
    32
  0
VERTEX
  5
300
330
259
100
AcDbEntity
  8
CENTRALA
 62
     5
100
AcDbVertex
100
AcDb3dPolylineVertex
 10
11.6474
 20
12.7594
 30
0.0
 70
    32
  0
VERTEX
  5
301
330
259
100
AcDbEntity
  8
CENTRALA
 62
     5
100
AcDbVertex
100
AcDb3dPolylineVertex
 10
11.7935
 20
12.9182
 30
0.0
 70
    32
  0
VERTEX
  5
302
330
259
100
AcDbEntity
  8
CENTRALA
 62
     5
100
AcDbVertex
100
AcDb3dPolylineVertex
 10
11.9389
 20
13.0809
 30
0.0
 70
    32
  0
VERTEX
  5
303
330
259
100
AcDbEntity
  8
CENTRALA
 62
     5
100
AcDbVertex
100
AcDb3dPolylineVertex
 10
12.0838
 20
13.2469
 30
0.0
 70
    32
  0
VERTEX
  5
304
330
259
100
AcDbEntity
  8
CENTRALA
 62
     5
100
AcDbVertex
100
AcDb3dPolylineVertex
 10
12.228
 20
13.4159
 30
0.0
 70
    32
  0
VERTEX
  5
305
330
259
100
AcDbEntity
  8
CENTRALA
 62
     5
100
AcDbVertex
100
AcDb3dPolylineVertex
 10
12.3718
 20
13.5875
 30
0.0
 70
    32
  0
VERTEX
  5
306
330
259
100
AcDbEntity
  8
CENTRALA
 62
     5
100
AcDbVertex
100
AcDb3dPolylineVertex
 10
12.515
 20
13.7611
 30
0.0
 70
    32
  0
VERTEX
  5
307
330
259
100
AcDbEntity
  8
CENTRALA
 62
     5
100
AcDbVertex
100
AcDb3dPolylineVertex
 10
12.6577
 20
13.9365
 30
0.0
 70
    32
  0
VERTEX
  5
308
330
259
100
AcDbEntity
  8
CENTRALA
 62
     5
100
AcDbVertex
100
AcDb3dPolylineVertex
 10
12.8
 20
14.1132
 30
0.0
 70
    32
  0
VERTEX
  5
309
330
259
100
AcDbEntity
  8
CENTRALA
 62
     5
100
AcDbVertex
100
AcDb3dPolylineVertex
 10
12.9418
 20
14.2907
 30
0.0
 70
    32
  0
VERTEX
  5
30A
330
259
100
AcDbEntity
  8
CENTRALA
 62
     5
100
AcDbVertex
100
AcDb3dPolylineVertex
 10
13.0832
 20
14.4687
 30
0.0
 70
    32
  0
VERTEX
  5
30B
330
259
100
AcDbEntity
  8
CENTRALA
 62
     5
100
AcDbVertex
100
AcDb3dPolylineVertex
 10
13.2242
 20
14.6467
 30
0.0
 70
    32
  0
VERTEX
  5
30C
330
259
100
AcDbEntity
  8
CENTRALA
 62
     5
100
AcDbVertex
100
AcDb3dPolylineVertex
 10
13.3648
 20
14.8242
 30
0.0
 70
    32
  0
VERTEX
  5
30D
330
259
100
AcDbEntity
  8
CENTRALA
 62
     5
100
AcDbVertex
100
AcDb3dPolylineVertex
 10
13.5051
 20
15.001
 30
0.0
 70
    32
  0
VERTEX
  5
30E
330
259
100
AcDbEntity
  8
CENTRALA
 62
     5
100
AcDbVertex
100
AcDb3dPolylineVertex
 10
13.6451
 20
15.1765
 30
0.0
 70
    32
  0
VERTEX
  5
30F
330
259
100
AcDbEntity
  8
CENTRALA
 62
     5
100
AcDbVertex
100
AcDb3dPolylineVertex
 10
13.7847
 20
15.3503
 30
0.0
 70
    32
  0
VERTEX
  5
310
330
259
100
AcDbEntity
  8
CENTRALA
 62
     5
100
AcDbVertex
100
AcDb3dPolylineVertex
 10
13.9242
 20
15.522
 30
0.0
 70
    32
  0
VERTEX
  5
311
330
259
100
AcDbEntity
  8
CENTRALA
 62
     5
100
AcDbVertex
100
AcDb3dPolylineVertex
 10
14.0633
 20
15.6913
 30
0.0
 70
    32
  0
VERTEX
  5
312
330
259
100
AcDbEntity
  8
CENTRALA
 62
     5
100
AcDbVertex
100
AcDb3dPolylineVertex
 10
14.2023
 20
15.8575
 30
0.0
 70
    32
  0
VERTEX
  5
313
330
259
100
AcDbEntity
  8
CENTRALA
 62
     5
100
AcDbVertex
100
AcDb3dPolylineVertex
 10
14.341
 20
16.0204
 30
0.0
 70
    32
  0
VERTEX
  5
314
330
259
100
AcDbEntity
  8
CENTRALA
 62
     5
100
AcDbVertex
100
AcDb3dPolylineVertex
 10
14.4796
 20
16.1796
 30
0.0
 70
    32
  0
VERTEX
  5
315
330
259
100
AcDbEntity
  8
CENTRALA
 62
     5
100
AcDbVertex
100
AcDb3dPolylineVertex
 10
14.6181
 20
16.3345
 30
0.0
 70
    32
  0
VERTEX
  5
316
330
259
100
AcDbEntity
  8
CENTRALA
 62
     5
100
AcDbVertex
100
AcDb3dPolylineVertex
 10
14.7564
 20
16.4848
 30
0.0
 70
    32
  0
VERTEX
  5
317
330
259
100
AcDbEntity
  8
CENTRALA
 62
     5
100
AcDbVertex
100
AcDb3dPolylineVertex
 10
14.8946
 20
16.63
 30
0.0
 70
    32
  0
VERTEX
  5
318
330
259
100
AcDbEntity
  8
CENTRALA
 62
     5
100
AcDbVertex
100
AcDb3dPolylineVertex
 10
15.0328
 20
16.7698
 30
0.0
 70
    32
  0
VERTEX
  5
319
330
259
100
AcDbEntity
  8
CENTRALA
 62
     5
100
AcDbVertex
100
AcDb3dPolylineVertex
 10
15.1709
 20
16.9037
 30
0.0
 70
    32
  0
VERTEX
  5
31A
330
259
100
AcDbEntity
  8
CENTRALA
 62
     5
100
AcDbVertex
100
AcDb3dPolylineVertex
 10
15.2877
 20
16.957
 30
0.0
 70
    32
  0
VERTEX
  5
31B
330
259
100
AcDbEntity
  8
CENTRALA
 62
     5
100
AcDbVertex
100
AcDb3dPolylineVertex
 10
15.3405
 20
16.7852
 30
0.0
 70
    32
  0
VERTEX
  5
31C
330
259
100
AcDbEntity
  8
CENTRALA
 62
     5
100
AcDbVertex
100
AcDb3dPolylineVertex
 10
15.3933
 20
16.6134
 30
0.0
 70
    32
  0
VERTEX
  5
31D
330
259
100
AcDbEntity
  8
CENTRALA
 62
     5
100
AcDbVertex
100
AcDb3dPolylineVertex
 10
15.4459
 20
16.4415
 30
0.0
 70
    32
  0
VERTEX
  5
31E
330
259
100
AcDbEntity
  8
CENTRALA
 62
     5
100
AcDbVertex
100
AcDb3dPolylineVertex
 10
15.4983
 20
16.2696
 30
0.0
 70
    32
  0
VERTEX
  5
31F
330
259
100
AcDbEntity
  8
CENTRALA
 62
     5
100
AcDbVertex
100
AcDb3dPolylineVertex
 10
15.5505
 20
16.0978
 30
0.0
 70
    32
  0
VERTEX
  5
320
330
259
100
AcDbEntity
  8
CENTRALA
 62
     5
100
AcDbVertex
100
AcDb3dPolylineVertex
 10
15.6024
 20
15.9259
 30
0.0
 70
    32
  0
VERTEX
  5
321
330
259
100
AcDbEntity
  8
CENTRALA
 62
     5
100
AcDbVertex
100
AcDb3dPolylineVertex
 10
15.654
 20
15.7539
 30
0.0
 70
    32
  0
VERTEX
  5
322
330
259
100
AcDbEntity
  8
CENTRALA
 62
     5
100
AcDbVertex
100
AcDb3dPolylineVertex
 10
15.7052
 20
15.582
 30
0.0
 70
    32
  0
VERTEX
  5
323
330
259
100
AcDbEntity
  8
CENTRALA
 62
     5
100
AcDbVertex
100
AcDb3dPolylineVertex
 10
15.756
 20
15.41
 30
0.0
 70
    32
  0
VERTEX
  5
324
330
259
100
AcDbEntity
  8
CENTRALA
 62
     5
100
AcDbVertex
100
AcDb3dPolylineVertex
 10
15.8063
 20
15.238
 30
0.0
 70
    32
  0
VERTEX
  5
325
330
259
100
AcDbEntity
  8
CENTRALA
 62
     5
100
AcDbVertex
100
AcDb3dPolylineVertex
 10
15.856
 20
15.0659
 30
0.0
 70
    32
  0
VERTEX
  5
326
330
259
100
AcDbEntity
  8
CENTRALA
 62
     5
100
AcDbVertex
100
AcDb3dPolylineVertex
 10
15.9051
 20
14.8939
 30
0.0
 70
    32
  0
VERTEX
  5
327
330
259
100
AcDbEntity
  8
CENTRALA
 62
     5
100
AcDbVertex
100
AcDb3dPolylineVertex
 10
15.9535
 20
14.7217
 30
0.0
 70
    32
  0
VERTEX
  5
328
330
259
100
AcDbEntity
  8
CENTRALA
 62
     5
100
AcDbVertex
100
AcDb3dPolylineVertex
 10
16.0013
 20
14.5495
 30
0.0
 70
    32
  0
VERTEX
  5
329
330
259
100
AcDbEntity
  8
CENTRALA
 62
     5
100
AcDbVertex
100
AcDb3dPolylineVertex
 10
16.0483
 20
14.3773
 30
0.0
 70
    32
  0
VERTEX
  5
32A
330
259
100
AcDbEntity
  8
CENTRALA
 62
     5
100
AcDbVertex
100
AcDb3dPolylineVertex
 10
16.0944
 20
14.205
 30
0.0
 70
    32
  0
VERTEX
  5
32B
330
259
100
AcDbEntity
  8
CENTRALA
 62
     5
100
AcDbVertex
100
AcDb3dPolylineVertex
 10
16.1397
 20
14.0327
 30
0.0
 70
    32
  0
VERTEX
  5
32C
330
259
100
AcDbEntity
  8
CENTRALA
 62
     5
100
AcDbVertex
100
AcDb3dPolylineVertex
 10
16.1841
 20
13.8603
 30
0.0
 70
    32
  0
VERTEX
  5
32D
330
259
100
AcDbEntity
  8
CENTRALA
 62
     5
100
AcDbVertex
100
AcDb3dPolylineVertex
 10
16.2275
 20
13.6878
 30
0.0
 70
    32
  0
VERTEX
  5
32E
330
259
100
AcDbEntity
  8
CENTRALA
 62
     5
100
AcDbVertex
100
AcDb3dPolylineVertex
 10
16.2698
 20
13.5152
 30
0.0
 70
    32
  0
VERTEX
  5
32F
330
259
100
AcDbEntity
  8
CENTRALA
 62
     5
100
AcDbVertex
100
AcDb3dPolylineVertex
 10
16.3111
 20
13.3426
 30
0.0
 70
    32
  0
VERTEX
  5
330
330
259
100
AcDbEntity
  8
CENTRALA
 62
     5
100
AcDbVertex
100
AcDb3dPolylineVertex
 10
16.3512
 20
13.1699
 30
0.0
 70
    32
  0
VERTEX
  5
331
330
259
100
AcDbEntity
  8
CENTRALA
 62
     5
100
AcDbVertex
100
AcDb3dPolylineVertex
 10
16.3901
 20
12.9971
 30
0.0
 70
    32
  0
VERTEX
  5
332
330
259
100
AcDbEntity
  8
CENTRALA
 62
     5
100
AcDbVertex
100
AcDb3dPolylineVertex
 10
16.4278
 20
12.8243
 30
0.0
 70
    32
  0
VERTEX
  5
333
330
259
100
AcDbEntity
  8
CENTRALA
 62
     5
100
AcDbVertex
100
AcDb3dPolylineVertex
 10
16.4642
 20
12.6513
 30
0.0
 70
    32
  0
VERTEX
  5
334
330
259
100
AcDbEntity
  8
CENTRALA
 62
     5
100
AcDbVertex
100
AcDb3dPolylineVertex
 10
16.4992
 20
12.4783
 30
0.0
 70
    32
  0
VERTEX
  5
335
330
259
100
AcDbEntity
  8
CENTRALA
 62
     5
100
AcDbVertex
100
AcDb3dPolylineVertex
 10
16.5328
 20
12.3051
 30
0.0
 70
    32
  0
VERTEX
  5
336
330
259
100
AcDbEntity
  8
CENTRALA
 62
     5
100
AcDbVertex
100
AcDb3dPolylineVertex
 10
16.565
 20
12.1319
 30
0.0
 70
    32
  0
VERTEX
  5
337
330
259
100
AcDbEntity
  8
CENTRALA
 62
     5
100
AcDbVertex
100
AcDb3dPolylineVertex
 10
16.5956
 20
11.9586
 30
0.0
 70
    32
  0
VERTEX
  5
338
330
259
100
AcDbEntity
  8
CENTRALA
 62
     5
100
AcDbVertex
100
AcDb3dPolylineVertex
 10
16.6247
 20
11.7851
 30
0.0
 70
    32
  0
VERTEX
  5
339
330
259
100
AcDbEntity
  8
CENTRALA
 62
     5
100
AcDbVertex
100
AcDb3dPolylineVertex
 10
16.6521
 20
11.6116
 30
0.0
 70
    32
  0
VERTEX
  5
33A
330
259
100
AcDbEntity
  8
CENTRALA
 62
     5
100
AcDbVertex
100
AcDb3dPolylineVertex
 10
16.6779
 20
11.4379
 30
0.0
 70
    32
  0
VERTEX
  5
33B
330
259
100
AcDbEntity
  8
CENTRALA
 62
     5
100
AcDbVertex
100
AcDb3dPolylineVertex
 10
16.7019
 20
11.2641
 30
0.0
 70
    32
  0
VERTEX
  5
33C
330
259
100
AcDbEntity
  8
CENTRALA
 62
     5
100
AcDbVertex
100
AcDb3dPolylineVertex
 10
16.7242
 20
11.0902
 30
0.0
 70
    32
  0
VERTEX
  5
33D
330
259
100
AcDbEntity
  8
CENTRALA
 62
     5
100
AcDbVertex
100
AcDb3dPolylineVertex
 10
16.7446
 20
10.9162
 30
0.0
 70
    32
  0
VERTEX
  5
33E
330
259
100
AcDbEntity
  8
CENTRALA
 62
     5
100
AcDbVertex
100
AcDb3dPolylineVertex
 10
16.7631
 20
10.742
 30
0.0
 70
    32
  0
VERTEX
  5
33F
330
259
100
AcDbEntity
  8
CENTRALA
 62
     5
100
AcDbVertex
100
AcDb3dPolylineVertex
 10
16.7797
 20
10.5677
 30
0.0
 70
    32
  0
VERTEX
  5
340
330
259
100
AcDbEntity
  8
CENTRALA
 62
     5
100
AcDbVertex
100
AcDb3dPolylineVertex
 10
16.7943
 20
10.3933
 30
0.0
 70
    32
  0
VERTEX
  5
341
330
259
100
AcDbEntity
  8
CENTRALA
 62
     5
100
AcDbVertex
100
AcDb3dPolylineVertex
 10
16.8068
 20
10.2187
 30
0.0
 70
    32
  0
VERTEX
  5
342
330
259
100
AcDbEntity
  8
CENTRALA
 62
     5
100
AcDbVertex
100
AcDb3dPolylineVertex
 10
16.8172
 20
10.044
 30
0.0
 70
    32
  0
VERTEX
  5
343
330
259
100
AcDbEntity
  8
CENTRALA
 62
     5
100
AcDbVertex
100
AcDb3dPolylineVertex
 10
16.8255
 20
9.86918
 30
0.0
 70
    32
  0
VERTEX
  5
344
330
259
100
AcDbEntity
  8
CENTRALA
 62
     5
100
AcDbVertex
100
AcDb3dPolylineVertex
 10
16.8315
 20
9.694169999999999
 30
0.0
 70
    32
  0
VERTEX
  5
345
330
259
100
AcDbEntity
  8
CENTRALA
 62
     5
100
AcDbVertex
100
AcDb3dPolylineVertex
 10
16.8353
 20
9.519019999999999
 30
0.0
 70
    32
  0
VERTEX
  5
346
330
259
100
AcDbEntity
  8
CENTRALA
 62
     5
100
AcDbVertex
100
AcDb3dPolylineVertex
 10
16.8368
 20
9.343709999999999
 30
0.0
 70
    32
  0
VERTEX
  5
347
330
259
100
AcDbEntity
  8
CENTRALA
 62
     5
100
AcDbVertex
100
AcDb3dPolylineVertex
 10
16.8359
 20
9.168229999999999
 30
0.0
 70
    32
  0
VERTEX
  5
348
330
259
100
AcDbEntity
  8
CENTRALA
 62
     5
100
AcDbVertex
100
AcDb3dPolylineVertex
 10
16.8325
 20
8.992599999999997
 30
0.0
 70
    32
  0
VERTEX
  5
349
330
259
100
AcDbEntity
  8
CENTRALA
 62
     5
100
AcDbVertex
100
AcDb3dPolylineVertex
 10
16.8267
 20
8.816789999999997
 30
0.0
 70
    32
  0
VERTEX
  5
34A
330
259
100
AcDbEntity
  8
CENTRALA
 62
     5
100
AcDbVertex
100
AcDb3dPolylineVertex
 10
16.8183
 20
8.640819999999997
 30
0.0
 70
    32
  0
VERTEX
  5
34B
330
259
100
AcDbEntity
  8
CENTRALA
 62
     5
100
AcDbVertex
100
AcDb3dPolylineVertex
 10
16.8074
 20
8.464669999999998
 30
0.0
 70
    32
  0
VERTEX
  5
34C
330
259
100
AcDbEntity
  8
CENTRALA
 62
     5
100
AcDbVertex
100
AcDb3dPolylineVertex
 10
16.7938
 20
8.288339999999998
 30
0.0
 70
    32
  0
VERTEX
  5
34D
330
259
100
AcDbEntity
  8
CENTRALA
 62
     5
100
AcDbVertex
100
AcDb3dPolylineVertex
 10
16.7775
 20
8.111819999999998
 30
0.0
 70
    32
  0
VERTEX
  5
34E
330
259
100
AcDbEntity
  8
CENTRALA
 62
     5
100
AcDbVertex
100
AcDb3dPolylineVertex
 10
16.7584
 20
7.93513
 30
0.0
 70
    32
  0
VERTEX
  5
34F
330
259
100
AcDbEntity
  8
CENTRALA
 62
     5
100
AcDbVertex
100
AcDb3dPolylineVertex
 10
16.7366
 20
7.758239999999998
 30
0.0
 70
    32
  0
VERTEX
  5
350
330
259
100
AcDbEntity
  8
CENTRALA
 62
     5
100
AcDbVertex
100
AcDb3dPolylineVertex
 10
16.7119
 20
7.58116
 30
0.0
 70
    32
  0
VERTEX
  5
351
330
259
100
AcDbEntity
  8
CENTRALA
 62
     5
100
AcDbVertex
100
AcDb3dPolylineVertex
 10
16.6843
 20
7.40388
 30
0.0
 70
    32
  0
VERTEX
  5
352
330
259
100
AcDbEntity
  8
CENTRALA
 62
     5
100
AcDbVertex
100
AcDb3dPolylineVertex
 10
16.6537
 20
7.226399999999999
 30
0.0
 70
    32
  0
VERTEX
  5
353
330
259
100
AcDbEntity
  8
CENTRALA
 62
     5
100
AcDbVertex
100
AcDb3dPolylineVertex
 10
16.6201
 20
7.048719999999997
 30
0.0
 70
    32
  0
VERTEX
  5
354
330
259
100
AcDbEntity
  8
CENTRALA
 62
     5
100
AcDbVertex
100
AcDb3dPolylineVertex
 10
16.5834
 20
6.87083
 30
0.0
 70
    32
  0
VERTEX
  5
355
330
259
100
AcDbEntity
  8
CENTRALA
 62
     5
100
AcDbVertex
100
AcDb3dPolylineVertex
 10
16.5437
 20
6.69273
 30
0.0
 70
    32
  0
VERTEX
  5
356
330
259
100
AcDbEntity
  8
CENTRALA
 62
     5
100
AcDbVertex
100
AcDb3dPolylineVertex
 10
16.5007
 20
6.514409999999998
 30
0.0
 70
    32
  0
VERTEX
  5
357
330
259
100
AcDbEntity
  8
CENTRALA
 62
     5
100
AcDbVertex
100
AcDb3dPolylineVertex
 10
16.4545
 20
6.335869999999999
 30
0.0
 70
    32
  0
VERTEX
  5
358
330
259
100
AcDbEntity
  8
CENTRALA
 62
     5
100
AcDbVertex
100
AcDb3dPolylineVertex
 10
16.405
 20
6.157119999999999
 30
0.0
 70
    32
  0
VERTEX
  5
359
330
259
100
AcDbEntity
  8
CENTRALA
 62
     5
100
AcDbVertex
100
AcDb3dPolylineVertex
 10
16.3522
 20
5.978139999999998
 30
0.0
 70
    32
  0
VERTEX
  5
35A
330
259
100
AcDbEntity
  8
CENTRALA
 62
     5
100
AcDbVertex
100
AcDb3dPolylineVertex
 10
16.2963
 20
5.79896
 30
0.0
 70
    32
  0
VERTEX
  5
35B
330
259
100
AcDbEntity
  8
CENTRALA
 62
     5
100
AcDbVertex
100
AcDb3dPolylineVertex
 10
16.2374
 20
5.619569999999997
 30
0.0
 70
    32
  0
VERTEX
  5
35C
330
259
100
AcDbEntity
  8
CENTRALA
 62
     5
100
AcDbVertex
100
AcDb3dPolylineVertex
 10
16.1754
 20
5.44
 30
0.0
 70
    32
  0
VERTEX
  5
35D
330
259
100
AcDbEntity
  8
CENTRALA
 62
     5
100
AcDbVertex
100
AcDb3dPolylineVertex
 10
16.1107
 20
5.260259999999997
 30
0.0
 70
    32
  0
VERTEX
  5
35E
330
259
100
AcDbEntity
  8
CENTRALA
 62
     5
100
AcDbVertex
100
AcDb3dPolylineVertex
 10
16.0432
 20
5.08034
 30
0.0
 70
    32
  0
VERTEX
  5
35F
330
259
100
AcDbEntity
  8
CENTRALA
 62
     5
100
AcDbVertex
100
AcDb3dPolylineVertex
 10
15.973
 20
4.900269999999999
 30
0.0
 70
    32
  0
VERTEX
  5
360
330
259
100
AcDbEntity
  8
CENTRALA
 62
     5
100
AcDbVertex
100
AcDb3dPolylineVertex
 10
15.9003
 20
4.720049999999996
 30
0.0
 70
    32
  0
VERTEX
  5
361
330
259
100
AcDbEntity
  8
CENTRALA
 62
     5
100
AcDbVertex
100
AcDb3dPolylineVertex
 10
15.8252
 20
4.539699999999998
 30
0.0
 70
    32
  0
VERTEX
  5
362
330
259
100
AcDbEntity
  8
CENTRALA
 62
     5
100
AcDbVertex
100
AcDb3dPolylineVertex
 10
15.7477
 20
4.359219999999996
 30
0.0
 70
    32
  0
VERTEX
  5
363
330
259
100
AcDbEntity
  8
CENTRALA
 62
     5
100
AcDbVertex
100
AcDb3dPolylineVertex
 10
15.668
 20
4.17863
 30
0.0
 70
    32
  0
VERTEX
  5
364
330
259
100
AcDbEntity
  8
CENTRALA
 62
     5
100
AcDbVertex
100
AcDb3dPolylineVertex
 10
15.5862
 20
3.99793
 30
0.0
 70
    32
  0
VERTEX
  5
365
330
259
100
AcDbEntity
  8
CENTRALA
 62
     5
100
AcDbVertex
100
AcDb3dPolylineVertex
 10
15.5024
 20
3.81714
 30
0.0
 70
    32
  0
VERTEX
  5
366
330
259
100
AcDbEntity
  8
CENTRALA
 62
     5
100
AcDbVertex
100
AcDb3dPolylineVertex
 10
15.4166
 20
3.63626
 30
0.0
 70
    32
  0
VERTEX
  5
367
330
259
100
AcDbEntity
  8
CENTRALA
 62
     5
100
AcDbVertex
100
AcDb3dPolylineVertex
 10
15.3291
 20
3.455309999999998
 30
0.0
 70
    32
  0
VERTEX
  5
368
330
259
100
AcDbEntity
  8
CENTRALA
 62
     5
100
AcDbVertex
100
AcDb3dPolylineVertex
 10
15.2398
 20
3.2743
 30
0.0
 70
    32
  0
VERTEX
  5
369
330
259
100
AcDbEntity
  8
CENTRALA
 62
     5
100
AcDbVertex
100
AcDb3dPolylineVertex
 10
15.1489
 20
3.09323
 30
0.0
 70
    32
  0
VERTEX
  5
36A
330
259
100
AcDbEntity
  8
CENTRALA
 62
     5
100
AcDbVertex
100
AcDb3dPolylineVertex
 10
15.0565
 20
2.91212
 30
0.0
 70
    32
  0
VERTEX
  5
36B
330
259
100
AcDbEntity
  8
CENTRALA
 62
     5
100
AcDbVertex
100
AcDb3dPolylineVertex
 10
14.9627
 20
2.730979999999998
 30
0.0
 70
    32
  0
VERTEX
  5
36C
330
259
100
AcDbEntity
  8
CENTRALA
 62
     5
100
AcDbVertex
100
AcDb3dPolylineVertex
 10
14.8676
 20
2.549819999999999
 30
0.0
 70
    32
  0
VERTEX
  5
36D
330
259
100
AcDbEntity
  8
CENTRALA
 62
     5
100
AcDbVertex
100
AcDb3dPolylineVertex
 10
14.7713
 20
2.36865
 30
0.0
 70
    32
  0
VERTEX
  5
36E
330
259
100
AcDbEntity
  8
CENTRALA
 62
     5
100
AcDbVertex
100
AcDb3dPolylineVertex
 10
14.6739
 20
2.18747
 30
0.0
 70
    32
  0
VERTEX
  5
36F
330
259
100
AcDbEntity
  8
CENTRALA
 62
     5
100
AcDbVertex
100
AcDb3dPolylineVertex
 10
14.5756
 20
2.00631
 30
0.0
 70
    32
  0
VERTEX
  5
370
330
259
100
AcDbEntity
  8
CENTRALA
 62
     5
100
AcDbVertex
100
AcDb3dPolylineVertex
 10
14.4763
 20
1.825159999999995
 30
0.0
 70
    32
  0
VERTEX
  5
371
330
259
100
AcDbEntity
  8
CENTRALA
 62
     5
100
AcDbVertex
100
AcDb3dPolylineVertex
 10
14.3763
 20
1.64405
 30
0.0
 70
    32
  0
VERTEX
  5
372
330
259
100
AcDbEntity
  8
CENTRALA
 62
     5
100
AcDbVertex
100
AcDb3dPolylineVertex
 10
14.2755
 20
1.46297
 30
0.0
 70
    32
  0
VERTEX
  5
373
330
259
100
AcDbEntity
  8
CENTRALA
 62
     5
100
AcDbVertex
100
AcDb3dPolylineVertex
 10
14.1742
 20
1.281949999999999
 30
0.0
 70
    32
  0
VERTEX
  5
374
330
259
100
AcDbEntity
  8
CENTRALA
 62
     5
100
AcDbVertex
100
AcDb3dPolylineVertex
 10
14.0725
 20
1.100989999999999
 30
0.0
 70
    32
  0
VERTEX
  5
375
330
259
100
AcDbEntity
  8
CENTRALA
 62
     5
100
AcDbVertex
100
AcDb3dPolylineVertex
 10
13.9704
 20
0.9201
 30
0.0
 70
    32
  0
VERTEX
  5
376
330
259
100
AcDbEntity
  8
CENTRALA
 62
     5
100
AcDbVertex
100
AcDb3dPolylineVertex
 10
13.868
 20
0.7392920000000001
 30
0.0
 70
    32
  0
VERTEX
  5
377
330
259
100
AcDbEntity
  8
CENTRALA
 62
     5
100
AcDbVertex
100
AcDb3dPolylineVertex
 10
13.7654
 20
0.5585770000000001
 30
0.0
 70
    32
  0
VERTEX
  5
378
330
259
100
AcDbEntity
  8
CENTRALA
 62
     5
100
AcDbVertex
100
AcDb3dPolylineVertex
 10
13.6628
 20
0.377965
 30
0.0
 70
    32
  0
VERTEX
  5
379
330
259
100
AcDbEntity
  8
CENTRALA
 62
     5
100
AcDbVertex
100
AcDb3dPolylineVertex
 10
13.5602
 20
0.197466
 30
0.0
 70
    32
  0
VERTEX
  5
37A
330
259
100
AcDbEntity
  8
CENTRALA
 62
     5
100
AcDbVertex
100
AcDb3dPolylineVertex
 10
13.4578
 20
0.0170916
 30
0.0
 70
    32
  0
VERTEX
  5
37B
330
259
100
AcDbEntity
  8
CENTRALA
 62
     5
100
AcDbVertex
100
AcDb3dPolylineVertex
 10
13.3556
 20
-0.163149
 30
0.0
 70
    32
  0
VERTEX
  5
37C
330
259
100
AcDbEntity
  8
CENTRALA
 62
     5
100
AcDbVertex
100
AcDb3dPolylineVertex
 10
13.2538
 20
-0.343246
 30
0.0
 70
    32
  0
VERTEX
  5
37D
330
259
100
AcDbEntity
  8
CENTRALA
 62
     5
100
AcDbVertex
100
AcDb3dPolylineVertex
 10
13.1524
 20
-0.523187
 30
0.0
 70
    32
  0
VERTEX
  5
37E
330
259
100
AcDbEntity
  8
CENTRALA
 62
     5
100
AcDbVertex
100
AcDb3dPolylineVertex
 10
13.0516
 20
-0.702963
 30
0.0
 70
    32
  0
VERTEX
  5
37F
330
259
100
AcDbEntity
  8
CENTRALA
 62
     5
100
AcDbVertex
100
AcDb3dPolylineVertex
 10
12.9515
 20
-0.8825639999999999
 30
0.0
 70
    32
  0
VERTEX
  5
380
330
259
100
AcDbEntity
  8
CENTRALA
 62
     5
100
AcDbVertex
100
AcDb3dPolylineVertex
 10
12.8521
 20
-1.061979999999999
 30
0.0
 70
    32
  0
VERTEX
  5
381
330
259
100
AcDbEntity
  8
CENTRALA
 62
     5
100
AcDbVertex
100
AcDb3dPolylineVertex
 10
12.7537
 20
-1.2412
 30
0.0
 70
    32
  0
VERTEX
  5
382
330
259
100
AcDbEntity
  8
CENTRALA
 62
     5
100
AcDbVertex
100
AcDb3dPolylineVertex
 10
12.6561
 20
-1.420209999999999
 30
0.0
 70
    32
  0
VERTEX
  5
383
330
259
100
AcDbEntity
  8
CENTRALA
 62
     5
100
AcDbVertex
100
AcDb3dPolylineVertex
 10
12.5597
 20
-1.599
 30
0.0
 70
    32
  0
VERTEX
  5
384
330
259
100
AcDbEntity
  8
CENTRALA
 62
     5
100
AcDbVertex
100
AcDb3dPolylineVertex
 10
12.4644
 20
-1.77757
 30
0.0
 70
    32
  0
VERTEX
  5
385
330
259
100
AcDbEntity
  8
CENTRALA
 62
     5
100
AcDbVertex
100
AcDb3dPolylineVertex
 10
12.3705
 20
-1.955899999999999
 30
0.0
 70
    32
  0
VERTEX
  5
386
330
259
100
AcDbEntity
  8
CENTRALA
 62
     5
100
AcDbVertex
100
AcDb3dPolylineVertex
 10
12.2779
 20
-2.133979999999999
 30
0.0
 70
    32
  0
VERTEX
  5
387
330
259
100
AcDbEntity
  8
CENTRALA
 62
     5
100
AcDbVertex
100
AcDb3dPolylineVertex
 10
12.1868
 20
-2.311799999999998
 30
0.0
 70
    32
  0
VERTEX
  5
388
330
259
100
AcDbEntity
  8
CENTRALA
 62
     5
100
AcDbVertex
100
AcDb3dPolylineVertex
 10
12.0973
 20
-2.489349999999999
 30
0.0
 70
    32
  0
VERTEX
  5
389
330
259
100
AcDbEntity
  8
CENTRALA
 62
     5
100
AcDbVertex
100
AcDb3dPolylineVertex
 10
12.0095
 20
-2.66663
 30
0.0
 70
    32
  0
VERTEX
  5
38A
330
259
100
AcDbEntity
  8
CENTRALA
 62
     5
100
AcDbVertex
100
AcDb3dPolylineVertex
 10
11.9235
 20
-2.843609999999998
 30
0.0
 70
    32
  0
VERTEX
  5
38B
330
259
100
AcDbEntity
  8
CENTRALA
 62
     5
100
AcDbVertex
100
AcDb3dPolylineVertex
 10
11.8394
 20
-3.02029
 30
0.0
 70
    32
  0
VERTEX
  5
38C
330
259
100
AcDbEntity
  8
CENTRALA
 62
     5
100
AcDbVertex
100
AcDb3dPolylineVertex
 10
11.7574
 20
-3.19666
 30
0.0
 70
    32
  0
VERTEX
  5
38D
330
259
100
AcDbEntity
  8
CENTRALA
 62
     5
100
AcDbVertex
100
AcDb3dPolylineVertex
 10
11.6774
 20
-3.372719999999998
 30
0.0
 70
    32
  0
VERTEX
  5
38E
330
259
100
AcDbEntity
  8
CENTRALA
 62
     5
100
AcDbVertex
100
AcDb3dPolylineVertex
 10
11.5997
 20
-3.54844
 30
0.0
 70
    32
  0
VERTEX
  5
38F
330
259
100
AcDbEntity
  8
CENTRALA
 62
     5
100
AcDbVertex
100
AcDb3dPolylineVertex
 10
11.5242
 20
-3.723809999999998
 30
0.0
 70
    32
  0
VERTEX
  5
390
330
259
100
AcDbEntity
  8
CENTRALA
 62
     5
100
AcDbVertex
100
AcDb3dPolylineVertex
 10
11.4512
 20
-3.89884
 30
0.0
 70
    32
  0
VERTEX
  5
391
330
259
100
AcDbEntity
  8
CENTRALA
 62
     5
100
AcDbVertex
100
AcDb3dPolylineVertex
 10
11.3807
 20
-4.0735
 30
0.0
 70
    32
  0
VERTEX
  5
392
330
259
100
AcDbEntity
  8
CENTRALA
 62
     5
100
AcDbVertex
100
AcDb3dPolylineVertex
 10
11.3129
 20
-4.247799999999998
 30
0.0
 70
    32
  0
VERTEX
  5
393
330
259
100
AcDbEntity
  8
CENTRALA
 62
     5
100
AcDbVertex
100
AcDb3dPolylineVertex
 10
11.2478
 20
-4.4217
 30
0.0
 70
    32
  0
VERTEX
  5
394
330
259
100
AcDbEntity
  8
CENTRALA
 62
     5
100
AcDbVertex
100
AcDb3dPolylineVertex
 10
11.1855
 20
-4.595219999999998
 30
0.0
 70
    32
  0
VERTEX
  5
395
330
259
100
AcDbEntity
  8
CENTRALA
 62
     5
100
AcDbVertex
100
AcDb3dPolylineVertex
 10
11.1261
 20
-4.76833
 30
0.0
 70
    32
  0
VERTEX
  5
396
330
259
100
AcDbEntity
  8
CENTRALA
 62
     5
100
AcDbVertex
100
AcDb3dPolylineVertex
 10
11.0698
 20
-4.941019999999999
 30
0.0
 70
    32
  0
VERTEX
  5
397
330
259
100
AcDbEntity
  8
CENTRALA
 62
     5
100
AcDbVertex
100
AcDb3dPolylineVertex
 10
11.0167
 20
-5.11329
 30
0.0
 70
    32
  0
VERTEX
  5
398
330
259
100
AcDbEntity
  8
CENTRALA
 62
     5
100
AcDbVertex
100
AcDb3dPolylineVertex
 10
10.9668
 20
-5.28513
 30
0.0
 70
    32
  0
VERTEX
  5
399
330
259
100
AcDbEntity
  8
CENTRALA
 62
     5
100
AcDbVertex
100
AcDb3dPolylineVertex
 10
10.9202
 20
-5.456519999999997
 30
0.0
 70
    32
  0
VERTEX
  5
39A
330
259
100
AcDbEntity
  8
CENTRALA
 62
     5
100
AcDbVertex
100
AcDb3dPolylineVertex
 10
10.8771
 20
-5.627449999999997
 30
0.0
 70
    32
  0
VERTEX
  5
39B
330
259
100
AcDbEntity
  8
CENTRALA
 62
     5
100
AcDbVertex
100
AcDb3dPolylineVertex
 10
10.8376
 20
-5.797919999999997
 30
0.0
 70
    32
  0
VERTEX
  5
39C
330
259
100
AcDbEntity
  8
CENTRALA
 62
     5
100
AcDbVertex
100
AcDb3dPolylineVertex
 10
10.8017
 20
-5.967909999999998
 30
0.0
 70
    32
  0
VERTEX
  5
39D
330
259
100
AcDbEntity
  8
CENTRALA
 62
     5
100
AcDbVertex
100
AcDb3dPolylineVertex
 10
10.7696
 20
-6.13741
 30
0.0
 70
    32
  0
VERTEX
  5
39E
330
259
100
AcDbEntity
  8
CENTRALA
 62
     5
100
AcDbVertex
100
AcDb3dPolylineVertex
 10
10.7414
 20
-6.30642
 30
0.0
 70
    32
  0
VERTEX
  5
39F
330
259
100
AcDbEntity
  8
CENTRALA
 62
     5
100
AcDbVertex
100
AcDb3dPolylineVertex
 10
10.7171
 20
-6.47492
 30
0.0
 70
    32
  0
VERTEX
  5
3A0
330
259
100
AcDbEntity
  8
CENTRALA
 62
     5
100
AcDbVertex
100
AcDb3dPolylineVertex
 10
10.6969
 20
-6.6429
 30
0.0
 70
    32
  0
VERTEX
  5
3A1
330
259
100
AcDbEntity
  8
CENTRALA
 62
     5
100
AcDbVertex
100
AcDb3dPolylineVertex
 10
10.6809
 20
-6.810349999999997
 30
0.0
 70
    32
  0
VERTEX
  5
3A2
330
259
100
AcDbEntity
  8
CENTRALA
 62
     5
100
AcDbVertex
100
AcDb3dPolylineVertex
 10
10.6692
 20
-6.97726
 30
0.0
 70
    32
  0
VERTEX
  5
3A3
330
259
100
AcDbEntity
  8
CENTRALA
 62
     5
100
AcDbVertex
100
AcDb3dPolylineVertex
 10
10.6618
 20
-7.143619999999997
 30
0.0
 70
    32
  0
VERTEX
  5
3A4
330
259
100
AcDbEntity
  8
CENTRALA
 62
     5
100
AcDbVertex
100
AcDb3dPolylineVertex
 10
10.659
 20
-7.309429999999997
 30
0.0
 70
    32
  0
VERTEX
  5
3A5
330
259
100
AcDbEntity
  8
CENTRALA
 62
     5
100
AcDbVertex
100
AcDb3dPolylineVertex
 10
10.6607
 20
-7.47466
 30
0.0
 70
    32
  0
VERTEX
  5
3A6
330
259
100
AcDbEntity
  8
CENTRALA
 62
     5
100
AcDbVertex
100
AcDb3dPolylineVertex
 10
10.6671
 20
-7.63931
 30
0.0
 70
    32
  0
VERTEX
  5
3A7
330
259
100
AcDbEntity
  8
CENTRALA
 62
     5
100
AcDbVertex
100
AcDb3dPolylineVertex
 10
10.6784
 20
-7.80337
 30
0.0
 70
    32
  0
VERTEX
  5
3A8
330
259
100
AcDbEntity
  8
CENTRALA
 62
     5
100
AcDbVertex
100
AcDb3dPolylineVertex
 10
10.6945
 20
-7.966829999999997
 30
0.0
 70
    32
  0
VERTEX
  5
3A9
330
259
100
AcDbEntity
  8
CENTRALA
 62
     5
100
AcDbVertex
100
AcDb3dPolylineVertex
 10
10.7157
 20
-8.12968
 30
0.0
 70
    32
  0
VERTEX
  5
3AA
330
259
100
AcDbEntity
  8
CENTRALA
 62
     5
100
AcDbVertex
100
AcDb3dPolylineVertex
 10
10.7419
 20
-8.291910000000001
 30
0.0
 70
    32
  0
VERTEX
  5
3AB
330
259
100
AcDbEntity
  8
CENTRALA
 62
     5
100
AcDbVertex
100
AcDb3dPolylineVertex
 10
10.7734
 20
-8.4535
 30
0.0
 70
    32
  0
VERTEX
  5
3AC
330
259
100
AcDbEntity
  8
CENTRALA
 62
     5
100
AcDbVertex
100
AcDb3dPolylineVertex
 10
10.8102
 20
-8.614449999999997
 30
0.0
 70
    32
  0
VERTEX
  5
3AD
330
259
100
AcDbEntity
  8
CENTRALA
 62
     5
100
AcDbVertex
100
AcDb3dPolylineVertex
 10
10.8524
 20
-8.774749999999999
 30
0.0
 70
    32
  0
VERTEX
  5
3AE
330
259
100
AcDbEntity
  8
CENTRALA
 62
     5
100
AcDbVertex
100
AcDb3dPolylineVertex
 10
10.9001
 20
-8.934389999999996
 30
0.0
 70
    32
  0
VERTEX
  5
3AF
330
259
100
AcDbEntity
  8
CENTRALA
 62
     5
100
AcDbVertex
100
AcDb3dPolylineVertex
 10
10.9535
 20
-9.093349999999999
 30
0.0
 70
    32
  0
VERTEX
  5
3B0
330
259
100
AcDbEntity
  8
CENTRALA
 62
     5
100
AcDbVertex
100
AcDb3dPolylineVertex
 10
11.0126
 20
-9.251619999999999
 30
0.0
 70
    32
  0
VERTEX
  5
3B1
330
259
100
AcDbEntity
  8
CENTRALA
 62
     5
100
AcDbVertex
100
AcDb3dPolylineVertex
 10
11.0775
 20
-9.4092
 30
0.0
 70
    32
  0
VERTEX
  5
3B2
330
259
100
AcDbEntity
  8
CENTRALA
 62
     5
100
AcDbVertex
100
AcDb3dPolylineVertex
 10
11.1483
 20
-9.566079999999999
 30
0.0
 70
    32
  0
VERTEX
  5
3B3
330
259
100
AcDbEntity
  8
CENTRALA
 62
     5
100
AcDbVertex
100
AcDb3dPolylineVertex
 10
11.2252
 20
-9.722239999999999
 30
0.0
 70
    32
  0
VERTEX
  5
3B4
330
259
100
AcDbEntity
  8
CENTRALA
 62
     5
100
AcDbVertex
100
AcDb3dPolylineVertex
 10
11.3083
 20
-9.87767
 30
0.0
 70
    32
  0
VERTEX
  5
3B5
330
259
100
AcDbEntity
  8
CENTRALA
 62
     5
100
AcDbVertex
100
AcDb3dPolylineVertex
 10
11.3975
 20
-10.0324
 30
0.0
 70
    32
  0
VERTEX
  5
3B6
330
259
100
AcDbEntity
  8
CENTRALA
 62
     5
100
AcDbVertex
100
AcDb3dPolylineVertex
 10
11.4932
 20
-10.1863
 30
0.0
 70
    32
  0
VERTEX
  5
3B7
330
259
100
AcDbEntity
  8
CENTRALA
 62
     5
100
AcDbVertex
100
AcDb3dPolylineVertex
 10
11.5953
 20
-10.3395
 30
0.0
 70
    32
  0
VERTEX
  5
3B8
330
259
100
AcDbEntity
  8
CENTRALA
 62
     5
100
AcDbVertex
100
AcDb3dPolylineVertex
 10
11.7039
 20
-10.4919
 30
0.0
 70
    32
  0
VERTEX
  5
3B9
330
259
100
AcDbEntity
  8
CENTRALA
 62
     5
100
AcDbVertex
100
AcDb3dPolylineVertex
 10
11.8192
 20
-10.6436
 30
0.0
 70
    32
  0
VERTEX
  5
3BA
330
259
100
AcDbEntity
  8
CENTRALA
 62
     5
100
AcDbVertex
100
AcDb3dPolylineVertex
 10
11.9413
 20
-10.7945
 30
0.0
 70
    32
  0
VERTEX
  5
3BB
330
259
100
AcDbEntity
  8
CENTRALA
 62
     5
100
AcDbVertex
100
AcDb3dPolylineVertex
 10
12.07
 20
-10.9445
 30
0.0
 70
    32
  0
VERTEX
  5
3BC
330
259
100
AcDbEntity
  8
CENTRALA
 62
     5
100
AcDbVertex
100
AcDb3dPolylineVertex
 10
12.2049
 20
-11.0938
 30
0.0
 70
    32
  0
VERTEX
  5
3BD
330
259
100
AcDbEntity
  8
CENTRALA
 62
     5
100
AcDbVertex
100
AcDb3dPolylineVertex
 10
12.3457
 20
-11.2424
 30
0.0
 70
    32
  0
VERTEX
  5
3BE
330
259
100
AcDbEntity
  8
CENTRALA
 62
     5
100
AcDbVertex
100
AcDb3dPolylineVertex
 10
12.4919
 20
-11.3903
 30
0.0
 70
    32
  0
VERTEX
  5
3BF
330
259
100
AcDbEntity
  8
CENTRALA
 62
     5
100
AcDbVertex
100
AcDb3dPolylineVertex
 10
12.643
 20
-11.5375
 30
0.0
 70
    32
  0
VERTEX
  5
3C0
330
259
100
AcDbEntity
  8
CENTRALA
 62
     5
100
AcDbVertex
100
AcDb3dPolylineVertex
 10
12.7987
 20
-11.684
 30
0.0
 70
    32
  0
VERTEX
  5
3C1
330
259
100
AcDbEntity
  8
CENTRALA
 62
     5
100
AcDbVertex
100
AcDb3dPolylineVertex
 10
12.9585
 20
-11.8299
 30
0.0
 70
    32
  0
VERTEX
  5
3C2
330
259
100
AcDbEntity
  8
CENTRALA
 62
     5
100
AcDbVertex
100
AcDb3dPolylineVertex
 10
13.1221
 20
-11.9752
 30
0.0
 70
    32
  0
VERTEX
  5
3C3
330
259
100
AcDbEntity
  8
CENTRALA
 62
     5
100
AcDbVertex
100
AcDb3dPolylineVertex
 10
13.2889
 20
-12.1199
 30
0.0
 70
    32
  0
VERTEX
  5
3C4
330
259
100
AcDbEntity
  8
CENTRALA
 62
     5
100
AcDbVertex
100
AcDb3dPolylineVertex
 10
13.4586
 20
-12.264
 30
0.0
 70
    32
  0
VERTEX
  5
3C5
330
259
100
AcDbEntity
  8
CENTRALA
 62
     5
100
AcDbVertex
100
AcDb3dPolylineVertex
 10
13.6307
 20
-12.4076
 30
0.0
 70
    32
  0
VERTEX
  5
3C6
330
259
100
AcDbEntity
  8
CENTRALA
 62
     5
100
AcDbVertex
100
AcDb3dPolylineVertex
 10
13.8048
 20
-12.5507
 30
0.0
 70
    32
  0
VERTEX
  5
3C7
330
259
100
AcDbEntity
  8
CENTRALA
 62
     5
100
AcDbVertex
100
AcDb3dPolylineVertex
 10
13.9806
 20
-12.6933
 30
0.0
 70
    32
  0
VERTEX
  5
3C8
330
259
100
AcDbEntity
  8
CENTRALA
 62
     5
100
AcDbVertex
100
AcDb3dPolylineVertex
 10
14.1575
 20
-12.8354
 30
0.0
 70
    32
  0
VERTEX
  5
3C9
330
259
100
AcDbEntity
  8
CENTRALA
 62
     5
100
AcDbVertex
100
AcDb3dPolylineVertex
 10
14.3352
 20
-12.9772
 30
0.0
 70
    32
  0
VERTEX
  5
3CA
330
259
100
AcDbEntity
  8
CENTRALA
 62
     5
100
AcDbVertex
100
AcDb3dPolylineVertex
 10
14.5132
 20
-13.1184
 30
0.0
 70
    32
  0
VERTEX
  5
3CB
330
259
100
AcDbEntity
  8
CENTRALA
 62
     5
100
AcDbVertex
100
AcDb3dPolylineVertex
 10
14.6911
 20
-13.2594
 30
0.0
 70
    32
  0
VERTEX
  5
3CC
330
259
100
AcDbEntity
  8
CENTRALA
 62
     5
100
AcDbVertex
100
AcDb3dPolylineVertex
 10
14.8685
 20
-13.3999
 30
0.0
 70
    32
  0
VERTEX
  5
3CD
330
259
100
AcDbEntity
  8
CENTRALA
 62
     5
100
AcDbVertex
100
AcDb3dPolylineVertex
 10
15.045
 20
-13.5401
 30
0.0
 70
    32
  0
VERTEX
  5
3CE
330
259
100
AcDbEntity
  8
CENTRALA
 62
     5
100
AcDbVertex
100
AcDb3dPolylineVertex
 10
15.2201
 20
-13.68
 30
0.0
 70
    32
  0
VERTEX
  5
3CF
330
259
100
AcDbEntity
  8
CENTRALA
 62
     5
100
AcDbVertex
100
AcDb3dPolylineVertex
 10
15.3935
 20
-13.8196
 30
0.0
 70
    32
  0
VERTEX
  5
3D0
330
259
100
AcDbEntity
  8
CENTRALA
 62
     5
100
AcDbVertex
100
AcDb3dPolylineVertex
 10
15.5646
 20
-13.959
 30
0.0
 70
    32
  0
VERTEX
  5
3D1
330
259
100
AcDbEntity
  8
CENTRALA
 62
     5
100
AcDbVertex
100
AcDb3dPolylineVertex
 10
15.7331
 20
-14.0981
 30
0.0
 70
    32
  0
VERTEX
  5
3D2
330
259
100
AcDbEntity
  8
CENTRALA
 62
     5
100
AcDbVertex
100
AcDb3dPolylineVertex
 10
15.8986
 20
-14.237
 30
0.0
 70
    32
  0
VERTEX
  5
3D3
330
259
100
AcDbEntity
  8
CENTRALA
 62
     5
100
AcDbVertex
100
AcDb3dPolylineVertex
 10
16.0606
 20
-14.3757
 30
0.0
 70
    32
  0
VERTEX
  5
3D4
330
259
100
AcDbEntity
  8
CENTRALA
 62
     5
100
AcDbVertex
100
AcDb3dPolylineVertex
 10
16.2187
 20
-14.5143
 30
0.0
 70
    32
  0
VERTEX
  5
3D5
330
259
100
AcDbEntity
  8
CENTRALA
 62
     5
100
AcDbVertex
100
AcDb3dPolylineVertex
 10
16.3725
 20
-14.6527
 30
0.0
 70
    32
  0
VERTEX
  5
3D6
330
259
100
AcDbEntity
  8
CENTRALA
 62
     5
100
AcDbVertex
100
AcDb3dPolylineVertex
 10
16.5216
 20
-14.791
 30
0.0
 70
    32
  0
VERTEX
  5
3D7
330
259
100
AcDbEntity
  8
CENTRALA
 62
     5
100
AcDbVertex
100
AcDb3dPolylineVertex
 10
16.6655
 20
-14.9292
 30
0.0
 70
    32
  0
VERTEX
  5
3D8
330
259
100
AcDbEntity
  8
CENTRALA
 62
     5
100
AcDbVertex
100
AcDb3dPolylineVertex
 10
16.8039
 20
-15.0673
 30
0.0
 70
    32
  0
VERTEX
  5
3D9
330
259
100
AcDbEntity
  8
CENTRALA
 62
     5
100
AcDbVertex
100
AcDb3dPolylineVertex
 10
16.9362
 20
-15.2055
 30
0.0
 70
    32
  0
VERTEX
  5
3DA
330
259
100
AcDbEntity
  8
CENTRALA
 62
     5
100
AcDbVertex
100
AcDb3dPolylineVertex
 10
16.9141
 20
-15.3009
 30
0.0
 70
    32
  0
VERTEX
  5
3DB
330
259
100
AcDbEntity
  8
CENTRALA
 62
     5
100
AcDbVertex
100
AcDb3dPolylineVertex
 10
16.7422
 20
-15.3537
 30
0.0
 70
    32
  0
VERTEX
  5
3DC
330
259
100
AcDbEntity
  8
CENTRALA
 62
     5
100
AcDbVertex
100
AcDb3dPolylineVertex
 10
16.5704
 20
-15.4064
 30
0.0
 70
    32
  0
VERTEX
  5
3DD
330
259
100
AcDbEntity
  8
CENTRALA
 62
     5
100
AcDbVertex
100
AcDb3dPolylineVertex
 10
16.3985
 20
-15.459
 30
0.0
 70
    32
  0
VERTEX
  5
3DE
330
259
100
AcDbEntity
  8
CENTRALA
 62
     5
100
AcDbVertex
100
AcDb3dPolylineVertex
 10
16.2267
 20
-15.5114
 30
0.0
 70
    32
  0
VERTEX
  5
3DF
330
259
100
AcDbEntity
  8
CENTRALA
 62
     5
100
AcDbVertex
100
AcDb3dPolylineVertex
 10
16.0548
 20
-15.5635
 30
0.0
 70
    32
  0
VERTEX
  5
3E0
330
259
100
AcDbEntity
  8
CENTRALA
 62
     5
100
AcDbVertex
100
AcDb3dPolylineVertex
 10
15.8829
 20
-15.6154
 30
0.0
 70
    32
  0
VERTEX
  5
3E1
330
259
100
AcDbEntity
  8
CENTRALA
 62
     5
100
AcDbVertex
100
AcDb3dPolylineVertex
 10
15.7109
 20
-15.6669
 30
0.0
 70
    32
  0
VERTEX
  5
3E2
330
259
100
AcDbEntity
  8
CENTRALA
 62
     5
100
AcDbVertex
100
AcDb3dPolylineVertex
 10
15.539
 20
-15.718
 30
0.0
 70
    32
  0
VERTEX
  5
3E3
330
259
100
AcDbEntity
  8
CENTRALA
 62
     5
100
AcDbVertex
100
AcDb3dPolylineVertex
 10
15.367
 20
-15.7686
 30
0.0
 70
    32
  0
VERTEX
  5
3E4
330
259
100
AcDbEntity
  8
CENTRALA
 62
     5
100
AcDbVertex
100
AcDb3dPolylineVertex
 10
15.195
 20
-15.8187
 30
0.0
 70
    32
  0
VERTEX
  5
3E5
330
259
100
AcDbEntity
  8
CENTRALA
 62
     5
100
AcDbVertex
100
AcDb3dPolylineVertex
 10
15.0229
 20
-15.8683
 30
0.0
 70
    32
  0
VERTEX
  5
3E6
330
259
100
AcDbEntity
  8
CENTRALA
 62
     5
100
AcDbVertex
100
AcDb3dPolylineVertex
 10
14.8508
 20
-15.9173
 30
0.0
 70
    32
  0
VERTEX
  5
3E7
330
259
100
AcDbEntity
  8
CENTRALA
 62
     5
100
AcDbVertex
100
AcDb3dPolylineVertex
 10
14.6787
 20
-15.9655
 30
0.0
 70
    32
  0
VERTEX
  5
3E8
330
259
100
AcDbEntity
  8
CENTRALA
 62
     5
100
AcDbVertex
100
AcDb3dPolylineVertex
 10
14.5065
 20
-16.0131
 30
0.0
 70
    32
  0
VERTEX
  5
3E9
330
259
100
AcDbEntity
  8
CENTRALA
 62
     5
100
AcDbVertex
100
AcDb3dPolylineVertex
 10
14.3342
 20
-16.0599
 30
0.0
 70
    32
  0
VERTEX
  5
3EA
330
259
100
AcDbEntity
  8
CENTRALA
 62
     5
100
AcDbVertex
100
AcDb3dPolylineVertex
 10
14.1619
 20
-16.1058
 30
0.0
 70
    32
  0
VERTEX
  5
3EB
330
259
100
AcDbEntity
  8
CENTRALA
 62
     5
100
AcDbVertex
100
AcDb3dPolylineVertex
 10
13.9896
 20
-16.1509
 30
0.0
 70
    32
  0
VERTEX
  5
3EC
330
259
100
AcDbEntity
  8
CENTRALA
 62
     5
100
AcDbVertex
100
AcDb3dPolylineVertex
 10
13.8171
 20
-16.195
 30
0.0
 70
    32
  0
VERTEX
  5
3ED
330
259
100
AcDbEntity
  8
CENTRALA
 62
     5
100
AcDbVertex
100
AcDb3dPolylineVertex
 10
13.6446
 20
-16.2381
 30
0.0
 70
    32
  0
VERTEX
  5
3EE
330
259
100
AcDbEntity
  8
CENTRALA
 62
     5
100
AcDbVertex
100
AcDb3dPolylineVertex
 10
13.4721
 20
-16.2802
 30
0.0
 70
    32
  0
VERTEX
  5
3EF
330
259
100
AcDbEntity
  8
CENTRALA
 62
     5
100
AcDbVertex
100
AcDb3dPolylineVertex
 10
13.2994
 20
-16.3212
 30
0.0
 70
    32
  0
VERTEX
  5
3F0
330
259
100
AcDbEntity
  8
CENTRALA
 62
     5
100
AcDbVertex
100
AcDb3dPolylineVertex
 10
13.1267
 20
-16.361
 30
0.0
 70
    32
  0
VERTEX
  5
3F1
330
259
100
AcDbEntity
  8
CENTRALA
 62
     5
100
AcDbVertex
100
AcDb3dPolylineVertex
 10
12.9539
 20
-16.3997
 30
0.0
 70
    32
  0
VERTEX
  5
3F2
330
259
100
AcDbEntity
  8
CENTRALA
 62
     5
100
AcDbVertex
100
AcDb3dPolylineVertex
 10
12.781
 20
-16.437
 30
0.0
 70
    32
  0
VERTEX
  5
3F3
330
259
100
AcDbEntity
  8
CENTRALA
 62
     5
100
AcDbVertex
100
AcDb3dPolylineVertex
 10
12.6081
 20
-16.4731
 30
0.0
 70
    32
  0
VERTEX
  5
3F4
330
259
100
AcDbEntity
  8
CENTRALA
 62
     5
100
AcDbVertex
100
AcDb3dPolylineVertex
 10
12.435
 20
-16.5077
 30
0.0
 70
    32
  0
VERTEX
  5
3F5
330
259
100
AcDbEntity
  8
CENTRALA
 62
     5
100
AcDbVertex
100
AcDb3dPolylineVertex
 10
12.2618
 20
-16.541
 30
0.0
 70
    32
  0
VERTEX
  5
3F6
330
259
100
AcDbEntity
  8
CENTRALA
 62
     5
100
AcDbVertex
100
AcDb3dPolylineVertex
 10
12.0886
 20
-16.5728
 30
0.0
 70
    32
  0
VERTEX
  5
3F7
330
259
100
AcDbEntity
  8
CENTRALA
 62
     5
100
AcDbVertex
100
AcDb3dPolylineVertex
 10
11.9152
 20
-16.603
 30
0.0
 70
    32
  0
VERTEX
  5
3F8
330
259
100
AcDbEntity
  8
CENTRALA
 62
     5
100
AcDbVertex
100
AcDb3dPolylineVertex
 10
11.7417
 20
-16.6317
 30
0.0
 70
    32
  0
VERTEX
  5
3F9
330
259
100
AcDbEntity
  8
CENTRALA
 62
     5
100
AcDbVertex
100
AcDb3dPolylineVertex
 10
11.5682
 20
-16.6587
 30
0.0
 70
    32
  0
VERTEX
  5
3FA
330
259
100
AcDbEntity
  8
CENTRALA
 62
     5
100
AcDbVertex
100
AcDb3dPolylineVertex
 10
11.3945
 20
-16.6841
 30
0.0
 70
    32
  0
VERTEX
  5
3FB
330
259
100
AcDbEntity
  8
CENTRALA
 62
     5
100
AcDbVertex
100
AcDb3dPolylineVertex
 10
11.2206
 20
-16.7077
 30
0.0
 70
    32
  0
VERTEX
  5
3FC
330
259
100
AcDbEntity
  8
CENTRALA
 62
     5
100
AcDbVertex
100
AcDb3dPolylineVertex
 10
11.0467
 20
-16.7295
 30
0.0
 70
    32
  0
VERTEX
  5
3FD
330
259
100
AcDbEntity
  8
CENTRALA
 62
     5
100
AcDbVertex
100
AcDb3dPolylineVertex
 10
10.8726
 20
-16.7494
 30
0.0
 70
    32
  0
VERTEX
  5
3FE
330
259
100
AcDbEntity
  8
CENTRALA
 62
     5
100
AcDbVertex
100
AcDb3dPolylineVertex
 10
10.6985
 20
-16.7675
 30
0.0
 70
    32
  0
VERTEX
  5
3FF
330
259
100
AcDbEntity
  8
CENTRALA
 62
     5
100
AcDbVertex
100
AcDb3dPolylineVertex
 10
10.5241
 20
-16.7835
 30
0.0
 70
    32
  0
VERTEX
  5
400
330
259
100
AcDbEntity
  8
CENTRALA
 62
     5
100
AcDbVertex
100
AcDb3dPolylineVertex
 10
10.3497
 20
-16.7976
 30
0.0
 70
    32
  0
VERTEX
  5
401
330
259
100
AcDbEntity
  8
CENTRALA
 62
     5
100
AcDbVertex
100
AcDb3dPolylineVertex
 10
10.1751
 20
-16.8096
 30
0.0
 70
    32
  0
VERTEX
  5
402
330
259
100
AcDbEntity
  8
CENTRALA
 62
     5
100
AcDbVertex
100
AcDb3dPolylineVertex
 10
10.0003
 20
-16.8195
 30
0.0
 70
    32
  0
VERTEX
  5
403
330
259
100
AcDbEntity
  8
CENTRALA
 62
     5
100
AcDbVertex
100
AcDb3dPolylineVertex
 10
9.825439999999996
 20
-16.8272
 30
0.0
 70
    32
  0
VERTEX
  5
404
330
259
100
AcDbEntity
  8
CENTRALA
 62
     5
100
AcDbVertex
100
AcDb3dPolylineVertex
 10
9.650399999999999
 20
-16.8327
 30
0.0
 70
    32
  0
VERTEX
  5
405
330
259
100
AcDbEntity
  8
CENTRALA
 62
     5
100
AcDbVertex
100
AcDb3dPolylineVertex
 10
9.47521
 20
-16.8359
 30
0.0
 70
    32
  0
VERTEX
  5
406
330
259
100
AcDbEntity
  8
CENTRALA
 62
     5
100
AcDbVertex
100
AcDb3dPolylineVertex
 10
9.299849999999999
 20
-16.8368
 30
0.0
 70
    32
  0
VERTEX
  5
407
330
259
100
AcDbEntity
  8
CENTRALA
 62
     5
100
AcDbVertex
100
AcDb3dPolylineVertex
 10
9.12434
 20
-16.8352
 30
0.0
 70
    32
  0
VERTEX
  5
408
330
259
100
AcDbEntity
  8
CENTRALA
 62
     5
100
AcDbVertex
100
AcDb3dPolylineVertex
 10
8.94866
 20
-16.8313
 30
0.0
 70
    32
  0
VERTEX
  5
409
330
259
100
AcDbEntity
  8
CENTRALA
 62
     5
100
AcDbVertex
100
AcDb3dPolylineVertex
 10
8.772819999999999
 20
-16.8248
 30
0.0
 70
    32
  0
VERTEX
  5
40A
330
259
100
AcDbEntity
  8
CENTRALA
 62
     5
100
AcDbVertex
100
AcDb3dPolylineVertex
 10
8.596799999999998
 20
-16.8158
 30
0.0
 70
    32
  0
VERTEX
  5
40B
330
259
100
AcDbEntity
  8
CENTRALA
 62
     5
100
AcDbVertex
100
AcDb3dPolylineVertex
 10
8.4206
 20
-16.8042
 30
0.0
 70
    32
  0
VERTEX
  5
40C
330
259
100
AcDbEntity
  8
CENTRALA
 62
     5
100
AcDbVertex
100
AcDb3dPolylineVertex
 10
8.24422
 20
-16.79
 30
0.0
 70
    32
  0
VERTEX
  5
40D
330
259
100
AcDbEntity
  8
CENTRALA
 62
     5
100
AcDbVertex
100
AcDb3dPolylineVertex
 10
8.067669999999999
 20
-16.773
 30
0.0
 70
    32
  0
VERTEX
  5
40E
330
259
100
AcDbEntity
  8
CENTRALA
 62
     5
100
AcDbVertex
100
AcDb3dPolylineVertex
 10
7.890919999999997
 20
-16.7533
 30
0.0
 70
    32
  0
VERTEX
  5
40F
330
259
100
AcDbEntity
  8
CENTRALA
 62
     5
100
AcDbVertex
100
AcDb3dPolylineVertex
 10
7.713989999999999
 20
-16.7307
 30
0.0
 70
    32
  0
VERTEX
  5
410
330
259
100
AcDbEntity
  8
CENTRALA
 62
     5
100
AcDbVertex
100
AcDb3dPolylineVertex
 10
7.53686
 20
-16.7053
 30
0.0
 70
    32
  0
VERTEX
  5
411
330
259
100
AcDbEntity
  8
CENTRALA
 62
     5
100
AcDbVertex
100
AcDb3dPolylineVertex
 10
7.35953
 20
-16.6769
 30
0.0
 70
    32
  0
VERTEX
  5
412
330
259
100
AcDbEntity
  8
CENTRALA
 62
     5
100
AcDbVertex
100
AcDb3dPolylineVertex
 10
7.182
 20
-16.6456
 30
0.0
 70
    32
  0
VERTEX
  5
413
330
259
100
AcDbEntity
  8
CENTRALA
 62
     5
100
AcDbVertex
100
AcDb3dPolylineVertex
 10
7.00426
 20
-16.6112
 30
0.0
 70
    32
  0
VERTEX
  5
414
330
259
100
AcDbEntity
  8
CENTRALA
 62
     5
100
AcDbVertex
100
AcDb3dPolylineVertex
 10
6.826319999999999
 20
-16.5738
 30
0.0
 70
    32
  0
VERTEX
  5
415
330
259
100
AcDbEntity
  8
CENTRALA
 62
     5
100
AcDbVertex
100
AcDb3dPolylineVertex
 10
6.648169999999997
 20
-16.5332
 30
0.0
 70
    32
  0
VERTEX
  5
416
330
259
100
AcDbEntity
  8
CENTRALA
 62
     5
100
AcDbVertex
100
AcDb3dPolylineVertex
 10
6.4698
 20
-16.4894
 30
0.0
 70
    32
  0
VERTEX
  5
417
330
259
100
AcDbEntity
  8
CENTRALA
 62
     5
100
AcDbVertex
100
AcDb3dPolylineVertex
 10
6.291209999999997
 20
-16.4424
 30
0.0
 70
    32
  0
VERTEX
  5
418
330
259
100
AcDbEntity
  8
CENTRALA
 62
     5
100
AcDbVertex
100
AcDb3dPolylineVertex
 10
6.11239
 20
-16.3921
 30
0.0
 70
    32
  0
VERTEX
  5
419
330
259
100
AcDbEntity
  8
CENTRALA
 62
     5
100
AcDbVertex
100
AcDb3dPolylineVertex
 10
5.933359999999997
 20
-16.3385
 30
0.0
 70
    32
  0
VERTEX
  5
41A
330
259
100
AcDbEntity
  8
CENTRALA
 62
     5
100
AcDbVertex
100
AcDb3dPolylineVertex
 10
5.754129999999999
 20
-16.2819
 30
0.0
 70
    32
  0
VERTEX
  5
41B
330
259
100
AcDbEntity
  8
CENTRALA
 62
     5
100
AcDbVertex
100
AcDb3dPolylineVertex
 10
5.574699999999999
 20
-16.2222
 30
0.0
 70
    32
  0
VERTEX
  5
41C
330
259
100
AcDbEntity
  8
CENTRALA
 62
     5
100
AcDbVertex
100
AcDb3dPolylineVertex
 10
5.39508
 20
-16.1595
 30
0.0
 70
    32
  0
VERTEX
  5
41D
330
259
100
AcDbEntity
  8
CENTRALA
 62
     5
100
AcDbVertex
100
AcDb3dPolylineVertex
 10
5.21529
 20
-16.0941
 30
0.0
 70
    32
  0
VERTEX
  5
41E
330
259
100
AcDbEntity
  8
CENTRALA
 62
     5
100
AcDbVertex
100
AcDb3dPolylineVertex
 10
5.035339999999997
 20
-16.0259
 30
0.0
 70
    32
  0
VERTEX
  5
41F
330
259
100
AcDbEntity
  8
CENTRALA
 62
     5
100
AcDbVertex
100
AcDb3dPolylineVertex
 10
4.85523
 20
-15.9551
 30
0.0
 70
    32
  0
VERTEX
  5
420
330
259
100
AcDbEntity
  8
CENTRALA
 62
     5
100
AcDbVertex
100
AcDb3dPolylineVertex
 10
4.67498
 20
-15.8818
 30
0.0
 70
    32
  0
VERTEX
  5
421
330
259
100
AcDbEntity
  8
CENTRALA
 62
     5
100
AcDbVertex
100
AcDb3dPolylineVertex
 10
4.49459
 20
-15.806
 30
0.0
 70
    32
  0
VERTEX
  5
422
330
259
100
AcDbEntity
  8
CENTRALA
 62
     5
100
AcDbVertex
100
AcDb3dPolylineVertex
 10
4.31408
 20
-15.728
 30
0.0
 70
    32
  0
VERTEX
  5
423
330
259
100
AcDbEntity
  8
CENTRALA
 62
     5
100
AcDbVertex
100
AcDb3dPolylineVertex
 10
4.133459999999998
 20
-15.6478
 30
0.0
 70
    32
  0
VERTEX
  5
424
330
259
100
AcDbEntity
  8
CENTRALA
 62
     5
100
AcDbVertex
100
AcDb3dPolylineVertex
 10
3.95274
 20
-15.5655
 30
0.0
 70
    32
  0
VERTEX
  5
425
330
259
100
AcDbEntity
  8
CENTRALA
 62
     5
100
AcDbVertex
100
AcDb3dPolylineVertex
 10
3.77193
 20
-15.4811
 30
0.0
 70
    32
  0
VERTEX
  5
426
330
259
100
AcDbEntity
  8
CENTRALA
 62
     5
100
AcDbVertex
100
AcDb3dPolylineVertex
 10
3.59103
 20
-15.3949
 30
0.0
 70
    32
  0
VERTEX
  5
427
330
259
100
AcDbEntity
  8
CENTRALA
 62
     5
100
AcDbVertex
100
AcDb3dPolylineVertex
 10
3.410059999999998
 20
-15.3069
 30
0.0
 70
    32
  0
VERTEX
  5
428
330
259
100
AcDbEntity
  8
CENTRALA
 62
     5
100
AcDbVertex
100
AcDb3dPolylineVertex
 10
3.22904
 20
-15.2172
 30
0.0
 70
    32
  0
VERTEX
  5
429
330
259
100
AcDbEntity
  8
CENTRALA
 62
     5
100
AcDbVertex
100
AcDb3dPolylineVertex
 10
3.047959999999998
 20
-15.1259
 30
0.0
 70
    32
  0
VERTEX
  5
42A
330
259
100
AcDbEntity
  8
CENTRALA
 62
     5
100
AcDbVertex
100
AcDb3dPolylineVertex
 10
2.86684
 20
-15.0332
 30
0.0
 70
    32
  0
VERTEX
  5
42B
330
259
100
AcDbEntity
  8
CENTRALA
 62
     5
100
AcDbVertex
100
AcDb3dPolylineVertex
 10
2.68569
 20
-14.939
 30
0.0
 70
    32
  0
VERTEX
  5
42C
330
259
100
AcDbEntity
  8
CENTRALA
 62
     5
100
AcDbVertex
100
AcDb3dPolylineVertex
 10
2.504529999999999
 20
-14.8436
 30
0.0
 70
    32
  0
VERTEX
  5
42D
330
259
100
AcDbEntity
  8
CENTRALA
 62
     5
100
AcDbVertex
100
AcDb3dPolylineVertex
 10
2.32335
 20
-14.7471
 30
0.0
 70
    32
  0
VERTEX
  5
42E
330
259
100
AcDbEntity
  8
CENTRALA
 62
     5
100
AcDbVertex
100
AcDb3dPolylineVertex
 10
2.142179999999999
 20
-14.6494
 30
0.0
 70
    32
  0
VERTEX
  5
42F
330
259
100
AcDbEntity
  8
CENTRALA
 62
     5
100
AcDbVertex
100
AcDb3dPolylineVertex
 10
1.961019999999999
 20
-14.5508
 30
0.0
 70
    32
  0
VERTEX
  5
430
330
259
100
AcDbEntity
  8
CENTRALA
 62
     5
100
AcDbVertex
100
AcDb3dPolylineVertex
 10
1.779879999999999
 20
-14.4514
 30
0.0
 70
    32
  0
VERTEX
  5
431
330
259
100
AcDbEntity
  8
CENTRALA
 62
     5
100
AcDbVertex
100
AcDb3dPolylineVertex
 10
1.598779999999999
 20
-14.3511
 30
0.0
 70
    32
  0
VERTEX
  5
432
330
259
100
AcDbEntity
  8
CENTRALA
 62
     5
100
AcDbVertex
100
AcDb3dPolylineVertex
 10
1.41771
 20
-14.2503
 30
0.0
 70
    32
  0
VERTEX
  5
433
330
259
100
AcDbEntity
  8
CENTRALA
 62
     5
100
AcDbVertex
100
AcDb3dPolylineVertex
 10
1.236699999999999
 20
-14.1488
 30
0.0
 70
    32
  0
VERTEX
  5
434
330
259
100
AcDbEntity
  8
CENTRALA
 62
     5
100
AcDbVertex
100
AcDb3dPolylineVertex
 10
1.05576
 20
-14.047
 30
0.0
 70
    32
  0
VERTEX
  5
435
330
259
100
AcDbEntity
  8
CENTRALA
 62
     5
100
AcDbVertex
100
AcDb3dPolylineVertex
 10
0.8748899999999999
 20
-13.9448
 30
0.0
 70
    32
  0
VERTEX
  5
436
330
259
100
AcDbEntity
  8
CENTRALA
 62
     5
100
AcDbVertex
100
AcDb3dPolylineVertex
 10
0.694104
 20
-13.8423
 30
0.0
 70
    32
  0
VERTEX
  5
437
330
259
100
AcDbEntity
  8
CENTRALA
 62
     5
100
AcDbVertex
100
AcDb3dPolylineVertex
 10
0.5134140000000002
 20
-13.7397
 30
0.0
 70
    32
  0
VERTEX
  5
438
330
259
100
AcDbEntity
  8
CENTRALA
 62
     5
100
AcDbVertex
100
AcDb3dPolylineVertex
 10
0.332829
 20
-13.6371
 30
0.0
 70
    32
  0
VERTEX
  5
439
330
259
100
AcDbEntity
  8
CENTRALA
 62
     5
100
AcDbVertex
100
AcDb3dPolylineVertex
 10
0.152361
 20
-13.5346
 30
0.0
 70
    32
  0
VERTEX
  5
43A
330
259
100
AcDbEntity
  8
CENTRALA
 62
     5
100
AcDbVertex
100
AcDb3dPolylineVertex
 10
-0.0279816
 20
-13.4322
 30
0.0
 70
    32
  0
VERTEX
  5
43B
330
259
100
AcDbEntity
  8
CENTRALA
 62
     5
100
AcDbVertex
100
AcDb3dPolylineVertex
 10
-0.208187
 20
-13.3301
 30
0.0
 70
    32
  0
VERTEX
  5
43C
330
259
100
AcDbEntity
  8
CENTRALA
 62
     5
100
AcDbVertex
100
AcDb3dPolylineVertex
 10
-0.388246
 20
-13.2284
 30
0.0
 70
    32
  0
VERTEX
  5
43D
330
259
100
AcDbEntity
  8
CENTRALA
 62
     5
100
AcDbVertex
100
AcDb3dPolylineVertex
 10
-0.5681470000000001
 20
-13.1272
 30
0.0
 70
    32
  0
VERTEX
  5
43E
330
259
100
AcDbEntity
  8
CENTRALA
 62
     5
100
AcDbVertex
100
AcDb3dPolylineVertex
 10
-0.74788
 20
-13.0265
 30
0.0
 70
    32
  0
VERTEX
  5
43F
330
259
100
AcDbEntity
  8
CENTRALA
 62
     5
100
AcDbVertex
100
AcDb3dPolylineVertex
 10
-0.927435
 20
-12.9266
 30
0.0
 70
    32
  0
VERTEX
  5
440
330
259
100
AcDbEntity
  8
CENTRALA
 62
     5
100
AcDbVertex
100
AcDb3dPolylineVertex
 10
-1.1068
 20
-12.8274
 30
0.0
 70
    32
  0
VERTEX
  5
441
330
259
100
AcDbEntity
  8
CENTRALA
 62
     5
100
AcDbVertex
100
AcDb3dPolylineVertex
 10
-1.28597
 20
-12.7292
 30
0.0
 70
    32
  0
VERTEX
  5
442
330
259
100
AcDbEntity
  8
CENTRALA
 62
     5
100
AcDbVertex
100
AcDb3dPolylineVertex
 10
-1.464929999999999
 20
-12.6319
 30
0.0
 70
    32
  0
VERTEX
  5
443
330
259
100
AcDbEntity
  8
CENTRALA
 62
     5
100
AcDbVertex
100
AcDb3dPolylineVertex
 10
-1.64367
 20
-12.5358
 30
0.0
 70
    32
  0
VERTEX
  5
444
330
259
100
AcDbEntity
  8
CENTRALA
 62
     5
100
AcDbVertex
100
AcDb3dPolylineVertex
 10
-1.82217
 20
-12.4408
 30
0.0
 70
    32
  0
VERTEX
  5
445
330
259
100
AcDbEntity
  8
CENTRALA
 62
     5
100
AcDbVertex
100
AcDb3dPolylineVertex
 10
-2.00044
 20
-12.3472
 30
0.0
 70
    32
  0
VERTEX
  5
446
330
259
100
AcDbEntity
  8
CENTRALA
 62
     5
100
AcDbVertex
100
AcDb3dPolylineVertex
 10
-2.178459999999998
 20
-12.255
 30
0.0
 70
    32
  0
VERTEX
  5
447
330
259
100
AcDbEntity
  8
CENTRALA
 62
     5
100
AcDbVertex
100
AcDb3dPolylineVertex
 10
-2.356209999999999
 20
-12.1643
 30
0.0
 70
    32
  0
VERTEX
  5
448
330
259
100
AcDbEntity
  8
CENTRALA
 62
     5
100
AcDbVertex
100
AcDb3dPolylineVertex
 10
-2.5337
 20
-12.0752
 30
0.0
 70
    32
  0
VERTEX
  5
449
330
259
100
AcDbEntity
  8
CENTRALA
 62
     5
100
AcDbVertex
100
AcDb3dPolylineVertex
 10
-2.7109
 20
-11.9879
 30
0.0
 70
    32
  0
VERTEX
  5
44A
330
259
100
AcDbEntity
  8
CENTRALA
 62
     5
100
AcDbVertex
100
AcDb3dPolylineVertex
 10
-2.887809999999998
 20
-11.9023
 30
0.0
 70
    32
  0
VERTEX
  5
44B
330
259
100
AcDbEntity
  8
CENTRALA
 62
     5
100
AcDbVertex
100
AcDb3dPolylineVertex
 10
-3.064409999999998
 20
-11.8187
 30
0.0
 70
    32
  0
VERTEX
  5
44C
330
259
100
AcDbEntity
  8
CENTRALA
 62
     5
100
AcDbVertex
100
AcDb3dPolylineVertex
 10
-3.240709999999998
 20
-11.7372
 30
0.0
 70
    32
  0
VERTEX
  5
44D
330
259
100
AcDbEntity
  8
CENTRALA
 62
     5
100
AcDbVertex
100
AcDb3dPolylineVertex
 10
-3.41668
 20
-11.6578
 30
0.0
 70
    32
  0
VERTEX
  5
44E
330
259
100
AcDbEntity
  8
CENTRALA
 62
     5
100
AcDbVertex
100
AcDb3dPolylineVertex
 10
-3.592309999999999
 20
-11.5806
 30
0.0
 70
    32
  0
VERTEX
  5
44F
330
259
100
AcDbEntity
  8
CENTRALA
 62
     5
100
AcDbVertex
100
AcDb3dPolylineVertex
 10
-3.767599999999998
 20
-11.5057
 30
0.0
 70
    32
  0
VERTEX
  5
450
330
259
100
AcDbEntity
  8
CENTRALA
 62
     5
100
AcDbVertex
100
AcDb3dPolylineVertex
 10
-3.94254
 20
-11.4334
 30
0.0
 70
    32
  0
VERTEX
  5
451
330
259
100
AcDbEntity
  8
CENTRALA
 62
     5
100
AcDbVertex
100
AcDb3dPolylineVertex
 10
-4.11711
 20
-11.3635
 30
0.0
 70
    32
  0
VERTEX
  5
452
330
259
100
AcDbEntity
  8
CENTRALA
 62
     5
100
AcDbVertex
100
AcDb3dPolylineVertex
 10
-4.29131
 20
-11.2964
 30
0.0
 70
    32
  0
VERTEX
  5
453
330
259
100
AcDbEntity
  8
CENTRALA
 62
     5
100
AcDbVertex
100
AcDb3dPolylineVertex
 10
-4.465119999999997
 20
-11.2319
 30
0.0
 70
    32
  0
VERTEX
  5
454
330
259
100
AcDbEntity
  8
CENTRALA
 62
     5
100
AcDbVertex
100
AcDb3dPolylineVertex
 10
-4.63853
 20
-11.1704
 30
0.0
 70
    32
  0
VERTEX
  5
455
330
259
100
AcDbEntity
  8
CENTRALA
 62
     5
100
AcDbVertex
100
AcDb3dPolylineVertex
 10
-4.811539999999999
 20
-11.1118
 30
0.0
 70
    32
  0
VERTEX
  5
456
330
259
100
AcDbEntity
  8
CENTRALA
 62
     5
100
AcDbVertex
100
AcDb3dPolylineVertex
 10
-4.98413
 20
-11.0563
 30
0.0
 70
    32
  0
VERTEX
  5
457
330
259
100
AcDbEntity
  8
CENTRALA
 62
     5
100
AcDbVertex
100
AcDb3dPolylineVertex
 10
-5.15629
 20
-11.0039
 30
0.0
 70
    32
  0
VERTEX
  5
458
330
259
100
AcDbEntity
  8
CENTRALA
 62
     5
100
AcDbVertex
100
AcDb3dPolylineVertex
 10
-5.328019999999998
 20
-10.9548
 30
0.0
 70
    32
  0
VERTEX
  5
459
330
259
100
AcDbEntity
  8
CENTRALA
 62
     5
100
AcDbVertex
100
AcDb3dPolylineVertex
 10
-5.49929
 20
-10.9091
 30
0.0
 70
    32
  0
VERTEX
  5
45A
330
259
100
AcDbEntity
  8
CENTRALA
 62
     5
100
AcDbVertex
100
AcDb3dPolylineVertex
 10
-5.67011
 20
-10.8669
 30
0.0
 70
    32
  0
VERTEX
  5
45B
330
259
100
AcDbEntity
  8
CENTRALA
 62
     5
100
AcDbVertex
100
AcDb3dPolylineVertex
 10
-5.84046
 20
-10.8283
 30
0.0
 70
    32
  0
VERTEX
  5
45C
330
259
100
AcDbEntity
  8
CENTRALA
 62
     5
100
AcDbVertex
100
AcDb3dPolylineVertex
 10
-6.01033
 20
-10.7933
 30
0.0
 70
    32
  0
VERTEX
  5
45D
330
259
100
AcDbEntity
  8
CENTRALA
 62
     5
100
AcDbVertex
100
AcDb3dPolylineVertex
 10
-6.17971
 20
-10.7622
 30
0.0
 70
    32
  0
VERTEX
  5
45E
330
259
100
AcDbEntity
  8
CENTRALA
 62
     5
100
AcDbVertex
100
AcDb3dPolylineVertex
 10
-6.348589999999997
 20
-10.7349
 30
0.0
 70
    32
  0
VERTEX
  5
45F
330
259
100
AcDbEntity
  8
CENTRALA
 62
     5
100
AcDbVertex
100
AcDb3dPolylineVertex
 10
-6.51696
 20
-10.7117
 30
0.0
 70
    32
  0
VERTEX
  5
460
330
259
100
AcDbEntity
  8
CENTRALA
 62
     5
100
AcDbVertex
100
AcDb3dPolylineVertex
 10
-6.68481
 20
-10.6925
 30
0.0
 70
    32
  0
VERTEX
  5
461
330
259
100
AcDbEntity
  8
CENTRALA
 62
     5
100
AcDbVertex
100
AcDb3dPolylineVertex
 10
-6.85213
 20
-10.6776
 30
0.0
 70
    32
  0
VERTEX
  5
462
330
259
100
AcDbEntity
  8
CENTRALA
 62
     5
100
AcDbVertex
100
AcDb3dPolylineVertex
 10
-7.0189
 20
-10.6669
 30
0.0
 70
    32
  0
VERTEX
  5
463
330
259
100
AcDbEntity
  8
CENTRALA
 62
     5
100
AcDbVertex
100
AcDb3dPolylineVertex
 10
-7.18513
 20
-10.6607
 30
0.0
 70
    32
  0
VERTEX
  5
464
330
259
100
AcDbEntity
  8
CENTRALA
 62
     5
100
AcDbVertex
100
AcDb3dPolylineVertex
 10
-7.350789999999999
 20
-10.659
 30
0.0
 70
    32
  0
VERTEX
  5
465
330
259
100
AcDbEntity
  8
CENTRALA
 62
     5
100
AcDbVertex
100
AcDb3dPolylineVertex
 10
-7.51588
 20
-10.6619
 30
0.0
 70
    32
  0
VERTEX
  5
466
330
259
100
AcDbEntity
  8
CENTRALA
 62
     5
100
AcDbVertex
100
AcDb3dPolylineVertex
 10
-7.68038
 20
-10.6695
 30
0.0
 70
    32
  0
VERTEX
  5
467
330
259
100
AcDbEntity
  8
CENTRALA
 62
     5
100
AcDbVertex
100
AcDb3dPolylineVertex
 10
-7.844299999999997
 20
-10.682
 30
0.0
 70
    32
  0
VERTEX
  5
468
330
259
100
AcDbEntity
  8
CENTRALA
 62
     5
100
AcDbVertex
100
AcDb3dPolylineVertex
 10
-8.0076
 20
-10.6993
 30
0.0
 70
    32
  0
VERTEX
  5
469
330
259
100
AcDbEntity
  8
CENTRALA
 62
     5
100
AcDbVertex
100
AcDb3dPolylineVertex
 10
-8.170299999999999
 20
-10.7217
 30
0.0
 70
    32
  0
VERTEX
  5
46A
330
259
100
AcDbEntity
  8
CENTRALA
 62
     5
100
AcDbVertex
100
AcDb3dPolylineVertex
 10
-8.332369999999999
 20
-10.7493
 30
0.0
 70
    32
  0
VERTEX
  5
46B
330
259
100
AcDbEntity
  8
CENTRALA
 62
     5
100
AcDbVertex
100
AcDb3dPolylineVertex
 10
-8.4938
 20
-10.7821
 30
0.0
 70
    32
  0
VERTEX
  5
46C
330
259
100
AcDbEntity
  8
CENTRALA
 62
     5
100
AcDbVertex
100
AcDb3dPolylineVertex
 10
-8.654589999999997
 20
-10.8202
 30
0.0
 70
    32
  0
VERTEX
  5
46D
330
259
100
AcDbEntity
  8
CENTRALA
 62
     5
100
AcDbVertex
100
AcDb3dPolylineVertex
 10
-8.814719999999997
 20
-10.8638
 30
0.0
 70
    32
  0
VERTEX
  5
46E
330
259
100
AcDbEntity
  8
CENTRALA
 62
     5
100
AcDbVertex
100
AcDb3dPolylineVertex
 10
-8.97419
 20
-10.9129
 30
0.0
 70
    32
  0
VERTEX
  5
46F
330
259
100
AcDbEntity
  8
CENTRALA
 62
     5
100
AcDbVertex
100
AcDb3dPolylineVertex
 10
-9.132979999999999
 20
-10.9677
 30
0.0
 70
    32
  0
VERTEX
  5
470
330
259
100
AcDbEntity
  8
CENTRALA
 62
     5
100
AcDbVertex
100
AcDb3dPolylineVertex
 10
-9.29108
 20
-11.0282
 30
0.0
 70
    32
  0
VERTEX
  5
471
330
259
100
AcDbEntity
  8
CENTRALA
 62
     5
100
AcDbVertex
100
AcDb3dPolylineVertex
 10
-9.448489999999999
 20
-11.0946
 30
0.0
 70
    32
  0
VERTEX
  5
472
330
259
100
AcDbEntity
  8
CENTRALA
 62
     5
100
AcDbVertex
100
AcDb3dPolylineVertex
 10
-9.605189999999996
 20
-11.167
 30
0.0
 70
    32
  0
VERTEX
  5
473
330
259
100
AcDbEntity
  8
CENTRALA
 62
     5
100
AcDbVertex
100
AcDb3dPolylineVertex
 10
-9.761169999999999
 20
-11.2454
 30
0.0
 70
    32
  0
VERTEX
  5
474
330
259
100
AcDbEntity
  8
CENTRALA
 62
     5
100
AcDbVertex
100
AcDb3dPolylineVertex
 10
-9.91642
 20
-11.33
 30
0.0
 70
    32
  0
VERTEX
  5
475
330
259
100
AcDbEntity
  8
CENTRALA
 62
     5
100
AcDbVertex
100
AcDb3dPolylineVertex
 10
-10.0709
 20
-11.4209
 30
0.0
 70
    32
  0
VERTEX
  5
476
330
259
100
AcDbEntity
  8
CENTRALA
 62
     5
100
AcDbVertex
100
AcDb3dPolylineVertex
 10
-10.2247
 20
-11.5181
 30
0.0
 70
    32
  0
VERTEX
  5
477
330
259
100
AcDbEntity
  8
CENTRALA
 62
     5
100
AcDbVertex
100
AcDb3dPolylineVertex
 10
-10.3777
 20
-11.6218
 30
0.0
 70
    32
  0
VERTEX
  5
478
330
259
100
AcDbEntity
  8
CENTRALA
 62
     5
100
AcDbVertex
100
AcDb3dPolylineVertex
 10
-10.5299
 20
-11.7321
 30
0.0
 70
    32
  0
VERTEX
  5
479
330
259
100
AcDbEntity
  8
CENTRALA
 62
     5
100
AcDbVertex
100
AcDb3dPolylineVertex
 10
-10.6814
 20
-11.8491
 30
0.0
 70
    32
  0
VERTEX
  5
47A
330
259
100
AcDbEntity
  8
CENTRALA
 62
     5
100
AcDbVertex
100
AcDb3dPolylineVertex
 10
-10.832
 20
-11.9729
 30
0.0
 70
    32
  0
VERTEX
  5
47B
330
259
100
AcDbEntity
  8
CENTRALA
 62
     5
100
AcDbVertex
100
AcDb3dPolylineVertex
 10
-10.9819
 20
-12.1032
 30
0.0
 70
    32
  0
VERTEX
  5
47C
330
259
100
AcDbEntity
  8
CENTRALA
 62
     5
100
AcDbVertex
100
AcDb3dPolylineVertex
 10
-11.1311
 20
-12.2396
 30
0.0
 70
    32
  0
VERTEX
  5
47D
330
259
100
AcDbEntity
  8
CENTRALA
 62
     5
100
AcDbVertex
100
AcDb3dPolylineVertex
 10
-11.2795
 20
-12.3818
 30
0.0
 70
    32
  0
VERTEX
  5
47E
330
259
100
AcDbEntity
  8
CENTRALA
 62
     5
100
AcDbVertex
100
AcDb3dPolylineVertex
 10
-11.4272
 20
-12.5292
 30
0.0
 70
    32
  0
VERTEX
  5
47F
330
259
100
AcDbEntity
  8
CENTRALA
 62
     5
100
AcDbVertex
100
AcDb3dPolylineVertex
 10
-11.5742
 20
-12.6815
 30
0.0
 70
    32
  0
VERTEX
  5
480
330
259
100
AcDbEntity
  8
CENTRALA
 62
     5
100
AcDbVertex
100
AcDb3dPolylineVertex
 10
-11.7205
 20
-12.8383
 30
0.0
 70
    32
  0
VERTEX
  5
481
330
259
100
AcDbEntity
  8
CENTRALA
 62
     5
100
AcDbVertex
100
AcDb3dPolylineVertex
 10
-11.8663
 20
-12.9991
 30
0.0
 70
    32
  0
VERTEX
  5
482
330
259
100
AcDbEntity
  8
CENTRALA
 62
     5
100
AcDbVertex
100
AcDb3dPolylineVertex
 10
-12.0114
 20
-13.1635
 30
0.0
 70
    32
  0
VERTEX
  5
483
330
259
100
AcDbEntity
  8
CENTRALA
 62
     5
100
AcDbVertex
100
AcDb3dPolylineVertex
 10
-12.156
 20
-13.3311
 30
0.0
 70
    32
  0
VERTEX
  5
484
330
259
100
AcDbEntity
  8
CENTRALA
 62
     5
100
AcDbVertex
100
AcDb3dPolylineVertex
 10
-12.3
 20
-13.5014
 30
0.0
 70
    32
  0
VERTEX
  5
485
330
259
100
AcDbEntity
  8
CENTRALA
 62
     5
100
AcDbVertex
100
AcDb3dPolylineVertex
 10
-12.4434
 20
-13.6741
 30
0.0
 70
    32
  0
VERTEX
  5
486
330
259
100
AcDbEntity
  8
CENTRALA
 62
     5
100
AcDbVertex
100
AcDb3dPolylineVertex
 10
-12.5864
 20
-13.8486
 30
0.0
 70
    32
  0
VERTEX
  5
487
330
259
100
AcDbEntity
  8
CENTRALA
 62
     5
100
AcDbVertex
100
AcDb3dPolylineVertex
 10
-12.7289
 20
-14.0247
 30
0.0
 70
    32
  0
VERTEX
  5
488
330
259
100
AcDbEntity
  8
CENTRALA
 62
     5
100
AcDbVertex
100
AcDb3dPolylineVertex
 10
-12.8709
 20
-14.2019
 30
0.0
 70
    32
  0
VERTEX
  5
489
330
259
100
AcDbEntity
  8
CENTRALA
 62
     5
100
AcDbVertex
100
AcDb3dPolylineVertex
 10
-13.0125
 20
-14.3797
 30
0.0
 70
    32
  0
VERTEX
  5
48A
330
259
100
AcDbEntity
  8
CENTRALA
 62
     5
100
AcDbVertex
100
AcDb3dPolylineVertex
 10
-13.1537
 20
-14.5577
 30
0.0
 70
    32
  0
VERTEX
  5
48B
330
259
100
AcDbEntity
  8
CENTRALA
 62
     5
100
AcDbVertex
100
AcDb3dPolylineVertex
 10
-13.2945
 20
-14.7355
 30
0.0
 70
    32
  0
VERTEX
  5
48C
330
259
100
AcDbEntity
  8
CENTRALA
 62
     5
100
AcDbVertex
100
AcDb3dPolylineVertex
 10
-13.435
 20
-14.9128
 30
0.0
 70
    32
  0
VERTEX
  5
48D
330
259
100
AcDbEntity
  8
CENTRALA
 62
     5
100
AcDbVertex
100
AcDb3dPolylineVertex
 10
-13.5751
 20
-15.0889
 30
0.0
 70
    32
  0
VERTEX
  5
48E
330
259
100
AcDbEntity
  8
CENTRALA
 62
     5
100
AcDbVertex
100
AcDb3dPolylineVertex
 10
-13.7149
 20
-15.2636
 30
0.0
 70
    32
  0
VERTEX
  5
48F
330
259
100
AcDbEntity
  8
CENTRALA
 62
     5
100
AcDbVertex
100
AcDb3dPolylineVertex
 10
-13.8545
 20
-15.4365
 30
0.0
 70
    32
  0
VERTEX
  5
490
330
259
100
AcDbEntity
  8
CENTRALA
 62
     5
100
AcDbVertex
100
AcDb3dPolylineVertex
 10
-13.9938
 20
-15.607
 30
0.0
 70
    32
  0
VERTEX
  5
491
330
259
100
AcDbEntity
  8
CENTRALA
 62
     5
100
AcDbVertex
100
AcDb3dPolylineVertex
 10
-14.1328
 20
-15.7748
 30
0.0
 70
    32
  0
VERTEX
  5
492
330
259
100
AcDbEntity
  8
CENTRALA
 62
     5
100
AcDbVertex
100
AcDb3dPolylineVertex
 10
-14.2717
 20
-15.9394
 30
0.0
 70
    32
  0
VERTEX
  5
493
330
259
100
AcDbEntity
  8
CENTRALA
 62
     5
100
AcDbVertex
100
AcDb3dPolylineVertex
 10
-14.4104
 20
-16.1005
 30
0.0
 70
    32
  0
VERTEX
  5
494
330
259
100
AcDbEntity
  8
CENTRALA
 62
     5
100
AcDbVertex
100
AcDb3dPolylineVertex
 10
-14.5489
 20
-16.2576
 30
0.0
 70
    32
  0
VERTEX
  5
495
330
259
100
AcDbEntity
  8
CENTRALA
 62
     5
100
AcDbVertex
100
AcDb3dPolylineVertex
 10
-14.6873
 20
-16.4103
 30
0.0
 70
    32
  0
VERTEX
  5
496
330
259
100
AcDbEntity
  8
CENTRALA
 62
     5
100
AcDbVertex
100
AcDb3dPolylineVertex
 10
-14.8255
 20
-16.5581
 30
0.0
 70
    32
  0
VERTEX
  5
497
330
259
100
AcDbEntity
  8
CENTRALA
 62
     5
100
AcDbVertex
100
AcDb3dPolylineVertex
 10
-14.9637
 20
-16.7006
 30
0.0
 70
    32
  0
VERTEX
  5
498
330
259
100
AcDbEntity
  8
CENTRALA
 62
     5
100
AcDbVertex
100
AcDb3dPolylineVertex
 10
-15.1019
 20
-16.8375
 30
0.0
 70
    32
  0
VERTEX
  5
499
330
259
100
AcDbEntity
  8
CENTRALA
 62
     5
100
AcDbVertex
100
AcDb3dPolylineVertex
 10
-15.24
 20
-16.9683
 30
0.0
 70
    32
  0
VERTEX
  5
49A
330
259
100
AcDbEntity
  8
CENTRALA
 62
     5
100
AcDbVertex
100
AcDb3dPolylineVertex
 10
-15.3141
 20
-16.8711
 30
0.0
 70
    32
  0
VERTEX
  5
49B
330
259
100
AcDbEntity
  8
CENTRALA
 62
     5
100
AcDbVertex
100
AcDb3dPolylineVertex
 10
-15.3669
 20
-16.6993
 30
0.0
 70
    32
  0
VERTEX
  5
49C
330
259
100
AcDbEntity
  8
CENTRALA
 62
     5
100
AcDbVertex
100
AcDb3dPolylineVertex
 10
-15.4196
 20
-16.5274
 30
0.0
 70
    32
  0
VERTEX
  5
49D
330
259
100
AcDbEntity
  8
CENTRALA
 62
     5
100
AcDbVertex
100
AcDb3dPolylineVertex
 10
-15.4721
 20
-16.3556
 30
0.0
 70
    32
  0
VERTEX
  5
49E
330
259
100
AcDbEntity
  8
CENTRALA
 62
     5
100
AcDbVertex
100
AcDb3dPolylineVertex
 10
-15.5244
 20
-16.1837
 30
0.0
 70
    32
  0
VERTEX
  5
49F
330
259
100
AcDbEntity
  8
CENTRALA
 62
     5
100
AcDbVertex
100
AcDb3dPolylineVertex
 10
-15.5765
 20
-16.0118
 30
0.0
 70
    32
  0
VERTEX
  5
4A0
330
259
100
AcDbEntity
  8
CENTRALA
 62
     5
100
AcDbVertex
100
AcDb3dPolylineVertex
 10
-15.6283
 20
-15.8399
 30
0.0
 70
    32
  0
VERTEX
  5
4A1
330
259
100
AcDbEntity
  8
CENTRALA
 62
     5
100
AcDbVertex
100
AcDb3dPolylineVertex
 10
-15.6797
 20
-15.668
 30
0.0
 70
    32
  0
VERTEX
  5
4A2
330
259
100
AcDbEntity
  8
CENTRALA
 62
     5
100
AcDbVertex
100
AcDb3dPolylineVertex
 10
-15.7307
 20
-15.496
 30
0.0
 70
    32
  0
VERTEX
  5
4A3
330
259
100
AcDbEntity
  8
CENTRALA
 62
     5
100
AcDbVertex
100
AcDb3dPolylineVertex
 10
-15.7812
 20
-15.324
 30
0.0
 70
    32
  0
VERTEX
  5
4A4
330
259
100
AcDbEntity
  8
CENTRALA
 62
     5
100
AcDbVertex
100
AcDb3dPolylineVertex
 10
-15.8312
 20
-15.152
 30
0.0
 70
    32
  0
VERTEX
  5
4A5
330
259
100
AcDbEntity
  8
CENTRALA
 62
     5
100
AcDbVertex
100
AcDb3dPolylineVertex
 10
-15.8806
 20
-14.9799
 30
0.0
 70
    32
  0
VERTEX
  5
4A6
330
259
100
AcDbEntity
  8
CENTRALA
 62
     5
100
AcDbVertex
100
AcDb3dPolylineVertex
 10
-15.9294
 20
-14.8078
 30
0.0
 70
    32
  0
VERTEX
  5
4A7
330
259
100
AcDbEntity
  8
CENTRALA
 62
     5
100
AcDbVertex
100
AcDb3dPolylineVertex
 10
-15.9775
 20
-14.6356
 30
0.0
 70
    32
  0
VERTEX
  5
4A8
330
259
100
AcDbEntity
  8
CENTRALA
 62
     5
100
AcDbVertex
100
AcDb3dPolylineVertex
 10
-16.0249
 20
-14.4634
 30
0.0
 70
    32
  0
VERTEX
  5
4A9
330
259
100
AcDbEntity
  8
CENTRALA
 62
     5
100
AcDbVertex
100
AcDb3dPolylineVertex
 10
-16.0715
 20
-14.2912
 30
0.0
 70
    32
  0
VERTEX
  5
4AA
330
259
100
AcDbEntity
  8
CENTRALA
 62
     5
100
AcDbVertex
100
AcDb3dPolylineVertex
 10
-16.1172
 20
-14.1188
 30
0.0
 70
    32
  0
VERTEX
  5
4AB
330
259
100
AcDbEntity
  8
CENTRALA
 62
     5
100
AcDbVertex
100
AcDb3dPolylineVertex
 10
-16.162
 20
-13.9465
 30
0.0
 70
    32
  0
VERTEX
  5
4AC
330
259
100
AcDbEntity
  8
CENTRALA
 62
     5
100
AcDbVertex
100
AcDb3dPolylineVertex
 10
-16.2059
 20
-13.774
 30
0.0
 70
    32
  0
VERTEX
  5
4AD
330
259
100
AcDbEntity
  8
CENTRALA
 62
     5
100
AcDbVertex
100
AcDb3dPolylineVertex
 10
-16.2488
 20
-13.6015
 30
0.0
 70
    32
  0
VERTEX
  5
4AE
330
259
100
AcDbEntity
  8
CENTRALA
 62
     5
100
AcDbVertex
100
AcDb3dPolylineVertex
 10
-16.2906
 20
-13.4289
 30
0.0
 70
    32
  0
VERTEX
  5
4AF
330
259
100
AcDbEntity
  8
CENTRALA
 62
     5
100
AcDbVertex
100
AcDb3dPolylineVertex
 10
-16.3313
 20
-13.2563
 30
0.0
 70
    32
  0
VERTEX
  5
4B0
330
259
100
AcDbEntity
  8
CENTRALA
 62
     5
100
AcDbVertex
100
AcDb3dPolylineVertex
 10
-16.3708
 20
-13.0835
 30
0.0
 70
    32
  0
VERTEX
  5
4B1
330
259
100
AcDbEntity
  8
CENTRALA
 62
     5
100
AcDbVertex
100
AcDb3dPolylineVertex
 10
-16.4091
 20
-12.9107
 30
0.0
 70
    32
  0
VERTEX
  5
4B2
330
259
100
AcDbEntity
  8
CENTRALA
 62
     5
100
AcDbVertex
100
AcDb3dPolylineVertex
 10
-16.4462
 20
-12.7378
 30
0.0
 70
    32
  0
VERTEX
  5
4B3
330
259
100
AcDbEntity
  8
CENTRALA
 62
     5
100
AcDbVertex
100
AcDb3dPolylineVertex
 10
-16.4819
 20
-12.5648
 30
0.0
 70
    32
  0
VERTEX
  5
4B4
330
259
100
AcDbEntity
  8
CENTRALA
 62
     5
100
AcDbVertex
100
AcDb3dPolylineVertex
 10
-16.5162
 20
-12.3917
 30
0.0
 70
    32
  0
VERTEX
  5
4B5
330
259
100
AcDbEntity
  8
CENTRALA
 62
     5
100
AcDbVertex
100
AcDb3dPolylineVertex
 10
-16.5491
 20
-12.2185
 30
0.0
 70
    32
  0
VERTEX
  5
4B6
330
259
100
AcDbEntity
  8
CENTRALA
 62
     5
100
AcDbVertex
100
AcDb3dPolylineVertex
 10
-16.5805
 20
-12.0452
 30
0.0
 70
    32
  0
VERTEX
  5
4B7
330
259
100
AcDbEntity
  8
CENTRALA
 62
     5
100
AcDbVertex
100
AcDb3dPolylineVertex
 10
-16.6103
 20
-11.8719
 30
0.0
 70
    32
  0
VERTEX
  5
4B8
330
259
100
AcDbEntity
  8
CENTRALA
 62
     5
100
AcDbVertex
100
AcDb3dPolylineVertex
 10
-16.6386
 20
-11.6984
 30
0.0
 70
    32
  0
VERTEX
  5
4B9
330
259
100
AcDbEntity
  8
CENTRALA
 62
     5
100
AcDbVertex
100
AcDb3dPolylineVertex
 10
-16.6652
 20
-11.5247
 30
0.0
 70
    32
  0
VERTEX
  5
4BA
330
259
100
AcDbEntity
  8
CENTRALA
 62
     5
100
AcDbVertex
100
AcDb3dPolylineVertex
 10
-16.6901
 20
-11.351
 30
0.0
 70
    32
  0
VERTEX
  5
4BB
330
259
100
AcDbEntity
  8
CENTRALA
 62
     5
100
AcDbVertex
100
AcDb3dPolylineVertex
 10
-16.7133
 20
-11.1772
 30
0.0
 70
    32
  0
VERTEX
  5
4BC
330
259
100
AcDbEntity
  8
CENTRALA
 62
     5
100
AcDbVertex
100
AcDb3dPolylineVertex
 10
-16.7346
 20
-11.0032
 30
0.0
 70
    32
  0
VERTEX
  5
4BD
330
259
100
AcDbEntity
  8
CENTRALA
 62
     5
100
AcDbVertex
100
AcDb3dPolylineVertex
 10
-16.7541
 20
-10.8291
 30
0.0
 70
    32
  0
VERTEX
  5
4BE
330
259
100
AcDbEntity
  8
CENTRALA
 62
     5
100
AcDbVertex
100
AcDb3dPolylineVertex
 10
-16.7717
 20
-10.6549
 30
0.0
 70
    32
  0
VERTEX
  5
4BF
330
259
100
AcDbEntity
  8
CENTRALA
 62
     5
100
AcDbVertex
100
AcDb3dPolylineVertex
 10
-16.7872
 20
-10.4805
 30
0.0
 70
    32
  0
VERTEX
  5
4C0
330
259
100
AcDbEntity
  8
CENTRALA
 62
     5
100
AcDbVertex
100
AcDb3dPolylineVertex
 10
-16.8008
 20
-10.306
 30
0.0
 70
    32
  0
VERTEX
  5
4C1
330
259
100
AcDbEntity
  8
CENTRALA
 62
     5
100
AcDbVertex
100
AcDb3dPolylineVertex
 10
-16.8123
 20
-10.1314
 30
0.0
 70
    32
  0
VERTEX
  5
4C2
330
259
100
AcDbEntity
  8
CENTRALA
 62
     5
100
AcDbVertex
100
AcDb3dPolylineVertex
 10
-16.8216
 20
-9.956619999999999
 30
0.0
 70
    32
  0
VERTEX
  5
4C3
330
259
100
AcDbEntity
  8
CENTRALA
 62
     5
100
AcDbVertex
100
AcDb3dPolylineVertex
 10
-16.8288
 20
-9.781689999999999
 30
0.0
 70
    32
  0
VERTEX
  5
4C4
330
259
100
AcDbEntity
  8
CENTRALA
 62
     5
100
AcDbVertex
100
AcDb3dPolylineVertex
 10
-16.8337
 20
-9.606619999999999
 30
0.0
 70
    32
  0
VERTEX
  5
4C5
330
259
100
AcDbEntity
  8
CENTRALA
 62
     5
100
AcDbVertex
100
AcDb3dPolylineVertex
 10
-16.8363
 20
-9.43138
 30
0.0
 70
    32
  0
VERTEX
  5
4C6
330
259
100
AcDbEntity
  8
CENTRALA
 62
     5
100
AcDbVertex
100
AcDb3dPolylineVertex
 10
-16.8366
 20
-9.255989999999997
 30
0.0
 70
    32
  0
VERTEX
  5
4C7
330
259
100
AcDbEntity
  8
CENTRALA
 62
     5
100
AcDbVertex
100
AcDb3dPolylineVertex
 10
-16.8345
 20
-9.080439999999999
 30
0.0
 70
    32
  0
VERTEX
  5
4C8
330
259
100
AcDbEntity
  8
CENTRALA
 62
     5
100
AcDbVertex
100
AcDb3dPolylineVertex
 10
-16.8299
 20
-8.904719999999997
 30
0.0
 70
    32
  0
VERTEX
  5
4C9
330
259
100
AcDbEntity
  8
CENTRALA
 62
     5
100
AcDbVertex
100
AcDb3dPolylineVertex
 10
-16.8228
 20
-8.72883
 30
0.0
 70
    32
  0
VERTEX
  5
4CA
330
259
100
AcDbEntity
  8
CENTRALA
 62
     5
100
AcDbVertex
100
AcDb3dPolylineVertex
 10
-16.8132
 20
-8.552760000000001
 30
0.0
 70
    32
  0
VERTEX
  5
4CB
330
259
100
AcDbEntity
  8
CENTRALA
 62
     5
100
AcDbVertex
100
AcDb3dPolylineVertex
 10
-16.8009
 20
-8.376519999999999
 30
0.0
 70
    32
  0
VERTEX
  5
4CC
330
259
100
AcDbEntity
  8
CENTRALA
 62
     5
100
AcDbVertex
100
AcDb3dPolylineVertex
 10
-16.786
 20
-8.2001
 30
0.0
 70
    32
  0
VERTEX
  5
4CD
330
259
100
AcDbEntity
  8
CENTRALA
 62
     5
100
AcDbVertex
100
AcDb3dPolylineVertex
 10
-16.7683
 20
-8.0235
 30
0.0
 70
    32
  0
VERTEX
  5
4CE
330
259
100
AcDbEntity
  8
CENTRALA
 62
     5
100
AcDbVertex
100
AcDb3dPolylineVertex
 10
-16.7479
 20
-7.84671
 30
0.0
 70
    32
  0
VERTEX
  5
4CF
330
259
100
AcDbEntity
  8
CENTRALA
 62
     5
100
AcDbVertex
100
AcDb3dPolylineVertex
 10
-16.7246
 20
-7.669719999999997
 30
0.0
 70
    32
  0
VERTEX
  5
4D0
330
259
100
AcDbEntity
  8
CENTRALA
 62
     5
100
AcDbVertex
100
AcDb3dPolylineVertex
 10
-16.6985
 20
-7.492539999999999
 30
0.0
 70
    32
  0
VERTEX
  5
4D1
330
259
100
AcDbEntity
  8
CENTRALA
 62
     5
100
AcDbVertex
100
AcDb3dPolylineVertex
 10
-16.6694
 20
-7.31516
 30
0.0
 70
    32
  0
VERTEX
  5
4D2
330
259
100
AcDbEntity
  8
CENTRALA
 62
     5
100
AcDbVertex
100
AcDb3dPolylineVertex
 10
-16.6373
 20
-7.13758
 30
0.0
 70
    32
  0
VERTEX
  5
4D3
330
259
100
AcDbEntity
  8
CENTRALA
 62
     5
100
AcDbVertex
100
AcDb3dPolylineVertex
 10
-16.6022
 20
-6.9598
 30
0.0
 70
    32
  0
VERTEX
  5
4D4
330
259
100
AcDbEntity
  8
CENTRALA
 62
     5
100
AcDbVertex
100
AcDb3dPolylineVertex
 10
-16.5639
 20
-6.781799999999997
 30
0.0
 70
    32
  0
VERTEX
  5
4D5
330
259
100
AcDbEntity
  8
CENTRALA
 62
     5
100
AcDbVertex
100
AcDb3dPolylineVertex
 10
-16.5226
 20
-6.603589999999997
 30
0.0
 70
    32
  0
VERTEX
  5
4D6
330
259
100
AcDbEntity
  8
CENTRALA
 62
     5
100
AcDbVertex
100
AcDb3dPolylineVertex
 10
-16.478
 20
-6.425169999999997
 30
0.0
 70
    32
  0
VERTEX
  5
4D7
330
259
100
AcDbEntity
  8
CENTRALA
 62
     5
100
AcDbVertex
100
AcDb3dPolylineVertex
 10
-16.4301
 20
-6.246519999999997
 30
0.0
 70
    32
  0
VERTEX
  5
4D8
330
259
100
AcDbEntity
  8
CENTRALA
 62
     5
100
AcDbVertex
100
AcDb3dPolylineVertex
 10
-16.379
 20
-6.06766
 30
0.0
 70
    32
  0
VERTEX
  5
4D9
330
259
100
AcDbEntity
  8
CENTRALA
 62
     5
100
AcDbVertex
100
AcDb3dPolylineVertex
 10
-16.3247
 20
-5.888569999999997
 30
0.0
 70
    32
  0
VERTEX
  5
4DA
330
259
100
AcDbEntity
  8
CENTRALA
 62
     5
100
AcDbVertex
100
AcDb3dPolylineVertex
 10
-16.2672
 20
-5.70929
 30
0.0
 70
    32
  0
VERTEX
  5
4DB
330
259
100
AcDbEntity
  8
CENTRALA
 62
     5
100
AcDbVertex
100
AcDb3dPolylineVertex
 10
-16.2068
 20
-5.529809999999997
 30
0.0
 70
    32
  0
VERTEX
  5
4DC
330
259
100
AcDbEntity
  8
CENTRALA
 62
     5
100
AcDbVertex
100
AcDb3dPolylineVertex
 10
-16.1434
 20
-5.35015
 30
0.0
 70
    32
  0
VERTEX
  5
4DD
330
259
100
AcDbEntity
  8
CENTRALA
 62
     5
100
AcDbVertex
100
AcDb3dPolylineVertex
 10
-16.0773
 20
-5.170319999999998
 30
0.0
 70
    32
  0
VERTEX
  5
4DE
330
259
100
AcDbEntity
  8
CENTRALA
 62
     5
100
AcDbVertex
100
AcDb3dPolylineVertex
 10
-16.0084
 20
-4.99033
 30
0.0
 70
    32
  0
VERTEX
  5
4DF
330
259
100
AcDbEntity
  8
CENTRALA
 62
     5
100
AcDbVertex
100
AcDb3dPolylineVertex
 10
-15.937
 20
-4.810179999999999
 30
0.0
 70
    32
  0
VERTEX
  5
4E0
330
259
100
AcDbEntity
  8
CENTRALA
 62
     5
100
AcDbVertex
100
AcDb3dPolylineVertex
 10
-15.8631
 20
-4.62989
 30
0.0
 70
    32
  0
VERTEX
  5
4E1
330
259
100
AcDbEntity
  8
CENTRALA
 62
     5
100
AcDbVertex
100
AcDb3dPolylineVertex
 10
-15.7867
 20
-4.44948
 30
0.0
 70
    32
  0
VERTEX
  5
4E2
330
259
100
AcDbEntity
  8
CENTRALA
 62
     5
100
AcDbVertex
100
AcDb3dPolylineVertex
 10
-15.7082
 20
-4.268939999999997
 30
0.0
 70
    32
  0
VERTEX
  5
4E3
330
259
100
AcDbEntity
  8
CENTRALA
 62
     5
100
AcDbVertex
100
AcDb3dPolylineVertex
 10
-15.6274
 20
-4.088289999999997
 30
0.0
 70
    32
  0
VERTEX
  5
4E4
330
259
100
AcDbEntity
  8
CENTRALA
 62
     5
100
AcDbVertex
100
AcDb3dPolylineVertex
 10
-15.5446
 20
-3.90755
 30
0.0
 70
    32
  0
VERTEX
  5
4E5
330
259
100
AcDbEntity
  8
CENTRALA
 62
     5
100
AcDbVertex
100
AcDb3dPolylineVertex
 10
-15.4597
 20
-3.726709999999998
 30
0.0
 70
    32
  0
VERTEX
  5
4E6
330
259
100
AcDbEntity
  8
CENTRALA
 62
     5
100
AcDbVertex
100
AcDb3dPolylineVertex
 10
-15.3731
 20
-3.54579
 30
0.0
 70
    32
  0
VERTEX
  5
4E7
330
259
100
AcDbEntity
  8
CENTRALA
 62
     5
100
AcDbVertex
100
AcDb3dPolylineVertex
 10
-15.2846
 20
-3.364809999999998
 30
0.0
 70
    32
  0
VERTEX
  5
4E8
330
259
100
AcDbEntity
  8
CENTRALA
 62
     5
100
AcDbVertex
100
AcDb3dPolylineVertex
 10
-15.1945
 20
-3.183769999999998
 30
0.0
 70
    32
  0
VERTEX
  5
4E9
330
259
100
AcDbEntity
  8
CENTRALA
 62
     5
100
AcDbVertex
100
AcDb3dPolylineVertex
 10
-15.1029
 20
-3.002679999999998
 30
0.0
 70
    32
  0
VERTEX
  5
4EA
330
259
100
AcDbEntity
  8
CENTRALA
 62
     5
100
AcDbVertex
100
AcDb3dPolylineVertex
 10
-15.0098
 20
-2.821559999999998
 30
0.0
 70
    32
  0
VERTEX
  5
4EB
330
259
100
AcDbEntity
  8
CENTRALA
 62
     5
100
AcDbVertex
100
AcDb3dPolylineVertex
 10
-14.9153
 20
-2.6404
 30
0.0
 70
    32
  0
VERTEX
  5
4EC
330
259
100
AcDbEntity
  8
CENTRALA
 62
     5
100
AcDbVertex
100
AcDb3dPolylineVertex
 10
-14.8196
 20
-2.459229999999998
 30
0.0
 70
    32
  0
VERTEX
  5
4ED
330
259
100
AcDbEntity
  8
CENTRALA
 62
     5
100
AcDbVertex
100
AcDb3dPolylineVertex
 10
-14.7227
 20
-2.278059999999999
 30
0.0
 70
    32
  0
VERTEX
  5
4EE
330
259
100
AcDbEntity
  8
CENTRALA
 62
     5
100
AcDbVertex
100
AcDb3dPolylineVertex
 10
-14.6249
 20
-2.09689
 30
0.0
 70
    32
  0
VERTEX
  5
4EF
330
259
100
AcDbEntity
  8
CENTRALA
 62
     5
100
AcDbVertex
100
AcDb3dPolylineVertex
 10
-14.526
 20
-1.915729999999999
 30
0.0
 70
    32
  0
VERTEX
  5
4F0
330
259
100
AcDbEntity
  8
CENTRALA
 62
     5
100
AcDbVertex
100
AcDb3dPolylineVertex
 10
-14.4264
 20
-1.734599999999999
 30
0.0
 70
    32
  0
VERTEX
  5
4F1
330
259
100
AcDbEntity
  8
CENTRALA
 62
     5
100
AcDbVertex
100
AcDb3dPolylineVertex
 10
-14.326
 20
-1.553509999999999
 30
0.0
 70
    32
  0
VERTEX
  5
4F2
330
259
100
AcDbEntity
  8
CENTRALA
 62
     5
100
AcDbVertex
100
AcDb3dPolylineVertex
 10
-14.225
 20
-1.37246
 30
0.0
 70
    32
  0
VERTEX
  5
4F3
330
259
100
AcDbEntity
  8
CENTRALA
 62
     5
100
AcDbVertex
100
AcDb3dPolylineVertex
 10
-14.1234
 20
-1.191459999999997
 30
0.0
 70
    32
  0
VERTEX
  5
4F4
330
259
100
AcDbEntity
  8
CENTRALA
 62
     5
100
AcDbVertex
100
AcDb3dPolylineVertex
 10
-14.0215
 20
-1.010529999999999
 30
0.0
 70
    32
  0
VERTEX
  5
4F5
330
259
100
AcDbEntity
  8
CENTRALA
 62
     5
100
AcDbVertex
100
AcDb3dPolylineVertex
 10
-13.9192
 20
-0.8296849999999999
 30
0.0
 70
    32
  0
VERTEX
  5
4F6
330
259
100
AcDbEntity
  8
CENTRALA
 62
     5
100
AcDbVertex
100
AcDb3dPolylineVertex
 10
-13.8167
 20
-0.648922
 30
0.0
 70
    32
  0
VERTEX
  5
4F7
330
259
100
AcDbEntity
  8
CENTRALA
 62
     5
100
AcDbVertex
100
AcDb3dPolylineVertex
 10
-13.7141
 20
-0.468258
 30
0.0
 70
    32
  0
VERTEX
  5
4F8
330
259
100
AcDbEntity
  8
CENTRALA
 62
     5
100
AcDbVertex
100
AcDb3dPolylineVertex
 10
-13.6115
 20
-0.287701
 30
0.0
 70
    32
  0
VERTEX
  5
4F9
330
259
100
AcDbEntity
  8
CENTRALA
 62
     5
100
AcDbVertex
100
AcDb3dPolylineVertex
 10
-13.509
 20
-0.107263
 30
0.0
 70
    32
  0
VERTEX
  5
4FA
330
259
100
AcDbEntity
  8
CENTRALA
 62
     5
100
AcDbVertex
100
AcDb3dPolylineVertex
 10
-13.4067
 20
0.0730463
 30
0.0
 70
    32
  0
VERTEX
  5
4FB
330
259
100
AcDbEntity
  8
CENTRALA
 62
     5
100
AcDbVertex
100
AcDb3dPolylineVertex
 10
-13.3046
 20
0.253216
 30
0.0
 70
    32
  0
VERTEX
  5
4FC
330
259
100
AcDbEntity
  8
CENTRALA
 62
     5
100
AcDbVertex
100
AcDb3dPolylineVertex
 10
-13.203
 20
0.433236
 30
0.0
 70
    32
  0
VERTEX
  5
4FD
330
259
100
AcDbEntity
  8
CENTRALA
 62
     5
100
AcDbVertex
100
AcDb3dPolylineVertex
 10
-13.102
 20
0.613096
 30
0.0
 70
    32
  0
VERTEX
  5
4FE
330
259
100
AcDbEntity
  8
CENTRALA
 62
     5
100
AcDbVertex
100
AcDb3dPolylineVertex
 10
-13.0015
 20
0.792786
 30
0.0
 70
    32
  0
VERTEX
  5
4FF
330
259
100
AcDbEntity
  8
CENTRALA
 62
     5
100
AcDbVertex
100
AcDb3dPolylineVertex
 10
-12.9017
 20
0.972295
 30
0.0
 70
    32
  0
VERTEX
  5
500
330
259
100
AcDbEntity
  8
CENTRALA
 62
     5
100
AcDbVertex
100
AcDb3dPolylineVertex
 10
-12.8028
 20
1.15161
 30
0.0
 70
    32
  0
VERTEX
  5
501
330
259
100
AcDbEntity
  8
CENTRALA
 62
     5
100
AcDbVertex
100
AcDb3dPolylineVertex
 10
-12.7048
 20
1.330729999999997
 30
0.0
 70
    32
  0
VERTEX
  5
502
330
259
100
AcDbEntity
  8
CENTRALA
 62
     5
100
AcDbVertex
100
AcDb3dPolylineVertex
 10
-12.6078
 20
1.50963
 30
0.0
 70
    32
  0
VERTEX
  5
503
330
259
100
AcDbEntity
  8
CENTRALA
 62
     5
100
AcDbVertex
100
AcDb3dPolylineVertex
 10
-12.5119
 20
1.688309999999999
 30
0.0
 70
    32
  0
VERTEX
  5
504
330
259
100
AcDbEntity
  8
CENTRALA
 62
     5
100
AcDbVertex
100
AcDb3dPolylineVertex
 10
-12.4173
 20
1.866759999999999
 30
0.0
 70
    32
  0
VERTEX
  5
505
330
259
100
AcDbEntity
  8
CENTRALA
 62
     5
100
AcDbVertex
100
AcDb3dPolylineVertex
 10
-12.324
 20
2.04497
 30
0.0
 70
    32
  0
VERTEX
  5
506
330
259
100
AcDbEntity
  8
CENTRALA
 62
     5
100
AcDbVertex
100
AcDb3dPolylineVertex
 10
-12.2322
 20
2.22292
 30
0.0
 70
    32
  0
VERTEX
  5
507
330
259
100
AcDbEntity
  8
CENTRALA
 62
     5
100
AcDbVertex
100
AcDb3dPolylineVertex
 10
-12.1419
 20
2.400609999999999
 30
0.0
 70
    32
  0
VERTEX
  5
508
330
259
100
AcDbEntity
  8
CENTRALA
 62
     5
100
AcDbVertex
100
AcDb3dPolylineVertex
 10
-12.0532
 20
2.578019999999999
 30
0.0
 70
    32
  0
VERTEX
  5
509
330
259
100
AcDbEntity
  8
CENTRALA
 62
     5
100
AcDbVertex
100
AcDb3dPolylineVertex
 10
-11.9663
 20
2.755149999999998
 30
0.0
 70
    32
  0
VERTEX
  5
50A
330
259
100
AcDbEntity
  8
CENTRALA
 62
     5
100
AcDbVertex
100
AcDb3dPolylineVertex
 10
-11.8812
 20
2.93199
 30
0.0
 70
    32
  0
VERTEX
  5
50B
330
259
100
AcDbEntity
  8
CENTRALA
 62
     5
100
AcDbVertex
100
AcDb3dPolylineVertex
 10
-11.7982
 20
3.108519999999998
 30
0.0
 70
    32
  0
VERTEX
  5
50C
330
259
100
AcDbEntity
  8
CENTRALA
 62
     5
100
AcDbVertex
100
AcDb3dPolylineVertex
 10
-11.7171
 20
3.28473
 30
0.0
 70
    32
  0
VERTEX
  5
50D
330
259
100
AcDbEntity
  8
CENTRALA
 62
     5
100
AcDbVertex
100
AcDb3dPolylineVertex
 10
-11.6383
 20
3.460619999999998
 30
0.0
 70
    32
  0
VERTEX
  5
50E
330
259
100
AcDbEntity
  8
CENTRALA
 62
     5
100
AcDbVertex
100
AcDb3dPolylineVertex
 10
-11.5616
 20
3.636169999999999
 30
0.0
 70
    32
  0
VERTEX
  5
50F
330
259
100
AcDbEntity
  8
CENTRALA
 62
     5
100
AcDbVertex
100
AcDb3dPolylineVertex
 10
-11.4874
 20
3.811369999999998
 30
0.0
 70
    32
  0
VERTEX
  5
510
330
259
100
AcDbEntity
  8
CENTRALA
 62
     5
100
AcDbVertex
100
AcDb3dPolylineVertex
 10
-11.4157
 20
3.986219999999999
 30
0.0
 70
    32
  0
VERTEX
  5
511
330
259
100
AcDbEntity
  8
CENTRALA
 62
     5
100
AcDbVertex
100
AcDb3dPolylineVertex
 10
-11.3465
 20
4.1607
 30
0.0
 70
    32
  0
VERTEX
  5
512
330
259
100
AcDbEntity
  8
CENTRALA
 62
     5
100
AcDbVertex
100
AcDb3dPolylineVertex
 10
-11.28
 20
4.3348
 30
0.0
 70
    32
  0
VERTEX
  5
513
330
259
100
AcDbEntity
  8
CENTRALA
 62
     5
100
AcDbVertex
100
AcDb3dPolylineVertex
 10
-11.2163
 20
4.50851
 30
0.0
 70
    32
  0
VERTEX
  5
514
330
259
100
AcDbEntity
  8
CENTRALA
 62
     5
100
AcDbVertex
100
AcDb3dPolylineVertex
 10
-11.1554
 20
4.68182
 30
0.0
 70
    32
  0
VERTEX
  5
515
330
259
100
AcDbEntity
  8
CENTRALA
 62
     5
100
AcDbVertex
100
AcDb3dPolylineVertex
 10
-11.0976
 20
4.854729999999999
 30
0.0
 70
    32
  0
VERTEX
  5
516
330
259
100
AcDbEntity
  8
CENTRALA
 62
     5
100
AcDbVertex
100
AcDb3dPolylineVertex
 10
-11.0429
 20
5.02721
 30
0.0
 70
    32
  0
VERTEX
  5
517
330
259
100
AcDbEntity
  8
CENTRALA
 62
     5
100
AcDbVertex
100
AcDb3dPolylineVertex
 10
-10.9913
 20
5.199269999999998
 30
0.0
 70
    32
  0
VERTEX
  5
518
330
259
100
AcDbEntity
  8
CENTRALA
 62
     5
100
AcDbVertex
100
AcDb3dPolylineVertex
 10
-10.9431
 20
5.37088
 30
0.0
 70
    32
  0
VERTEX
  5
519
330
259
100
AcDbEntity
  8
CENTRALA
 62
     5
100
AcDbVertex
100
AcDb3dPolylineVertex
 10
-10.8982
 20
5.54204
 30
0.0
 70
    32
  0
VERTEX
  5
51A
330
259
100
AcDbEntity
  8
CENTRALA
 62
     5
100
AcDbVertex
100
AcDb3dPolylineVertex
 10
-10.8569
 20
5.71274
 30
0.0
 70
    32
  0
VERTEX
  5
51B
330
259
100
AcDbEntity
  8
CENTRALA
 62
     5
100
AcDbVertex
100
AcDb3dPolylineVertex
 10
-10.8192
 20
5.882969999999997
 30
0.0
 70
    32
  0
VERTEX
  5
51C
330
259
100
AcDbEntity
  8
CENTRALA
 62
     5
100
AcDbVertex
100
AcDb3dPolylineVertex
 10
-10.7852
 20
6.052719999999997
 30
0.0
 70
    32
  0
VERTEX
  5
51D
330
259
100
AcDbEntity
  8
CENTRALA
 62
     5
100
AcDbVertex
100
AcDb3dPolylineVertex
 10
-10.755
 20
6.22198
 30
0.0
 70
    32
  0
VERTEX
  5
51E
330
259
100
AcDbEntity
  8
CENTRALA
 62
     5
100
AcDbVertex
100
AcDb3dPolylineVertex
 10
-10.7287
 20
6.39073
 30
0.0
 70
    32
  0
VERTEX
  5
51F
330
259
100
AcDbEntity
  8
CENTRALA
 62
     5
100
AcDbVertex
100
AcDb3dPolylineVertex
 10
-10.7065
 20
6.558969999999997
 30
0.0
 70
    32
  0
VERTEX
  5
520
330
259
100
AcDbEntity
  8
CENTRALA
 62
     5
100
AcDbVertex
100
AcDb3dPolylineVertex
 10
-10.6884
 20
6.726689999999997
 30
0.0
 70
    32
  0
VERTEX
  5
521
330
259
100
AcDbEntity
  8
CENTRALA
 62
     5
100
AcDbVertex
100
AcDb3dPolylineVertex
 10
-10.6745
 20
6.893869999999997
 30
0.0
 70
    32
  0
VERTEX
  5
522
330
259
100
AcDbEntity
  8
CENTRALA
 62
     5
100
AcDbVertex
100
AcDb3dPolylineVertex
 10
-10.6649
 20
7.06051
 30
0.0
 70
    32
  0
VERTEX
  5
523
330
259
100
AcDbEntity
  8
CENTRALA
 62
     5
100
AcDbVertex
100
AcDb3dPolylineVertex
 10
-10.6598
 20
7.2266
 30
0.0
 70
    32
  0
VERTEX
  5
524
330
259
100
AcDbEntity
  8
CENTRALA
 62
     5
100
AcDbVertex
100
AcDb3dPolylineVertex
 10
-10.6593
 20
7.392119999999997
 30
0.0
 70
    32
  0
VERTEX
  5
525
330
259
100
AcDbEntity
  8
CENTRALA
 62
     5
100
AcDbVertex
100
AcDb3dPolylineVertex
 10
-10.6633
 20
7.55706
 30
0.0
 70
    32
  0
VERTEX
  5
526
330
259
100
AcDbEntity
  8
CENTRALA
 62
     5
100
AcDbVertex
100
AcDb3dPolylineVertex
 10
-10.6722
 20
7.721419999999997
 30
0.0
 70
    32
  0
VERTEX
  5
527
330
259
100
AcDbEntity
  8
CENTRALA
 62
     5
100
AcDbVertex
100
AcDb3dPolylineVertex
 10
-10.6858
 20
7.88518
 30
0.0
 70
    32
  0
VERTEX
  5
528
330
259
100
AcDbEntity
  8
CENTRALA
 62
     5
100
AcDbVertex
100
AcDb3dPolylineVertex
 10
-10.7045
 20
8.048339999999999
 30
0.0
 70
    32
  0
VERTEX
  5
529
330
259
100
AcDbEntity
  8
CENTRALA
 62
     5
100
AcDbVertex
100
AcDb3dPolylineVertex
 10
-10.7281
 20
8.210869999999998
 30
0.0
 70
    32
  0
VERTEX
  5
52A
330
259
100
AcDbEntity
  8
CENTRALA
 62
     5
100
AcDbVertex
100
AcDb3dPolylineVertex
 10
-10.757
 20
8.37279
 30
0.0
 70
    32
  0
VERTEX
  5
52B
330
259
100
AcDbEntity
  8
CENTRALA
 62
     5
100
AcDbVertex
100
AcDb3dPolylineVertex
 10
-10.7911
 20
8.53406
 30
0.0
 70
    32
  0
VERTEX
  5
52C
330
259
100
AcDbEntity
  8
CENTRALA
 62
     5
100
AcDbVertex
100
AcDb3dPolylineVertex
 10
-10.8306
 20
8.694679999999998
 30
0.0
 70
    32
  0
VERTEX
  5
52D
330
259
100
AcDbEntity
  8
CENTRALA
 62
     5
100
AcDbVertex
100
AcDb3dPolylineVertex
 10
-10.8755
 20
8.854649999999997
 30
0.0
 70
    32
  0
VERTEX
  5
52E
330
259
100
AcDbEntity
  8
CENTRALA
 62
     5
100
AcDbVertex
100
AcDb3dPolylineVertex
 10
-10.9261
 20
9.013949999999999
 30
0.0
 70
    32
  0
VERTEX
  5
52F
330
259
100
AcDbEntity
  8
CENTRALA
 62
     5
100
AcDbVertex
100
AcDb3dPolylineVertex
 10
-10.9823
 20
9.17257
 30
0.0
 70
    32
  0
VERTEX
  5
530
330
259
100
AcDbEntity
  8
CENTRALA
 62
     5
100
AcDbVertex
100
AcDb3dPolylineVertex
 10
-11.0443
 20
9.3305
 30
0.0
 70
    32
  0
VERTEX
  5
531
330
259
100
AcDbEntity
  8
CENTRALA
 62
     5
100
AcDbVertex
100
AcDb3dPolylineVertex
 10
-11.1121
 20
9.48773
 30
0.0
 70
    32
  0
VERTEX
  5
532
330
259
100
AcDbEntity
  8
CENTRALA
 62
     5
100
AcDbVertex
100
AcDb3dPolylineVertex
 10
-11.186
 20
9.644249999999999
 30
0.0
 70
    32
  0
VERTEX
  5
533
330
259
100
AcDbEntity
  8
CENTRALA
 62
     5
100
AcDbVertex
100
AcDb3dPolylineVertex
 10
-11.266
 20
9.80005
 30
0.0
 70
    32
  0
VERTEX
  5
534
330
259
100
AcDbEntity
  8
CENTRALA
 62
     5
100
AcDbVertex
100
AcDb3dPolylineVertex
 10
-11.3521
 20
9.955109999999999
 30
0.0
 70
    32
  0
VERTEX
  5
535
330
259
100
AcDbEntity
  8
CENTRALA
 62
     5
100
AcDbVertex
100
AcDb3dPolylineVertex
 10
-11.4446
 20
10.1094
 30
0.0
 70
    32
  0
VERTEX
  5
536
330
259
100
AcDbEntity
  8
CENTRALA
 62
     5
100
AcDbVertex
100
AcDb3dPolylineVertex
 10
-11.5434
 20
10.263
 30
0.0
 70
    32
  0
VERTEX
  5
537
330
259
100
AcDbEntity
  8
CENTRALA
 62
     5
100
AcDbVertex
100
AcDb3dPolylineVertex
 10
-11.6488
 20
10.4158
 30
0.0
 70
    32
  0
VERTEX
  5
538
330
259
100
AcDbEntity
  8
CENTRALA
 62
     5
100
AcDbVertex
100
AcDb3dPolylineVertex
 10
-11.7607
 20
10.5679
 30
0.0
 70
    32
  0
VERTEX
  5
539
330
259
100
AcDbEntity
  8
CENTRALA
 62
     5
100
AcDbVertex
100
AcDb3dPolylineVertex
 10
-11.8794
 20
10.7191
 30
0.0
 70
    32
  0
VERTEX
  5
53A
330
259
100
AcDbEntity
  8
CENTRALA
 62
     5
100
AcDbVertex
100
AcDb3dPolylineVertex
 10
-12.0048
 20
10.8696
 30
0.0
 70
    32
  0
VERTEX
  5
53B
330
259
100
AcDbEntity
  8
CENTRALA
 62
     5
100
AcDbVertex
100
AcDb3dPolylineVertex
 10
-12.1367
 20
11.0193
 30
0.0
 70
    32
  0
VERTEX
  5
53C
330
259
100
AcDbEntity
  8
CENTRALA
 62
     5
100
AcDbVertex
100
AcDb3dPolylineVertex
 10
-12.2746
 20
11.1682
 30
0.0
 70
    32
  0
VERTEX
  5
53D
330
259
100
AcDbEntity
  8
CENTRALA
 62
     5
100
AcDbVertex
100
AcDb3dPolylineVertex
 10
-12.4181
 20
11.3165
 30
0.0
 70
    32
  0
VERTEX
  5
53E
330
259
100
AcDbEntity
  8
CENTRALA
 62
     5
100
AcDbVertex
100
AcDb3dPolylineVertex
 10
-12.5668
 20
11.464
 30
0.0
 70
    32
  0
VERTEX
  5
53F
330
259
100
AcDbEntity
  8
CENTRALA
 62
     5
100
AcDbVertex
100
AcDb3dPolylineVertex
 10
-12.7203
 20
11.6108
 30
0.0
 70
    32
  0
VERTEX
  5
540
330
259
100
AcDbEntity
  8
CENTRALA
 62
     5
100
AcDbVertex
100
AcDb3dPolylineVertex
 10
-12.8781
 20
11.757
 30
0.0
 70
    32
  0
VERTEX
  5
541
330
259
100
AcDbEntity
  8
CENTRALA
 62
     5
100
AcDbVertex
100
AcDb3dPolylineVertex
 10
-13.0399
 20
11.9026
 30
0.0
 70
    32
  0
VERTEX
  5
542
330
259
100
AcDbEntity
  8
CENTRALA
 62
     5
100
AcDbVertex
100
AcDb3dPolylineVertex
 10
-13.2051
 20
12.0476
 30
0.0
 70
    32
  0
VERTEX
  5
543
330
259
100
AcDbEntity
  8
CENTRALA
 62
     5
100
AcDbVertex
100
AcDb3dPolylineVertex
 10
-13.3734
 20
12.192
 30
0.0
 70
    32
  0
VERTEX
  5
544
330
259
100
AcDbEntity
  8
CENTRALA
 62
     5
100
AcDbVertex
100
AcDb3dPolylineVertex
 10
-13.5444
 20
12.3359
 30
0.0
 70
    32
  0
VERTEX
  5
545
330
259
100
AcDbEntity
  8
CENTRALA
 62
     5
100
AcDbVertex
100
AcDb3dPolylineVertex
 10
-13.7175
 20
12.4792
 30
0.0
 70
    32
  0
VERTEX
  5
546
330
259
100
AcDbEntity
  8
CENTRALA
 62
     5
100
AcDbVertex
100
AcDb3dPolylineVertex
 10
-13.8925
 20
12.6221
 30
0.0
 70
    32
  0
VERTEX
  5
547
330
259
100
AcDbEntity
  8
CENTRALA
 62
     5
100
AcDbVertex
100
AcDb3dPolylineVertex
 10
-14.0689
 20
12.7644
 30
0.0
 70
    32
  0
VERTEX
  5
548
330
259
100
AcDbEntity
  8
CENTRALA
 62
     5
100
AcDbVertex
100
AcDb3dPolylineVertex
 10
-14.2463
 20
12.9064
 30
0.0
 70
    32
  0
VERTEX
  5
549
330
259
100
AcDbEntity
  8
CENTRALA
 62
     5
100
AcDbVertex
100
AcDb3dPolylineVertex
 10
-14.4242
 20
13.0479
 30
0.0
 70
    32
  0
VERTEX
  5
54A
330
259
100
AcDbEntity
  8
CENTRALA
 62
     5
100
AcDbVertex
100
AcDb3dPolylineVertex
 10
-14.6022
 20
13.1889
 30
0.0
 70
    32
  0
VERTEX
  5
54B
330
259
100
AcDbEntity
  8
CENTRALA
 62
     5
100
AcDbVertex
100
AcDb3dPolylineVertex
 10
-14.7799
 20
13.3297
 30
0.0
 70
    32
  0
VERTEX
  5
54C
330
259
100
AcDbEntity
  8
CENTRALA
 62
     5
100
AcDbVertex
100
AcDb3dPolylineVertex
 10
-14.9569
 20
13.47
 30
0.0
 70
    32
  0
VERTEX
  5
54D
330
259
100
AcDbEntity
  8
CENTRALA
 62
     5
100
AcDbVertex
100
AcDb3dPolylineVertex
 10
-15.1328
 20
13.6101
 30
0.0
 70
    32
  0
VERTEX
  5
54E
330
259
100
AcDbEntity
  8
CENTRALA
 62
     5
100
AcDbVertex
100
AcDb3dPolylineVertex
 10
-15.307
 20
13.7499
 30
0.0
 70
    32
  0
VERTEX
  5
54F
330
259
100
AcDbEntity
  8
CENTRALA
 62
     5
100
AcDbVertex
100
AcDb3dPolylineVertex
 10
-15.4793
 20
13.8893
 30
0.0
 70
    32
  0
VERTEX
  5
550
330
259
100
AcDbEntity
  8
CENTRALA
 62
     5
100
AcDbVertex
100
AcDb3dPolylineVertex
 10
-15.6492
 20
14.0286
 30
0.0
 70
    32
  0
VERTEX
  5
551
330
259
100
AcDbEntity
  8
CENTRALA
 62
     5
100
AcDbVertex
100
AcDb3dPolylineVertex
 10
-15.8163
 20
14.1676
 30
0.0
 70
    32
  0
VERTEX
  5
552
330
259
100
AcDbEntity
  8
CENTRALA
 62
     5
100
AcDbVertex
100
AcDb3dPolylineVertex
 10
-15.9801
 20
14.3064
 30
0.0
 70
    32
  0
VERTEX
  5
553
330
259
100
AcDbEntity
  8
CENTRALA
 62
     5
100
AcDbVertex
100
AcDb3dPolylineVertex
 10
-16.1402
 20
14.445
 30
0.0
 70
    32
  0
VERTEX
  5
554
330
259
100
AcDbEntity
  8
CENTRALA
 62
     5
100
AcDbVertex
100
AcDb3dPolylineVertex
 10
-16.2962
 20
14.5835
 30
0.0
 70
    32
  0
VERTEX
  5
555
330
259
100
AcDbEntity
  8
CENTRALA
 62
     5
100
AcDbVertex
100
AcDb3dPolylineVertex
 10
-16.4477
 20
14.7218
 30
0.0
 70
    32
  0
VERTEX
  5
556
330
259
100
AcDbEntity
  8
CENTRALA
 62
     5
100
AcDbVertex
100
AcDb3dPolylineVertex
 10
-16.5942
 20
14.8601
 30
0.0
 70
    32
  0
VERTEX
  5
557
330
259
100
AcDbEntity
  8
CENTRALA
 62
     5
100
AcDbVertex
100
AcDb3dPolylineVertex
 10
-16.7354
 20
14.9983
 30
0.0
 70
    32
  0
VERTEX
  5
558
330
259
100
AcDbEntity
  8
CENTRALA
 62
     5
100
AcDbVertex
100
AcDb3dPolylineVertex
 10
-16.8708
 20
15.1364
 30
0.0
 70
    32
  0
VERTEX
  5
559
330
259
100
AcDbEntity
  8
CENTRALA
 62
     5
100
AcDbVertex
100
AcDb3dPolylineVertex
 10
-17.0
 20
15.2745
 30
0.0
 70
    32
  0
SEQEND
  5
55A
330
259
100
AcDbEntity
  8
CENTRALA
 62
     5
  0
CIRCLE
  5
55B
330
256
100
AcDbEntity
  8
CENTRALA
 62
     5
100
AcDbCircle
 10
0.0
 20
0.0
 30
0.0
 40
8.0
1001
AcDbBlockRepETag
1070
     1
1071
        1
1005
55B
  0
ENDBLK
  5
55C
330
256
100
AcDbEntity
  8
0
100
AcDbBlockEnd
  0
BLOCK
  5
584
330
583
100
AcDbEntity
  8
0
100
AcDbBlockBegin
  2
HAK_DUZY
 70
     0
 10
0.0
 20
0.0
 30
0.0
  3
HAK_DUZY
  1

  0
LWPOLYLINE
  5
585
330
583
100
AcDbEntity
  8
POMOCNICZE
100
AcDbPolyline
 90
        6
 70
     1
 43
0.0
 10
-27.5
 20
34.03234246270268
 10
27.5
 20
34.03234246270268
 10
27.49999999999909
 20
-29.46765753729733
 10
22.49999999999908
 20
-34.46765753729733
 10
-22.50000000000091
 20
-34.46765753729733
 10
-27.50000000000091
 20
-29.46765753729733
  0
LWPOLYLINE
  5
586
330
583
100
AcDbEntity
  8
POMOCNICZE
100
AcDbPolyline
 90
        2
 70
     0
 43
0.0
 10
-27.5
 20
31.03234246270267
 10
27.5
 20
31.03234246270267
  0
CIRCLE
  5
587
330
583
100
AcDbEntity
  8
POMOCNICZE
100
AcDbCircle
 10
0.0
 20
-17.46765753729732
 30
0.0
 40
5.0
  0
CIRCLE
  5
588
330
583
100
AcDbEntity
  8
POMOCNICZE
100
AcDbCircle
 10
-17.5
 20
-24.46765753729733
 30
0.0
 40
2.5
  0
CIRCLE
  5
589
330
583
100
AcDbEntity
  8
POMOCNICZE
100
AcDbCircle
 10
17.5
 20
-24.46765753729733
 30
0.0
 40
2.5
  0
CIRCLE
  5
58A
330
583
100
AcDbEntity
  8
POMOCNICZE
100
AcDbCircle
 10
-13.5
 20
5.532342462702671
 30
0.0
 40
2.5
  0
CIRCLE
  5
58B
330
583
100
AcDbEntity
  8
POMOCNICZE
100
AcDbCircle
 10
13.5
 20
5.532342462702671
 30
0.0
 40
2.5
  0
ENDBLK
  5
58C
330
583
100
AcDbEntity
  8
0
100
AcDbBlockEnd
  0
BLOCK
  5
637
330
636
100
AcDbEntity
  8
0
100
AcDbBlockBegin
  2
GNIAZDO_ZASILANIA_20_A
 70
     0
 10
0.0
 20
0.0
 30
0.0
  3
GNIAZDO_ZASILANIA_20_A
  1

  0
LWPOLYLINE
  5
638
330
636
100
AcDbEntity
  8
POMOCNICZE
  6
Continuous
100
AcDbPolyline
 90
        8
 70
     1
 43
0.0
 10
-21.5
 20
14.99999999999998
 10
21.5
 20
14.99999999999998
 42
-0.4142135623730951
 10
26.5
 20
9.999999999999984
 10
26.5
 20
-10.00000000000001
 42
-0.4142135623730951
 10
21.5
 20
-15.00000000000001
 10
-21.5
 20
-15.00000000000001
 42
-0.4142135623730951
 10
-26.5
 20
-10.00000000000001
 10
-26.5
 20
9.999999999999984
 42
-0.4142135623730951
  0
LWPOLYLINE
  5
639
330
636
100
AcDbEntity
  8
POMOCNICZE
  6
Continuous
100
AcDbPolyline
 90
        8
 70
     1
 43
0.0
 10
-11.5
 20
10.49999999999998
 10
11.5
 20
10.49999999999998
 42
-0.4142135623730951
 10
14.5
 20
7.499999999999985
 10
14.5
 20
-7.500000000000013
 42
-0.4142135623730951
 10
11.5
 20
-10.50000000000001
 10
-11.5
 20
-10.50000000000001
 42
-0.4142135623730951
 10
-14.5
 20
-7.500000000000013
 10
-14.5
 20
7.499999999999985
 42
-0.4142135623730951
  0
CIRCLE
  5
63A
330
636
100
AcDbEntity
  8
POMOCNICZE
  6
Continuous
100
AcDbCircle
 10
-21.5
 20
-0.0000000000000142
 30
0.0
 40
1.5
  0
CIRCLE
  5
63B
330
636
100
AcDbEntity
  8
POMOCNICZE
  6
Continuous
100
AcDbCircle
 10
21.5
 20
-0.0000000000000142
 30
0.0
 40
1.5
  0
ENDBLK
  5
63C
330
636
100
AcDbEntity
  8
0
100
AcDbBlockEnd
  0
BLOCK
  5
64A
330
649
100
AcDbEntity
  8
0
100
AcDbBlockBegin
  2
Galka-bok
 70
     0
 10
0.0
 20
0.0
 30
0.0
  3
Galka-bok
  1

  0
LWPOLYLINE
  5
64B
330
649
100
AcDbEntity
  8
0
 62
     5
100
AcDbPolyline
 90
        6
 70
     1
 43
0.0
 10
513.6056839983573
 20
-235.7942308135534
 10
531.6056839983573
 20
-235.7942308135534
 42
-0.4142135623730951
 10
539.6056839983573
 20
-243.7942308135534
 10
539.6056839983573
 20
-249.7942308135534
 10
505.6056839983575
 20
-249.7942308135534
 10
505.6056839983575
 20
-243.7942308135534
 42
-0.4142135623730951
  0
LWPOLYLINE
  5
64C
330
649
100
AcDbEntity
  8
0
 62
     5
100
AcDbPolyline
 90
        4
 70
     1
 43
0.0
 10
513.6056839983573
 20
-249.7942308135534
 10
531.6056839983573
 20
-249.7942308135534
 10
531.6056839983573
 20
-256.7942308135534
 10
513.6056839983573
 20
-256.7942308135534
  0
LWPOLYLINE
  5
64D
330
649
100
AcDbEntity
  8
0
 62
     5
100
AcDbPolyline
 90
        2
 70
     0
 43
0.0
 10
508.6056839983576
 20
-243.7942308135534
 10
508.6056839983576
 20
-249.7942308135534
  0
SPLINE
  5
64E
330
649
100
AcDbEntity
  8
0
 62
     5
100
AcDbSpline
210
0.0
220
0.0
230
1.0
 70
     8
 71
     3
 72
     8
 73
     4
 74
     0
 42
0.0000000001
 43
0.0000000001
 40
0.0
 40
0.0
 40
0.0
 40
0.0
 40
10.27785831700127
 40
10.27785831700127
 40
10.27785831700127
 40
10.27785831700127
 10
508.6056839983576
 20
-243.7942308135534
 30
0.0
 10
510.4774416336787
 20
-240.5555129283281
 30
0.0
 10
512.3491992689999
 20
-237.3167950431027
 30
0.0
 10
515.0581541907997
 20
-235.7942308135536
 30
0.0
  0
SPLINE
  5
64F
330
649
100
AcDbEntity
  8
0
 62
     5
100
AcDbSpline
210
0.0
220
0.0
230
1.0
 70
     8
 71
     3
 72
     9
 73
     5
 74
     0
 42
0.0000000001
 43
0.0000000001
 40
21.36872674825796
 40
21.36872674825796
 40
21.36872674825796
 40
21.36872674825796
 40
29.47355378495695
 40
36.53729761612736
 40
36.53729761612736
 40
36.53729761612736
 40
36.53729761612736
 10
522.6056839983573
 20
-235.7942308135534
 30
0.0
 10
528.5554953708547
 20
-236.778482666917
 30
0.0
 10
533.8867621098529
 20
-239.4278813048076
 30
0.0
 10
537.7886442632815
 20
-242.4069360210562
 30
0.0
 10
539.6056839983573
 20
-243.7942308135534
 30
0.0
  0
SPLINE
  5
650
330
649
100
AcDbEntity
  8
0
 62
     5
100
AcDbSpline
210
0.0
220
0.0
230
1.0
 70
     8
 71
     3
 72
     8
 73
     4
 74
     0
 42
0.0000000001
 43
0.0000000001
 40
0.0
 40
0.0
 40
0.0
 40
0.0
 40
10.27785831700127
 40
10.27785831700127
 40
10.27785831700127
 40
10.27785831700127
 10
508.6056839983576
 20
-243.7942308135534
 30
0.0
 10
505.3548139732011
 20
-239.3737001232821
 30
0.0
 10
509.9196336919923
 20
-236.6940172154323
 30
0.0
 10
511.0499731095384
 20
-236.2134431333206
 30
0.0
  0
ENDBLK
  5
651
330
649
100
AcDbEntity
  8
0
100
AcDbBlockEnd
  0
BLOCK
  5
65E
330
65A
100
AcDbEntity
  8
0
100
AcDbBlockBegin
  2
A$C1F7916CD
 70
     0
 10
0.0
 20
0.0
 30
0.0
  3
A$C1F7916CD
  1

  0
INSERT
  5
65B
330
65A
100
AcDbEntity
  8
0
100
AcDbBlockReference
  2
Galka-bok
 10
-505.6056832849217
 20
256.7942306695449
 30
0.0
  0
ENDBLK
  5
65F
330
65A
100
AcDbEntity
  8
0
100
AcDbBlockEnd
  0
BLOCK
  5
6AC
330
6A9
100
AcDbEntity
  8
0
100
AcDbBlockBegin
  2
*U8
 70
     1
 10
0.0
 20
0.0
 30
0.0
  3
*U8
  1

  0
LINE
  5
6AA
330
6A9
100
AcDbEntity
  8
osie
 48
50.0
100
AcDbLine
 10
71.59018695578787
 20
0.0000018543510407
 30
0.0
 11
0.0000014642257611
 21
0.0000018543510407
 31
0.0
1001
AcDbBlockRepETag
1070
     1
1071
       31
1005
6AA
  0
ENDBLK
  5
6AD
330
6A9
100
AcDbEntity
  8
0
100
AcDbBlockEnd
  0
BLOCK
  5
812
330
811
100
AcDbEntity
  8
0
100
AcDbBlockBegin
  2
*D9
 70
     1
 10
0.0
 20
0.0
 30
0.0
  3
*D9
  1

  0
LINE
  5
831
330
811
100
AcDbEntity
  8
wymiary
 62
     0
370
    -2
100
AcDbLine
 10
1250.873190744269
 20
-191.580112661044
 30
0.0
 11
1250.873190744269
 21
-160.9956910676173
 31
0.0
  0
LINE
  5
832
330
811
100
AcDbEntity
  8
wymiary
 62
     0
370
    -2
100
AcDbLine
 10
2150.873190744272
 20
-191.580112661044
 30
0.0
 11
2150.873190744272
 21
-160.9956910676173
 31
0.0
  0
LINE
  5
833
330
811
100
AcDbEntity
  8
wymiary
 62
     0
370
    -2
100
AcDbLine
 10
1268.873190744269
 20
-162.2456910676173
 30
0.0
 11
2132.873190744271
 21
-162.2456910676173
 31
0.0
  0
SOLID
  5
834
330
811
100
AcDbEntity
  8
wymiary
 62
     0
100
AcDbTrace
 10
1268.873190744269
 20
-159.2456910676173
 30
0.0
 11
1268.873190744269
 21
-165.2456910676173
 31
0.0
 12
1250.873190744269
 22
-162.2456910676173
 32
0.0
 13
1250.873190744269
 23
-162.2456910676173
 33
0.0
  0
SOLID
  5
835
330
811
100
AcDbEntity
  8
wymiary
 62
     0
100
AcDbTrace
 10
2132.873190744271
 20
-159.2456910676173
 30
0.0
 11
2132.873190744271
 21
-165.2456910676173
 31
0.0
 12
2150.873190744272
 22
-162.2456910676173
 32
0.0
 13
2150.873190744272
 23
-162.2456910676173
 33
0.0
  0
MTEXT
  5
836
330
811
100
AcDbEntity
  8
wymiary
 62
     0
100
AcDbMText
 10
1700.87319074427
 20
-145.0553772886269
 30
0.0
 40
18.0
 41
0.0
 46
0.0
 71
     5
 72
     1
  1
900
 73
     1
 44
1.0
  0
POINT
  5
837
330
811
100
AcDbEntity
  8
Defpoints
 62
     0
100
AcDbPoint
 10
1250.873190744269
 20
-196.580112661044
 30
0.0
  0
POINT
  5
838
330
811
100
AcDbEntity
  8
Defpoints
 62
     0
100
AcDbPoint
 10
2150.873190744272
 20
-196.580112661044
 30
0.0
  0
POINT
  5
839
330
811
100
AcDbEntity
  8
Defpoints
 62
     0
100
AcDbPoint
 10
2150.873190744272
 20
-162.2456910676173
 30
0.0
  0
ENDBLK
  5
813
330
811
100
AcDbEntity
  8
0
100
AcDbBlockEnd
  0
BLOCK
  5
83C
330
83B
100
AcDbEntity
  8
0
100
AcDbBlockBegin
  2
*D10
 70
     1
 10
0.0
 20
0.0
 30
0.0
  3
*D10
  1

  0
LINE
  5
848
330
83B
100
AcDbEntity
  8
wymiary
 62
     0
370
    -2
100
AcDbLine
 10
2155.873190744272
 20
-496.5801126610434
 30
0.0
 11
2240.259313821207
 21
-496.5801126610436
 31
0.0
  0
LINE
  5
849
330
83B
100
AcDbEntity
  8
wymiary
 62
     0
370
    -2
100
AcDbLine
 10
2155.873190744272
 20
-196.580112661044
 30
0.0
 11
2240.259313821207
 21
-196.580112661044
 31
0.0
  0
LINE
  5
84A
330
83B
100
AcDbEntity
  8
wymiary
 62
     0
370
    -2
100
AcDbLine
 10
2239.009313821207
 20
-478.5801126610436
 30
0.0
 11
2239.009313821207
 21
-214.580112661044
 31
0.0
  0
SOLID
  5
84B
330
83B
100
AcDbEntity
  8
wymiary
 62
     0
100
AcDbTrace
 10
2236.009313821207
 20
-478.5801126610436
 30
0.0
 11
2242.009313821207
 21
-478.5801126610436
 31
0.0
 12
2239.009313821207
 22
-496.5801126610436
 32
0.0
 13
2239.009313821207
 23
-496.5801126610436
 33
0.0
  0
SOLID
  5
84C
330
83B
100
AcDbEntity
  8
wymiary
 62
     0
100
AcDbTrace
 10
2236.009313821207
 20
-214.580112661044
 30
0.0
 11
2242.009313821207
 21
-214.5801126610441
 31
0.0
 12
2239.009313821207
 22
-196.580112661044
 32
0.0
 13
2239.009313821207
 23
-196.580112661044
 33
0.0
  0
MTEXT
  5
84D
330
83B
100
AcDbEntity
  8
wymiary
 62
     0
100
AcDbMText
 10
2221.812860888056
 20
-346.5801126610435
 30
0.0
 40
18.0
 41
0.0
 46
0.0
 71
     5
 72
     1
  1
300
 11
0.0000000000000001
 21
1.0
 31
0.0
 73
     1
 44
1.0
  0
POINT
  5
84E
330
83B
100
AcDbEntity
  8
Defpoints
 62
     0
100
AcDbPoint
 10
2150.873190744272
 20
-496.5801126610434
 30
0.0
  0
POINT
  5
84F
330
83B
100
AcDbEntity
  8
Defpoints
 62
     0
100
AcDbPoint
 10
2150.873190744272
 20
-196.580112661044
 30
0.0
  0
POINT
  5
850
330
83B
100
AcDbEntity
  8
Defpoints
 62
     0
100
AcDbPoint
 10
2239.009313821207
 20
-196.580112661044
 30
0.0
  0
ENDBLK
  5
83D
330
83B
100
AcDbEntity
  8
0
100
AcDbBlockEnd
  0
BLOCK
  5
855
330
854
100
AcDbEntity
  8
0
100
AcDbBlockBegin
  2
*D11
 70
     1
 10
0.0
 20
0.0
 30
0.0
  3
*D11
  1

  0
LINE
  5
85D
330
854
100
AcDbEntity
  8
wymiary
 62
     0
370
    -2
100
AcDbLine
 10
410.6292029062401
 20
-351.0082212743412
 30
0.0
 11
496.4486939787557
 21
-314.4240299847508
 31
0.0
  0
MTEXT
  5
85E
330
854
100
AcDbEntity
  8
wymiary
 62
     0
100
AcDbMText
 10
438.3212795549716
 20
-319.9689519236898
 30
0.0
 40
18.0
 41
0.0
 46
0.0
 71
     5
 72
     1
  1
∅200
 11
0.9199024166262633
 21
0.3921473497107439
 31
0.0
 73
     1
 44
1.0
  0
SOLID
  5
85F
330
854
100
AcDbEntity
  8
wymiary
 62
     0
100
AcDbTrace
 10
495.2722519296236
 20
-311.6643227348719
 30
0.0
 11
497.625136027888
 21
-317.1837372346296
 31
0.0
 12
513.0069374780283
 22
-307.3653776899574
 32
0.0
 13
513.0069374780283
 23
-307.3653776899574
 33
0.0
  0
POINT
  5
860
330
854
100
AcDbEntity
  8
Defpoints
 62
     0
100
AcDbPoint
 10
513.0069374780283
 20
-307.3653776899574
 30
0.0
  0
POINT
  5
861
330
854
100
AcDbEntity
  8
Defpoints
 62
     0
100
AcDbPoint
 10
329.026454152776
 20
-385.7948476321062
 30
0.0
  0
ENDBLK
  5
856
330
854
100
AcDbEntity
  8
0
100
AcDbBlockEnd
  0
BLOCK
  5
865
330
864
100
AcDbEntity
  8
0
100
AcDbBlockBegin
  2
*D12
 70
     1
 10
0.0
 20
0.0
 30
0.0
  3
*D12
  1

  0
LINE
  5
871
330
864
100
AcDbEntity
  8
wymiary
 62
     0
370
    -2
100
AcDbLine
 10
889.3472521668888
 20
-236.5146227644045
 30
0.0
 11
822.0553012801222
 21
-236.5146227644045
 31
0.0
  0
LINE
  5
872
330
864
100
AcDbEntity
  8
wymiary
 62
     0
370
    -2
100
AcDbLine
 10
822.0553012801222
 20
-236.5146227644045
 30
0.0
 11
811.4823075253966
 21
-251.0821140742538
 31
0.0
  0
LINE
  5
873
330
864
100
AcDbEntity
  8
wymiary
 62
     0
370
    -2
100
AcDbLine
 10
672.858611630106
 20
-442.0781112478332
 30
0.0
 11
662.2856178753805
 21
-456.6456025576823
 31
0.0
  0
MTEXT
  5
874
330
864
100
AcDbEntity
  8
wymiary
 62
     0
100
AcDbMText
 10
859.7012767235055
 20
-218.8208983442135
 30
0.0
 40
18.0
 41
0.0
 46
0.0
 71
     5
 72
     1
  1
∅200
 73
     1
 44
1.0
  0
LINE
  5
875
330
864
100
AcDbEntity
  8
wymiary
 62
     0
370
    -2
100
AcDbLine
 10
683.4316053848314
 20
-427.5106199379838
 30
0.0
 11
800.9093137706711
 21
-265.6496053841031
 31
0.0
  0
SOLID
  5
876
330
864
100
AcDbEntity
  8
wymiary
 62
     0
100
AcDbTrace
 10
670.4306964117977
 20
-440.3159456220456
 30
0.0
 11
675.2865268484143
 21
-443.8402768736208
 31
0.0
 12
683.4316053848314
 22
-427.5106199379838
 32
0.0
 13
683.4316053848314
 23
-427.5106199379838
 33
0.0
  0
SOLID
  5
877
330
864
100
AcDbEntity
  8
wymiary
 62
     0
100
AcDbTrace
 10
809.0543923070882
 20
-249.3199484484662
 30
0.0
 11
813.9102227437046
 21
-252.8442797000414
 31
0.0
 12
800.9093137706711
 22
-265.6496053841031
 32
0.0
 13
800.9093137706711
 23
-265.6496053841031
 33
0.0
  0
POINT
  5
878
330
864
100
AcDbEntity
  8
Defpoints
 62
     0
100
AcDbPoint
 10
800.9093137706711
 20
-265.6496053841031
 30
0.0
  0
POINT
  5
879
330
864
100
AcDbEntity
  8
Defpoints
 62
     0
100
AcDbPoint
 10
683.4316053848314
 20
-427.5106199379838
 30
0.0
  0
ENDBLK
  5
866
330
864
100
AcDbEntity
  8
0
100
AcDbBlockEnd
  0
BLOCK
  5
87D
330
87C
100
AcDbEntity
  8
0
100
AcDbBlockBegin
  2
*D13
 70
     1
 10
0.0
 20
0.0
 30
0.0
  3
*D13
  1

  0
LINE
  5
889
330
87C
100
AcDbEntity
  8
wymiary
 62
     0
370
    -2
100
AcDbLine
 10
603.8885420509999
 20
-274.9052370688604
 30
0.0
 11
536.5965911642333
 21
-274.9052370688604
 31
0.0
  0
LINE
  5
88A
330
87C
100
AcDbEntity
  8
wymiary
 62
     0
370
    -2
100
AcDbLine
 10
536.5965911642333
 20
-274.9052370688604
 30
0.0
 11
521.2992520739468
 21
-284.3916176619418
 31
0.0
  0
LINE
  5
88B
330
87C
100
AcDbEntity
  8
wymiary
 62
     0
370
    -2
100
AcDbLine
 10
320.7341395568577
 20
-408.7686076601216
 30
0.0
 11
305.4368004665712
 21
-418.2549882532032
 31
0.0
  0
MTEXT
  5
88C
330
87C
100
AcDbEntity
  8
wymiary
 62
     0
100
AcDbMText
 10
574.2425666076167
 20
-257.2115126486693
 30
0.0
 40
18.0
 41
0.0
 46
0.0
 71
     5
 72
     1
  1
∅200
 73
     1
 44
1.0
  0
LINE
  5
88D
330
87C
100
AcDbEntity
  8
wymiary
 62
     0
370
    -2
100
AcDbLine
 10
336.0314786471441
 20
-399.2822270670401
 30
0.0
 11
506.0019129836603
 21
-293.8779982550233
 31
0.0
  0
SOLID
  5
88E
330
87C
100
AcDbEntity
  8
wymiary
 62
     0
100
AcDbTrace
 10
319.1530761246773
 20
-406.2190511450737
 30
0.0
 11
322.3152029890379
 21
-411.3181641751692
 31
0.0
 12
336.0314786471441
 22
-399.2822270670401
 32
0.0
 13
336.0314786471441
 23
-399.2822270670401
 33
0.0
  0
SOLID
  5
88F
330
87C
100
AcDbEntity
  8
wymiary
 62
     0
100
AcDbTrace
 10
519.7181886417665
 20
-281.8420611468941
 30
0.0
 11
522.8803155061267
 21
-286.9411741769896
 31
0.0
 12
506.0019129836603
 22
-293.8779982550233
 32
0.0
 13
506.0019129836603
 23
-293.8779982550233
 33
0.0
  0
POINT
  5
890
330
87C
100
AcDbEntity
  8
Defpoints
 62
     0
100
AcDbPoint
 10
506.0019129836603
 20
-293.8779982550233
 30
0.0
  0
POINT
  5
891
330
87C
100
AcDbEntity
  8
Defpoints
 62
     0
100
AcDbPoint
 10
336.0314786471441
 20
-399.2822270670401
 30
0.0
  0
ENDBLK
  5
87E
330
87C
100
AcDbEntity
  8
0
100
AcDbBlockEnd
  0
BLOCK
  5
895
330
894
100
AcDbEntity
  8
0
100
AcDbBlockBegin
  2
*D14
 70
     1
 10
0.0
 20
0.0
 30
0.0
  3
*D14
  1

  0
LINE
  5
89D
330
894
100
AcDbEntity
  8
wymiary
 62
     0
370
    -2
100
AcDbLine
 10
411.922652386123
 20
-353.2738805786948
 30
0.0
 11
487.0559098253411
 21
-297.9712429668137
 31
0.0
  0
MTEXT
  5
89E
330
894
100
AcDbEntity
  8
wymiary
 62
     0
100
AcDbMText
 10
431.7523924370013
 20
-316.7079297438529
 30
0.0
 40
18.0
 41
0.0
 46
0.0
 71
     5
 72
     1
  1
∅200
 11
0.805356268413889
 21
0.5927910938319299
 31
0.0
 73
     1
 44
1.0
  0
SOLID
  5
89F
330
894
100
AcDbEntity
  8
wymiary
 62
     0
100
AcDbTrace
 10
485.2775365438454
 20
-295.5551741615721
 30
0.0
 11
488.834283106837
 21
-300.3873117720553
 31
0.0
 12
501.5523226567911
 22
-287.301003277839
 32
0.0
 13
501.5523226567911
 23
-287.301003277839
 33
0.0
  0
POINT
  5
8A0
330
894
100
AcDbEntity
  8
Defpoints
 62
     0
100
AcDbPoint
 10
501.5523226567911
 20
-287.301003277839
 30
0.0
  0
POINT
  5
8A1
330
894
100
AcDbEntity
  8
Defpoints
 62
     0
100
AcDbPoint
 10
340.4810689740133
 20
-405.8592220442246
 30
0.0
  0
ENDBLK
  5
896
330
894
100
AcDbEntity
  8
0
100
AcDbBlockEnd
  0
BLOCK
  5
8A5
330
8A4
100
AcDbEntity
  8
0
100
AcDbBlockBegin
  2
*D15
 70
     1
 10
0.0
 20
0.0
 30
0.0
  3
*D15
  1

  0
LINE
  5
8AD
330
8A4
100
AcDbEntity
  8
wymiary
 62
     0
370
    -2
100
AcDbLine
 10
732.0632517130007
 20
-351.6152396711474
 30
0.0
 11
815.5670810491407
 21
-310.0159778212092
 31
0.0
  0
MTEXT
  5
8AE
330
8A4
100
AcDbEntity
  8
wymiary
 62
     0
100
AcDbMText
 10
757.8697356644702
 20
-318.9914333787475
 30
0.0
 40
18.0
 41
0.0
 46
0.0
 71
     5
 72
     1
  1
∅200
 11
0.8950807496510899
 21
0.4459040834126133
 31
0.0
 73
     1
 44
1.0
  0
SOLID
  5
8AF
330
8A4
100
AcDbEntity
  8
wymiary
 62
     0
100
AcDbTrace
 10
814.2293687989029
 20
-307.3307355722558
 30
0.0
 11
816.9047932993786
 21
-312.7012200701624
 31
0.0
 12
831.6785345428604
 22
-301.9897043197822
 32
0.0
 13
831.6785345428604
 23
-301.9897043197822
 33
0.0
  0
POINT
  5
8B0
330
8A4
100
AcDbEntity
  8
Defpoints
 62
     0
100
AcDbPoint
 10
831.6785345428604
 20
-301.9897043197822
 30
0.0
  0
POINT
  5
8B1
330
8A4
100
AcDbEntity
  8
Defpoints
 62
     0
100
AcDbPoint
 10
652.6623846126422
 20
-391.1705210023048
 30
0.0
  0
ENDBLK
  5
8A6
330
8A4
100
AcDbEntity
  8
0
100
AcDbBlockEnd
  0
BLOCK
  5
8B5
330
8B4
100
AcDbEntity
  8
0
100
AcDbBlockBegin
  2
*D16
 70
     1
 10
0.0
 20
0.0
 30
0.0
  3
*D16
  1

  0
LINE
  5
8C0
330
8B4
100
AcDbEntity
  8
wymiary
 62
     0
370
    -2
100
AcDbLine
 10
2883.513327468025
 20
-346.5801126610437
 30
0.0
 11
2790.221376581258
 21
-346.5801126610437
 31
0.0
  0
LINE
  5
8C1
330
8B4
100
AcDbEntity
  8
wymiary
 62
     0
370
    -2
100
AcDbLine
 10
2554.221376581258
 20
-346.5801126610437
 30
0.0
 11
2536.221376581258
 21
-346.5801126610437
 31
0.0
  0
MTEXT
  5
8C2
330
8B4
100
AcDbEntity
  8
wymiary
 62
     0
100
AcDbMText
 10
2845.867352024641
 20
-328.8863882408526
 30
0.0
 40
18.0
 41
0.0
 46
0.0
 71
     5
 72
     1
  1
∅200
 73
     1
 44
1.0
  0
LINE
  5
8C3
330
8B4
100
AcDbEntity
  8
wymiary
 62
     0
370
    -2
100
AcDbLine
 10
2572.221376581258
 20
-346.5801126610437
 30
0.0
 11
2772.221376581258
 21
-346.5801126610437
 31
0.0
  0
SOLID
  5
8C4
330
8B4
100
AcDbEntity
  8
wymiary
 62
     0
100
AcDbTrace
 10
2554.221376581258
 20
-343.5801126610436
 30
0.0
 11
2554.221376581258
 21
-349.5801126610436
 31
0.0
 12
2572.221376581258
 22
-346.5801126610437
 32
0.0
 13
2572.221376581258
 23
-346.5801126610437
 33
0.0
  0
SOLID
  5
8C5
330
8B4
100
AcDbEntity
  8
wymiary
 62
     0
100
AcDbTrace
 10
2790.221376581258
 20
-343.5801126610436
 30
0.0
 11
2790.221376581258
 21
-349.5801126610436
 31
0.0
 12
2772.221376581258
 22
-346.5801126610437
 32
0.0
 13
2772.221376581258
 23
-346.5801126610437
 33
0.0
  0
POINT
  5
8C6
330
8B4
100
AcDbEntity
  8
Defpoints
 62
     0
100
AcDbPoint
 10
2772.221376581258
 20
-346.5801126610437
 30
0.0
  0
POINT
  5
8C7
330
8B4
100
AcDbEntity
  8
Defpoints
 62
     0
100
AcDbPoint
 10
2572.221376581258
 20
-346.5801126610437
 30
0.0
  0
ENDBLK
  5
8B6
330
8B4
100
AcDbEntity
  8
0
100
AcDbBlockEnd
  0
BLOCK
  5
8CB
330
8CA
100
AcDbEntity
  8
0
100
AcDbBlockBegin
  2
*D17
 70
     1
 10
0.0
 20
0.0
 30
0.0
  3
*D17
  1

  0
LINE
  5
8D3
330
8CA
100
AcDbEntity
  8
wymiary
 62
     0
370
    -2
100
AcDbLine
 10
2662.429586403819
 20
-352.2040792283485
 30
0.0
 11
2743.327494788961
 21
-305.7399369337977
 31
0.0
  0
MTEXT
  5
8D4
330
8CA
100
AcDbEntity
  8
wymiary
 62
     0
100
AcDbMText
 10
2686.261834761519
 20
-318.1113924882511
 30
0.0
 40
18.0
 41
0.0
 46
0.0
 71
     5
 72
     1
  1
∅200
 11
0.8671477830207539
 21
0.4980509235030004
 31
0.0
 73
     1
 44
1.0
  0
SOLID
  5
8D5
330
8CA
100
AcDbEntity
  8
wymiary
 62
     0
100
AcDbTrace
 10
2741.833342018451
 20
-303.1384935847354
 30
0.0
 11
2744.821647559468
 21
-308.34138028286
 31
0.0
 12
2758.936154883333
 22
-296.7750203107437
 32
0.0
 13
2758.936154883333
 23
-296.7750203107437
 33
0.0
  0
POINT
  5
8D6
330
8CA
100
AcDbEntity
  8
Defpoints
 62
     0
100
AcDbPoint
 10
2758.936154883333
 20
-296.7750203107437
 30
0.0
  0
POINT
  5
8D7
330
8CA
100
AcDbEntity
  8
Defpoints
 62
     0
100
AcDbPoint
 10
2585.506598279182
 20
-396.3852050113438
 30
0.0
  0
ENDBLK
  5
8CC
330
8CA
100
AcDbEntity
  8
0
100
AcDbBlockEnd
  0
BLOCK
  5
8DB
330
8DA
100
AcDbEntity
  8
0
100
AcDbBlockBegin
  2
*D18
 70
     1
 10
0.0
 20
0.0
 30
0.0
  3
*D18
  1

  0
LINE
  5
8E3
330
8DA
100
AcDbEntity
  8
wymiary
 62
     0
370
    -2
100
AcDbLine
 10
2983.533370205425
 20
-352.1161505381015
 30
0.0
 11
3064.844203521756
 21
-306.3784583612676
 31
0.0
  0
MTEXT
  5
8E4
330
8DA
100
AcDbEntity
  8
wymiary
 62
     0
100
AcDbMText
 10
3007.670023924332
 20
-318.2382920137636
 30
0.0
 40
18.0
 41
0.0
 46
0.0
 71
     5
 72
     1
  1
∅200
 11
0.8715739411969394
 21
0.4902640768263914
 31
0.0
 73
     1
 44
1.0
  0
SOLID
  5
8E5
330
8DA
100
AcDbEntity
  8
wymiary
 62
     0
100
AcDbTrace
 10
3063.373411291276
 20
-303.7637365376768
 30
0.0
 11
3066.314995752235
 21
-308.9931801848584
 31
0.0
 12
3080.532534463301
 22
-297.5537049783925
 32
0.0
 13
3080.532534463301
 23
-297.5537049783925
 33
0.0
  0
POINT
  5
8E6
330
8DA
100
AcDbEntity
  8
Defpoints
 62
     0
100
AcDbPoint
 10
3080.532534463301
 20
-297.5537049783925
 30
0.0
  0
POINT
  5
8E7
330
8DA
100
AcDbEntity
  8
Defpoints
 62
     0
100
AcDbPoint
 10
2906.217746223913
 20
-395.6065203436708
 30
0.0
  0
ENDBLK
  5
8DC
330
8DA
100
AcDbEntity
  8
0
100
AcDbBlockEnd
  0
BLOCK
  5
8EB
330
8EA
100
AcDbEntity
  8
0
100
AcDbBlockBegin
  2
*D19
 70
     1
 10
0.0
 20
0.0
 30
0.0
  3
*D19
  1

  0
LINE
  5
8F9
330
8EA
100
AcDbEntity
  8
wymiary
 62
     0
370
    -2
100
AcDbLine
 10
166.3666958153967
 20
-341.580112661044
 30
0.0
 11
166.3666958153967
 21
-158.493032881579
 31
0.0
  0
LINE
  5
8FA
330
8EA
100
AcDbEntity
  8
wymiary
 62
     0
370
    -2
100
AcDbLine
 10
206.3666958153967
 20
-191.5801126610445
 30
0.0
 11
206.3666958153967
 21
-158.493032881579
 31
0.0
  0
LINE
  5
8FB
330
8EA
100
AcDbEntity
  8
wymiary
 62
     0
370
    -2
100
AcDbLine
 10
148.3666958153967
 20
-163.493032881579
 30
0.0
 11
130.3666958153967
 21
-163.493032881579
 31
0.0
  0
LINE
  5
8FC
330
8EA
100
AcDbEntity
  8
wymiary
 62
     0
370
    -2
100
AcDbLine
 10
224.3666958153967
 20
-163.493032881579
 30
0.0
 11
284.8141719409083
 21
-163.493032881579
 31
0.0
  0
LINE
  5
8FD
330
8EA
100
AcDbEntity
  8
wymiary
 62
     0
370
    -2
100
AcDbLine
 10
166.3666958153967
 20
-163.493032881579
 30
0.0
 11
206.3666958153967
 21
-163.493032881579
 31
0.0
  0
SOLID
  5
8FE
330
8EA
100
AcDbEntity
  8
wymiary
 62
     0
100
AcDbTrace
 10
148.3666958153967
 20
-160.493032881579
 30
0.0
 11
148.3666958153967
 21
-166.493032881579
 31
0.0
 12
166.3666958153967
 22
-163.493032881579
 32
0.0
 13
166.3666958153967
 23
-163.493032881579
 33
0.0
  0
SOLID
  5
8FF
330
8EA
100
AcDbEntity
  8
wymiary
 62
     0
100
AcDbTrace
 10
224.3666958153967
 20
-160.493032881579
 30
0.0
 11
224.3666958153967
 21
-166.493032881579
 31
0.0
 12
206.3666958153967
 22
-163.493032881579
 32
0.0
 13
206.3666958153967
 23
-163.493032881579
 33
0.0
  0
MTEXT
  5
900
330
8EA
100
AcDbEntity
  8
wymiary
 62
     0
100
AcDbMText
 10
263.5904338781525
 20
-146.3027191025885
 30
0.0
 40
18.0
 41
0.0
 46
0.0
 71
     5
 72
     1
  1
40
 73
     1
 44
1.0
  0
POINT
  5
901
330
8EA
100
AcDbEntity
  8
Defpoints
 62
     0
100
AcDbPoint
 10
166.3666958153967
 20
-346.580112661044
 30
0.0
  0
POINT
  5
902
330
8EA
100
AcDbEntity
  8
Defpoints
 62
     0
100
AcDbPoint
 10
206.3666958153967
 20
-196.5801126610445
 30
0.0
  0
POINT
  5
903
330
8EA
100
AcDbEntity
  8
Defpoints
 62
     0
100
AcDbPoint
 10
206.3666958153967
 20
-163.493032881579
 30
0.0
  0
ENDBLK
  5
8EC
330
8EA
100
AcDbEntity
  8
0
100
AcDbBlockEnd
  0
BLOCK
  5
907
330
906
100
AcDbEntity
  8
0
100
AcDbBlockBegin
  2
*D20
 70
     1
 10
0.0
 20
0.0
 30
0.0
  3
*D20
  1

  0
LINE
  5
913
330
906
100
AcDbEntity
  8
wymiary
 62
     0
370
    -2
100
AcDbLine
 10
201.3666958153967
 20
-346.580112661044
 30
0.0
 11
142.9382289841778
 21
-346.580112661044
 31
0.0
  0
LINE
  5
914
330
906
100
AcDbEntity
  8
wymiary
 62
     0
370
    -2
100
AcDbLine
 10
201.3666958153967
 20
-196.5801126610445
 30
0.0
 11
142.9382289841778
 21
-196.5801126610443
 31
0.0
  0
LINE
  5
915
330
906
100
AcDbEntity
  8
wymiary
 62
     0
370
    -2
100
AcDbLine
 10
147.9382289841778
 20
-328.580112661044
 30
0.0
 11
147.9382289841778
 21
-214.5801126610445
 31
0.0
  0
SOLID
  5
916
330
906
100
AcDbEntity
  8
wymiary
 62
     0
100
AcDbTrace
 10
144.9382289841778
 20
-328.580112661044
 30
0.0
 11
150.9382289841778
 21
-328.580112661044
 31
0.0
 12
147.9382289841778
 22
-346.580112661044
 32
0.0
 13
147.9382289841778
 23
-346.580112661044
 33
0.0
  0
SOLID
  5
917
330
906
100
AcDbEntity
  8
wymiary
 62
     0
100
AcDbTrace
 10
144.9382289841778
 20
-214.5801126610445
 30
0.0
 11
150.9382289841778
 21
-214.5801126610445
 31
0.0
 12
147.9382289841778
 22
-196.5801126610443
 32
0.0
 13
147.9382289841778
 23
-196.5801126610443
 33
0.0
  0
MTEXT
  5
918
330
906
100
AcDbEntity
  8
wymiary
 62
     0
100
AcDbMText
 10
130.7479152051874
 20
-271.5801126610442
 30
0.0
 40
18.0
 41
0.0
 46
0.0
 71
     5
 72
     1
  1
150
 11
0.0000000000000001
 21
1.0
 31
0.0
 73
     1
 44
1.0
  0
POINT
  5
919
330
906
100
AcDbEntity
  8
Defpoints
 62
     0
100
AcDbPoint
 10
206.3666958153967
 20
-346.580112661044
 30
0.0
  0
POINT
  5
91A
330
906
100
AcDbEntity
  8
Defpoints
 62
     0
100
AcDbPoint
 10
206.3666958153967
 20
-196.5801126610445
 30
0.0
  0
POINT
  5
91B
330
906
100
AcDbEntity
  8
Defpoints
 62
     0
100
AcDbPoint
 10
147.9382289841778
 20
-196.5801126610443
 30
0.0
  0
ENDBLK
  5
908
330
906
100
AcDbEntity
  8
0
100
AcDbBlockEnd
  0
BLOCK
  5
91F
330
91E
100
AcDbEntity
  8
0
100
AcDbBlockBegin
  2
*D21
 70
     1
 10
0.0
 20
0.0
 30
0.0
  3
*D21
  1

  0
LINE
  5
958
330
91E
100
AcDbEntity
  8
wymiary
 62
     0
370
    -2
100
AcDbLine
 10
201.3666958153967
 20
-496.5801126610434
 30
0.0
 11
99.45653158246937
 21
-496.5801126610434
 31
0.0
  0
LINE
  5
959
330
91E
100
AcDbEntity
  8
wymiary
 62
     0
370
    -2
100
AcDbLine
 10
201.3666958153967
 20
-196.5801126610445
 30
0.0
 11
99.45653158246944
 21
-196.5801126610443
 31
0.0
  0
LINE
  5
95A
330
91E
100
AcDbEntity
  8
wymiary
 62
     0
370
    -2
100
AcDbLine
 10
99.95653158246938
 20
-478.5801126610435
 30
0.0
 11
99.95653158246945
 21
-214.5801126610445
 31
0.0
  0
SOLID
  5
95B
330
91E
100
AcDbEntity
  8
wymiary
 62
     0
100
AcDbTrace
 10
96.9565315824694
 20
-478.5801126610435
 30
0.0
 11
102.9565315824694
 21
-478.5801126610435
 31
0.0
 12
99.95653158246938
 22
-496.5801126610434
 32
0.0
 13
99.95653158246938
 23
-496.5801126610434
 33
0.0
  0
SOLID
  5
95C
330
91E
100
AcDbEntity
  8
wymiary
 62
     0
100
AcDbTrace
 10
96.95653158246944
 20
-214.5801126610445
 30
0.0
 11
102.9565315824694
 21
-214.5801126610445
 31
0.0
 12
99.95653158246945
 22
-196.5801126610443
 32
0.0
 13
99.95653158246945
 23
-196.5801126610443
 33
0.0
  0
MTEXT
  5
95D
330
91E
100
AcDbEntity
  8
wymiary
 62
     0
100
AcDbMText
 10
82.76007864931804
 20
-346.580112661044
 30
0.0
 40
18.0
 41
0.0
 46
0.0
 71
     5
 72
     1
  1
300
 11
0.0000000000000001
 21
1.0
 31
0.0
 73
     1
 44
1.0
  0
POINT
  5
95E
330
91E
100
AcDbEntity
  8
Defpoints
 62
     0
100
AcDbPoint
 10
206.3666958153967
 20
-496.5801126610434
 30
0.0
  0
POINT
  5
95F
330
91E
100
AcDbEntity
  8
Defpoints
 62
     0
100
AcDbPoint
 10
206.3666958153967
 20
-196.5801126610445
 30
0.0
  0
POINT
  5
960
330
91E
100
AcDbEntity
  8
Defpoints
 62
     0
100
AcDbPoint
 10
99.95653158246945
 20
-196.5801126610443
 30
0.0
  0
ENDBLK
  5
920
330
91E
100
AcDbEntity
  8
0
100
AcDbBlockEnd
  0
BLOCK
  5
939
330
938
100
AcDbEntity
  8
0
100
AcDbBlockBegin
  2
*D22
 70
     1
 10
0.0
 20
0.0
 30
0.0
  3
*D22
  1

  0
LINE
  5
94F
330
938
100
AcDbEntity
  8
wymiary
 62
     0
370
    -2
100
AcDbLine
 10
161.3666958153967
 20
-346.580110806693
 30
0.0
 11
147.661613698933
 21
-346.580110806693
 31
0.0
  0
LINE
  5
950
330
938
100
AcDbEntity
  8
wymiary
 62
     0
370
    -2
100
AcDbLine
 10
161.3666958153967
 20
-196.5801126610445
 30
0.0
 11
147.6616136989331
 21
-196.5801126610445
 31
0.0
  0
LINE
  5
951
330
938
100
AcDbEntity
  8
wymiary
 62
     0
370
    -2
100
AcDbLine
 10
148.161613698933
 20
-328.580110806693
 30
0.0
 11
148.161613698933
 21
-214.5801126610445
 31
0.0
  0
SOLID
  5
952
330
938
100
AcDbEntity
  8
wymiary
 62
     0
100
AcDbTrace
 10
145.161613698933
 20
-328.580110806693
 30
0.0
 11
151.161613698933
 21
-328.580110806693
 31
0.0
 12
148.161613698933
 22
-346.580110806693
 32
0.0
 13
148.161613698933
 23
-346.580110806693
 33
0.0
  0
SOLID
  5
953
330
938
100
AcDbEntity
  8
wymiary
 62
     0
100
AcDbTrace
 10
145.1616136989331
 20
-214.5801126610445
 30
0.0
 11
151.1616136989331
 21
-214.5801126610445
 31
0.0
 12
148.161613698933
 22
-196.5801126610445
 32
0.0
 13
148.161613698933
 23
-196.5801126610445
 33
0.0
  0
MTEXT
  5
954
330
938
100
AcDbEntity
  8
wymiary
 62
     0
100
AcDbMText
 10
130.9712999199426
 20
-271.5801117338687
 30
0.0
 40
18.0
 41
0.0
 46
0.0
 71
     5
 72
     1
  1
150
 11
0.0000000000000001
 21
1.0
 31
0.0
 73
     1
 44
1.0
  0
POINT
  5
955
330
938
100
AcDbEntity
  8
Defpoints
 62
     0
100
AcDbPoint
 10
166.3666958153967
 20
-346.580110806693
 30
0.0
  0
POINT
  5
956
330
938
100
AcDbEntity
  8
Defpoints
 62
     0
100
AcDbPoint
 10
166.3666958153967
 20
-196.5801126610445
 30
0.0
  0
POINT
  5
957
330
938
100
AcDbEntity
  8
Defpoints
 62
     0
100
AcDbPoint
 10
148.161613698933
 20
-196.5801126610445
 30
0.0
  0
ENDBLK
  5
93A
330
938
100
AcDbEntity
  8
0
100
AcDbBlockEnd
  0
BLOCK
  5
963
330
962
100
AcDbEntity
  8
0
100
AcDbBlockBegin
  2
*D23
 70
     1
 10
0.0
 20
0.0
 30
0.0
  3
*D23
  1

  0
LINE
  5
96F
330
962
100
AcDbEntity
  8
wymiary
 62
     0
370
    -2
100
AcDbLine
 10
206.3666958153967
 20
-191.5801126610445
 30
0.0
 11
206.3666958153967
 21
-158.9925740979888
 31
0.0
  0
LINE
  5
970
330
962
100
AcDbEntity
  8
wymiary
 62
     0
370
    -2
100
AcDbLine
 10
926.3666958153967
 20
-191.5801126610445
 30
0.0
 11
926.3666958153967
 21
-158.9925740979888
 31
0.0
  0
LINE
  5
971
330
962
100
AcDbEntity
  8
wymiary
 62
     0
370
    -2
100
AcDbLine
 10
224.3666958153967
 20
-159.4925740979888
 30
0.0
 11
908.3666958153967
 21
-159.4925740979888
 31
0.0
  0
SOLID
  5
972
330
962
100
AcDbEntity
  8
wymiary
 62
     0
100
AcDbTrace
 10
224.3666958153967
 20
-156.4925740979888
 30
0.0
 11
224.3666958153967
 21
-162.4925740979888
 31
0.0
 12
206.3666958153967
 22
-159.4925740979888
 32
0.0
 13
206.3666958153967
 23
-159.4925740979888
 33
0.0
  0
SOLID
  5
973
330
962
100
AcDbEntity
  8
wymiary
 62
     0
100
AcDbTrace
 10
908.3666958153967
 20
-156.4925740979888
 30
0.0
 11
908.3666958153967
 21
-162.4925740979888
 31
0.0
 12
926.3666958153967
 22
-159.4925740979888
 32
0.0
 13
926.3666958153967
 23
-159.4925740979888
 33
0.0
  0
MTEXT
  5
974
330
962
100
AcDbEntity
  8
wymiary
 62
     0
100
AcDbMText
 10
566.3666958153966
 20
-142.3022603189983
 30
0.0
 40
18.0
 41
0.0
 46
0.0
 71
     5
 72
     1
  1
720
 73
     1
 44
1.0
  0
POINT
  5
975
330
962
100
AcDbEntity
  8
Defpoints
 62
     0
100
AcDbPoint
 10
206.3666958153967
 20
-196.5801126610445
 30
0.0
  0
POINT
  5
976
330
962
100
AcDbEntity
  8
Defpoints
 62
     0
100
AcDbPoint
 10
926.3666958153967
 20
-196.5801126610445
 30
0.0
  0
POINT
  5
977
330
962
100
AcDbEntity
  8
Defpoints
 62
     0
100
AcDbPoint
 10
926.3666958153967
 20
-159.4925740979888
 30
0.0
  0
ENDBLK
  5
964
330
962
100
AcDbEntity
  8
0
100
AcDbBlockEnd
  0
BLOCK
  5
97B
330
97A
100
AcDbEntity
  8
0
100
AcDbBlockBegin
  2
*D24
 70
     1
 10
0.0
 20
0.0
 30
0.0
  3
*D24
  1

  0
LINE
  5
AB1
330
97A
100
AcDbEntity
  8
wymiary
 62
     0
370
    -2
100
AcDbLine
 10
206.3666958153967
 20
-501.5801126610432
 30
0.0
 11
206.3666958153967
 21
-535.4429157649301
 31
0.0
  0
LINE
  5
AB2
330
97A
100
AcDbEntity
  8
wymiary
 62
     0
370
    -2
100
AcDbLine
 10
421.0166958154021
 20
-501.5801126610432
 30
0.0
 11
421.0166958154021
 21
-535.4429157649301
 31
0.0
  0
LINE
  5
AB3
330
97A
100
AcDbEntity
  8
wymiary
 62
     0
370
    -2
100
AcDbLine
 10
224.3666958153967
 20
-534.9429157649301
 30
0.0
 11
403.0166958154023
 21
-534.9429157649301
 31
0.0
  0
SOLID
  5
AB4
330
97A
100
AcDbEntity
  8
wymiary
 62
     0
100
AcDbTrace
 10
224.3666958153967
 20
-531.9429157649302
 30
0.0
 11
224.3666958153967
 21
-537.9429157649301
 31
0.0
 12
206.3666958153967
 22
-534.9429157649301
 32
0.0
 13
206.3666958153967
 23
-534.9429157649301
 33
0.0
  0
SOLID
  5
AB5
330
97A
100
AcDbEntity
  8
wymiary
 62
     0
100
AcDbTrace
 10
403.0166958154023
 20
-531.9429157649302
 30
0.0
 11
403.0166958154023
 21
-537.9429157649301
 31
0.0
 12
421.0166958154021
 22
-534.9429157649301
 32
0.0
 13
421.0166958154021
 23
-534.9429157649301
 33
0.0
  0
MTEXT
  5
AB6
330
97A
100
AcDbEntity
  8
wymiary
 62
     0
100
AcDbMText
 10
313.6916958153995
 20
-517.7526019859397
 30
0.0
 40
18.0
 41
0.0
 46
0.0
 71
     5
 72
     1
  1
215
 73
     1
 44
1.0
  0
POINT
  5
AB7
330
97A
100
AcDbEntity
  8
Defpoints
 62
     0
100
AcDbPoint
 10
206.3666958153967
 20
-496.5801126610434
 30
0.0
  0
POINT
  5
AB8
330
97A
100
AcDbEntity
  8
Defpoints
 62
     0
100
AcDbPoint
 10
421.0166958154021
 20
-496.5801126610434
 30
0.0
  0
POINT
  5
AB9
330
97A
100
AcDbEntity
  8
Defpoints
 62
     0
100
AcDbPoint
 10
421.0166958154021
 20
-534.9429157649301
 30
0.0
  0
ENDBLK
  5
97C
330
97A
100
AcDbEntity
  8
0
100
AcDbBlockEnd
  0
BLOCK
  5
993
330
992
100
AcDbEntity
  8
0
100
AcDbBlockBegin
  2
*D25
 70
     1
 10
0.0
 20
0.0
 30
0.0
  3
*D25
  1

  0
LINE
  5
A9F
330
992
100
AcDbEntity
  8
wymiary
 62
     0
370
    -2
100
AcDbLine
 10
742.1704595777513
 20
-501.5801126610432
 30
0.0
 11
742.1704595777513
 21
-539.0342948948164
 31
0.0
  0
LINE
  5
AA0
330
992
100
AcDbEntity
  8
wymiary
 62
     0
370
    -2
100
AcDbLine
 10
926.3666958153967
 20
-500.580112661044
 30
0.0
 11
926.3666958153967
 21
-539.0342948948164
 31
0.0
  0
LINE
  5
AA1
330
992
100
AcDbEntity
  8
wymiary
 62
     0
370
    -2
100
AcDbLine
 10
760.1704595777513
 20
-538.5342948948164
 30
0.0
 11
908.3666958153967
 21
-538.5342948948164
 31
0.0
  0
SOLID
  5
AA2
330
992
100
AcDbEntity
  8
wymiary
 62
     0
100
AcDbTrace
 10
760.1704595777513
 20
-535.5342948948162
 30
0.0
 11
760.1704595777513
 21
-541.5342948948164
 31
0.0
 12
742.1704595777513
 22
-538.5342948948164
 32
0.0
 13
742.1704595777513
 23
-538.5342948948164
 33
0.0
  0
SOLID
  5
AA3
330
992
100
AcDbEntity
  8
wymiary
 62
     0
100
AcDbTrace
 10
908.3666958153967
 20
-535.5342948948162
 30
0.0
 11
908.3666958153967
 21
-541.5342948948164
 31
0.0
 12
926.3666958153967
 22
-538.5342948948164
 32
0.0
 13
926.3666958153967
 23
-538.5342948948164
 33
0.0
  0
MTEXT
  5
AA4
330
992
100
AcDbEntity
  8
wymiary
 62
     0
100
AcDbMText
 10
834.2685776965739
 20
-521.3439811158258
 30
0.0
 40
18.0
 41
0.0
 46
0.0
 71
     5
 72
     1
  1
184
 73
     1
 44
1.0
  0
POINT
  5
AA5
330
992
100
AcDbEntity
  8
Defpoints
 62
     0
100
AcDbPoint
 10
742.1704595777513
 20
-496.5801126610434
 30
0.0
  0
POINT
  5
AA6
330
992
100
AcDbEntity
  8
Defpoints
 62
     0
100
AcDbPoint
 10
926.3666958153967
 20
-495.5801126610437
 30
0.0
  0
POINT
  5
AA7
330
992
100
AcDbEntity
  8
Defpoints
 62
     0
100
AcDbPoint
 10
926.3666958153967
 20
-538.5342948948164
 30
0.0
  0
ENDBLK
  5
994
330
992
100
AcDbEntity
  8
0
100
AcDbBlockEnd
  0
BLOCK
  5
9E1
330
9E0
100
AcDbEntity
  8
0
100
AcDbBlockBegin
  2
*D26
 70
     1
 10
0.0
 20
0.0
 30
0.0
  3
*D26
  1

  0
LINE
  5
9ED
330
9E0
100
AcDbEntity
  8
wymiary
 62
     0
370
    -2
100
AcDbLine
 10
2488.025140343613
 20
-191.5801126610445
 30
0.0
 11
2488.025140343613
 21
-161.1354399317424
 31
0.0
  0
LINE
  5
9EE
330
9E0
100
AcDbEntity
  8
wymiary
 62
     0
370
    -2
100
AcDbLine
 10
3208.025140343612
 20
-191.5801126610445
 30
0.0
 11
3208.025140343612
 21
-161.1354399317424
 31
0.0
  0
LINE
  5
9EF
330
9E0
100
AcDbEntity
  8
wymiary
 62
     0
370
    -2
100
AcDbLine
 10
2506.025140343612
 20
-161.6354399317424
 30
0.0
 11
3190.025140343613
 21
-161.6354399317424
 31
0.0
  0
SOLID
  5
9F0
330
9E0
100
AcDbEntity
  8
wymiary
 62
     0
100
AcDbTrace
 10
2506.025140343612
 20
-158.6354399317424
 30
0.0
 11
2506.025140343612
 21
-164.6354399317424
 31
0.0
 12
2488.025140343613
 22
-161.6354399317424
 32
0.0
 13
2488.025140343613
 23
-161.6354399317424
 33
0.0
  0
SOLID
  5
9F1
330
9E0
100
AcDbEntity
  8
wymiary
 62
     0
100
AcDbTrace
 10
3190.025140343613
 20
-158.6354399317424
 30
0.0
 11
3190.025140343613
 21
-164.6354399317424
 31
0.0
 12
3208.025140343612
 22
-161.6354399317424
 32
0.0
 13
3208.025140343612
 23
-161.6354399317424
 33
0.0
  0
MTEXT
  5
9F2
330
9E0
100
AcDbEntity
  8
wymiary
 62
     0
100
AcDbMText
 10
2848.025140343612
 20
-144.445126152752
 30
0.0
 40
18.0
 41
0.0
 46
0.0
 71
     5
 72
     1
  1
720
 73
     1
 44
1.0
  0
POINT
  5
9F3
330
9E0
100
AcDbEntity
  8
Defpoints
 62
     0
100
AcDbPoint
 10
2488.025140343613
 20
-196.5801126610445
 30
0.0
  0
POINT
  5
9F4
330
9E0
100
AcDbEntity
  8
Defpoints
 62
     0
100
AcDbPoint
 10
3208.025140343612
 20
-196.5801126610445
 30
0.0
  0
POINT
  5
9F5
330
9E0
100
AcDbEntity
  8
Defpoints
 62
     0
100
AcDbPoint
 10
3208.025140343612
 20
-161.6354399317424
 30
0.0
  0
ENDBLK
  5
9E2
330
9E0
100
AcDbEntity
  8
0
100
AcDbBlockEnd
  0
BLOCK
  5
9F9
330
9F8
100
AcDbEntity
  8
0
100
AcDbBlockBegin
  2
*D27
 70
     1
 10
0.0
 20
0.0
 30
0.0
  3
*D27
  1

  0
LINE
  5
A18
330
9F8
100
AcDbEntity
  8
wymiary
 62
     0
370
    -2
100
AcDbLine
 10
3274.6153272994
 20
-346.580110806693
 30
0.0
 11
3287.393957588636
 21
-346.580110806693
 31
0.0
  0
LINE
  5
A19
330
9F8
100
AcDbEntity
  8
wymiary
 62
     0
370
    -2
100
AcDbLine
 10
3213.025140343614
 20
-196.5801126610445
 30
0.0
 11
3287.393957588636
 21
-196.5801126610445
 31
0.0
  0
LINE
  5
A1A
330
9F8
100
AcDbEntity
  8
wymiary
 62
     0
370
    -2
100
AcDbLine
 10
3286.893957588636
 20
-328.580110806693
 30
0.0
 11
3286.893957588636
 21
-214.5801126610445
 31
0.0
  0
SOLID
  5
A1B
330
9F8
100
AcDbEntity
  8
wymiary
 62
     0
100
AcDbTrace
 10
3283.893957588637
 20
-328.580110806693
 30
0.0
 11
3289.893957588636
 21
-328.580110806693
 31
0.0
 12
3286.893957588636
 22
-346.580110806693
 32
0.0
 13
3286.893957588636
 23
-346.580110806693
 33
0.0
  0
SOLID
  5
A1C
330
9F8
100
AcDbEntity
  8
wymiary
 62
     0
100
AcDbTrace
 10
3283.893957588637
 20
-214.5801126610445
 30
0.0
 11
3289.893957588636
 21
-214.5801126610445
 31
0.0
 12
3286.893957588636
 22
-196.5801126610445
 32
0.0
 13
3286.893957588636
 23
-196.5801126610445
 33
0.0
  0
MTEXT
  5
A1D
330
9F8
100
AcDbEntity
  8
wymiary
 62
     0
100
AcDbMText
 10
3269.703643809645
 20
-271.5801117338683
 30
0.0
 40
18.0
 41
0.0
 46
0.0
 71
     5
 72
     1
  1
150
 11
0.0000000000000001
 21
1.0
 31
0.0
 73
     1
 44
1.0
  0
POINT
  5
A1E
330
9F8
100
AcDbEntity
  8
Defpoints
 62
     0
100
AcDbPoint
 10
3269.6153272994
 20
-346.580110806693
 30
0.0
  0
POINT
  5
A1F
330
9F8
100
AcDbEntity
  8
Defpoints
 62
     0
100
AcDbPoint
 10
3208.025140343612
 20
-196.5801126610445
 30
0.0
  0
POINT
  5
A20
330
9F8
100
AcDbEntity
  8
Defpoints
 62
     0
100
AcDbPoint
 10
3286.893957588636
 20
-196.5801126610445
 30
0.0
  0
ENDBLK
  5
9FA
330
9F8
100
AcDbEntity
  8
0
100
AcDbBlockEnd
  0
BLOCK
  5
A23
330
A22
100
AcDbEntity
  8
0
100
AcDbBlockBegin
  2
*D28
 70
     1
 10
0.0
 20
0.0
 30
0.0
  3
*D28
  1

  0
LINE
  5
A2F
330
A22
100
AcDbEntity
  8
wymiary
 62
     0
370
    -2
100
AcDbLine
 10
3213.025140343614
 20
-496.5801126610434
 30
0.0
 11
3340.012049955378
 21
-496.5801126610434
 31
0.0
  0
LINE
  5
A30
330
A22
100
AcDbEntity
  8
wymiary
 62
     0
370
    -2
100
AcDbLine
 10
3213.025140343614
 20
-196.5801126610445
 30
0.0
 11
3340.012049955378
 21
-196.5801126610445
 31
0.0
  0
LINE
  5
A31
330
A22
100
AcDbEntity
  8
wymiary
 62
     0
370
    -2
100
AcDbLine
 10
3339.512049955378
 20
-478.5801126610436
 30
0.0
 11
3339.512049955378
 21
-214.5801126610445
 31
0.0
  0
SOLID
  5
A32
330
A22
100
AcDbEntity
  8
wymiary
 62
     0
100
AcDbTrace
 10
3336.512049955377
 20
-478.5801126610436
 30
0.0
 11
3342.512049955378
 21
-478.5801126610436
 31
0.0
 12
3339.512049955378
 22
-496.5801126610434
 32
0.0
 13
3339.512049955378
 23
-496.5801126610434
 33
0.0
  0
SOLID
  5
A33
330
A22
100
AcDbEntity
  8
wymiary
 62
     0
100
AcDbTrace
 10
3336.512049955377
 20
-214.5801126610445
 30
0.0
 11
3342.512049955378
 21
-214.5801126610445
 31
0.0
 12
3339.512049955378
 22
-196.5801126610445
 32
0.0
 13
3339.512049955378
 23
-196.5801126610445
 33
0.0
  0
MTEXT
  5
A34
330
A22
100
AcDbEntity
  8
wymiary
 62
     0
100
AcDbMText
 10
3322.315597022227
 20
-346.5801126610435
 30
0.0
 40
18.0
 41
0.0
 46
0.0
 71
     5
 72
     1
  1
300
 11
0.0000000000000001
 21
1.0
 31
0.0
 73
     1
 44
1.0
  0
POINT
  5
A35
330
A22
100
AcDbEntity
  8
Defpoints
 62
     0
100
AcDbPoint
 10
3208.025140343612
 20
-496.5801126610434
 30
0.0
  0
POINT
  5
A36
330
A22
100
AcDbEntity
  8
Defpoints
 62
     0
100
AcDbPoint
 10
3208.025140343612
 20
-196.5801126610445
 30
0.0
  0
POINT
  5
A37
330
A22
100
AcDbEntity
  8
Defpoints
 62
     0
100
AcDbPoint
 10
3339.512049955378
 20
-196.5801126610445
 30
0.0
  0
ENDBLK
  5
A24
330
A22
100
AcDbEntity
  8
0
100
AcDbBlockEnd
  0
BLOCK
  5
A3B
330
A3A
100
AcDbEntity
  8
0
100
AcDbBlockBegin
  2
*D29
 70
     1
 10
0.0
 20
0.0
 30
0.0
  3
*D29
  1

  0
LINE
  5
A84
330
A3A
100
AcDbEntity
  8
wymiary
 62
     0
370
    -2
100
AcDbLine
 10
2672.221376581258
 20
-501.5801126610432
 30
0.0
 11
2672.221376581258
 21
-541.0680781816753
 31
0.0
  0
LINE
  5
A85
330
A3A
100
AcDbEntity
  8
wymiary
 62
     0
370
    -2
100
AcDbLine
 10
2488.025140343613
 20
-500.580112661044
 30
0.0
 11
2488.025140343613
 21
-541.0680781816753
 31
0.0
  0
LINE
  5
A86
330
A3A
100
AcDbEntity
  8
wymiary
 62
     0
370
    -2
100
AcDbLine
 10
2654.221376581258
 20
-540.5680781816753
 30
0.0
 11
2506.025140343612
 21
-540.5680781816753
 31
0.0
  0
SOLID
  5
A87
330
A3A
100
AcDbEntity
  8
wymiary
 62
     0
100
AcDbTrace
 10
2654.221376581258
 20
-537.5680781816753
 30
0.0
 11
2654.221376581258
 21
-543.5680781816753
 31
0.0
 12
2672.221376581258
 22
-540.5680781816753
 32
0.0
 13
2672.221376581258
 23
-540.5680781816753
 33
0.0
  0
SOLID
  5
A88
330
A3A
100
AcDbEntity
  8
wymiary
 62
     0
100
AcDbTrace
 10
2506.025140343612
 20
-537.5680781816753
 30
0.0
 11
2506.025140343612
 21
-543.5680781816753
 31
0.0
 12
2488.025140343613
 22
-540.5680781816753
 32
0.0
 13
2488.025140343613
 23
-540.5680781816753
 33
0.0
  0
MTEXT
  5
A89
330
A3A
100
AcDbEntity
  8
wymiary
 62
     0
100
AcDbMText
 10
2580.123258462435
 20
-523.377764402685
 30
0.0
 40
18.0
 41
0.0
 46
0.0
 71
     5
 72
     1
  1
184
 73
     1
 44
1.0
  0
POINT
  5
A8A
330
A3A
100
AcDbEntity
  8
Defpoints
 62
     0
100
AcDbPoint
 10
2672.221376581258
 20
-496.5801126610434
 30
0.0
  0
POINT
  5
A8B
330
A3A
100
AcDbEntity
  8
Defpoints
 62
     0
100
AcDbPoint
 10
2488.025140343613
 20
-495.5801126610437
 30
0.0
  0
POINT
  5
A8C
330
A3A
100
AcDbEntity
  8
Defpoints
 62
     0
100
AcDbPoint
 10
2488.025140343613
 20
-540.5680781816753
 30
0.0
  0
ENDBLK
  5
A3C
330
A3A
100
AcDbEntity
  8
0
100
AcDbBlockEnd
  0
BLOCK
  5
A53
330
A52
100
AcDbEntity
  8
0
100
AcDbBlockBegin
  2
*D30
 70
     1
 10
0.0
 20
0.0
 30
0.0
  3
*D30
  1

  0
LINE
  5
A96
330
A52
100
AcDbEntity
  8
wymiary
 62
     0
370
    -2
100
AcDbLine
 10
2993.375140343607
 20
-501.5801126610432
 30
0.0
 11
2993.375140343607
 21
-537.692246307404
 31
0.0
  0
LINE
  5
A97
330
A52
100
AcDbEntity
  8
wymiary
 62
     0
370
    -2
100
AcDbLine
 10
3208.025140343612
 20
-501.5801126610432
 30
0.0
 11
3208.025140343612
 21
-537.692246307404
 31
0.0
  0
LINE
  5
A98
330
A52
100
AcDbEntity
  8
wymiary
 62
     0
370
    -2
100
AcDbLine
 10
3011.375140343607
 20
-537.192246307404
 30
0.0
 11
3190.025140343613
 21
-537.192246307404
 31
0.0
  0
SOLID
  5
A99
330
A52
100
AcDbEntity
  8
wymiary
 62
     0
100
AcDbTrace
 10
3011.375140343607
 20
-534.192246307404
 30
0.0
 11
3011.375140343607
 21
-540.1922463074043
 31
0.0
 12
2993.375140343607
 22
-537.192246307404
 32
0.0
 13
2993.375140343607
 23
-537.192246307404
 33
0.0
  0
SOLID
  5
A9A
330
A52
100
AcDbEntity
  8
wymiary
 62
     0
100
AcDbTrace
 10
3190.025140343613
 20
-534.192246307404
 30
0.0
 11
3190.025140343613
 21
-540.1922463074043
 31
0.0
 12
3208.025140343612
 22
-537.192246307404
 32
0.0
 13
3208.025140343612
 23
-537.192246307404
 33
0.0
  0
MTEXT
  5
A9B
330
A52
100
AcDbEntity
  8
wymiary
 62
     0
100
AcDbMText
 10
3100.70014034361
 20
-520.0019325284138
 30
0.0
 40
18.0
 41
0.0
 46
0.0
 71
     5
 72
     1
  1
215
 73
     1
 44
1.0
  0
POINT
  5
A9C
330
A52
100
AcDbEntity
  8
Defpoints
 62
     0
100
AcDbPoint
 10
2993.375140343607
 20
-496.5801126610434
 30
0.0
  0
POINT
  5
A9D
330
A52
100
AcDbEntity
  8
Defpoints
 62
     0
100
AcDbPoint
 10
3208.025140343612
 20
-496.5801126610434
 30
0.0
  0
POINT
  5
A9E
330
A52
100
AcDbEntity
  8
Defpoints
 62
     0
100
AcDbPoint
 10
3208.025140343612
 20
-537.192246307404
 30
0.0
  0
ENDBLK
  5
A54
330
A52
100
AcDbEntity
  8
0
100
AcDbBlockEnd
  0
BLOCK
  5
B0C
330
B0B
100
AcDbEntity
  8
0
100
AcDbBlockBegin
  2
*D31
 70
     1
 10
0.0
 20
0.0
 30
0.0
  3
*D31
  1

  0
LINE
  5
B17
330
B0B
100
AcDbEntity
  8
wymiary
 62
     0
370
    -2
100
AcDbLine
 10
622.3288595448073
 20
-282.4107956620094
 30
0.0
 11
533.443294274897
 21
-310.7435397385614
 31
0.0
  0
LINE
  5
B18
330
B0B
100
AcDbEntity
  8
wymiary
 62
     0
370
    -2
100
AcDbLine
 10
308.5900973559076
 20
-382.4166855835021
 30
0.0
 11
291.4402772519168
 21
-387.8832814530315
 31
0.0
  0
MTEXT
  5
B19
330
B0B
100
AcDbEntity
  8
wymiary
 62
     0
100
AcDbMText
 10
581.0874069156247
 20
-276.9858591668617
 30
0.0
 40
18.0
 41
0.0
 46
0.0
 71
     5
 72
     1
  1
∅200
 11
0.9527677835550402
 21
0.3036997705294096
 31
0.0
 73
     1
 44
1.0
  0
LINE
  5
B1A
330
B0B
100
AcDbEntity
  8
wymiary
 62
     0
370
    -2
100
AcDbLine
 10
325.7399174598983
 20
-376.9500897139727
 30
0.0
 11
516.2934741709062
 21
-316.2101356080908
 31
0.0
  0
SOLID
  5
B1B
330
B0B
100
AcDbEntity
  8
wymiary
 62
     0
100
AcDbTrace
 10
307.6789980443193
 20
-379.558382232837
 30
0.0
 11
309.5011966674958
 21
-385.2749889341672
 31
0.0
 12
325.7399174598983
 22
-376.9500897139727
 32
0.0
 13
325.7399174598983
 23
-376.9500897139727
 33
0.0
  0
SOLID
  5
B1C
330
B0B
100
AcDbEntity
  8
wymiary
 62
     0
100
AcDbTrace
 10
532.5321949633087
 20
-307.8852363878963
 30
0.0
 11
534.3543935864852
 21
-313.6018430892265
 31
0.0
 12
516.2934741709062
 22
-316.2101356080908
 32
0.0
 13
516.2934741709062
 23
-316.2101356080908
 33
0.0
  0
POINT
  5
B1D
330
B0B
100
AcDbEntity
  8
Defpoints
 62
     0
100
AcDbPoint
 10
516.2934741709062
 20
-316.2101356080908
 30
0.0
  0
POINT
  5
B1E
330
B0B
100
AcDbEntity
  8
Defpoints
 62
     0
100
AcDbPoint
 10
325.7399174598983
 20
-376.9500897139727
 30
0.0
  0
ENDBLK
  5
B0D
330
B0B
100
AcDbEntity
  8
0
100
AcDbBlockEnd
  0
BLOCK
  5
B22
330
B21
100
AcDbEntity
  8
0
100
AcDbBlockBegin
  2
*D32
 70
     1
 10
0.0
 20
0.0
 30
0.0
  3
*D32
  1

  0
LINE
  5
B2B
330
B21
100
AcDbEntity
  8
wymiary
 62
     0
370
    -2
100
AcDbLine
 10
482.1624527334225
 20
-291.9431616944708
 30
0.0
 11
359.8709388973824
 21
-401.2170636275928
 31
0.0
  0
SOLID
  5
B2C
330
B21
100
AcDbEntity
  8
wymiary
 62
     0
100
AcDbTrace
 10
480.1635398931825
 20
-289.7061218072262
 30
0.0
 11
484.1613655736623
 21
-294.1802015817154
 31
0.0
 12
495.5846920568903
 22
-279.9496846530305
 32
0.0
 13
495.5846920568903
 23
-279.9496846530305
 33
0.0
  0
SOLID
  5
B2D
330
B21
100
AcDbEntity
  8
wymiary
 62
     0
100
AcDbTrace
 10
357.8720260571423
 20
-398.9800237403483
 30
0.0
 11
361.8698517376224
 21
-403.4541035148373
 31
0.0
 12
346.4486995739143
 22
-413.2105406690332
 32
0.0
 13
346.4486995739143
 23
-413.2105406690332
 33
0.0
  0
MTEXT
  5
B2E
330
B21
100
AcDbEntity
  8
wymiary
 62
     0
100
AcDbMText
 10
409.2272915036728
 20
-333.3862569004045
 30
0.0
 40
18.0
 41
0.0
 46
0.0
 71
     5
 72
     1
  1
∅200
 11
0.7456799624148786
 21
0.6663042800800138
 31
0.0
 73
     1
 44
1.0
  0
POINT
  5
B2F
330
B21
100
AcDbEntity
  8
Defpoints
 62
     0
100
AcDbPoint
 10
346.4486995739143
 20
-413.2105406690332
 30
0.0
  0
POINT
  5
B30
330
B21
100
AcDbEntity
  8
Defpoints
 62
     0
100
AcDbPoint
 10
495.5846920568903
 20
-279.9496846530305
 30
0.0
  0
ENDBLK
  5
B23
330
B21
100
AcDbEntity
  8
0
100
AcDbBlockEnd
  0
BLOCK
  5
B34
330
B33
100
AcDbEntity
  8
0
100
AcDbBlockBegin
  2
*D33
 70
     1
 10
0.0
 20
0.0
 30
0.0
  3
*D33
  1

  0
LINE
  5
B3D
330
B33
100
AcDbEntity
  8
wymiary
 62
     0
370
    -2
100
AcDbLine
 10
801.1112704172614
 20
-289.5715096472784
 30
0.0
 11
683.2296487382413
 21
-403.5887156748088
 31
0.0
  0
SOLID
  5
B3E
330
B33
100
AcDbEntity
  8
wymiary
 62
     0
100
AcDbTrace
 10
799.025589819197
 20
-287.4151385190036
 30
0.0
 11
803.1969510153258
 21
-291.7278807755532
 31
0.0
 12
814.0494971869101
 22
-277.0574260588909
 32
0.0
 13
814.0494971869101
 23
-277.0574260588909
 33
0.0
  0
SOLID
  5
B3F
330
B33
100
AcDbEntity
  8
wymiary
 62
     0
100
AcDbTrace
 10
681.1439681401767
 20
-401.4323445465342
 30
0.0
 11
685.3153293363058
 21
-405.7450868030833
 31
0.0
 12
670.2914219685927
 22
-416.1027992631963
 32
0.0
 13
670.2914219685927
 23
-416.1027992631963
 33
0.0
  0
MTEXT
  5
B40
330
B33
100
AcDbEntity
  8
wymiary
 62
     0
100
AcDbMText
 10
729.8693070008534
 20
-333.8620338305937
 30
0.0
 40
18.0
 41
0.0
 46
0.0
 71
     5
 72
     1
  1
∅200
 11
0.7187903760915865
 21
0.6952268660215281
 31
0.0
 73
     1
 44
1.0
  0
POINT
  5
B41
330
B33
100
AcDbEntity
  8
Defpoints
 62
     0
100
AcDbPoint
 10
670.2914219685927
 20
-416.1027992631963
 30
0.0
  0
POINT
  5
B42
330
B33
100
AcDbEntity
  8
Defpoints
 62
     0
100
AcDbPoint
 10
814.0494971869101
 20
-277.0574260588909
 30
0.0
  0
ENDBLK
  5
B35
330
B33
100
AcDbEntity
  8
0
100
AcDbBlockEnd
  0
BLOCK
  5
B46
330
B45
100
AcDbEntity
  8
0
100
AcDbBlockBegin
  2
*D34
 70
     1
 10
0.0
 20
0.0
 30
0.0
  3
*D34
  1

  0
LINE
  5
B4F
330
B45
100
AcDbEntity
  8
wymiary
 62
     0
370
    -2
100
AcDbLine
 10
2736.424255786625
 20
-295.5704047444028
 30
0.0
 11
2608.01849737589
 21
-397.5898205776848
 31
0.0
  0
SOLID
  5
B50
330
B45
100
AcDbEntity
  8
wymiary
 62
     0
100
AcDbTrace
 10
2734.558046960407
 20
-293.2215189198162
 30
0.0
 11
2738.290464612844
 21
-297.9192905689895
 31
0.0
 12
2750.517570734145
 22
-284.3731517870913
 32
0.0
 13
2750.517570734145
 23
-284.3731517870913
 33
0.0
  0
SOLID
  5
B51
330
B45
100
AcDbEntity
  8
wymiary
 62
     0
100
AcDbTrace
 10
2606.152288549671
 20
-395.2409347530982
 30
0.0
 11
2609.884706202109
 21
-399.9387064022715
 31
0.0
 12
2593.92518242837
 22
-408.7870735349963
 32
0.0
 13
2593.92518242837
 23
-408.7870735349963
 33
0.0
  0
MTEXT
  5
B52
330
B45
100
AcDbEntity
  8
wymiary
 62
     0
100
AcDbMText
 10
2661.214648354044
 20
-332.7265998361343
 30
0.0
 40
18.0
 41
0.0
 46
0.0
 71
     5
 72
     1
  1
∅200
 11
0.7829619415288689
 21
0.6220696087395237
 31
0.0
 73
     1
 44
1.0
  0
POINT
  5
B53
330
B45
100
AcDbEntity
  8
Defpoints
 62
     0
100
AcDbPoint
 10
2593.92518242837
 20
-408.7870735349963
 30
0.0
  0
POINT
  5
B54
330
B45
100
AcDbEntity
  8
Defpoints
 62
     0
100
AcDbPoint
 10
2750.517570734145
 20
-284.3731517870913
 30
0.0
  0
ENDBLK
  5
B47
330
B45
100
AcDbEntity
  8
0
100
AcDbBlockEnd
  0
BLOCK
  5
B58
330
B57
100
AcDbEntity
  8
0
100
AcDbBlockBegin
  2
*D35
 70
     1
 10
0.0
 20
0.0
 30
0.0
  3
*D35
  1

  0
LINE
  5
B61
330
B57
100
AcDbEntity
  8
wymiary
 62
     0
370
    -2
100
AcDbLine
 10
3061.577877699563
 20
-301.0566394065188
 30
0.0
 11
2925.17240298765
 21
-392.1035859155452
 31
0.0
  0
SOLID
  5
B62
330
B57
100
AcDbEntity
  8
wymiary
 62
     0
100
AcDbTrace
 10
3059.912384775618
 20
-298.5614173081301
 30
0.0
 11
3063.243370623509
 21
-303.5518615049073
 31
0.0
 12
3076.549210289896
 22
-291.063681862845
 32
0.0
 13
3076.549210289896
 23
-291.063681862845
 33
0.0
  0
SOLID
  5
B63
330
B57
100
AcDbEntity
  8
wymiary
 62
     0
100
AcDbTrace
 10
2923.506910063705
 20
-389.6083638171565
 30
0.0
 11
2926.837895911596
 21
-394.5988080139337
 31
0.0
 12
2910.201070397318
 22
-402.0965434592185
 32
0.0
 13
2910.201070397318
 23
-402.0965434592185
 33
0.0
  0
MTEXT
  5
B64
330
B57
100
AcDbEntity
  8
wymiary
 62
     0
100
AcDbMText
 10
2983.552216070249
 20
-331.8635219356786
 30
0.0
 40
18.0
 41
0.0
 46
0.0
 71
     5
 72
     1
  1
∅200
 11
0.8317406994628861
 21
0.5551643079818703
 31
0.0
 73
     1
 44
1.0
  0
POINT
  5
B65
330
B57
100
AcDbEntity
  8
Defpoints
 62
     0
100
AcDbPoint
 10
2910.201070397318
 20
-402.0965434592185
 30
0.0
  0
POINT
  5
B66
330
B57
100
AcDbEntity
  8
Defpoints
 62
     0
100
AcDbPoint
 10
3076.549210289896
 20
-291.063681862845
 30
0.0
  0
ENDBLK
  5
B59
330
B57
100
AcDbEntity
  8
0
100
AcDbBlockEnd
  0
BLOCK
  5
BA3
330
BA2
100
AcDbEntity
  8
0
100
AcDbBlockBegin
  2
*D36
 70
     1
 10
0.0
 20
0.0
 30
0.0
  3
*D36
  1

  0
LINE
  5
BAF
330
BA2
100
AcDbEntity
  8
wymiary
 62
     0
370
    -2
100
AcDbLine
 10
2207.373190744269
 20
-1489.915310558246
 30
0.0
 11
2236.969305065134
 21
-1489.915310558246
 31
0.0
  0
LINE
  5
BB0
330
BA2
100
AcDbEntity
  8
wymiary
 62
     0
370
    -2
100
AcDbLine
 10
2207.373190744269
 20
-861.4153105582376
 30
0.0
 11
2236.969305065134
 21
-861.4153105582376
 31
0.0
  0
LINE
  5
BB1
330
BA2
100
AcDbEntity
  8
wymiary
 62
     0
370
    -2
100
AcDbLine
 10
2236.469305065134
 20
-1471.915310558246
 30
0.0
 11
2236.469305065134
 21
-879.4153105582376
 31
0.0
  0
SOLID
  5
BB2
330
BA2
100
AcDbEntity
  8
wymiary
 62
     0
100
AcDbTrace
 10
2233.469305065133
 20
-1471.915310558246
 30
0.0
 11
2239.469305065134
 21
-1471.915310558246
 31
0.0
 12
2236.469305065134
 22
-1489.915310558246
 32
0.0
 13
2236.469305065134
 23
-1489.915310558246
 33
0.0
  0
SOLID
  5
BB3
330
BA2
100
AcDbEntity
  8
wymiary
 62
     0
100
AcDbTrace
 10
2233.469305065134
 20
-879.4153105582376
 30
0.0
 11
2239.469305065134
 21
-879.4153105582376
 31
0.0
 12
2236.469305065134
 22
-861.4153105582376
 32
0.0
 13
2236.469305065134
 23
-861.4153105582376
 33
0.0
  0
MTEXT
  5
BB4
330
BA2
100
AcDbEntity
  8
wymiary
 62
     0
100
AcDbMText
 10
2219.278991286143
 20
-1175.665310558241
 30
0.0
 40
18.0
 41
0.0
 46
0.0
 71
     5
 72
     1
  1
629
 11
0.0000000000000001
 21
1.0
 31
0.0
 73
     1
 44
1.0
  0
POINT
  5
BB5
330
BA2
100
AcDbEntity
  8
Defpoints
 62
     0
100
AcDbPoint
 10
2202.373190744269
 20
-1489.915310558246
 30
0.0
  0
POINT
  5
BB6
330
BA2
100
AcDbEntity
  8
Defpoints
 62
     0
100
AcDbPoint
 10
2202.373190744269
 20
-861.4153105582376
 30
0.0
  0
POINT
  5
BB7
330
BA2
100
AcDbEntity
  8
Defpoints
 62
     0
100
AcDbPoint
 10
2236.469305065134
 20
-861.4153105582376
 30
0.0
  0
ENDBLK
  5
BA4
330
BA2
100
AcDbEntity
  8
0
100
AcDbBlockEnd
  0
BLOCK
  5
BBB
330
BBA
100
AcDbEntity
  8
0
100
AcDbBlockBegin
  2
*D37
 70
     1
 10
0.0
 20
0.0
 30
0.0
  3
*D37
  1

  0
LINE
  5
BC7
330
BBA
100
AcDbEntity
  8
wymiary
 62
     0
370
    -2
100
AcDbLine
 10
1199.373190744268
 20
-1494.915310558246
 30
0.0
 11
1199.373190744268
 21
-1628.610927161186
 31
0.0
  0
LINE
  5
BC8
330
BBA
100
AcDbEntity
  8
wymiary
 62
     0
370
    -2
100
AcDbLine
 10
2202.373190744269
 20
-1494.915310558246
 30
0.0
 11
2202.373190744269
 21
-1628.610927161186
 31
0.0
  0
LINE
  5
BC9
330
BBA
100
AcDbEntity
  8
wymiary
 62
     0
370
    -2
100
AcDbLine
 10
1217.373190744268
 20
-1628.110927161185
 30
0.0
 11
2184.37319074427
 21
-1628.110927161185
 31
0.0
  0
SOLID
  5
BCA
330
BBA
100
AcDbEntity
  8
wymiary
 62
     0
100
AcDbTrace
 10
1217.373190744268
 20
-1625.110927161186
 30
0.0
 11
1217.373190744268
 21
-1631.110927161186
 31
0.0
 12
1199.373190744268
 22
-1628.110927161185
 32
0.0
 13
1199.373190744268
 23
-1628.110927161185
 33
0.0
  0
SOLID
  5
BCB
330
BBA
100
AcDbEntity
  8
wymiary
 62
     0
100
AcDbTrace
 10
2184.37319074427
 20
-1625.110927161186
 30
0.0
 11
2184.37319074427
 21
-1631.110927161186
 31
0.0
 12
2202.373190744269
 22
-1628.110927161185
 32
0.0
 13
2202.373190744269
 23
-1628.110927161185
 33
0.0
  0
MTEXT
  5
BCC
330
BBA
100
AcDbEntity
  8
wymiary
 62
     0
100
AcDbMText
 10
1700.873190744269
 20
-1610.914474228035
 30
0.0
 40
18.0
 41
0.0
 46
0.0
 71
     5
 72
     1
  1
1003
 73
     1
 44
1.0
  0
POINT
  5
BCD
330
BBA
100
AcDbEntity
  8
Defpoints
 62
     0
100
AcDbPoint
 10
1199.373190744268
 20
-1489.915310558246
 30
0.0
  0
POINT
  5
BCE
330
BBA
100
AcDbEntity
  8
Defpoints
 62
     0
100
AcDbPoint
 10
2202.373190744269
 20
-1489.915310558246
 30
0.0
  0
POINT
  5
BCF
330
BBA
100
AcDbEntity
  8
Defpoints
 62
     0
100
AcDbPoint
 10
2202.373190744269
 20
-1628.110927161185
 30
0.0
  0
ENDBLK
  5
BBC
330
BBA
100
AcDbEntity
  8
0
100
AcDbBlockEnd
  0
BLOCK
  5
BE8
330
BE7
100
AcDbEntity
  8
0
100
AcDbBlockBegin
  2
*D38
 70
     1
 10
0.0
 20
0.0
 30
0.0
  3
*D38
  1

  0
LINE
  5
BFE
330
BE7
100
AcDbEntity
  8
wymiary
 62
     0
370
    -2
100
AcDbLine
 10
1973.37319259862
 20
-774.9153105582445
 30
0.0
 11
1973.37319259862
 21
-741.745575442771
 31
0.0
  0
LINE
  5
BFF
330
BE7
100
AcDbEntity
  8
wymiary
 62
     0
370
    -2
100
AcDbLine
 10
2150.873190744269
 20
-814.9153105582442
 30
0.0
 11
2150.873190744269
 21
-741.745575442771
 31
0.0
  0
LINE
  5
C00
330
BE7
100
AcDbEntity
  8
wymiary
 62
     0
370
    -2
100
AcDbLine
 10
1991.37319259862
 20
-742.245575442771
 30
0.0
 11
2132.87319074427
 21
-742.245575442771
 31
0.0
  0
SOLID
  5
C01
330
BE7
100
AcDbEntity
  8
wymiary
 62
     0
100
AcDbTrace
 10
1991.37319259862
 20
-739.245575442771
 30
0.0
 11
1991.37319259862
 21
-745.245575442771
 31
0.0
 12
1973.37319259862
 22
-742.245575442771
 32
0.0
 13
1973.37319259862
 23
-742.245575442771
 33
0.0
  0
SOLID
  5
C02
330
BE7
100
AcDbEntity
  8
wymiary
 62
     0
100
AcDbTrace
 10
2132.87319074427
 20
-739.245575442771
 30
0.0
 11
2132.87319074427
 21
-745.245575442771
 31
0.0
 12
2150.873190744269
 22
-742.245575442771
 32
0.0
 13
2150.873190744269
 23
-742.245575442771
 33
0.0
  0
MTEXT
  5
C03
330
BE7
100
AcDbEntity
  8
wymiary
 62
     0
100
AcDbMText
 10
2062.123191671445
 20
-725.2087405178051
 30
0.0
 40
18.0
 41
0.0
 46
0.0
 71
     5
 72
     1
  1
177
 73
     1
 44
1.0
  0
POINT
  5
C04
330
BE7
100
AcDbEntity
  8
Defpoints
 62
     0
100
AcDbPoint
 10
1973.37319259862
 20
-779.9153105582445
 30
0.0
  0
POINT
  5
C05
330
BE7
100
AcDbEntity
  8
Defpoints
 62
     0
100
AcDbPoint
 10
2150.873190744269
 20
-819.9153105582443
 30
0.0
  0
POINT
  5
C06
330
BE7
100
AcDbEntity
  8
Defpoints
 62
     0
100
AcDbPoint
 10
2150.873190744269
 20
-742.245575442771
 30
0.0
  0
ENDBLK
  5
BE9
330
BE7
100
AcDbEntity
  8
0
100
AcDbBlockEnd
  0
ENDSEC
  0
SECTION
  2
ENTITIES
  0
LWPOLYLINE
  5
225
102
{ACAD_REACTORS
330
827
330
851
102
}
330
1F
100
AcDbEntity
  8
0
100
AcDbPolyline
 90
        4
 70
     1
 43
0.0
 10
1250.873190744269
 20
-496.5801126610434
 10
1250.873190744269
 20
-196.580112661044
 10
2150.873190744272
 20
-196.580112661044
 10
2150.873190744272
 20
-496.5801126610434
  0
LWPOLYLINE
  5
22D
330
1F
100
AcDbEntity
  8
0
 62
     5
100
AcDbPolyline
 90
        4
 70
     1
 43
0.0
 10
1369.873190744271
 20
-197.580112661044
 10
2031.873190744272
 20
-197.580112661044
 10
2031.873190744272
 20
-495.5801126610436
 10
1369.873190744271
 20
-495.5801126610436
  0
LWPOLYLINE
  5
24C
330
1F
100
AcDbEntity
  8
WARSTWA_1
100
AcDbPolyline
 90
        5
 70
     0
 43
0.0
 10
1149.86496254312
 20
0.0000000000009095
 10
1149.86496254312
 20
-648.4519199364584
 10
2264.526873615879
 20
-648.4519199364584
 10
2264.526873615889
 20
0.0000000000009095
 10
1149.86496254312
 20
0.0000000000009095
1001
AcDbBlockRepETag
1070
     1
1071
       25
1005
24C
  0
LWPOLYLINE
  5
24D
330
1F
100
AcDbEntity
  8
WARSTWA_1
100
AcDbPolyline
 90
        5
 70
     0
 43
0.0
 10
2264.526873615889
 20
0.0000000000009095
 10
2264.526873615879
 20
-648.4519199364584
 10
3414.391836159012
 20
-648.4519199364584
 10
3414.391836159009
 20
0.000000000001819
 10
2264.526873615889
 20
0.0000000000009095
1001
AcDbBlockRepETag
1070
     1
1071
       26
1005
24D
  0
LWPOLYLINE
  5
24E
330
1F
100
AcDbEntity
  8
WARSTWA_1
100
AcDbPolyline
 90
        5
 70
     0
 43
0.0
 10
1149.86496254312
 20
-648.4519199364592
 10
1149.86496254312
 20
-1685.878701180029
 10
2264.526873615889
 20
-1685.878701180029
 10
2264.526873615889
 20
-648.4519199364592
 10
1149.86496254312
 20
-648.4519199364592
1001
AcDbBlockRepETag
1070
     1
1071
       27
1005
24E
  0
LWPOLYLINE
  5
24F
330
1F
100
AcDbEntity
  8
WARSTWA_1
100
AcDbPolyline
 90
        5
 70
     0
 43
0.0
 10
2264.526873615889
 20
-648.4519199364592
 10
2264.526873615889
 20
-1685.878701180029
 10
3414.391836159007
 20
-1685.878701180031
 10
3414.391836159007
 20
-648.4519199364592
 10
2264.526873615889
 20
-648.4519199364592
1001
AcDbBlockRepETag
1070
     1
1071
       28
1005
24F
  0
LWPOLYLINE
  5
250
330
1F
100
AcDbEntity
  8
WARSTWA_1
100
AcDbPolyline
 90
        5
 70
     0
 43
0.0
 10
0.0
 20
0.0
 10
0.0000000000004547
 20
-648.4519199364584
 10
1149.86496254312
 20
-648.4519199364592
 10
1149.86496254312
 20
0.0000000000009095
 10
0.0
 20
0.0
1001
AcDbBlockRepETag
1070
     1
1071
       29
1005
250
  0
LWPOLYLINE
  5
251
330
1F
100
AcDbEntity
  8
WARSTWA_1
100
AcDbPolyline
 90
        5
 70
     0
 43
0.0
 10
0.0
 20
-648.4519199364604
 10
0.0000000000009095
 20
-1685.878701180029
 10
1149.86496254312
 20
-1685.87870118003
 10
1149.86496254312
 20
-648.4519199364604
 10
0.0
 20
-648.4519199364604
1001
AcDbBlockRepETag
1070
     1
1071
       30
1005
251
  0
LWPOLYLINE
  5
253
330
1F
100
AcDbEntity
  8
0
 62
     5
100
AcDbPolyline
 90
        4
 70
     1
 43
0.0
 10
1274.873190744265
 20
-213.080112661044
 10
1359.873190744265
 20
-213.080112661044
 10
1359.873190744265
 20
-480.080112661044
 10
1274.873190744265
 20
-480.080112661044
  0
LWPOLYLINE
  5
255
330
1F
100
AcDbEntity
  8
0
 62
     5
100
AcDbPolyline
 90
        4
 70
     1
 43
0.0
 10
2041.873190744276
 20
-213.080112661044
 10
2126.873190744277
 20
-213.080112661044
 10
2126.873190744277
 20
-480.080112661044
 10
2041.873190744276
 20
-480.080112661044
  0
INSERT
  5
565
330
1F
100
AcDbEntity
  8
CENTRALA
 62
     5
100
AcDbBlockReference
  2
GALKA
 10
1397.373190744269
 20
-250.080112661044
 30
0.0
  0
INSERT
  5
566
330
1F
100
AcDbEntity
  8
CENTRALA
 62
     5
100
AcDbBlockReference
  2
GALKA
 10
2004.373190744273
 20
-250.080112661044
 30
0.0
  0
INSERT
  5
567
330
1F
100
AcDbEntity
  8
CENTRALA
 62
     5
100
AcDbBlockReference
  2
GALKA
 10
2004.373190744273
 20
-443.080112661044
 30
0.0
  0
INSERT
  5
568
330
1F
100
AcDbEntity
  8
CENTRALA
 62
     5
100
AcDbBlockReference
  2
GALKA
 10
1397.373190744269
 20
-443.080112661044
 30
0.0
  0
LWPOLYLINE
  5
569
330
1F
100
AcDbEntity
  8
0
100
AcDbPolyline
 90
        5
 70
     0
 43
0.0
 10
1250.873190744269
 20
-246.5801126610438
 10
1250.873190744269
 20
-446.5801126610436
 10
1210.873190744269
 20
-446.5801126610436
 10
1210.873190744269
 20
-246.5801126610438
 10
1247.873190744269
 20
-246.5801126610438
  0
LWPOLYLINE
  5
56A
330
1F
100
AcDbEntity
  8
0
100
AcDbPolyline
 90
        5
 70
     0
 43
0.0
 10
2153.873190744271
 20
-246.5801126610438
 10
2190.873190744272
 20
-246.5801126610438
 10
2190.873190744272
 20
-446.5801126610436
 10
2150.873190744272
 20
-446.5801126610436
 10
2150.873190744272
 20
-246.5801126610438
  0
LWPOLYLINE
  5
574
330
1F
100
AcDbEntity
  8
0
 62
     9
100
AcDbPolyline
 90
        6
 70
     1
 43
0.0
 10
1247.873190744269
 20
-305.0801126610442
 10
1250.873190744269
 20
-305.0801126610442
 10
1250.873190744269
 20
-236.5801126610441
 10
1182.373190744269
 20
-236.5801126610441
 10
1182.373190744269
 20
-239.580112661044
 10
1247.873190744269
 20
-239.580112661044
1001
AcDbBlockRepETag
1070
     1
1071
       11
1005
574
  0
LWPOLYLINE
  5
575
330
1F
100
AcDbEntity
  8
0
 62
     9
100
AcDbPolyline
 90
        6
 70
     1
 43
0.0
 10
2153.873190744271
 20
-305.0801126610442
 10
2150.873190744272
 20
-305.0801126610442
 10
2150.873190744272
 20
-236.5801126610441
 10
2219.373190744272
 20
-236.5801126610441
 10
2219.373190744272
 20
-239.580112661044
 10
2153.873190744271
 20
-239.580112661044
1001
AcDbBlockRepETag
1070
     1
1071
       12
1005
575
  0
TEXT
  5
57F
330
1F
100
AcDbEntity
  8
CENTRALA
100
AcDbText
 10
1622.354152092811
 20
-268.648475814799
 30
0.0
 40
38.100024
  1
SLIM 400EC
 51
359.999998
  7
ARIAL
100
AcDbText
1001
AcDbBlockRepETag
1070
     1
1071
        2
1005
57F
  0
LWPOLYLINE
  5
5E7
102
{ACAD_REACTORS
330
9F6
330
A38
102
}
330
1F
100
AcDbEntity
  8
0
100
AcDbPolyline
 90
        4
 70
     1
 43
0.0
 10
2488.025140343613
 20
-496.5801126610434
 10
2488.025140343613
 20
-196.5801126610445
 10
3208.025140343612
 20
-196.5801126610445
 10
3208.025140343612
 20
-496.5801126610434
  0
INSERT
  5
5FC
330
1F
100
AcDbEntity
  8
0
100
AcDbBlockReference
  2
HAK_DUZY
 10
3166.52514034362
 20
-270.6124551237494
 30
0.0
 41
-1.0
  0
INSERT
  5
5FD
330
1F
100
AcDbEntity
  8
0
100
AcDbBlockReference
  2
HAK_DUZY
 10
2538.525140343612
 20
-270.6124551237494
 30
0.0
  0
CIRCLE
  5
61D
102
{ACAD_REACTORS
330
B55
102
}
330
1F
100
AcDbEntity
  8
0
100
AcDbCircle
 10
2672.221376581258
 20
-346.5801126610437
 30
0.0
 40
100.0
  0
LWPOLYLINE
  5
647
330
1F
100
AcDbEntity
  8
0
 62
     5
100
AcDbPolyline
 90
        4
 70
     1
 43
0.0
 10
2463.025140343612
 20
-197.580112661044
 10
2488.025140343613
 20
-197.580112661044
 10
2488.025140343613
 20
-495.5801126610437
 10
2463.025140343612
 20
-495.5801126610437
  0
INSERT
  5
662
330
1F
100
AcDbEntity
  8
0
100
AcDbBlockReference
  2
Galka-bok
 10
2206.230909530059
 20
-772.6857966594016
 30
0.0
 50
90.0
  0
INSERT
  5
663
330
1F
100
AcDbEntity
  8
0
100
AcDbBlockReference
  2
Galka-bok
 10
2206.230909530059
 20
-965.6857966594015
 30
0.0
 50
90.0
  0
LWPOLYLINE
  5
68A
330
1F
100
AcDbEntity
  8
0
100
AcDbPolyline
 90
        8
 70
     1
 43
0.0
 10
3132.975140343603
 20
-469.0801126610317
 10
2853.975140343603
 20
-469.0801126610317
 42
-0.4142135623730951
 10
2850.975140343603
 20
-466.0801126610325
 10
2850.975140343603
 20
-227.0801126610318
 42
-0.4142135623730951
 10
2853.975140343603
 20
-224.0801126610318
 10
3132.975140343603
 20
-224.0801126610318
 42
-0.4142135623730951
 10
3135.975140343604
 20
-227.0801126610318
 10
3135.975140343604
 20
-466.0801126610325
 42
-0.4142135623730951
  0
CIRCLE
  5
68B
330
1F
100
AcDbEntity
  8
0
100
AcDbCircle
 10
3065.975140343603
 20
-464.0801126610317
 30
0.0
 40
2.5
  0
CIRCLE
  5
68C
330
1F
100
AcDbEntity
  8
0
100
AcDbCircle
 10
3130.975140343603
 20
-399.0801126610318
 30
0.0
 40
2.5
  0
CIRCLE
  5
68D
330
1F
100
AcDbEntity
  8
0
100
AcDbCircle
 10
2920.975140343603
 20
-464.0801126610317
 30
0.0
 40
2.5
  0
CIRCLE
  5
68E
330
1F
100
AcDbEntity
  8
0
100
AcDbCircle
 10
2855.975140343602
 20
-399.0801126610318
 30
0.0
 40
2.5
  0
CIRCLE
  5
68F
330
1F
100
AcDbEntity
  8
0
100
AcDbCircle
 10
3065.975140343603
 20
-229.0801126610318
 30
0.0
 40
2.5
  0
CIRCLE
  5
690
330
1F
100
AcDbEntity
  8
0
100
AcDbCircle
 10
3130.975140343603
 20
-294.0801126610318
 30
0.0
 40
2.5
  0
CIRCLE
  5
691
330
1F
100
AcDbEntity
  8
0
100
AcDbCircle
 10
2920.975140343603
 20
-229.0801126610318
 30
0.0
 40
2.5
  0
CIRCLE
  5
692
330
1F
100
AcDbEntity
  8
0
100
AcDbCircle
 10
2855.975140343602
 20
-294.0801126610318
 30
0.0
 40
2.5
  0
CIRCLE
  5
693
102
{ACAD_REACTORS
330
B67
102
}
330
1F
100
AcDbEntity
  8
0
100
AcDbCircle
 10
2993.375140343607
 20
-346.5801126610318
 30
0.0
 40
100.0
  0
LINE
  5
69F
330
1F
100
AcDbEntity
  8
osie
 48
50.0
100
AcDbLine
 10
2212.46337770006
 20
-346.5801108066928
 30
0.0
 11
2140.873192208497
 21
-346.5801108066928
 31
0.0
1001
AcDbBlockRepETag
1070
     1
1071
       31
1005
69F
  0
LINE
  5
6A8
330
1F
100
AcDbEntity
  8
osie
 48
50.0
100
AcDbLine
 10
1262.463377700057
 20
-346.5801108066928
 30
0.0
 11
1190.873192208494
 21
-346.5801108066928
 31
0.0
1001
AcDbBlockRepETag
1070
     1
1071
       31
1005
6A8
  0
LINE
  5
6BF
330
1F
100
AcDbEntity
  8
osie
 48
50.0
100
AcDbLine
 10
2993.375140343607
 20
-236.5801126610318
 30
0.0
 11
2993.375140343607
 21
-456.5801126610317
 31
0.0
1001
AcDbBlockRepETag
1070
     1
1071
       32
1005
6BB
  0
LINE
  5
6C0
330
1F
100
AcDbEntity
  8
osie
 48
50.0
100
AcDbLine
 10
3103.372107920641
 20
-347.1576568848949
 30
0.0
 11
2883.378172766571
 21
-346.0025684371691
 31
0.0
1001
AcDbBlockRepETag
1070
     1
1071
       33
1005
6BC
  0
LWPOLYLINE
  5
6C1
330
1F
100
AcDbEntity
  8
0
 62
     1
100
AcDbPolyline
 90
        4
 70
     1
 43
0.0
 10
3208.025140343612
 20
-246.580112661044
 10
3248.025140343612
 20
-246.580112661044
 10
3248.025140343612
 20
-446.580112661044
 10
3208.025140343612
 20
-446.580112661044
  0
LWPOLYLINE
  5
6C3
102
{ACAD_REACTORS
330
934
102
}
330
1F
100
AcDbEntity
  8
0
100
AcDbPolyline
 90
        4
 70
     1
 43
0.0
 10
926.3666958153967
 20
-496.5801126610434
 10
926.3666958153967
 20
-196.5801126610445
 10
206.3666958153967
 20
-196.5801126610445
 10
206.3666958153967
 20
-496.5801126610434
  0
INSERT
  5
6C4
330
1F
100
AcDbEntity
  8
0
100
AcDbBlockReference
  2
HAK_DUZY
 10
247.8666958153894
 20
-270.6124551237494
 30
0.0
  0
INSERT
  5
6C5
330
1F
100
AcDbEntity
  8
0
100
AcDbBlockReference
  2
HAK_DUZY
 10
875.8666958153966
 20
-270.6124551237494
 30
0.0
 41
-1.0
  0
CIRCLE
  5
6D0
102
{ACAD_REACTORS
330
B43
102
}
330
1F
100
AcDbEntity
  8
0
100
AcDbCircle
 10
742.1704595777513
 20
-346.5801126610437
 30
0.0
 40
100.0
  0
LWPOLYLINE
  5
6D2
102
{ACAD_REACTORS
330
978
102
}
330
1F
100
AcDbEntity
  8
0
 62
     5
100
AcDbPolyline
 90
        4
 70
     1
 43
0.0
 10
951.3666958153967
 20
-197.580112661044
 10
926.3666958153967
 20
-197.580112661044
 10
926.3666958153967
 20
-495.5801126610437
 10
951.3666958153967
 20
-495.5801126610437
  0
INSERT
  5
6D3
330
1F
100
AcDbEntity
  8
0
100
AcDbBlockReference
  2
Galka-bok
 10
1208.16092662895
 20
-772.6857966594016
 30
0.0
 41
-1.0
 50
270.0
  0
INSERT
  5
6D4
330
1F
100
AcDbEntity
  8
0
100
AcDbBlockReference
  2
Galka-bok
 10
1208.16092662895
 20
-965.6857966594015
 30
0.0
 41
-1.0
 50
270.0
  0
LWPOLYLINE
  5
6D5
330
1F
100
AcDbEntity
  8
0
100
AcDbPolyline
 90
        8
 70
     1
 43
0.0
 10
281.4166958154065
 20
-469.0801126610317
 10
560.4166958154063
 20
-469.0801126610317
 42
0.4142135623730951
 10
563.4166958154062
 20
-466.0801126610325
 10
563.4166958154062
 20
-227.0801126610318
 42
0.4142135623730951
 10
560.4166958154063
 20
-224.0801126610318
 10
281.4166958154065
 20
-224.0801126610318
 42
0.4142135623730951
 10
278.4166958154064
 20
-227.0801126610318
 10
278.4166958154064
 20
-466.0801126610325
 42
0.4142135623730951
  0
CIRCLE
  5
6D6
330
1F
100
AcDbEntity
  8
0
100
AcDbCircle
 10
348.4166958154065
 20
-464.0801126610317
 30
0.0
 40
2.5
  0
CIRCLE
  5
6D7
330
1F
100
AcDbEntity
  8
0
100
AcDbCircle
 10
283.4166958154065
 20
-399.0801126610318
 30
0.0
 40
2.5
  0
CIRCLE
  5
6D8
330
1F
100
AcDbEntity
  8
0
100
AcDbCircle
 10
493.4166958154063
 20
-464.0801126610317
 30
0.0
 40
2.5
  0
CIRCLE
  5
6D9
330
1F
100
AcDbEntity
  8
0
100
AcDbCircle
 10
558.4166958154063
 20
-399.0801126610318
 30
0.0
 40
2.5
  0
CIRCLE
  5
6DA
330
1F
100
AcDbEntity
  8
0
100
AcDbCircle
 10
348.4166958154065
 20
-229.0801126610318
 30
0.0
 40
2.5
  0
CIRCLE
  5
6DB
330
1F
100
AcDbEntity
  8
0
100
AcDbCircle
 10
283.4166958154065
 20
-294.0801126610318
 30
0.0
 40
2.5
  0
CIRCLE
  5
6DC
330
1F
100
AcDbEntity
  8
0
100
AcDbCircle
 10
493.4166958154063
 20
-229.0801126610318
 30
0.0
 40
2.5
  0
CIRCLE
  5
6DD
330
1F
100
AcDbEntity
  8
0
100
AcDbCircle
 10
558.4166958154063
 20
-294.0801126610318
 30
0.0
 40
2.5
  0
CIRCLE
  5
6DE
102
{ACAD_REACTORS
330
B31
102
}
330
1F
100
AcDbEntity
  8
0
100
AcDbCircle
 10
421.0166958154021
 20
-346.5801126610318
 30
0.0
 40
100.0
  0
LWPOLYLINE
  5
6E3
102
{ACAD_REACTORS
330
94E
102
}
330
1F
100
AcDbEntity
  8
0
 62
     1
100
AcDbPolyline
 90
        4
 70
     1
 43
0.0
 10
206.3666958153967
 20
-246.580112661044
 10
166.3666958153967
 20
-246.580112661044
 10
166.3666958153967
 20
-446.580112661044
 10
206.3666958153967
 20
-446.580112661044
  0
LWPOLYLINE
  5
715
102
{ACAD_REACTORS
330
BFD
102
}
330
1F
100
AcDbEntity
  8
0
100
AcDbPolyline
 90
        4
 70
     1
 43
0.0
 10
1250.873190744269
 20
-819.9153105582452
 10
2150.873190744269
 20
-819.9153105582452
 10
2150.873190744269
 20
-1539.915310558245
 10
1250.873190744269
 20
-1539.915310558245
  0
CIRCLE
  5
73A
330
1F
100
AcDbEntity
  8
ODPLYW
 62
     9
100
AcDbCircle
 10
1815.87319074427
 20
-854.9153105582455
 30
0.0
 40
10.75
  0
LWPOLYLINE
  5
73E
330
1F
100
AcDbEntity
  8
0
100
AcDbPolyline
 90
        4
 70
     1
 43
0.0
 10
1805.123190744269
 20
-496.5801126610434
 10
1826.623190744269
 20
-496.5801126610434
 10
1826.623190744269
 20
-518.0801126610433
 10
1805.123190744269
 20
-518.0801126610433
  0
LWPOLYLINE
  5
73F
330
1F
100
AcDbEntity
  8
0
100
AcDbPolyline
 90
        4
 70
     1
 43
0.0
 10
1210.873190744269
 20
-1255.915310558253
 10
1250.873190744269
 20
-1255.915310558253
 10
1250.873190744269
 20
-1455.915310558254
 10
1210.873190744269
 20
-1455.915310558254
  0
LINE
  5
740
330
1F
100
AcDbEntity
  8
osie
 48
50.0
100
AcDbLine
 10
1262.463377700057
 20
-1355.915308703903
 30
0.0
 11
1190.873192208495
 21
-1355.915308703903
 31
0.0
1001
AcDbBlockRepETag
1070
     1
1071
       31
1005
6A8
  0
LWPOLYLINE
  5
741
330
1F
100
AcDbEntity
  8
0
100
AcDbPolyline
 90
        4
 70
     1
 43
0.0
 10
1210.873190744269
 20
-934.6653105582454
 10
1250.873190744269
 20
-934.6653105582454
 10
1250.873190744269
 20
-1134.665310558245
 10
1210.873190744269
 20
-1134.665310558245
  0
LINE
  5
742
330
1F
100
AcDbEntity
  8
osie
 48
50.0
100
AcDbLine
 10
1262.463377700057
 20
-1034.665308703894
 30
0.0
 11
1190.873192208495
 21
-1034.665308703894
 31
0.0
1001
AcDbBlockRepETag
1070
     1
1071
       31
1005
6A8
  0
LWPOLYLINE
  5
743
330
1F
100
AcDbEntity
  8
0
100
AcDbPolyline
 90
        4
 70
     1
 43
0.0
 10
2150.873190744269
 20
-934.6653105582454
 10
2190.87319074427
 20
-934.6653105582454
 10
2190.87319074427
 20
-1134.665310558245
 10
2150.873190744269
 20
-1134.665310558245
  0
LINE
  5
744
330
1F
100
AcDbEntity
  8
osie
 48
50.0
100
AcDbLine
 10
2212.463377700057
 20
-1034.665308703894
 30
0.0
 11
2140.873192208494
 21
-1034.665308703894
 31
0.0
1001
AcDbBlockRepETag
1070
     1
1071
       31
1005
69F
  0
LWPOLYLINE
  5
745
330
1F
100
AcDbEntity
  8
0
100
AcDbPolyline
 90
        4
 70
     1
 43
0.0
 10
2150.873190744269
 20
-1255.915310558253
 10
2190.87319074427
 20
-1255.915310558253
 10
2190.87319074427
 20
-1455.915310558254
 10
2150.873190744269
 20
-1455.915310558254
  0
LINE
  5
746
330
1F
100
AcDbEntity
  8
osie
 48
50.0
100
AcDbLine
 10
2212.463377700057
 20
-1355.915308703903
 30
0.0
 11
2140.873192208494
 21
-1355.915308703903
 31
0.0
1001
AcDbBlockRepETag
1070
     1
1071
       31
1005
69F
  0
LWPOLYLINE
  5
747
330
1F
100
AcDbEntity
  8
0
 62
     1
100
AcDbPolyline
 90
        4
 70
     1
 43
0.0
 10
1328.37319259862
 20
-819.915310558245
 10
1328.37319259862
 20
-779.9153105582449
 10
1528.37319259862
 20
-779.9153105582449
 10
1528.37319259862
 20
-819.915310558245
  0
LINE
  5
748
330
1F
100
AcDbEntity
  8
osie
 48
50.0
100
AcDbLine
 10
1428.373190744269
 20
-758.3251236024571
 30
0.0
 11
1428.373190744269
 21
-829.9153090940192
 31
0.0
1001
AcDbBlockRepETag
1070
     1
1071
       31
1005
69F
  0
LWPOLYLINE
  5
749
102
{ACAD_REACTORS
330
BFD
102
}
330
1F
100
AcDbEntity
  8
0
 62
     1
100
AcDbPolyline
 90
        4
 70
     1
 43
0.0
 10
1873.37319259862
 20
-819.9153105582443
 10
1873.37319259862
 20
-779.9153105582445
 10
2073.37319259862
 20
-779.9153105582445
 10
2073.37319259862
 20
-819.9153105582443
  0
LINE
  5
74A
330
1F
100
AcDbEntity
  8
osie
 48
50.0
100
AcDbLine
 10
1973.373190744269
 20
-758.3251236024566
 30
0.0
 11
1973.373190744269
 21
-829.915309094019
 31
0.0
1001
AcDbBlockRepETag
1070
     1
1071
       31
1005
69F
  0
LINE
  5
753
330
1F
100
AcDbEntity
  8
osie
 48
50.0
100
AcDbLine
 10
2672.221376581258
 20
-236.002552515302
 30
0.0
 11
2672.221376581258
 21
-456.002552515302
 31
0.0
1001
AcDbBlockRepETag
1070
     1
1071
       32
1005
6BB
  0
LINE
  5
754
330
1F
100
AcDbEntity
  8
osie
 48
50.0
100
AcDbLine
 10
2782.215311735328
 20
-347.1576409630279
 30
0.0
 11
2562.221376581258
 21
-346.002552515302
 31
0.0
1001
AcDbBlockRepETag
1070
     1
1071
       33
1005
6BC
  0
LINE
  5
755
330
1F
100
AcDbEntity
  8
osie
 48
50.0
100
AcDbLine
 10
742.1704595777513
 20
-236.002552515302
 30
0.0
 11
742.1704595777513
 21
-456.002552515302
 31
0.0
1001
AcDbBlockRepETag
1070
     1
1071
       32
1005
6BB
  0
LINE
  5
756
330
1F
100
AcDbEntity
  8
osie
 48
50.0
100
AcDbLine
 10
852.1643947318221
 20
-347.1576409630279
 30
0.0
 11
632.1704595777514
 21
-346.002552515302
 31
0.0
1001
AcDbBlockRepETag
1070
     1
1071
       33
1005
6BC
  0
LINE
  5
757
330
1F
100
AcDbEntity
  8
osie
 48
50.0
100
AcDbLine
 10
421.0166958154021
 20
-236.0025525152902
 30
0.0
 11
421.0166958154021
 21
-456.0025525152902
 31
0.0
1001
AcDbBlockRepETag
1070
     1
1071
       32
1005
6BB
  0
LINE
  5
758
330
1F
100
AcDbEntity
  8
osie
 48
50.0
100
AcDbLine
 10
531.0106309694729
 20
-347.157640963016
 30
0.0
 11
311.0166958154023
 21
-346.0025525152902
 31
0.0
1001
AcDbBlockRepETag
1070
     1
1071
       33
1005
6BC
  0
LWPOLYLINE
  5
75A
330
1F
100
AcDbEntity
  8
0
 62
     5
100
AcDbPolyline
 90
        4
 70
     1
 43
0.0
 10
1369.873190744269
 20
-1539.915310558245
 10
2031.873190744269
 20
-1539.915310558245
 10
2031.873190744269
 20
-1564.915310558245
 10
1369.873190744269
 20
-1564.915310558245
  0
INSERT
  5
75E
330
1F
100
AcDbEntity
  8
0
100
AcDbBlockReference
  2
Galka-bok
 10
874.7675067459118
 20
-1821.709541371798
 30
0.0
 41
-1.0
 50
180.0
  0
INSERT
  5
75F
330
1F
100
AcDbEntity
  8
0
100
AcDbBlockReference
  2
Galka-bok
 10
1481.767506745915
 20
-1821.709541371798
 30
0.0
 41
-1.0
 50
180.0
  0
INSERT
  5
78F
102
{ACAD_REACTORS
330
BB8
102
}
330
1F
100
AcDbEntity
  8
0
100
AcDbBlockReference
  2
HAK_DUZY
 10
2184.905533206972
 20
-861.4153105582376
 30
0.0
 41
-1.0
 50
90.0
1001
AcDbBlockRepETag
1070
     1
1071
       21
1005
76A
  0
INSERT
  5
790
102
{ACAD_REACTORS
330
BB8
102
}
330
1F
100
AcDbEntity
  8
0
100
AcDbBlockReference
  2
HAK_DUZY
 10
2184.905533206972
 20
-1489.915310558246
 30
0.0
 41
-1.0
 50
90.0
1001
AcDbBlockRepETag
1070
     1
1071
       21
1005
76A
  0
INSERT
  5
791
330
1F
100
AcDbEntity
  8
0
100
AcDbBlockReference
  2
HAK_DUZY
 10
1216.840848281566
 20
-861.4153105582376
 30
0.0
 50
270.0
1001
AcDbBlockRepETag
1070
     1
1071
       21
1005
76A
  0
INSERT
  5
792
102
{ACAD_REACTORS
330
BD0
102
}
330
1F
100
AcDbEntity
  8
0
100
AcDbBlockReference
  2
HAK_DUZY
 10
1216.840848281566
 20
-1489.915310558246
 30
0.0
 50
270.0
1001
AcDbBlockRepETag
1070
     1
1071
       21
1005
76A
  0
MTEXT
  5
7D6
330
1F
100
AcDbEntity
  8
WARSTWA_1
100
AcDbMText
 10
1581.824104835803
 20
-46.5669066950826
 30
0.0
 40
20.0
 41
601.5642491672515
 46
0.0
 71
     1
 72
     5
  1
{\Fsimplex|c0;Rzut od \Fsimplex|c238;przodu}
 73
     1
 44
1.0
1001
AcDbBlockRepETag
1070
     1
1071
       14
1005
7CE
  0
MTEXT
  5
7D7
330
1F
100
AcDbEntity
  8
WARSTWA_1
100
AcDbMText
 10
2684.793552143426
 20
-46.5669066950826
 30
0.0
 40
20.0
 41
601.5642491672515
 46
0.0
 71
     1
 72
     5
  1
{\Fsimplex|c0;Rzut od \Fsimplex|c238;prawej strony}
 73
     1
 44
1.0
1001
AcDbBlockRepETag
1070
     1
1071
       20
1005
7D0
  0
MTEXT
  5
7D8
330
1F
100
AcDbEntity
  8
WARSTWA_1
100
AcDbMText
 10
393.9992812868604
 20
-46.5669066950826
 30
0.0
 40
20.0
 41
601.5642491672515
 46
0.0
 71
     1
 72
     5
  1
{\Fsimplex|c0;Rzut od \Fsimplex|c238;lewej strony}
 73
     1
 44
1.0
1001
AcDbBlockRepETag
1070
     1
1071
       21
1005
7D1
  0
MTEXT
  5
7D9
330
1F
100
AcDbEntity
  8
WARSTWA_1
100
AcDbMText
 10
2597.198279178683
 20
-698.7450137264102
 30
0.0
 40
30.0
 41
601.5642491672515
 46
0.0
 71
     1
 72
     5
  1
{\Fsimplex|c238;MISTRAL SLIM 400EC}
 73
     1
 44
1.0
1001
AcDbBlockRepETag
1070
     1
1071
        0
1005
7CB
  0
MTEXT
  5
7DA
102
{ACAD_XDICTIONARY
360
C12
102
}
330
1F
100
AcDbEntity
  8
WARSTWA_1
100
AcDbMText
 10
2471.995163603479
 20
-984.8642218956056
 30
0.0
 40
30.0
 41
742.9879380625224
 46
0.0
 71
     1
 72
     5
  1
{\Fsimplex|c238;Standardowo króćce oznaczone kolorem czerwonym są zaślepione.\PMożliwa jest samodzielna zmiana konfiguracji w miejscu montażu.}
 73
     1
 44
1.0
1001
AcDbBlockRepETag
1070
     1
1071
        1
1005
7CC
  0
MTEXT
  5
7DB
102
{ACAD_XDICTIONARY
360
C14
102
}
330
1F
100
AcDbEntity
  8
WARSTWA_1
100
AcDbMText
 10
2477.066693566615
 20
-1410.268653906411
 30
0.0
 40
30.0
 41
601.5642491672515
 46
0.0
 71
     1
 72
     5
  1
{\Fsimplex|c238;Możliwe jest wykonanie centrali w wariantach 1-9 (patrz: katalog central MISTRAL SLIM).}
 73
     1
 44
1.0
1001
AcDbBlockRepETag
1070
     1
1071
        2
1005
7CD
  0
MTEXT
  5
7DC
330
1F
100
AcDbEntity
  8
WARSTWA_1
100
AcDbMText
 10
2597.198279178683
 20
-816.5774498770497
 30
0.0
 40
30.0
 41
601.5642491672515
 46
0.0
 71
     1
 72
     5
  1
{\Fsimplex|c238;wykonanie prawe}
 73
     1
 44
1.0
1001
AcDbBlockRepETag
1070
     1
1071
       15
1005
7CF
  0
MTEXT
  5
7DD
330
1F
100
AcDbEntity
  8
WARSTWA_1
100
AcDbMText
 10
1456.149442887312
 20
-681.9978575114949
 30
0.0
 40
20.0
 41
601.5642491672515
 46
0.0
 71
     1
 72
     5
  1
{\Fsimplex|c0;Rzut od\Fsimplex|c238; góry}
 73
     1
 44
1.0
1001
AcDbBlockRepETag
1070
     1
1071
       22
1005
7D2
  0
LINE
  5
7DE
330
1F
100
AcDbEntity
  8
wymiary
  6
Continuous
100
AcDbLine
 10
1786.217804137774
 20
-775.5402156493097
 30
0.0
 11
1534.642866772795
 21
-775.5402156493097
 31
0.0
1001
AcDbBlockRepETag
1070
     1
1071
       23
1005
7D3
  0
MTEXT
  5
7DF
330
1F
100
AcDbEntity
  8
wymiary
100
AcDbMText
 10
1540.09439216139
 20
-746.1948716570518
 30
0.0
 40
20.0
 41
601.5642491672515
 46
0.0
 71
     1
 72
     5
  1
{\Fsimplex|c238;odpływ skroplin}
 73
     1
 44
1.0
1001
AcDbBlockRepETag
1070
     1
1071
       24
1005
7D4
  0
LINE
  5
7E0
330
1F
100
AcDbEntity
  8
wymiary
100
AcDbLine
 10
1786.217804137774
 20
-775.5402156493097
 30
0.0
 11
1814.598477514764
 21
-844.1688212411923
 31
0.0
1001
AcDbBlockRepETag
1070
     1
1071
       32
1005
7D5
  0
LWPOLYLINE
  5
7E1
330
1F
100
AcDbEntity
  8
wymiary
100
AcDbPolyline
 90
        2
 70
     0
 43
0.0
 10
1786.217804137774
 20
-775.5402156493097
 10
1814.873190744269
 20
-518.0801126610433
  0
DIMENSION
  5
80F
102
{ACAD_XDICTIONARY
360
81D
102
}
102
{ACAD_REACTORS
330
827
102
}
330
1F
100
AcDbEntity
  8
wymiary
100
AcDbDimension
  2
*D9
 10
2150.873190744272
 20
-162.2456910676173
 30
0.0
 11
1700.87319074427
 21
-145.0553772886269
 31
0.0
 70
    32
 71
     5
 42
900.0000000000026
 73
     0
 74
     0
 75
     0
  3
ISO-25
100
AcDbAlignedDimension
 13
1250.873190744269
 23
-196.580112661044
 33
0.0
 14
2150.873190744272
 24
-196.580112661044
 34
0.0
100
AcDbRotatedDimension
  0
DIMENSION
  5
83A
102
{ACAD_XDICTIONARY
360
847
102
}
102
{ACAD_REACTORS
330
851
102
}
330
1F
100
AcDbEntity
  8
wymiary
100
AcDbDimension
  2
*D10
 10
2239.009313821207
 20
-196.580112661044
 30
0.0
 11
2221.812860888056
 21
-346.5801126610435
 31
0.0
 70
    32
 71
     5
 42
299.9999999999996
 73
     0
 74
     0
 75
     0
  3
ISO-25
100
AcDbAlignedDimension
 13
2150.873190744272
 23
-496.5801126610434
 33
0.0
 14
2150.873190744272
 24
-196.580112661044
 34
0.0
 50
90.0
100
AcDbRotatedDimension
  0
DIMENSION
  5
91D
102
{ACAD_XDICTIONARY
360
92A
102
}
102
{ACAD_REACTORS
330
934
102
}
330
1F
100
AcDbEntity
  8
wymiary
100
AcDbDimension
  2
*D21
 10
99.95653158246945
 20
-196.5801126610443
 30
0.0
 11
82.76007864931804
 21
-346.580112661044
 31
0.0
 70
    32
 71
     5
 42
299.9999999999992
 73
     0
 74
     0
 75
     0
  3
ISO-25
100
AcDbAlignedDimension
 13
206.3666958153967
 23
-496.5801126610434
 33
0.0
 14
206.3666958153967
 24
-196.5801126610445
 34
0.0
 50
90.0
100
AcDbRotatedDimension
1001
ACAD
1000
DSTYLE
1002
{
1070
    44
1040
0.5
1002
}
  0
LINE
  5
935
102
{ACAD_REACTORS
330
94E
102
}
330
1F
100
AcDbEntity
  8
osie
 48
50.0
100
AcDbLine
 10
217.9568827711846
 20
-346.580110806693
 30
0.0
 11
146.3666972796224
 21
-346.580110806693
 31
0.0
1001
AcDbBlockRepETag
1070
     1
1071
       31
1005
6A8
  0
LINE
  5
936
330
1F
100
AcDbEntity
  8
osie
 48
50.0
100
AcDbLine
 10
3269.6153272994
 20
-346.580110806693
 30
0.0
 11
3198.025141807839
 21
-346.580110806693
 31
0.0
1001
AcDbBlockRepETag
1070
     1
1071
       31
1005
69F
  0
DIMENSION
  5
937
102
{ACAD_XDICTIONARY
360
944
102
}
102
{ACAD_REACTORS
330
94E
102
}
330
1F
100
AcDbEntity
  8
wymiary
100
AcDbDimension
  2
*D22
 10
148.161613698933
 20
-196.5801126610445
 30
0.0
 11
130.9712999199426
 21
-271.5801117338687
 31
0.0
 70
    32
 71
     5
 42
149.9999981456485
 73
     0
 74
     0
 75
     0
  3
ISO-25
100
AcDbAlignedDimension
 13
166.3666958153967
 23
-346.580110806693
 33
0.0
 14
166.3666958153967
 24
-196.5801126610445
 34
0.0
 50
90.0
100
AcDbRotatedDimension
1001
ACAD
1000
DSTYLE
1002
{
1070
    44
1040
0.5
1002
}
  0
DIMENSION
  5
961
102
{ACAD_XDICTIONARY
360
96E
102
}
102
{ACAD_REACTORS
330
978
102
}
330
1F
100
AcDbEntity
  8
wymiary
100
AcDbDimension
  2
*D23
 10
926.3666958153967
 20
-159.4925740979888
 30
0.0
 11
566.3666958153966
 21
-142.3022603189983
 31
0.0
 70
    32
 71
     5
 42
720.0
 73
     0
 74
     0
 75
     0
  3
ISO-25
100
AcDbAlignedDimension
 13
206.3666958153967
 23
-196.5801126610445
 33
0.0
 14
926.3666958153967
 24
-196.5801126610445
 34
0.0
100
AcDbRotatedDimension
1001
ACAD
1000
DSTYLE
1002
{
1070
    44
1040
0.5
1002
}
  0
DIMENSION
  5
979
330
1F
100
AcDbEntity
  8
wymiary
100
AcDbDimension
  2
*D24
 10
421.0166958154021
 20
-534.9429157649301
 30
0.0
 11
313.6916958153995
 21
-517.7526019859397
 31
0.0
 70
    32
 71
     5
 42
214.6500000000056
 73
     0
 74
     0
 75
     0
  3
ISO-25
100
AcDbAlignedDimension
 13
206.3666958153967
 23
-496.5801126610434
 33
0.0
 14
421.0166958154021
 24
-496.5801126610434
 34
0.0
100
AcDbRotatedDimension
1001
ACAD
1000
DSTYLE
1002
{
1070
    44
1040
0.5
1002
}
  0
DIMENSION
  5
991
330
1F
100
AcDbEntity
  8
wymiary
100
AcDbDimension
  2
*D25
 10
926.3666958153967
 20
-538.5342948948164
 30
0.0
 11
834.2685776965739
 21
-521.3439811158258
 31
0.0
 70
    32
 71
     5
 42
184.1962362376453
 73
     0
 74
     0
 75
     0
  3
ISO-25
100
AcDbAlignedDimension
 13
742.1704595777513
 23
-496.5801126610434
 33
0.0
 14
926.3666958153967
 24
-495.5801126610437
 34
0.0
100
AcDbRotatedDimension
1001
ACAD
1000
DSTYLE
1002
{
1070
    44
1040
0.5
1002
}
  0
DIMENSION
  5
9DF
102
{ACAD_XDICTIONARY
360
9EC
102
}
102
{ACAD_REACTORS
330
9F6
102
}
330
1F
100
AcDbEntity
  8
wymiary
100
AcDbDimension
  2
*D26
 10
3208.025140343612
 20
-161.6354399317424
 30
0.0
 11
2848.025140343612
 21
-144.445126152752
 31
0.0
 70
    32
 71
     5
 42
720.0
 73
     0
 74
     0
 75
     0
  3
ISO-25
100
AcDbAlignedDimension
 13
2488.025140343613
 23
-196.5801126610445
 33
0.0
 14
3208.025140343612
 24
-196.5801126610445
 34
0.0
100
AcDbRotatedDimension
1001
ACAD
1000
DSTYLE
1002
{
1070
    44
1040
0.5
1002
}
  0
DIMENSION
  5
9F7
330
1F
100
AcDbEntity
  8
wymiary
100
AcDbDimension
  2
*D27
 10
3286.893957588636
 20
-196.5801126610445
 30
0.0
 11
3269.703643809645
 21
-271.5801117338683
 31
0.0
 70
    32
 71
     5
 42
149.9999981456485
 73
     0
 74
     0
 75
     0
  3
ISO-25
100
AcDbAlignedDimension
 13
3269.6153272994
 23
-346.580110806693
 33
0.0
 14
3208.025140343612
 24
-196.5801126610445
 34
0.0
 50
90.0
100
AcDbRotatedDimension
1001
ACAD
1000
DSTYLE
1002
{
1070
    44
1040
0.5
1002
}
  0
DIMENSION
  5
A21
102
{ACAD_XDICTIONARY
360
A2E
102
}
102
{ACAD_REACTORS
330
A38
102
}
330
1F
100
AcDbEntity
  8
wymiary
100
AcDbDimension
  2
*D28
 10
3339.512049955378
 20
-196.5801126610445
 30
0.0
 11
3322.315597022227
 21
-346.5801126610435
 31
0.0
 70
    32
 71
     5
 42
299.9999999999992
 73
     0
 74
     0
 75
     0
  3
ISO-25
100
AcDbAlignedDimension
 13
3208.025140343612
 23
-496.5801126610434
 33
0.0
 14
3208.025140343612
 24
-196.5801126610445
 34
0.0
 50
90.0
100
AcDbRotatedDimension
1001
ACAD
1000
DSTYLE
1002
{
1070
    44
1040
0.5
1002
}
  0
DIMENSION
  5
A39
330
1F
100
AcDbEntity
  8
wymiary
100
AcDbDimension
  2
*D29
 10
2488.025140343613
 20
-540.5680781816753
 30
0.0
 11
2580.123258462435
 21
-523.377764402685
 31
0.0
 70
    32
 71
     5
 42
184.1962362376453
 73
     0
 74
     0
 75
     0
  3
ISO-25
100
AcDbAlignedDimension
 13
2672.221376581258
 23
-496.5801126610434
 33
0.0
 14
2488.025140343613
 24
-495.5801126610437
 34
0.0
100
AcDbRotatedDimension
1001
ACAD
1000
DSTYLE
1002
{
1070
    44
1040
0.5
1002
}
  0
DIMENSION
  5
A51
330
1F
100
AcDbEntity
  8
wymiary
100
AcDbDimension
  2
*D30
 10
3208.025140343612
 20
-537.192246307404
 30
0.0
 11
3100.70014034361
 21
-520.0019325284138
 31
0.0
 70
    32
 71
     5
 42
214.6500000000056
 73
     0
 74
     0
 75
     0
  3
ISO-25
100
AcDbAlignedDimension
 13
2993.375140343607
 23
-496.5801126610434
 33
0.0
 14
3208.025140343612
 24
-496.5801126610434
 34
0.0
100
AcDbRotatedDimension
1001
ACAD
1000
DSTYLE
1002
{
1070
    44
1040
0.5
1002
}
  0
LWPOLYLINE
  5
AE7
330
1F
100
AcDbEntity
  8
0
100
AcDbPolyline
 90
        4
 70
     1
 43
0.0
 10
3162.275140343612
 20
-496.5801126610434
 10
3183.775140343612
 20
-496.5801126610434
 10
3183.775140343612
 20
-518.0801126610433
 10
3162.275140343612
 20
-518.0801126610433
  0
LWPOLYLINE
  5
AE8
330
1F
100
AcDbEntity
  8
0
100
AcDbPolyline
 90
        4
 70
     1
 43
0.0
 10
230.6166958153965
 20
-496.5801126610434
 10
252.1166958153965
 20
-496.5801126610434
 10
252.1166958153965
 20
-518.0801126610433
 10
230.6166958153965
 20
-518.0801126610433
  0
DIMENSION
  5
B20
102
{ACAD_XDICTIONARY
360
B2A
102
}
102
{ACAD_REACTORS
330
B31
102
}
330
1F
100
AcDbEntity
  8
wymiary
100
AcDbDimension
  2
*D32
 10
495.5846920568903
 20
-279.9496846530305
 30
0.0
 11
409.2272915036728
 21
-333.3862569004045
 31
0.0
 70
    35
 71
     5
 42
200.0000000000001
 73
     0
 74
     0
 75
     0
  3
ISO-25
100
AcDbDiametricDimension
 15
346.4486995739143
 25
-413.2105406690332
 35
0.0
 40
0.0
1001
ACAD
1000
DSTYLE
1002
{
1070
    44
1040
0.5
1070
   289
1070
     0
1002
}
1001
ACAD_DSTYLE_DIMRADIAL_EXTENSION
1070
   387
1070
     1
1070
   388
1040
0.0
1070
   390
1040
0.0
  0
DIMENSION
  5
B32
102
{ACAD_XDICTIONARY
360
B3C
102
}
102
{ACAD_REACTORS
330
B43
102
}
330
1F
100
AcDbEntity
  8
wymiary
100
AcDbDimension
  2
*D33
 10
814.0494971869101
 20
-277.0574260588909
 30
0.0
 11
729.8693070008534
 21
-333.8620338305937
 31
0.0
 70
    35
 71
     5
 42
199.9999999999999
 73
     0
 74
     0
 75
     0
  3
ISO-25
100
AcDbDiametricDimension
 15
670.2914219685927
 25
-416.1027992631963
 35
0.0
 40
0.0
1001
ACAD
1000
DSTYLE
1002
{
1070
    44
1040
0.5
1070
   289
1070
     0
1002
}
1001
ACAD_DSTYLE_DIMRADIAL_EXTENSION
1070
   387
1070
     1
1070
   388
1040
0.0
1070
   390
1040
0.0
  0
DIMENSION
  5
B44
102
{ACAD_XDICTIONARY
360
B4E
102
}
102
{ACAD_REACTORS
330
B55
102
}
330
1F
100
AcDbEntity
  8
wymiary
100
AcDbDimension
  2
*D34
 10
2750.517570734145
 20
-284.3731517870913
 30
0.0
 11
2661.214648354044
 21
-332.7265998361343
 31
0.0
 70
    35
 71
     5
 42
200.0000000000004
 73
     0
 74
     0
 75
     0
  3
ISO-25
100
AcDbDiametricDimension
 15
2593.92518242837
 25
-408.7870735349963
 35
0.0
 40
0.0
1001
ACAD
1000
DSTYLE
1002
{
1070
    44
1040
0.5
1070
   289
1070
     0
1002
}
1001
ACAD_DSTYLE_DIMRADIAL_EXTENSION
1070
   387
1070
     1
1070
   388
1040
0.0
1070
   390
1040
0.0
  0
DIMENSION
  5
B56
102
{ACAD_XDICTIONARY
360
B60
102
}
102
{ACAD_REACTORS
330
B67
102
}
330
1F
100
AcDbEntity
  8
wymiary
100
AcDbDimension
  2
*D35
 10
3076.549210289896
 20
-291.063681862845
 30
0.0
 11
2983.552216070249
 21
-331.8635219356786
 31
0.0
 70
    35
 71
     5
 42
199.9999999999995
 73
     0
 74
     0
 75
     0
  3
ISO-25
100
AcDbDiametricDimension
 15
2910.201070397318
 25
-402.0965434592185
 35
0.0
 40
0.0
1001
ACAD
1000
DSTYLE
1002
{
1070
    44
1040
0.5
1070
   289
1070
     0
1002
}
1001
ACAD_DSTYLE_DIMRADIAL_EXTENSION
1070
   387
1070
     1
1070
   388
1040
0.0
1070
   390
1040
0.0
  0
DIMENSION
  5
BA1
102
{ACAD_XDICTIONARY
360
BAE
102
}
102
{ACAD_REACTORS
330
BB8
102
}
330
1F
100
AcDbEntity
  8
wymiary
100
AcDbDimension
  2
*D36
 10
2236.469305065134
 20
-861.4153105582376
 30
0.0
 11
2219.278991286143
 21
-1175.665310558241
 31
0.0
 70
    32
 71
     5
 42
628.5000000000081
 73
     0
 74
     0
 75
     0
  3
ISO-25
100
AcDbAlignedDimension
 13
2202.373190744269
 23
-1489.915310558246
 33
0.0
 14
2202.373190744269
 24
-861.4153105582376
 34
0.0
 50
90.0
100
AcDbRotatedDimension
1001
ACAD
1000
DSTYLE
1002
{
1070
    44
1040
0.5
1070
   289
1070
     0
1002
}
  0
DIMENSION
  5
BB9
102
{ACAD_XDICTIONARY
360
BC6
102
}
102
{ACAD_REACTORS
330
BD0
102
}
330
1F
100
AcDbEntity
  8
wymiary
100
AcDbDimension
  2
*D37
 10
2202.373190744269
 20
-1628.110927161185
 30
0.0
 11
1700.873190744269
 21
-1610.914474228035
 31
0.0
 70
    32
 71
     5
 42
1003.000000000001
 73
     0
 74
     0
 75
     0
  3
ISO-25
100
AcDbAlignedDimension
 13
1199.373190744268
 23
-1489.915310558246
 33
0.0
 14
2202.373190744269
 24
-1489.915310558246
 34
0.0
100
AcDbRotatedDimension
1001
ACAD
1000
DSTYLE
1002
{
1070
    44
1040
0.5
1070
   289
1070
     0
1002
}
  0
DIMENSION
  5
BE6
102
{ACAD_XDICTIONARY
360
BF3
102
}
102
{ACAD_REACTORS
330
BFD
102
}
330
1F
100
AcDbEntity
  8
wymiary
100
AcDbDimension
  2
*D38
 10
2150.873190744269
 20
-742.245575442771
 30
0.0
 11
2062.123191671445
 21
-725.2087405178051
 31
0.0
 70
    32
 71
     5
 42
177.4999981456494
 73
     0
 74
     0
 75
     0
  3
ISO-25
100
AcDbAlignedDimension
 13
1973.37319259862
 23
-779.9153105582445
 33
0.0
 14
2150.873190744269
 24
-819.9153105582443
 34
0.0
100
AcDbRotatedDimension
1001
ACAD
1000
DSTYLE
1002
{
1070
    44
1040
0.5
1070
   289
1070
     0
1002
}
  0
ENDSEC
  0
SECTION
  2
OBJECTS
  0
DICTIONARY
  5
C
330
0
100
AcDbDictionary
281
     1
  3
ACAD_COLOR
350
6B
  3
ACAD_GROUP
350
D
  3
ACAD_LAYOUT
350
1A
  3
ACAD_MATERIAL
350
6A
  3
ACAD_MLEADERSTYLE
350
12D
  3
ACAD_MLINESTYLE
350
17
  3
ACAD_PLOTSETTINGS
350
19
  3
ACAD_PLOTSTYLENAME
350
E
  3
ACAD_SCALELIST
350
10C
  3
ACAD_TABLESTYLE
350
7E
  3
ACAD_VISUALSTYLE
350
EF
  3
ACDB_RECOMPOSE_DATA
350
15D
  3
AcDbVariableDictionary
350
5E
  3
AEC_PROPERTY_SET_DEFS
350
20D
  0
DICTIONARY
  5
23C
330
2
100
AcDbDictionary
280
     1
281
     1
  3
ACAD_LAYERSTATES
360
23D
  0
DICTIONARY
  5
13C
330
10
100
AcDbDictionary
280
     1
281
     1
  0
DICTIONARY
  5
237
330
236
100
AcDbDictionary
280
     1
281
     1
  0
DICTIONARY
  5
55E
330
55D
100
AcDbDictionary
280
     1
281
     1
  0
DICTIONARY
  5
7B7
330
7B6
100
AcDbDictionary
280
     1
281
     1
  0
DICTIONARY
  5
1CE
330
1F
100
AcDbDictionary
280
     1
281
     1
  3
ACAD_SORTENTS
360
254
  0
DICTIONARY
  5
257
330
256
100
AcDbDictionary
280
     1
281
     1
  0
DICTIONARY
  5
65C
330
65A
100
AcDbDictionary
280
     1
281
     1
  3
ACAD_SORTENTS
360
65D
  0
DICTIONARY
  5
6AB
330
6A9
100
AcDbDictionary
280
     1
281
     1
  3
ACAD_ENHANCEDBLOCK
360
6AE
  3
AcDbDynamicBlockRoundTripPurgePreventer
360
6AF
  0
DICTIONARY
  5
C12
330
7DA
100
AcDbDictionary
280
     1
281
     1
  3
ACAD_MTEXT_2008_RT
360
C13
  0
DICTIONARY
  5
C14
330
7DB
100
AcDbDictionary
280
     1
281
     1
  3
ACAD_MTEXT_2008_RT
360
C15
  0
DICTIONARY
  5
81D
330
80F
100
AcDbDictionary
280
     1
281
     1
  3
ACAD_DIMASSOC
360
827
  0
DICTIONARY
  5
847
330
83A
100
AcDbDictionary
280
     1
281
     1
  3
ACAD_DIMASSOC
360
851
  0
DICTIONARY
  5
92A
330
91D
100
AcDbDictionary
280
     1
281
     1
  3
ACAD_DIMASSOC
360
934
  0
DICTIONARY
  5
944
330
937
100
AcDbDictionary
280
     1
281
     1
  3
ACAD_DIMASSOC
360
94E
  0
DICTIONARY
  5
96E
330
961
100
AcDbDictionary
280
     1
281
     1
  3
ACAD_DIMASSOC
360
978
  0
DICTIONARY
  5
9EC
330
9DF
100
AcDbDictionary
280
     1
281
     1
  3
ACAD_DIMASSOC
360
9F6
  0
DICTIONARY
  5
A2E
330
A21
100
AcDbDictionary
280
     1
281
     1
  3
ACAD_DIMASSOC
360
A38
  0
DICTIONARY
  5
B2A
330
B20
100
AcDbDictionary
280
     1
281
     1
  3
ACAD_DIMASSOC
360
B31
  0
DICTIONARY
  5
B3C
330
B32
100
AcDbDictionary
280
     1
281
     1
  3
ACAD_DIMASSOC
360
B43
  0
DICTIONARY
  5
B4E
330
B44
100
AcDbDictionary
280
     1
281
     1
  3
ACAD_DIMASSOC
360
B55
  0
DICTIONARY
  5
B60
330
B56
100
AcDbDictionary
280
     1
281
     1
  3
ACAD_DIMASSOC
360
B67
  0
DICTIONARY
  5
BAE
330
BA1
100
AcDbDictionary
280
     1
281
     1
  3
ACAD_DIMASSOC
360
BB8
  0
DICTIONARY
  5
BC6
330
BB9
100
AcDbDictionary
280
     1
281
     1
  3
ACAD_DIMASSOC
360
BD0
  0
DICTIONARY
  5
BF3
330
BE6
100
AcDbDictionary
280
     1
281
     1
  3
ACAD_DIMASSOC
360
BFD
  0
DICTIONARY
  5
6B
102
{ACAD_REACTORS
330
C
102
}
330
C
100
AcDbDictionary
281
     1
  0
DICTIONARY
  5
D
102
{ACAD_REACTORS
330
C
102
}
330
C
100
AcDbDictionary
281
     1
  0
DICTIONARY
  5
1A
102
{ACAD_REACTORS
330
C
102
}
330
C
100
AcDbDictionary
281
     1
  3
Model
350
22
  3
Układ1
350
D3
  3
Układ2
350
D7
  0
DICTIONARY
  5
6A
102
{ACAD_REACTORS
330
C
102
}
330
C
100
AcDbDictionary
281
     1
  3
ByBlock
350
ED
  3
ByLayer
350
EC
  3
Global
350
EE
  0
DICTIONARY
  5
12D
102
{ACAD_REACTORS
330
C
102
}
330
C
100
AcDbDictionary
281
     1
  3
Opisowy
350
13B
  3
Standard
350
12E
  0
DICTIONARY
  5
17
102
{ACAD_REACTORS
330
C
102
}
330
C
100
AcDbDictionary
281
     1
  3
Standard
350
18
  0
DICTIONARY
  5
19
102
{ACAD_REACTORS
330
C
102
}
330
C
100
AcDbDictionary
281
     1
  0
ACDBDICTIONARYWDFLT
  5
E
102
{ACAD_REACTORS
330
C
102
}
330
C
100
AcDbDictionary
281
     1
  3
Normal
350
F
100
AcDbDictionaryWithDefault
340
F
  0
DICTIONARY
  5
10C
102
{ACAD_REACTORS
330
C
102
}
330
C
100
AcDbDictionary
281
     1
  3
A0
350
10D
  3
A1
350
1BE
  3
A2
350
1BF
  3
A3
350
1C0
  3
A4
350
1C1
  3
A5
350
1C2
  3
A6
350
1C3
  3
A7
350
1C4
  3
A8
350
1C5
  3
A9
350
1C6
  3
B0
350
1C7
  3
B1
350
1C8
  3
B2
350
1C9
  3
B3
350
1CA
  3
B4
350
1CB
  3
B5
350
1CC
  3
B6
350
1CD
  0
DICTIONARY
  5
7E
102
{ACAD_REACTORS
330
C
102
}
330
C
100
AcDbDictionary
281
     1
  3
Standard
350
7F
  0
DICTIONARY
  5
EF
102
{ACAD_REACTORS
330
C
102
}
330
C
100
AcDbDictionary
281
     1
  3
2dWireframe
350
F5
  3
3D Hidden
350
F7
  3
3dWireframe
350
F6
  3
Basic
350
F4
  3
Brighten
350
FB
  3
ColorChange
350
FF
  3
Conceptual
350
F8
  3
Dim
350
FA
  3
Facepattern
350
FE
  3
Flat
350
F0
  3
FlatWithEdges
350
F1
  3
Gouraud
350
F2
  3
GouraudWithEdges
350
F3
  3
Linepattern
350
FD
  3
Realistic
350
F9
  3
Thicken
350
FC
  0
XRECORD
  5
15D
102
{ACAD_REACTORS
330
C
102
}
330
C
100
AcDbXrecord
280
     1
 90
        1
330
7F
330
7DA
330
7DB
  0
DICTIONARY
  5
5E
102
{ACAD_REACTORS
330
C
102
}
330
C
100
AcDbDictionary
281
     1
  3
CANNOSCALE
350
146
  3
CMLEADERSTYLE
350
145
  3
CTABLESTYLE
350
84
  3
DIMASSOC
350
5F
  3
HIDETEXT
350
63
  3
LAYEREVAL
350
1AE
  3
LAYERNOTIFY
350
1AF
  0
DICTIONARY
  5
20D
102
{ACAD_REACTORS
330
C
102
}
330
C
100
AcDbDictionary
281
     1
  0
DICTIONARY
  5
23D
102
{ACAD_REACTORS
330
23C
102
}
330
23C
100
AcDbDictionary
281
     1
  0
SORTENTSTABLE
  5
254
102
{ACAD_REACTORS
330
1CE
102
}
330
1CE
100
AcDbSortentsTable
330
1F
331
662
  5
662
331
22D
  5
24D
331
75F
  5
75F
331
7DE
  5
7DE
331
979
  5
979
331
7DC
  5
7DC
331
250
  5
565
331
7DA
  5
7DA
331
7D8
  5
7D8
331
225
  5
234
331
7D6
  5
7D6
331
961
  5
961
331
6D7
  5
6D7
331
6D5
  5
6D5
331
746
  5
746
331
6D3
  5
6D3
331
744
  5
744
331
647
  5
647
331
756
  5
756
331
742
  5
742
331
754
  5
754
331
740
  5
740
331
91D
  5
91D
331
73E
  5
73E
331
24E
  5
253
331
73A
  5
73A
331
74A
  5
74A
331
24C
  5
250
331
748
  5
748
331
791
  5
791
331
5FD
  5
5FD
331
78F
  5
78F
331
692
  5
692
331
80F
  5
80F
331
690
  5
690
331
6DE
  5
6DE
331
6DC
  5
6DC
331
6DA
  5
6DA
331
6C5
  5
6C5
331
575
  5
22D
331
6D8
  5
6D8
331
6C3
  5
6C3
331
68E
  5
68E
331
569
  5
574
331
6C1
  5
6C1
331
68C
  5
68C
331
567
  5
569
331
68A
  5
68A
331
7E1
  5
7E1
331
565
  5
567
331
6E3
  5
6E3
331
6A8
  5
6A8
331
936
  5
936
331
255
  5
24E
331
253
  5
24F
331
7DF
  5
7DF
331
663
  5
663
331
7DD
  5
7DD
331
251
  5
566
331
75E
  5
75E
331
7DB
  5
7DB
331
75A
  5
75A
331
7D9
  5
7D9
331
758
  5
758
331
7D7
  5
7D7
331
6D6
  5
6D6
331
6D4
  5
6D4
331
747
  5
747
331
757
  5
757
331
6D2
  5
6D2
331
745
  5
745
331
755
  5
755
331
6D0
  5
6D0
331
743
  5
743
331
753
  5
753
331
741
  5
741
331
73F
  5
73F
331
24F
  5
255
331
24D
  5
251
331
6BF
  5
6BF
331
792
  5
792
331
A51
  5
A51
331
749
  5
749
331
83A
  5
83A
331
715
  5
715
331
790
  5
790
331
693
  5
693
331
691
  5
691
331
5FC
  5
5FC
331
69F
  5
69F
331
A39
  5
A39
331
9DF
  5
9DF
331
6DD
  5
6DD
331
5E7
  5
5E7
331
6DB
  5
6DB
331
6D9
  5
6D9
331
574
  5
225
331
68F
  5
68F
331
56A
  5
575
331
6C4
  5
6C4
331
68D
  5
68D
331
568
  5
56A
331
A21
  5
A21
331
6C0
  5
6C0
331
68B
  5
68B
331
566
  5
568
331
9F7
  5
9F7
331
57F
  5
57F
331
7E0
  5
7E0
331
991
  5
991
331
937
  5
937
331
61D
  5
61D
331
935
  5
935
  0
SORTENTSTABLE
  5
65D
102
{ACAD_REACTORS
330
65C
102
}
330
65C
100
AcDbSortentsTable
330
65A
  0
ACAD_EVALUATION_GRAPH
  5
6AE
102
{ACAD_REACTORS
330
6AB
102
}
330
6AB
100
AcDbEvalGraph
 96
        0
 97
        0
  0
ACDB_DYNAMICBLOCKPURGEPREVENTER_VERSION
  5
6AF
102
{ACAD_REACTORS
330
6AB
102
}
330
6AB
100
AcDbDynamicBlockPurgePreventer
 70
     1
  0
XRECORD
  5
C13
102
{ACAD_REACTORS
330
C12
102
}
330
C12
100
AcDbXrecord
280
     1
 40
1106861.0
  1
\pxqj;{\Fsimplex|c238;Standardowo króćce oznaczone kolorem czerwonym są zaślepione.\PMożliwa jest samodzielna zmiana konfiguracji w miejscu montażu.}
  0
XRECORD
  5
C15
102
{ACAD_REACTORS
330
C14
102
}
330
C14
100
AcDbXrecord
280
     1
 40
476953.0
  1
\pxqj;{\Fsimplex|c238;Możliwe jest wykonanie centrali w wariantach 1-9 (patrz: katalog central MISTRAL SLIM).}
  0
DIMASSOC
  5
827
102
{ACAD_REACTORS
330
81D
102
}
330
81D
100
AcDbDimAssoc
330
80F
 90
        3
 70
     0
 71
     0
  1
AcDbOsnapPointRef
 72
     1
331
225
 73
     2
 91
        1
 40
1.0
 10
0.0
 20
0.0
 30
2.000000000000000E+50
 75
     0
  1
AcDbOsnapPointRef
 72
     1
331
225
 73
     2
 91
        2
 40
1.0
 10
0.0
 20
0.0
 30
2.000000000000000E+50
 75
     0
  0
DIMASSOC
  5
851
102
{ACAD_REACTORS
330
847
102
}
330
847
100
AcDbDimAssoc
330
83A
 90
        1
 70
     0
 71
     0
  1
AcDbOsnapPointRef
 72
     1
331
225
 73
     2
 91
        3
 40
1.0
 10
0.0
 20
0.0
 30
2.000000000000000E+50
 75
     0
  0
DIMASSOC
  5
934
102
{ACAD_REACTORS
330
92A
102
}
330
92A
100
AcDbDimAssoc
330
91D
 90
        1
 70
     0
 71
     0
  1
AcDbOsnapPointRef
 72
     1
331
6C3
 73
     2
 91
        3
 40
1.0
 10
0.0
 20
0.0
 30
2.000000000000000E+50
 75
     0
  0
DIMASSOC
  5
94E
102
{ACAD_REACTORS
330
944
102
}
330
944
100
AcDbDimAssoc
330
937
 90
        1
 70
     0
 71
     0
  1
AcDbOsnapPointRef
 72
    11
331
935
 73
     2
 91
        0
 40
0.7206321173992281
 10
0.0
 20
0.0
 30
0.0
332
6E3
 74
     2
 92
        0
 75
     0
  0
DIMASSOC
  5
978
102
{ACAD_REACTORS
330
96E
102
}
330
96E
100
AcDbDimAssoc
330
961
 90
        2
 70
     0
 71
     0
  1
AcDbOsnapPointRef
 72
     8
331
6D2
 73
     2
 91
        2
 40
-0.0033557046979851
 10
0.0
 20
0.0
 30
0.0
 75
     1
  1
AcDbOsnapPointRef
 72
     0
 40
0.0
 10
206.3666958153967
 20
-196.5801126610445
 30
0.0
 75
     0
  0
DIMASSOC
  5
9F6
102
{ACAD_REACTORS
330
9EC
102
}
330
9EC
100
AcDbDimAssoc
330
9DF
 90
        3
 70
     0
 71
     0
  1
AcDbOsnapPointRef
 72
     1
331
5E7
 73
     2
 91
        1
 40
1.0
 10
0.0
 20
0.0
 30
2.000000000000000E+50
 75
     0
  1
AcDbOsnapPointRef
 72
     1
331
5E7
 73
     2
 91
        2
 40
1.0
 10
0.0
 20
0.0
 30
2.000000000000000E+50
 75
     0
  0
DIMASSOC
  5
A38
102
{ACAD_REACTORS
330
A2E
102
}
330
A2E
100
AcDbDimAssoc
330
A21
 90
        1
 70
     0
 71
     0
  1
AcDbOsnapPointRef
 72
     1
331
5E7
 73
     2
 91
        3
 40
1.0
 10
0.0
 20
0.0
 30
2.000000000000000E+50
 75
     0
  0
DIMASSOC
  5
B31
102
{ACAD_REACTORS
330
B2A
102
}
330
B2A
100
AcDbDimAssoc
330
B20
 90
        2
 70
     0
 71
     0
  1
AcDbOsnapPointRef
 72
     3
331
6DE
 73
     2
 91
        0
 40
0.0
 10
0.0
 20
0.0
 30
0.0
 75
     0
  0
DIMASSOC
  5
B43
102
{ACAD_REACTORS
330
B3C
102
}
330
B3C
100
AcDbDimAssoc
330
B32
 90
        2
 70
     0
 71
     0
  1
AcDbOsnapPointRef
 72
     3
331
6D0
 73
     2
 91
        0
 40
0.0
 10
0.0
 20
0.0
 30
0.0
 75
     0
  0
DIMASSOC
  5
B55
102
{ACAD_REACTORS
330
B4E
102
}
330
B4E
100
AcDbDimAssoc
330
B44
 90
        2
 70
     0
 71
     0
  1
AcDbOsnapPointRef
 72
     3
331
61D
 73
     2
 91
        0
 40
0.0
 10
0.0
 20
0.0
 30
0.0
 75
     0
  0
DIMASSOC
  5
B67
102
{ACAD_REACTORS
330
B60
102
}
330
B60
100
AcDbDimAssoc
330
B56
 90
        2
 70
     0
 71
     0
  1
AcDbOsnapPointRef
 72
     3
331
693
 73
     2
 91
        0
 40
0.0
 10
0.0
 20
0.0
 30
0.0
 75
     0
  0
DIMASSOC
  5
BB8
102
{ACAD_REACTORS
330
BAE
102
}
330
BAE
100
AcDbDimAssoc
330
BA1
 90
        3
 70
     0
 71
     0
  1
AcDbOsnapPointRef
 72
     3
331
790
331
587
 73
     2
 91
        0
 40
0.0
 10
0.0
 20
0.0
 30
0.0
 75
     0
  1
AcDbOsnapPointRef
 72
     3
331
78F
331
587
 73
     2
 91
        0
 40
0.0
 10
0.0
 20
0.0
 30
0.0
 75
     0
  0
DIMASSOC
  5
BD0
102
{ACAD_REACTORS
330
BC6
102
}
330
BC6
100
AcDbDimAssoc
330
BB9
 90
        1
 70
     0
 71
     0
  1
AcDbOsnapPointRef
 72
     3
331
792
331
587
 73
     2
 91
        0
 40
0.0
 10
0.0
 20
0.0
 30
0.0
 75
     0
  0
DIMASSOC
  5
BFD
102
{ACAD_REACTORS
330
BF3
102
}
330
BF3
100
AcDbDimAssoc
330
BE6
 90
        2
 70
     0
 71
     0
  1
AcDbOsnapPointRef
 72
     8
331
715
 73
     2
 91
        2
 40
0.0
 10
0.0
 20
0.0
 30
0.0
 75
     1
  1
AcDbOsnapPointRef
 72
     2
331
749
 73
     2
 91
        4
 40
0.5000000000000006
 10
0.0
 20
0.0
 30
0.0
 75
     0
  0
LAYOUT
  5
22
102
{ACAD_REACTORS
330
1A
102
}
330
1A
100
AcDbPlotSettings
  1

  2
none_device
  4
ISO_A4_(210.00_x_297.00_MM)
  6

 40
7.5
 41
20.0
 42
7.5
 43
20.0
 44
210.0
 45
297.0
 46
11.54999923706054
 47
-13.65000009536743
 48
0.0
 49
0.0
140
0.0
141
0.0
142
1.0
143
8.704084754739808
 70
 11952
 72
     1
 73
     0
 74
     0
  7

 75
     0
147
0.1148885871608098
 76
     0
 77
     2
 78
   300
148
0.0
149
0.0
100
AcDbLayout
  1
Model
 70
     1
 71
     0
 10
0.0
 20
0.0
 11
12.0
 21
9.0
 12
0.0
 22
0.0
 32
0.0
 14
0.0
 24
0.0
 34
0.0
 15
0.0
 25
0.0
 35
0.0
146
0.0
 13
0.0
 23
0.0
 33
0.0
 16
1.0
 26
0.0
 36
0.0
 17
0.0
 27
1.0
 37
0.0
 76
     0
330
1F
331
EA
1001
ACAD_PSEXT
1000
None
1000
None
1000
Not applicable
1000
The layout will not be plotted unless a new plotter configuration name is selected.
1070
     0
  0
LAYOUT
  5
D3
102
{ACAD_REACTORS
330
1A
102
}
330
1A
100
AcDbPlotSettings
  1

  2
C:\Documents and Settings\basas\Application Data\Autodesk\AutoCAD 2005\R16.1\enu\plotters\Default Windows System Printer.pc3
  4

  6

 40
0.0
 41
0.0
 42
0.0
 43
0.0
 44
0.0
 45
0.0
 46
0.0
 47
0.0
 48
0.0
 49
0.0
140
0.0
141
0.0
142
1.0
143
1.0
 70
   688
 72
     0
 73
     0
 74
     5
  7

 75
    16
147
1.0
 76
     0
 77
     2
 78
   300
148
0.0
149
0.0
100
AcDbLayout
  1
Układ1
 70
     1
 71
     1
 10
0.0
 20
0.0
 11
12.0
 21
9.0
 12
0.0
 22
0.0
 32
0.0
 14
0.0
 24
0.0
 34
0.0
 15
0.0
 25
0.0
 35
0.0
146
0.0
 13
0.0
 23
0.0
 33
0.0
 16
1.0
 26
0.0
 36
0.0
 17
0.0
 27
1.0
 37
0.0
 76
     0
330
D2
  0
LAYOUT
  5
D7
102
{ACAD_REACTORS
330
1A
102
}
330
1A
100
AcDbPlotSettings
  1

  2
C:\Documents and Settings\basas\Application Data\Autodesk\AutoCAD 2005\R16.1\enu\plotters\Default Windows System Printer.pc3
  4

  6

 40
0.0
 41
0.0
 42
0.0
 43
0.0
 44
0.0
 45
0.0
 46
0.0
 47
0.0
 48
0.0
 49
0.0
140
0.0
141
0.0
142
1.0
143
1.0
 70
   688
 72
     0
 73
     0
 74
     5
  7

 75
    16
147
1.0
 76
     0
 77
     2
 78
   300
148
0.0
149
0.0
100
AcDbLayout
  1
Układ2
 70
     1
 71
     2
 10
0.0
 20
0.0
 11
12.0
 21
9.0
 12
0.0
 22
0.0
 32
0.0
 14
0.0
 24
0.0
 34
0.0
 15
0.0
 25
0.0
 35
0.0
146
0.0
 13
0.0
 23
0.0
 33
0.0
 16
1.0
 26
0.0
 36
0.0
 17
0.0
 27
1.0
 37
0.0
 76
     0
330
D6
  0
MATERIAL
  5
ED
102
{ACAD_REACTORS
330
6A
102
}
330
6A
100
AcDbMaterial
  1
ByBlock
 94
       63
  0
MATERIAL
  5
EC
102
{ACAD_REACTORS
330
6A
102
}
330
6A
100
AcDbMaterial
  1
ByLayer
 94
       63
  0
MATERIAL
  5
EE
102
{ACAD_XDICTIONARY
360
173
102
}
102
{ACAD_REACTORS
330
6A
102
}
330
6A
100
AcDbMaterial
  1
Global
 43
0.0007999999797903
 43
0.0
 43
0.0
 43
0.0
 43
0.0
 43
0.0007999999797903
 43
0.0
 43
0.0
 43
0.0
 43
0.0
 43
1.0
 43
0.0
 43
0.0
 43
0.0
 43
0.0
 43
1.0
 49
0.0007999999797903
 49
0.0
 49
0.0
 49
0.0
 49
0.0
 49
0.0007999999797903
 49
0.0
 49
0.0
 49
0.0
 49
0.0
 49
1.0
 49
0.0
 49
0.0
 49
0.0
 49
0.0
 49
1.0
142
0.0007999999797903
142
0.0
142
0.0
142
0.0
142
0.0
142
0.0007999999797903
142
0.0
142
0.0
142
0.0
142
0.0
142
1.0
142
0.0
142
0.0
142
0.0
142
0.0
142
1.0
144
0.0007999999797903
144
0.0
144
0.0
144
0.0
144
0.0
144
0.0007999999797903
144
0.0
144
0.0
144
0.0
144
0.0
144
1.0
144
0.0
144
0.0
144
0.0
144
0.0
144
1.0
 94
       63
1001
ACAD
1070
    -1
1070
     3
1070
     0
1000

1071
        0
1070
     0
  0
MLEADERSTYLE
  5
13B
102
{ACAD_REACTORS
330
12D
102
}
330
12D
100
AcDbMLeaderStyle
170
     2
171
     1
172
     0
 90
        2
 40
0.0
 41
0.0
173
     1
 91
-1056964608
340
14
 92
       -2
290
     1
 42
2.0
291
     1
 43
8.0
  3
Standard
 44
4.0
300

342
11
174
     1
178
     1
175
     1
176
     0
 93
-1056964608
 45
4.0
292
     0
297
     0
 46
4.0
 94
-1056964608
 47
1.0
 49
1.0
140
1.0
293
     1
141
0.0
294
     1
177
     0
142
1.0
295
     0
296
     1
143
3.75
1001
ACAD_MLEADERVER
1070
     2
  0
MLEADERSTYLE
  5
12E
102
{ACAD_REACTORS
330
12D
102
}
330
12D
100
AcDbMLeaderStyle
170
     2
171
     1
172
     0
 90
        2
 40
0.0
 41
0.0
173
     1
 91
-1056964608
340
14
 92
       -2
290
     1
 42
2.0
291
     1
 43
8.0
  3
Standard
 44
4.0
300

342
11
174
     1
178
     1
175
     1
176
     0
 93
-1056964608
 45
4.0
292
     0
297
     0
 46
4.0
 94
-1056964608
 47
1.0
 49
1.0
140
1.0
293
     1
141
0.0
294
     1
177
     0
142
1.0
295
     0
296
     0
143
3.75
1001
ACAD_MLEADERVER
1070
     2
  0
MLINESTYLE
  5
18
102
{ACAD_REACTORS
330
17
102
}
330
17
100
AcDbMlineStyle
  2
STANDARD
 70
     0
  3

 62
   256
 51
90.0
 52
90.0
 71
     2
 49
0.5
 62
   256
  6
BYLAYER
 49
-0.5
 62
   256
  6
BYLAYER
  0
ACDBPLACEHOLDER
  5
F
102
{ACAD_REACTORS
330
E
102
}
330
E
  0
SCALE
  5
10D
102
{ACAD_REACTORS
330
10C
102
}
330
10C
100
AcDbScale
 70
     0
300
1:1
140
1.0
141
1.0
290
     1
  0
SCALE
  5
1BE
102
{ACAD_REACTORS
330
10C
102
}
330
10C
100
AcDbScale
 70
     0
300
1:2
140
1.0
141
2.0
290
     0
  0
SCALE
  5
1BF
102
{ACAD_REACTORS
330
10C
102
}
330
10C
100
AcDbScale
 70
     0
300
1:4
140
1.0
141
4.0
290
     0
  0
SCALE
  5
1C0
102
{ACAD_REACTORS
330
10C
102
}
330
10C
100
AcDbScale
 70
     0
300
1:5
140
1.0
141
5.0
290
     0
  0
SCALE
  5
1C1
102
{ACAD_REACTORS
330
10C
102
}
330
10C
100
AcDbScale
 70
     0
300
1:8
140
1.0
141
8.0
290
     0
  0
SCALE
  5
1C2
102
{ACAD_REACTORS
330
10C
102
}
330
10C
100
AcDbScale
 70
     0
300
1:10
140
1.0
141
10.0
290
     0
  0
SCALE
  5
1C3
102
{ACAD_REACTORS
330
10C
102
}
330
10C
100
AcDbScale
 70
     0
300
1:16
140
1.0
141
16.0
290
     0
  0
SCALE
  5
1C4
102
{ACAD_REACTORS
330
10C
102
}
330
10C
100
AcDbScale
 70
     0
300
1:20
140
1.0
141
20.0
290
     0
  0
SCALE
  5
1C5
102
{ACAD_REACTORS
330
10C
102
}
330
10C
100
AcDbScale
 70
     0
300
1:30
140
1.0
141
30.0
290
     0
  0
SCALE
  5
1C6
102
{ACAD_REACTORS
330
10C
102
}
330
10C
100
AcDbScale
 70
     0
300
1:40
140
1.0
141
40.0
290
     0
  0
SCALE
  5
1C7
102
{ACAD_REACTORS
330
10C
102
}
330
10C
100
AcDbScale
 70
     0
300
1:50
140
1.0
141
50.0
290
     0
  0
SCALE
  5
1C8
102
{ACAD_REACTORS
330
10C
102
}
330
10C
100
AcDbScale
 70
     0
300
1:100
140
1.0
141
100.0
290
     0
  0
SCALE
  5
1C9
102
{ACAD_REACTORS
330
10C
102
}
330
10C
100
AcDbScale
 70
     0
300
2:1
140
2.0
141
1.0
290
     0
  0
SCALE
  5
1CA
102
{ACAD_REACTORS
330
10C
102
}
330
10C
100
AcDbScale
 70
     0
300
4:1
140
4.0
141
1.0
290
     0
  0
SCALE
  5
1CB
102
{ACAD_REACTORS
330
10C
102
}
330
10C
100
AcDbScale
 70
     0
300
8:1
140
8.0
141
1.0
290
     0
  0
SCALE
  5
1CC
102
{ACAD_REACTORS
330
10C
102
}
330
10C
100
AcDbScale
 70
     0
300
10:1
140
10.0
141
1.0
290
     0
  0
SCALE
  5
1CD
102
{ACAD_REACTORS
330
10C
102
}
330
10C
100
AcDbScale
 70
     0
300
100:1
140
100.0
141
1.0
290
     0
  0
TABLESTYLE
  5
7F
102
{ACAD_XDICTIONARY
360
162
102
}
102
{ACAD_REACTORS
330
7E
102
}
330
7E
100
AcDbTableStyle
  3
Standard
 70
     0
 71
     0
 40
1.5
 41
1.5
280
     0
281
     0
  7
Standard
140
4.5
170
     2
 62
     0
 63
     7
283
     0
 90
      512
 91
        0
  1

274
    -2
284
     1
 64
     0
275
    -2
285
     1
 65
     0
276
    -2
286
     1
 66
     0
277
    -2
287
     1
 67
     0
278
    -2
288
     1
 68
     0
279
    -2
289
     1
 69
     0
  7
Standard
140
6.0
170
     5
 62
     0
 63
     7
283
     0
 90
      512
 91
        0
  1

274
    -2
284
     1
 64
     0
275
    -2
285
     1
 65
     0
276
    -2
286
     1
 66
     0
277
    -2
287
     1
 67
     0
278
    -2
288
     1
 68
     0
279
    -2
289
     1
 69
     0
  7
Standard
140
4.5
170
     5
 62
     0
 63
     7
283
     0
 90
      512
 91
        0
  1

274
    -2
284
     1
 64
     0
275
    -2
285
     1
 65
     0
276
    -2
286
     1
 66
     0
277
    -2
287
     1
 67
     0
278
    -2
288
     1
 68
     0
279
    -2
289
     1
 69
     0
  0
VISUALSTYLE
  5
F5
102
{ACAD_REACTORS
330
EF
102
}
330
EF
100
AcDbVisualStyle
  2
2dWireframe
 70
     4
 71
     0
 72
     2
 73
     1
 90
        0
 40
-0.6
 41
-30.0
 62
     5
 63
     7
421
 16777215
 74
     1
 91
        4
 64
     7
 65
   257
 75
     1
175
     1
 42
1.0
 92
        0
 66
   257
 43
1.0
 76
     1
 77
     6
 78
     2
 67
     7
 79
     5
170
     0
171
     0
290
     0
174
     0
 93
        1
 44
0.0
173
     0
291
     0
 45
0.0
  0
VISUALSTYLE
  5
F7
102
{ACAD_REACTORS
330
EF
102
}
330
EF
100
AcDbVisualStyle
  2
3D Hidden
 70
     6
 71
     1
 72
     2
 73
     2
 90
        0
 40
-0.6
 41
-30.0
 62
     5
 63
     7
421
 16777215
 74
     2
 91
        2
 64
     7
 65
   257
 75
     2
175
     1
 42
40.0
 92
        0
 66
   257
 43
1.0
 76
     1
 77
     6
 78
     2
 67
     7
 79
     3
170
     0
171
     0
290
     0
174
     0
 93
        1
 44
0.0
173
     0
291
     0
 45
0.0
  0
VISUALSTYLE
  5
F6
102
{ACAD_REACTORS
330
EF
102
}
330
EF
100
AcDbVisualStyle
  2
3dWireframe
 70
     5
 71
     0
 72
     2
 73
     1
 90
        0
 40
-0.6
 41
-30.0
 62
     5
 63
     7
421
 16777215
 74
     1
 91
        4
 64
     7
 65
   257
 75
     1
175
     1
 42
1.0
 92
        0
 66
   257
 43
1.0
 76
     1
 77
     6
 78
     2
 67
     7
 79
     5
170
     0
171
     0
290
     0
174
     0
 93
        1
 44
0.0
173
     0
291
     0
 45
0.0
  0
VISUALSTYLE
  5
F4
102
{ACAD_REACTORS
330
EF
102
}
330
EF
100
AcDbVisualStyle
  2
Basic
 70
     7
 71
     1
 72
     0
 73
     1
 90
        0
 40
-0.6
 41
-30.0
 62
     5
 63
     7
421
 16777215
 74
     0
 91
        4
 64
     7
 65
   257
 75
     1
175
     1
 42
1.0
 92
        8
 66
     7
 43
1.0
 76
     1
 77
     6
 78
     2
 67
     7
 79
     5
170
     0
171
     0
290
     0
174
     0
 93
        1
 44
0.0
173
     0
291
     1
 45
0.0
  0
VISUALSTYLE
  5
FB
102
{ACAD_REACTORS
330
EF
102
}
330
EF
100
AcDbVisualStyle
  2
Brighten
 70
    12
 71
     2
 72
     2
 73
     1
 90
        0
 40
-0.6
 41
-30.0
 62
     5
 63
     7
421
 16777215
 74
     1
 91
        4
 64
     7
 65
   257
 75
     1
175
     1
 42
1.0
 92
        8
 66
     7
 43
1.0
 76
     1
 77
     6
 78
     2
 67
     7
 79
     5
170
     0
171
     0
290
     0
174
     0
 93
        1
 44
50.0
173
     0
291
     1
 45
0.0
  0
VISUALSTYLE
  5
FF
102
{ACAD_REACTORS
330
EF
102
}
330
EF
100
AcDbVisualStyle
  2
ColorChange
 70
    16
 71
     2
 72
     2
 73
     3
 90
        0
 40
-0.6
 41
-30.0
 62
     5
 63
     8
421
  8421504
 74
     1
 91
        4
 64
     7
 65
   257
 75
     1
175
     1
 42
1.0
 92
        8
 66
     8
424
  8421504
 43
1.0
 76
     1
 77
     6
 78
     2
 67
     7
 79
     5
170
     0
171
     0
290
     0
174
     0
 93
        1
 44
0.0
173
     0
291
     1
 45
0.0
  0
VISUALSTYLE
  5
F8
102
{ACAD_REACTORS
330
EF
102
}
330
EF
100
AcDbVisualStyle
  2
Conceptual
 70
     9
 71
     3
 72
     2
 73
     1
 90
        0
 40
-0.6
 41
-30.0
 62
     5
 63
     7
421
 16777215
 74
     2
 91
        2
 64
     7
 65
   257
 75
     1
175
     1
 42
40.0
 92
        8
 66
     7
 43
1.0
 76
     1
 77
     6
 78
     2
 67
     7
 79
     3
170
     0
171
     0
290
     0
174
     0
 93
        1
 44
0.0
173
     0
291
     0
 45
0.0
  0
VISUALSTYLE
  5
FA
102
{ACAD_REACTORS
330
EF
102
}
330
EF
100
AcDbVisualStyle
  2
Dim
 70
    11
 71
     2
 72
     2
 73
     1
 90
        0
 40
-0.6
 41
-30.0
 62
     5
 63
     7
421
 16777215
 74
     1
 91
        4
 64
     7
 65
   257
 75
     1
175
     1
 42
1.0
 92
        8
 66
     7
 43
1.0
 76
     1
 77
     6
 78
     2
 67
     7
 79
     5
170
     0
171
     0
290
     0
174
     0
 93
        1
 44
-50.0
173
     0
291
     1
 45
0.0
  0
VISUALSTYLE
  5
FE
102
{ACAD_REACTORS
330
EF
102
}
330
EF
100
AcDbVisualStyle
  2
Facepattern
 70
    15
 71
     2
 72
     2
 73
     1
 90
        0
 40
-0.6
 41
-30.0
 62
     5
 63
     7
421
 16777215
 74
     1
 91
        4
 64
     7
 65
   257
 75
     1
175
     1
 42
1.0
 92
        8
 66
     7
 43
1.0
 76
     1
 77
     6
 78
     2
 67
     7
 79
     5
170
     0
171
     0
290
     0
174
     0
 93
        1
 44
0.0
173
     0
291
     1
 45
0.0
  0
VISUALSTYLE
  5
F0
102
{ACAD_REACTORS
330
EF
102
}
330
EF
100
AcDbVisualStyle
  2
Flat
 70
     0
 71
     2
 72
     1
 73
     1
 90
        2
 40
-0.6
 41
30.0
 62
     5
 63
     7
421
 16777215
 74
     0
 91
        4
 64
     7
 65
   257
 75
     1
175
     1
 42
1.0
 92
        8
 66
     7
 43
1.0
 76
     1
 77
     6
 78
     2
 67
     7
 79
     5
170
     0
171
     0
290
     0
174
     0
 93
        1
 44
0.0
173
     0
291
     1
 45
0.0
  0
VISUALSTYLE
  5
F1
102
{ACAD_REACTORS
330
EF
102
}
330
EF
100
AcDbVisualStyle
  2
FlatWithEdges
 70
     1
 71
     2
 72
     1
 73
     1
 90
        2
 40
-0.6
 41
30.0
 62
     5
 63
     7
421
 16777215
 74
     1
 91
        4
 64
     7
 65
   257
 75
     1
175
     1
 42
1.0
 92
        0
 66
   257
 43
1.0
 76
     1
 77
     6
 78
     2
 67
     7
 79
     5
170
     0
171
     0
290
     0
174
     0
 93
        1
 44
0.0
173
     0
291
     1
 45
0.0
  0
VISUALSTYLE
  5
F2
102
{ACAD_REACTORS
330
EF
102
}
330
EF
100
AcDbVisualStyle
  2
Gouraud
 70
     2
 71
     2
 72
     2
 73
     1
 90
        2
 40
-0.6
 41
30.0
 62
     5
 63
     7
421
 16777215
 74
     0
 91
        4
 64
     7
 65
   257
 75
     1
175
     1
 42
1.0
 92
        0
 66
     7
 43
1.0
 76
     1
 77
     6
 78
     2
 67
     7
 79
     5
170
     0
171
     0
290
     0
174
     0
 93
        1
 44
0.0
173
     0
291
     1
 45
0.0
  0
VISUALSTYLE
  5
F3
102
{ACAD_REACTORS
330
EF
102
}
330
EF
100
AcDbVisualStyle
  2
GouraudWithEdges
 70
     3
 71
     2
 72
     2
 73
     1
 90
        2
 40
-0.6
 41
30.0
 62
     5
 63
     7
421
 16777215
 74
     1
 91
        4
 64
     7
 65
   257
 75
     1
175
     1
 42
1.0
 92
        0
 66
   257
 43
1.0
 76
     1
 77
     6
 78
     2
 67
     7
 79
     5
170
     0
171
     0
290
     0
174
     0
 93
        1
 44
0.0
173
     0
291
     1
 45
0.0
  0
VISUALSTYLE
  5
FD
102
{ACAD_REACTORS
330
EF
102
}
330
EF
100
AcDbVisualStyle
  2
Linepattern
 70
    14
 71
     2
 72
     2
 73
     1
 90
        0
 40
-0.6
 41
-30.0
 62
     5
 63
     7
421
 16777215
 74
     1
 91
        4
 64
     7
 65
   257
 75
     7
175
     7
 42
1.0
 92
        8
 66
     7
 43
1.0
 76
     1
 77
     6
 78
     2
 67
     7
 79
     5
170
     0
171
     0
290
     0
174
     0
 93
        1
 44
0.0
173
     0
291
     1
 45
0.0
  0
VISUALSTYLE
  5
F9
102
{ACAD_REACTORS
330
EF
102
}
330
EF
100
AcDbVisualStyle
  2
Realistic
 70
     8
 71
     2
 72
     2
 73
     1
 90
        0
 40
-0.6
 41
-30.0
 62
     5
 63
     7
421
 16777215
 74
     1
 91
        0
 64
     7
 65
   257
 75
     1
175
     1
 42
1.0
 92
        8
 66
     8
424
  7895160
 43
1.0
 76
     1
 77
     6
 78
     2
 67
     7
 79
     5
170
     0
171
     0
290
     0
174
     0
 93
       13
 44
0.0
173
     0
291
     0
 45
0.0
  0
VISUALSTYLE
  5
FC
102
{ACAD_REACTORS
330
EF
102
}
330
EF
100
AcDbVisualStyle
  2
Thicken
 70
    13
 71
     2
 72
     2
 73
     1
 90
        0
 40
-0.6
 41
-30.0
 62
     5
 63
     7
421
 16777215
 74
     1
 91
        4
 64
     7
 65
   257
 75
     1
175
     1
 42
1.0
 92
       12
 66
     7
 43
1.0
 76
     1
 77
     6
 78
     2
 67
     7
 79
     5
170
     0
171
     0
290
     0
174
     0
 93
        1
 44
0.0
173
     0
291
     1
 45
0.0
  0
DICTIONARYVAR
  5
146
102
{ACAD_REACTORS
330
5E
102
}
330
5E
100
DictionaryVariables
280
     0
  1
1:1
  0
DICTIONARYVAR
  5
145
102
{ACAD_REACTORS
330
5E
102
}
330
5E
100
DictionaryVariables
280
     0
  1
STANDARD
  0
DICTIONARYVAR
  5
84
102
{ACAD_REACTORS
330
5E
102
}
330
5E
100
DictionaryVariables
280
     0
  1
STANDARD
  0
DICTIONARYVAR
  5
5F
102
{ACAD_REACTORS
330
5E
102
}
330
5E
100
DictionaryVariables
280
     0
  1
2
  0
DICTIONARYVAR
  5
63
102
{ACAD_REACTORS
330
5E
102
}
330
5E
100
DictionaryVariables
280
     0
  1
1
  0
DICTIONARYVAR
  5
1AE
102
{ACAD_REACTORS
330
5E
102
}
330
5E
100
DictionaryVariables
280
     0
  1
0
  0
DICTIONARYVAR
  5
1AF
102
{ACAD_REACTORS
330
5E
102
}
330
5E
100
DictionaryVariables
280
     0
  1
0
  0
DICTIONARY
  5
173
330
EE
100
AcDbDictionary
280
     1
281
     1
  3
BUMPTILE
360
175
  3
DIFFUSETILE
360
174
  3
OPACITYTILE
360
176
  3
REFLECTIONTILE
360
177
  0
DICTIONARY
  5
162
330
7F
100
AcDbDictionary
280
     1
281
     1
  3
ACAD_ROUNDTRIP_2008_TABLESTYLE_CELLSTYLEMAP
360
C11
  0
XRECORD
  5
175
102
{ACAD_REACTORS
330
173
102
}
330
173
100
AcDbXrecord
280
     1
270
     1
271
     1
  0
XRECORD
  5
174
102
{ACAD_REACTORS
330
173
102
}
330
173
100
AcDbXrecord
280
     1
270
     1
271
     1
  0
XRECORD
  5
176
102
{ACAD_REACTORS
330
173
102
}
330
173
100
AcDbXrecord
280
     1
270
     1
271
     1
  0
XRECORD
  5
177
102
{ACAD_REACTORS
330
173
102
}
330
173
100
AcDbXrecord
280
     1
270
     1
271
     1
  0
CELLSTYLEMAP
  5
C11
102
{ACAD_REACTORS
330
162
102
}
330
162
100
AcDbCellStyleMap
 90
        3
300
CELLSTYLE
  1
TABLEFORMAT_BEGIN
 90
        5
170
     1
 91
        0
 92
    32768
 62
   257
 93
        1
300
CONTENTFORMAT
  1
CONTENTFORMAT_BEGIN
 90
        0
 91
        0
 92
      512
 93
        0
300

 40
0.0
140
1.0
 94
        5
 62
     0
340
11
144
6.0
309
CONTENTFORMAT_END
171
     1
301
MARGIN
  1
CELLMARGIN_BEGIN
 40
1.5
 40
1.5
 40
1.5
 40
1.5
 40
0.18
 40
0.18
309
CELLMARGIN_END
 94
        6
 95
        1
302
GRIDFORMAT
  1
GRIDFORMAT_BEGIN
 90
        0
 91
        1
 62
     0
 92
       -2
340
14
 93
        0
 40
1.125
309
GRIDFORMAT_END
 95
        2
302
GRIDFORMAT
  1
GRIDFORMAT_BEGIN
 90
        0
 91
        1
 62
     0
 92
       -2
340
14
 93
        0
 40
1.125
309
GRIDFORMAT_END
 95
        4
302
GRIDFORMAT
  1
GRIDFORMAT_BEGIN
 90
        0
 91
        1
 62
     0
 92
       -2
340
14
 93
        0
 40
1.125
309
GRIDFORMAT_END
 95
        8
302
GRIDFORMAT
  1
GRIDFORMAT_BEGIN
 90
        0
 91
        1
 62
     0
 92
       -2
340
14
 93
        0
 40
1.125
309
GRIDFORMAT_END
 95
       16
302
GRIDFORMAT
  1
GRIDFORMAT_BEGIN
 90
        0
 91
        1
 62
     0
 92
       -2
340
14
 93
        0
 40
1.125
309
GRIDFORMAT_END
 95
       32
302
GRIDFORMAT
  1
GRIDFORMAT_BEGIN
 90
        0
 91
        1
 62
     0
 92
       -2
340
14
 93
        0
 40
1.125
309
GRIDFORMAT_END
309
TABLEFORMAT_END
  1
CELLSTYLE_BEGIN
 90
        1
 91
        1
300
_TITLE
309
CELLSTYLE_END
300
CELLSTYLE
  1
TABLEFORMAT_BEGIN
 90
        5
170
     1
 91
        0
 92
        0
 62
   257
 93
        1
300
CONTENTFORMAT
  1
CONTENTFORMAT_BEGIN
 90
        0
 91
        0
 92
      512
 93
        0
300

 40
0.0
140
1.0
 94
        5
 62
     0
340
11
144
4.5
309
CONTENTFORMAT_END
171
     1
301
MARGIN
  1
CELLMARGIN_BEGIN
 40
1.5
 40
1.5
 40
1.5
 40
1.5
 40
0.18
 40
0.18
309
CELLMARGIN_END
 94
        6
 95
        1
302
GRIDFORMAT
  1
GRIDFORMAT_BEGIN
 90
        0
 91
        1
 62
     0
 92
       -2
340
14
 93
        0
 40
1.125
309
GRIDFORMAT_END
 95
        2
302
GRIDFORMAT
  1
GRIDFORMAT_BEGIN
 90
        0
 91
        1
 62
     0
 92
       -2
340
14
 93
        0
 40
1.125
309
GRIDFORMAT_END
 95
        4
302
GRIDFORMAT
  1
GRIDFORMAT_BEGIN
 90
        0
 91
        1
 62
     0
 92
       -2
340
14
 93
        0
 40
1.125
309
GRIDFORMAT_END
 95
        8
302
GRIDFORMAT
  1
GRIDFORMAT_BEGIN
 90
        0
 91
        1
 62
     0
 92
       -2
340
14
 93
        0
 40
1.125
309
GRIDFORMAT_END
 95
       16
302
GRIDFORMAT
  1
GRIDFORMAT_BEGIN
 90
        0
 91
        1
 62
     0
 92
       -2
340
14
 93
        0
 40
1.125
309
GRIDFORMAT_END
 95
       32
302
GRIDFORMAT
  1
GRIDFORMAT_BEGIN
 90
        0
 91
        1
 62
     0
 92
       -2
340
14
 93
        0
 40
1.125
309
GRIDFORMAT_END
309
TABLEFORMAT_END
  1
CELLSTYLE_BEGIN
 90
        2
 91
        1
300
_HEADER
309
CELLSTYLE_END
300
CELLSTYLE
  1
TABLEFORMAT_BEGIN
 90
        5
170
     1
 91
        0
 92
        0
 62
   257
 93
        1
300
CONTENTFORMAT
  1
CONTENTFORMAT_BEGIN
 90
        0
 91
        0
 92
      512
 93
        0
300

 40
0.0
140
1.0
 94
        2
 62
     0
340
11
144
4.5
309
CONTENTFORMAT_END
171
     1
301
MARGIN
  1
CELLMARGIN_BEGIN
 40
1.5
 40
1.5
 40
1.5
 40
1.5
 40
0.18
 40
0.18
309
CELLMARGIN_END
 94
        6
 95
        1
302
GRIDFORMAT
  1
GRIDFORMAT_BEGIN
 90
        0
 91
        1
 62
     0
 92
       -2
340
14
 93
        0
 40
1.125
309
GRIDFORMAT_END
 95
        2
302
GRIDFORMAT
  1
GRIDFORMAT_BEGIN
 90
        0
 91
        1
 62
     0
 92
       -2
340
14
 93
        0
 40
1.125
309
GRIDFORMAT_END
 95
        4
302
GRIDFORMAT
  1
GRIDFORMAT_BEGIN
 90
        0
 91
        1
 62
     0
 92
       -2
340
14
 93
        0
 40
1.125
309
GRIDFORMAT_END
 95
        8
302
GRIDFORMAT
  1
GRIDFORMAT_BEGIN
 90
        0
 91
        1
 62
     0
 92
       -2
340
14
 93
        0
 40
1.125
309
GRIDFORMAT_END
 95
       16
302
GRIDFORMAT
  1
GRIDFORMAT_BEGIN
 90
        0
 91
        1
 62
     0
 92
       -2
340
14
 93
        0
 40
1.125
309
GRIDFORMAT_END
 95
       32
302
GRIDFORMAT
  1
GRIDFORMAT_BEGIN
 90
        0
 91
        1
 62
     0
 92
       -2
340
14
 93
        0
 40
1.125
309
GRIDFORMAT_END
309
TABLEFORMAT_END
  1
CELLSTYLE_BEGIN
 90
        3
 91
        2
300
_DATA
309
CELLSTYLE_END
  0
ENDSEC
  0
EOF
